osu file format v14

[General]
AudioFilename: audio.mp3
AudioLeadIn: 0
PreviewTime: 68197
Countdown: 0
SampleSet: Soft
StackLeniency: 0.7
Mode: 3
LetterboxInBreaks: 0
SpecialStyle: 0
WidescreenStoryboard: 0

[Editor]
DistanceSpacing: 0.7
BeatDivisor: 4
GridSize: 8
TimelineZoom: 1.499999

[Metadata]
Title:Masshiro na Yuki
TitleUnicode:まっしろな雪
Artist:Halozy
ArtistUnicode:Halozy
Creator:Schopfer
Version:Lunatic Love
Source:東方花映塚 ~ Phantasmagoria of Flower View.
Tags:FAMoss Touhou Project 東方Project Marathon sumijun すみじゅん Amorevole 水瀬ましろ Minase Mashiro Higan Retour 彼岸帰航 ~ Riverside Eastern Flower Viewing Mound Komachi Onozuka 東方幻奏響uroboros弐 ~fAIRYtAILoVERdRIVE~ Toho Arrange Album Bayside Beat TOUHOU☆MASHIBUM Comiket89 c89 zun video game japanese HLZY-0023 コミックマーケット89 コミケ89 Pure White Snow 東方花映塚 doujin indie album trance house glitch Touhou Gensoukyou UROBOROS2 ~fAIRYtAILoVERdRIVE~ TORA-00111 electronic vocal remix TORA-00113 Jun Sumitomo 住友順 ricono 山本 梨乃 Rino Yamamoto marathon Comic Market 89 ln long notes Team Shangai Alice 太田 順也 Junya Ota
BeatmapID:2970979
BeatmapSetID:1444301

[Difficulty]
HPDrainRate:8.4
CircleSize:7
OverallDifficulty:7.4
ApproachRate:5
SliderMultiplier:1.4
SliderTickRate:1

[Events]
//Background and Video events
0,0,"background.jpg",0,0
//Break Periods
//Storyboard Layer 0 (Background)
//Storyboard Layer 1 (Fail)
//Storyboard Layer 2 (Pass)
//Storyboard Layer 3 (Foreground)
//Storyboard Layer 4 (Overlay)
//Storyboard Sound Samples

[TimingPoints]
962,352.941176470588,4,2,1,70,1,0
23550,-100,4,2,1,70,0,1
44726,-100,4,2,1,70,0,0
68726,-100,4,2,1,70,0,1
89903,-100,4,2,1,70,0,0
91314,-100,4,2,1,70,0,1
113903,-100,4,2,1,70,0,0
159079,-100,4,2,1,70,0,1
180256,-100,4,2,1,70,0,0
181667,-100,4,2,1,70,0,1
204256,-100,4,2,1,70,0,0
249432,-100,4,2,1,70,0,1
270609,-100,4,2,1,70,0,0
272020,-100,4,2,1,70,0,1
294609,-100,4,2,1,70,0,0

[HitObjects]
256,192,961,128,0,1491:0:0:0:100:A5S_s.wav
109,192,1491,128,0,1844:0:0:0:100:G5S_s.wav
402,192,1844,128,0,2020:0:0:0:100:C6S_s.wav
329,192,2373,128,0,2903:0:0:0:100:A5S_s.wav
256,192,2903,128,0,3256:0:0:0:100:G5S_s.wav
182,192,3256,128,0,3432:0:0:0:100:F5S_s.wav
109,192,4138,128,4,4314:0:0:0:100:E5S_s.wav
256,192,4314,128,0,4491:0:0:0:100:F5S_s.wav
402,192,4491,128,0,4844:0:0:0:100:G5S_s.wav
329,192,4844,128,0,5197:0:0:0:100:F5S_s.wav
256,192,5197,128,4,5726:0:0:0:100:E5S_s.wav
36,192,5726,128,0,6079:0:0:0:100:C5S_s.wav
109,192,6079,128,0,6256:0:0:0:100:D5S_s.wav
256,192,6609,128,0,7138:0:0:0:100:A5S_s.wav
109,192,7138,128,0,7491:0:0:0:100:G5S_s.wav
402,192,7491,128,0,7667:0:0:0:100:C6S_s.wav
36,192,8020,128,0,8550:0:0:0:100:A5S_s.wav
256,192,8550,128,8,8903:0:0:0:100:D6S_s.wav
402,192,8903,128,0,9079:0:0:0:100:E6S_s.wav
475,192,9432,128,0,9785:0:0:0:100:F6S_s.wav
402,192,9785,128,0,9961:0:0:0:100:E6S_s.wav
329,192,9961,128,8,10138:0:0:0:100:D6S_s.wav
109,192,10314,128,8,10491:0:0:0:100:C6S_s.wav
329,192,10667,128,8,11020:0:0:0:100:D6S_s.wav
182,192,11197,128,0,11373:0:0:0:100:A5S_s.wav
109,192,11373,128,0,11550:0:0:0:100:G5S_s.wav
36,192,11550,128,0,11726:0:0:0:100:F5S_s.wav
329,192,11903,128,0,12256:0:0:0:100:G5S_s.wav
256,192,12256,1,0,0:0:0:0:
182,192,12256,1,0,0:0:0:0:
36,192,12256,1,0,0:0:0:70:LR4_BassKickReverbXD.wav
475,192,12256,1,0,0:0:0:50:HK_Kick01.wav
402,192,12256,1,0,0:0:0:70:LR3_Snare FCSRL.wav
109,192,12432,1,0,0:0:0:0:
402,192,12432,1,0,0:0:0:50:LR3_Snare RSH.wav
256,192,12520,1,0,0:0:0:0:
36,192,12609,1,0,0:0:0:0:
329,192,12609,1,0,0:0:0:0:
475,192,12609,1,0,0:0:0:50:LR3_Snare RSH.wav
182,192,12785,1,0,0:0:0:0:
402,192,12785,1,0,0:0:0:50:LR3_Snare RSH.wav
109,192,12873,1,0,0:0:0:0:
475,192,12961,1,0,0:0:0:0:
256,192,12961,1,0,0:0:0:50:LR3_Snare RSH.wav
182,192,13050,1,0,0:0:0:0:
36,192,13138,1,0,0:0:0:0:
402,192,13138,1,0,0:0:0:50:LR3_Snare RSH.wav
329,192,13226,1,0,0:0:0:0:
475,192,13314,1,0,0:0:0:0:
109,192,13314,1,0,0:0:0:0:
256,192,13314,1,0,0:0:0:50:LR3_Snare RSH.wav
36,192,13491,1,0,0:0:0:0:
329,192,13491,1,0,0:0:0:50:LR3_Snare RSH.wav
182,192,13579,1,0,0:0:0:0:
256,192,13667,1,0,0:0:0:0:
475,192,13667,1,0,0:0:0:50:LR3_Snare RSH.wav
329,192,13844,1,0,0:0:0:0:
182,192,13844,1,0,0:0:0:50:LR3_Snare RSH.wav
256,192,14020,1,0,0:0:0:0:
36,192,14020,1,0,0:0:0:0:
475,192,14020,1,0,0:0:0:50:LR3_Snare RSH.wav
109,192,14197,1,0,0:0:0:0:
329,192,14197,1,0,0:0:0:50:LR3_Snare RSH.wav
402,192,14285,1,0,0:0:0:0:
36,192,14373,1,0,0:0:0:0:
256,192,14373,1,0,0:0:0:50:LR3_Snare RSH.wav
329,192,14461,1,0,0:0:0:0:
475,192,14550,1,0,0:0:0:0:
109,192,14550,1,0,0:0:0:50:LR3_Snare RSH.wav
182,192,14638,1,0,0:0:0:0:
256,192,14726,1,0,0:0:0:0:
402,192,14726,1,0,0:0:0:0:
36,192,14726,1,0,0:0:0:50:LR3_Snare RSH.wav
329,192,14903,1,0,0:0:0:0:
475,192,14903,1,0,0:0:0:50:LR3_Snare RSH.wav
182,192,14991,1,0,0:0:0:0:
36,192,15079,1,0,0:0:0:0:
329,192,15079,1,0,0:0:0:60:LR3_Snare RSH.wav
109,192,15256,1,0,0:0:0:0:
402,192,15256,1,0,0:0:0:60:LR3_Snare RSH.wav
475,192,15432,1,0,0:0:0:0:
256,192,15432,1,0,0:0:0:0:
36,192,15432,1,0,0:0:0:60:LR3_Snare RSH.wav
329,192,15609,1,0,0:0:0:0:
109,192,15609,1,0,0:0:0:60:LR3_Snare RSH.wav
182,192,15697,1,0,0:0:0:0:
36,192,15785,1,0,0:0:0:0:
402,192,15785,1,0,0:0:0:60:LR3_Snare RSH.wav
329,192,15873,1,0,0:0:0:0:
475,192,15961,1,0,0:0:0:0:
182,192,15961,1,0,0:0:0:60:LR3_Snare RSH.wav
256,192,16050,1,0,0:0:0:0:
402,192,16138,1,0,0:0:0:0:
329,192,16138,1,0,0:0:0:0:
109,192,16138,1,0,0:0:0:60:LR3_Snare RSH.wav
182,192,16314,1,0,0:0:0:0:
36,192,16314,1,0,0:0:0:60:LR3_Snare RSH.wav
329,192,16403,1,0,0:0:0:0:
475,192,16491,1,0,0:0:0:0:
182,192,16491,1,0,0:0:0:70:LR3_Snare RSH.wav
402,192,16667,1,0,0:0:0:0:
109,192,16667,1,0,0:0:0:70:LR3_Snare RSH.wav
36,192,16844,1,0,0:0:0:0:
475,192,16844,1,0,0:0:0:0:
256,192,16844,1,0,0:0:0:70:LR3_Snare RSH.wav
182,192,17020,1,0,0:0:0:0:
402,192,17020,1,0,0:0:0:70:LR3_Snare RSH.wav
329,192,17109,1,0,0:0:0:0:
475,192,17197,1,0,0:0:0:0:
109,192,17197,1,0,0:0:0:70:LR3_Snare RSH.wav
182,192,17285,1,0,0:0:0:0:
36,192,17373,1,0,0:0:0:0:
329,192,17373,1,0,0:0:0:70:LR3_Snare RSH.wav
256,192,17461,1,0,0:0:0:0:
109,192,17550,1,0,0:0:0:0:
402,192,17550,1,0,0:0:0:0:
182,192,17550,1,0,0:0:0:70:LR3_Snare RSH.wav
475,192,17726,1,0,0:0:0:0:
329,192,17726,1,0,0:0:0:70:LR3_Snare RSH.wav
256,192,17814,1,0,0:0:0:0:
182,192,17903,1,0,0:0:0:0:
36,192,17903,1,0,0:0:0:0:
402,192,17903,1,0,0:0:0:50:HK_Kick01.wav
329,192,17991,1,0,0:0:0:0:
402,192,18079,1,0,0:0:0:0:
182,192,18079,1,0,0:0:0:0:
36,192,18079,1,0,0:0:0:50:HK_Kick01.wav
256,192,18167,1,0,0:0:0:0:
182,192,18256,1,0,0:0:0:0:
475,192,18256,1,0,0:0:0:0:
402,192,18256,1,0,0:0:0:0:
36,192,18256,1,0,0:0:0:50:HK_Kick01.wav
329,192,18344,1,0,0:0:0:0:
36,192,18432,1,0,0:0:0:0:
182,192,18432,1,0,0:0:0:0:
402,192,18432,1,0,0:0:0:50:HK_Kick01.wav
256,192,18520,1,0,0:0:0:0:
329,192,18609,1,0,0:0:0:0:
475,192,18609,1,0,0:0:0:0:
109,192,18609,1,0,0:0:0:50:HK_Kick01.wav
182,192,18697,1,0,0:0:0:0:
109,192,18785,1,0,0:0:0:0:
329,192,18785,1,0,0:0:0:0:
475,192,18785,1,0,0:0:0:50:HK_Kick01.wav
256,192,18873,1,0,0:0:0:0:
475,192,18961,1,0,0:0:0:0:
36,192,18961,1,0,0:0:0:0:
109,192,18961,1,0,0:0:0:0:
329,192,18961,1,0,0:0:0:50:HK_Kick01.wav
182,192,19050,1,0,0:0:0:0:
109,192,19138,1,0,0:0:0:0:
475,192,19138,1,0,0:0:0:0:
329,192,19138,1,0,0:0:0:50:HK_Kick01.wav
256,192,19226,1,0,0:0:0:0:
329,192,19314,1,0,0:0:0:0:
36,192,19314,1,0,0:0:0:0:
475,192,19314,1,0,0:0:0:50:HK_Kick01.wav
182,192,19403,1,0,0:0:0:0:
402,192,19491,1,0,0:0:0:0:
256,192,19491,1,0,0:0:0:0:
36,192,19491,1,0,0:0:0:50:HK_Kick01.wav
182,192,19579,1,0,0:0:0:0:
36,192,19667,1,0,0:0:0:0:
109,192,19667,1,0,0:0:0:0:
475,192,19667,1,0,0:0:0:0:
329,192,19667,1,0,0:0:0:50:HK_Kick01.wav
182,192,19756,1,0,0:0:0:0:
36,192,19844,1,0,0:0:0:0:
402,192,19844,1,0,0:0:0:0:
256,192,19844,1,0,0:0:0:50:HK_Kick01.wav
329,192,19932,1,0,0:0:0:0:
182,192,20020,1,0,0:0:0:0:
36,192,20020,1,0,0:0:0:0:
475,192,20020,1,0,0:0:0:50:HK_Kick01.wav
329,192,20109,1,0,0:0:0:0:
475,192,20197,1,0,0:0:0:0:
109,192,20197,1,0,0:0:0:0:
256,192,20197,1,0,0:0:0:50:HK_Kick01.wav
329,192,20285,1,0,0:0:0:0:
182,192,20373,1,0,0:0:0:0:
36,192,20373,1,0,0:0:0:0:
475,192,20373,1,0,0:0:0:0:
402,192,20373,1,0,0:0:0:50:HK_Kick01.wav
329,192,20461,1,0,0:0:0:0:
109,192,20550,1,0,0:0:0:0:
475,192,20550,1,0,0:0:0:0:
256,192,20550,1,0,0:0:0:50:HK_Kick01.wav
329,192,20638,1,0,0:0:0:0:
36,192,20726,1,0,0:0:0:0:
475,192,20726,1,0,0:0:0:50:HK_Kick01.wav
109,192,20770,1,0,0:0:0:0:
182,192,20814,1,0,0:0:0:0:
402,192,20814,1,0,0:0:0:50:HK_Kick01.wav
256,192,20859,1,0,0:0:0:0:
36,192,20903,1,0,0:0:0:0:
329,192,20903,1,0,0:0:0:50:HK_Kick01.wav
109,192,20947,1,0,0:0:0:0:
475,192,20991,1,0,0:0:0:0:
182,192,20991,1,0,0:0:0:50:HK_Kick01.wav
402,192,21035,1,0,0:0:0:0:
36,192,21079,1,0,0:0:0:0:
329,192,21079,1,0,0:0:0:50:HK_Kick01.wav
256,192,21123,1,0,0:0:0:0:
182,192,21167,1,0,0:0:0:0:
475,192,21167,1,0,0:0:0:50:HK_Kick01.wav
109,192,21211,1,0,0:0:0:0:
36,192,21256,1,0,0:0:0:0:
329,192,21256,1,0,0:0:0:50:HK_Kick01.wav
402,192,21300,1,0,0:0:0:0:
475,192,21344,1,0,0:0:0:0:
182,192,21344,1,0,0:0:0:50:HK_Kick01.wav
256,192,21388,1,0,0:0:0:0:
36,192,21432,1,0,0:0:0:0:
329,192,21432,1,0,0:0:0:50:HK_Kick01.wav
109,192,21476,1,0,0:0:0:0:
475,192,21520,1,0,0:0:0:0:
182,192,21520,1,0,0:0:0:50:HK_Kick01.wav
402,192,21564,1,0,0:0:0:0:
329,192,21609,1,0,0:0:0:0:
36,192,21609,1,0,0:0:0:50:HK_Kick01.wav
256,192,21653,1,0,0:0:0:0:
182,192,21697,1,0,0:0:0:0:
475,192,21697,1,0,0:0:0:50:HK_Kick01.wav
109,192,21741,1,0,0:0:0:0:
329,192,21785,1,0,0:0:0:0:
36,192,21785,1,0,0:0:0:50:HK_Kick01.wav
402,192,21829,1,0,0:0:0:0:
475,192,21873,1,0,0:0:0:0:
182,192,21873,1,0,0:0:0:50:HK_Kick01.wav
256,192,21917,1,0,0:0:0:0:
36,192,21961,1,0,0:0:0:0:
329,192,21961,1,0,0:0:0:50:HK_Kick01.wav
109,192,22006,1,0,0:0:0:0:
475,192,22050,1,0,0:0:0:0:
182,192,22050,1,0,0:0:0:50:HK_Kick01.wav
402,192,22094,1,0,0:0:0:0:
36,192,22138,1,0,0:0:0:0:
329,192,22138,1,0,0:0:0:50:LR3_FX FGED.wav
256,192,22138,1,0,0:0:0:50:HK_Kick01.wav
109,192,22314,1,0,0:0:0:0:
329,192,22314,1,0,0:0:0:0:
182,192,22403,1,0,0:0:0:0:
402,192,22403,1,0,0:0:0:0:
36,192,22491,1,0,0:0:0:0:
475,192,22491,1,0,0:0:0:0:
256,192,22491,1,0,0:0:0:0:
36,192,22667,1,0,0:0:0:0:
182,192,22667,1,0,0:0:0:0:
329,192,22756,1,0,0:0:0:0:
475,192,22756,1,0,0:0:0:0:
109,192,22844,1,0,0:0:0:0:
182,192,22844,1,0,0:0:0:0:
402,192,22932,1,0,0:0:0:0:
329,192,22932,1,0,0:0:0:0:
36,192,23020,128,0,23197:0:0:0:0:
475,192,23020,1,0,0:0:0:0:
256,192,23020,1,0,0:0:0:50:HK_Kick01.wav
475,192,23197,128,0,23373:0:0:0:0:
182,192,23197,1,0,0:0:0:0:
329,192,23197,1,0,0:0:0:0:
109,192,23197,1,0,0:0:0:70:LR3_Snare RSH.wav
256,192,23373,128,0,23550:0:0:0:0:
475,192,23550,128,0,23726:0:0:0:0:
329,192,23550,1,0,0:0:0:0:
36,192,23550,1,0,0:0:0:0:
402,192,23550,128,0,23726:0:0:0:70:LR_CymbalQST.wav
109,192,23550,1,0,0:0:0:50:HK_Kick01.wav
109,192,23726,128,0,23903:0:0:0:0:
36,192,23726,128,0,23903:0:0:0:0:
182,192,23903,128,0,23991:0:0:0:0:
475,192,23903,128,0,23991:0:0:0:0:
256,192,23903,1,0,0:0:0:0:
402,192,23903,1,0,0:0:0:70:LR3_Snare DSW.wav
36,192,23991,128,0,24079:0:0:0:0:
329,192,23991,128,0,24079:0:0:0:0:
256,192,24079,128,0,24256:0:0:0:0:
109,192,24079,128,0,24256:0:0:0:0:
475,192,24256,128,0,24432:0:0:0:0:
329,192,24256,128,0,24432:0:0:0:0:
402,192,24432,1,0,0:0:0:0:
109,192,24432,128,0,24609:0:0:0:0:
182,192,24432,128,0,24609:0:0:0:50:HK_Kick01.wav
256,192,24609,1,0,0:0:0:0:
36,192,24609,1,0,0:0:0:0:
475,192,24609,128,0,24697:0:0:0:70:LR3_Snare DSW.wav
402,192,24653,128,0,24741:0:0:0:0:
329,192,24697,128,0,24785:0:0:0:0:
256,192,24741,128,0,24829:0:0:0:0:
182,192,24785,128,0,24961:0:0:0:0:
36,192,24785,128,0,24961:0:0:0:0:
329,192,24961,128,0,25138:0:0:0:0:
402,192,24961,128,0,25138:0:0:0:0:
475,192,24961,1,0,0:0:0:50:HK_Kick01.wav
256,192,25138,128,0,25226:0:0:0:0:
109,192,25138,128,0,25226:0:0:0:0:
182,192,25314,128,0,25403:0:0:0:0:
329,192,25314,128,0,25403:0:0:0:0:
475,192,25314,1,0,0:0:0:0:
36,192,25314,1,0,0:0:0:70:LR3_Snare DSW.wav
256,192,25491,128,0,25667:0:0:0:0:
109,192,25491,128,0,25667:0:0:0:0:
475,192,25667,128,0,25756:0:0:0:0:
402,192,25711,128,0,25800:0:0:0:0:
329,192,25756,128,0,25844:0:0:0:0:
256,192,25800,128,0,25888:0:0:0:0:
36,192,25844,128,0,25932:0:0:0:0:
475,192,25844,1,0,0:0:0:50:HK_Kick01.wav
109,192,25888,128,0,25976:0:0:0:0:
182,192,25932,128,0,26020:0:0:0:0:
256,192,25976,128,0,26064:0:0:0:0:
402,192,26020,1,0,0:0:0:0:
36,192,26020,1,0,0:0:0:0:
329,192,26020,128,0,26197:0:0:0:0:
475,192,26020,128,0,26197:0:0:0:70:LR3_Snare DSW.wav
36,192,26197,128,0,26373:0:0:0:0:
256,192,26197,128,0,26241:0:0:0:0:
182,192,26197,128,0,26285:0:0:0:0:
109,192,26197,128,0,26329:0:0:0:0:
475,192,26373,128,0,26550:0:0:0:0:
329,192,26373,1,0,0:0:0:0:
402,192,26373,128,0,26550:0:0:0:50:HK_Kick01.wav
256,192,26550,1,0,0:0:0:0:
109,192,26550,1,0,0:0:0:0:
36,192,26726,1,0,0:0:0:0:
402,192,26726,1,0,0:0:0:0:
182,192,26726,128,0,26814:0:0:0:0:
475,192,26726,1,0,0:0:0:70:LR3_Snare DSW.wav
256,192,26770,128,0,26859:0:0:0:0:
329,192,26814,128,0,26903:0:0:0:0:
475,192,26903,128,0,27079:0:0:0:0:
402,192,26903,128,0,27079:0:0:0:0:
36,192,27079,1,0,0:0:0:0:
109,192,27079,1,0,0:0:0:0:
36,192,27256,128,0,27344:0:0:0:0:
109,192,27256,128,0,27344:0:0:0:0:
329,192,27256,1,0,0:0:0:50:HK_Kick01.wav
256,192,27432,1,0,0:0:0:0:
182,192,27432,1,0,0:0:0:0:
475,192,27432,128,0,27609:0:0:0:0:
402,192,27432,128,0,27609:0:0:0:70:LR3_Snare DSW.wav
36,192,27609,1,0,0:0:0:0:
109,192,27609,1,0,0:0:0:0:
475,192,27785,128,0,27873:0:0:0:0:
329,192,27785,128,0,27873:0:0:0:0:
182,192,27785,1,0,0:0:0:50:HK_Kick01.wav
182,192,27961,128,0,28138:0:0:0:0:
36,192,27961,128,0,28138:0:0:0:0:
475,192,28138,1,0,0:0:0:0:
256,192,28138,128,0,28197:0:0:0:0:
109,192,28138,1,0,0:0:0:70:LR3_Snare DSW.wav
329,192,28197,128,0,28256:0:0:0:0:
402,192,28256,128,0,28314:0:0:0:0:
36,192,28314,128,0,28403:0:0:0:0:
109,192,28314,128,0,28403:0:0:0:0:
182,192,28403,128,0,28447:0:0:0:0:
256,192,28447,128,0,28491:0:0:0:0:
475,192,28491,128,0,28667:0:0:0:0:
329,192,28491,128,0,28667:0:0:0:0:
36,192,28667,1,0,0:0:0:0:
256,192,28667,128,0,28844:0:0:0:0:
109,192,28667,128,0,28844:0:0:0:50:HK_Kick01.wav
182,192,28844,128,0,29020:0:0:0:0:
402,192,28844,128,0,29020:0:0:0:0:
36,192,28844,1,0,0:0:0:0:
475,192,28844,1,0,0:0:0:70:LR3_Snare DSW.wav
256,192,29020,128,0,29197:0:0:0:0:
475,192,29020,128,0,29197:0:0:0:0:
109,192,29197,128,0,29373:0:0:0:0:
36,192,29197,128,0,29373:0:0:0:0:
182,192,29197,1,0,0:0:0:50:HK_Kick01.wav
402,192,29373,128,0,29550:0:0:0:0:
475,192,29373,128,0,29550:0:0:0:0:
36,192,29550,128,0,29638:0:0:0:0:
329,192,29550,128,0,29638:0:0:0:0:
256,192,29550,1,0,0:0:0:0:
109,192,29550,1,0,0:0:0:70:LR3_Snare DSW.wav
475,192,29638,128,0,29726:0:0:0:0:
182,192,29638,128,0,29726:0:0:0:0:
256,192,29726,128,0,29903:0:0:0:0:
402,192,29726,128,0,29903:0:0:0:0:
329,192,29903,128,0,30079:0:0:0:0:
182,192,29903,128,0,30079:0:0:0:0:
475,192,30079,1,0,0:0:0:0:
256,192,30079,128,0,30256:0:0:0:0:
109,192,30079,128,0,30256:0:0:0:50:HK_Kick01.wav
475,192,30256,128,0,30344:0:0:0:0:
36,192,30256,1,0,0:0:0:0:
182,192,30256,1,0,0:0:0:70:LR3_Snare DSW.wav
402,192,30300,128,0,30388:0:0:0:0:
329,192,30344,128,0,30432:0:0:0:0:
256,192,30388,128,0,30476:0:0:0:0:
36,192,30432,128,0,30609:0:0:0:0:
182,192,30432,128,0,30609:0:0:0:0:
329,192,30609,128,0,30785:0:0:0:0:
475,192,30609,128,0,30785:0:0:0:0:
402,192,30609,1,0,0:0:0:50:HK_Kick01.wav
109,192,30785,128,0,30873:0:0:0:0:
256,192,30785,128,0,30873:0:0:0:0:
475,192,30961,1,0,0:0:0:0:
36,192,30961,128,0,31050:0:0:0:0:
329,192,30961,1,0,0:0:0:0:
402,192,30961,1,0,0:0:0:70:LR3_Snare DSW.wav
109,192,31006,128,0,31094:0:0:0:0:
182,192,31050,128,0,31138:0:0:0:0:
256,192,31094,128,0,31182:0:0:0:0:
329,192,31138,128,0,31314:0:0:0:0:
475,192,31138,128,0,31314:0:0:0:0:
109,192,31314,1,0,0:0:0:0:
256,192,31314,1,0,0:0:0:0:
475,192,31491,128,0,31579:0:0:0:0:
36,192,31491,1,0,0:0:0:0:
182,192,31491,1,0,0:0:0:50:HK_Kick01.wav
402,192,31535,128,0,31623:0:0:0:0:
329,192,31579,128,0,31667:0:0:0:0:
256,192,31623,128,0,31711:0:0:0:0:
182,192,31667,128,0,31844:0:0:0:0:
109,192,31667,128,0,31844:0:0:0:0:
36,192,31667,1,0,0:0:0:0:
475,192,31667,1,0,0:0:0:70:LR3_Snare DSW.wav
256,192,31844,128,0,31888:0:0:0:0:
329,192,31844,128,0,31932:0:0:0:0:
402,192,31844,128,0,31976:0:0:0:0:
475,192,31844,128,0,32020:0:0:0:0:
109,192,32020,1,0,0:0:0:0:
36,192,32020,128,0,32197:0:0:0:0:
182,192,32020,128,0,32197:0:0:0:50:HK_Kick01.wav
256,192,32197,1,0,0:0:0:0:
402,192,32197,1,0,0:0:0:0:
109,192,32373,128,0,32461:0:0:0:0:
36,192,32373,1,0,0:0:0:0:
475,192,32373,1,0,0:0:0:0:
329,192,32373,1,0,0:0:0:70:LR3_Snare DSW.wav
182,192,32417,128,0,32506:0:0:0:0:
256,192,32461,128,0,32550:0:0:0:0:
475,192,32550,128,0,32726:0:0:0:0:
329,192,32550,128,0,32726:0:0:0:0:
182,192,32726,1,0,0:0:0:0:
36,192,32726,1,0,0:0:0:0:
475,192,32903,128,0,32991:0:0:0:0:
329,192,32903,128,0,32991:0:0:0:0:
109,192,32903,1,0,0:0:0:50:HK_Kick01.wav
182,192,33079,128,0,33256:0:0:0:0:
36,192,33079,128,0,33256:0:0:0:0:
329,192,33079,1,0,0:0:0:0:
475,192,33079,1,0,0:0:0:70:LR3_Snare DSW.wav
256,192,33256,1,0,0:0:0:0:
109,192,33256,1,0,0:0:0:0:
475,192,33432,1,0,0:0:0:0:
329,192,33432,128,0,33520:0:0:0:0:
402,192,33432,128,0,33520:0:0:0:50:HK_Kick01.wav
109,192,33609,128,0,33785:0:0:0:0:
182,192,33609,128,0,33785:0:0:0:0:
256,192,33785,1,0,0:0:0:0:
475,192,33785,128,0,33844:0:0:0:0:
36,192,33785,1,0,0:0:0:70:LR3_Snare DSW.wav
402,192,33844,128,0,33903:0:0:0:0:
329,192,33903,128,0,33961:0:0:0:0:
109,192,33961,1,0,0:0:0:0:
36,192,33961,128,0,34050:0:0:0:0:
182,192,33961,128,0,34050:0:0:0:50:HK_Kick01.wav
402,192,34050,128,0,34094:0:0:0:0:
329,192,34094,128,0,34138:0:0:0:0:
109,192,34138,128,0,34314:0:0:0:0:
256,192,34138,128,0,34314:0:0:0:0:
182,192,34314,128,0,34491:0:0:0:0:
402,192,34314,128,0,34491:0:0:0:0:
36,192,34314,1,0,0:0:0:50:HK_Kick01.wav
109,192,34491,1,0,0:0:0:0:
329,192,34491,128,0,34667:0:0:0:0:
475,192,34491,128,0,34667:0:0:0:0:
256,192,34491,1,0,0:0:0:70:LR3_Snare DSW.wav
256,192,34667,128,0,34711:0:0:0:0:
182,192,34667,128,0,34756:0:0:0:0:
109,192,34667,128,0,34800:0:0:0:0:
36,192,34667,128,0,34844:0:0:0:0:
182,192,34844,1,0,0:0:0:0:
402,192,34844,1,0,0:0:0:0:
256,192,34844,1,0,0:0:0:0:
475,192,34844,128,0,35020:0:0:0:50:HK_Kick01.wav
329,192,34844,128,0,35020:0:0:0:70:LR_CymbalQST.wav
36,192,35020,128,0,35109:0:0:0:0:
182,192,35020,128,0,35109:0:0:0:0:
109,192,35197,128,0,35285:0:0:0:0:
402,192,35197,128,0,35285:0:0:0:0:
475,192,35197,1,0,0:0:0:0:
36,192,35197,1,0,0:0:0:70:LR3_Snare DSW.wav
182,192,35285,128,0,35373:0:0:0:0:
329,192,35285,128,0,35373:0:0:0:0:
256,192,35373,128,0,35550:0:0:0:0:
475,192,35373,128,0,35550:0:0:0:0:
36,192,35550,128,0,35638:0:0:0:0:
182,192,35550,128,0,35638:0:0:0:0:
109,192,35726,128,0,35903:0:0:0:0:
256,192,35726,128,0,35903:0:0:0:0:
402,192,35726,1,0,0:0:0:50:HK_Kick01.wav
36,192,35903,1,0,0:0:0:0:
475,192,35903,128,0,35991:0:0:0:0:
182,192,35903,1,0,0:0:0:70:LR3_Snare DSW.wav
402,192,35947,128,0,36035:0:0:0:0:
329,192,35991,128,0,36079:0:0:0:0:
256,192,36035,128,0,36123:0:0:0:0:
182,192,36079,128,0,36256:0:0:0:0:
36,192,36079,128,0,36256:0:0:0:0:
109,192,36256,1,0,0:0:0:0:
329,192,36256,1,0,0:0:0:0:
402,192,36256,128,0,36432:0:0:0:0:
475,192,36256,128,0,36432:0:0:0:50:HK_Kick01.wav
329,192,36432,128,0,36520:0:0:0:0:
182,192,36432,128,0,36520:0:0:0:0:
36,192,36609,128,0,36697:0:0:0:0:
256,192,36609,1,0,0:0:0:0:
475,192,36609,1,0,0:0:0:0:
402,192,36609,1,0,0:0:0:70:LR3_Snare DSW.wav
109,192,36653,128,0,36741:0:0:0:0:
182,192,36697,128,0,36785:0:0:0:0:
256,192,36741,128,0,36829:0:0:0:0:
329,192,36785,128,0,36873:0:0:0:0:
475,192,36785,128,0,36873:0:0:0:0:
36,192,36873,128,0,36961:0:0:0:0:
182,192,36873,128,0,36961:0:0:0:0:
475,192,36961,128,0,37020:0:0:0:0:
402,192,36991,128,0,37050:0:0:0:0:
329,192,37020,128,0,37079:0:0:0:0:
182,192,37050,128,0,37109:0:0:0:0:
109,192,37079,128,0,37138:0:0:0:0:
36,192,37109,128,0,37167:0:0:0:0:
256,192,37138,128,0,37226:0:0:0:0:
475,192,37138,1,0,0:0:0:50:HK_Kick01.wav
329,192,37182,128,0,37270:0:0:0:0:
402,192,37226,128,0,37314:0:0:0:0:
475,192,37270,128,0,37359:0:0:0:0:
36,192,37314,1,0,0:0:0:0:
256,192,37314,1,0,0:0:0:0:
182,192,37314,128,0,37491:0:0:0:0:
109,192,37314,128,0,37491:0:0:0:70:LR3_Snare DSW.wav
256,192,37491,128,0,37535:0:0:0:0:
329,192,37491,128,0,37579:0:0:0:0:
402,192,37491,128,0,37623:0:0:0:0:
475,192,37491,128,0,37667:0:0:0:0:
36,192,37667,128,0,37844:0:0:0:0:
109,192,37667,1,0,0:0:0:0:
182,192,37667,128,0,37844:0:0:0:50:HK_Kick01.wav
402,192,37844,1,0,0:0:0:0:
329,192,37844,1,0,0:0:0:0:
475,192,38020,128,0,38109:0:0:0:0:
109,192,38020,1,0,0:0:0:0:
256,192,38020,1,0,0:0:0:0:
36,192,38020,1,0,0:0:0:70:LR3_Snare DSW.wav
402,192,38064,128,0,38153:0:0:0:0:
329,192,38109,128,0,38197:0:0:0:0:
36,192,38197,128,0,38373:0:0:0:0:
182,192,38197,128,0,38373:0:0:0:0:
475,192,38373,128,0,38550:0:0:0:0:
256,192,38373,128,0,38550:0:0:0:0:
36,192,38550,128,0,38726:0:0:0:0:
109,192,38550,128,0,38726:0:0:0:0:
329,192,38550,1,0,0:0:0:50:HK_Kick01.wav
256,192,38726,128,0,38814:0:0:0:0:
182,192,38726,1,0,0:0:0:0:
475,192,38726,1,0,0:0:0:70:LR3_Snare DSW.wav
329,192,38770,128,0,38859:0:0:0:0:
402,192,38814,128,0,38903:0:0:0:0:
475,192,38859,128,0,38947:0:0:0:0:
36,192,38903,128,0,39079:0:0:0:0:
182,192,38903,128,0,39079:0:0:0:0:
109,192,39079,128,0,39256:0:0:0:0:
256,192,39079,128,0,39256:0:0:0:50:HK_Kick01.wav
402,192,39079,1,0,0:0:0:0:
182,192,39256,128,0,39344:0:0:0:0:
329,192,39256,128,0,39344:0:0:0:0:
402,192,39432,1,0,0:0:0:0:
36,192,39432,1,0,0:0:0:0:
256,192,39432,128,0,39520:0:0:0:0:
475,192,39432,1,0,0:0:0:70:LR3_Snare DSW.wav
182,192,39476,128,0,39564:0:0:0:0:
109,192,39520,128,0,39609:0:0:0:0:
36,192,39564,128,0,39653:0:0:0:0:
475,192,39609,128,0,39697:0:0:0:0:
402,192,39609,128,0,39697:0:0:0:0:
329,192,39697,128,0,39741:0:0:0:0:
256,192,39741,128,0,39785:0:0:0:0:
36,192,39785,128,0,39873:0:0:0:0:
182,192,39785,128,0,39873:0:0:0:0:
475,192,39961,128,0,40050:0:0:0:0:
182,192,39961,1,0,0:0:0:0:
36,192,39961,1,0,0:0:0:50:HK_Kick01.wav
402,192,40006,128,0,40094:0:0:0:0:
329,192,40050,128,0,40138:0:0:0:0:
256,192,40094,128,0,40182:0:0:0:0:
475,192,40138,1,0,0:0:0:0:
109,192,40138,1,0,0:0:0:0:
36,192,40138,128,0,40226:0:0:0:0:
182,192,40138,128,0,40226:0:0:0:70:LR3_Snare DSW.wav
256,192,40314,128,0,40359:0:0:0:0:
329,192,40314,128,0,40403:0:0:0:0:
402,192,40314,128,0,40447:0:0:0:0:
475,192,40314,128,0,40491:0:0:0:0:
182,192,40491,1,0,0:0:0:0:
36,192,40491,128,0,40667:0:0:0:0:
256,192,40491,128,0,40667:0:0:0:50:HK_Kick01.wav
109,192,40667,128,0,40756:0:0:0:0:
329,192,40667,128,0,40756:0:0:0:0:
182,192,40844,128,0,40932:0:0:0:0:
475,192,40844,128,0,40932:0:0:0:0:
402,192,40844,1,0,0:0:0:0:
256,192,40844,1,0,0:0:0:70:LR3_Snare DSW.wav
329,192,40932,128,0,41020:0:0:0:0:
36,192,40932,128,0,41020:0:0:0:0:
256,192,41020,128,0,41197:0:0:0:0:
109,192,41020,128,0,41197:0:0:0:0:
402,192,41197,128,0,41373:0:0:0:0:
475,192,41197,128,0,41373:0:0:0:0:
36,192,41373,1,0,0:0:0:0:
182,192,41373,128,0,41550:0:0:0:0:
329,192,41373,128,0,41550:0:0:0:50:HK_Kick01.wav
475,192,41550,128,0,41638:0:0:0:0:
109,192,41550,1,0,0:0:0:0:
36,192,41550,1,0,0:0:0:0:
256,192,41550,1,0,0:0:0:70:LR3_Snare DSW.wav
402,192,41594,128,0,41682:0:0:0:0:
329,192,41638,128,0,41726:0:0:0:0:
256,192,41682,128,0,41770:0:0:0:0:
182,192,41726,128,0,41903:0:0:0:0:
36,192,41726,128,0,41903:0:0:0:0:
109,192,41903,128,0,42079:0:0:0:0:
256,192,41903,128,0,42079:0:0:0:0:
402,192,41903,1,0,0:0:0:50:HK_Kick01.wav
329,192,42079,128,0,42167:0:0:0:0:
475,192,42079,128,0,42167:0:0:0:0:
182,192,42256,1,0,0:0:0:0:
36,192,42256,1,0,0:0:0:0:
256,192,42256,128,0,42344:0:0:0:0:
109,192,42256,1,0,0:0:0:70:LR3_Snare DSW.wav
329,192,42300,128,0,42388:0:0:0:0:
402,192,42344,128,0,42432:0:0:0:0:
475,192,42388,128,0,42476:0:0:0:0:
109,192,42432,128,0,42520:0:0:0:0:
182,192,42476,128,0,42564:0:0:0:0:
329,192,42520,128,0,42609:0:0:0:0:
402,192,42564,128,0,42653:0:0:0:0:
36,192,42609,128,0,42667:0:0:0:0:
109,192,42638,128,0,42697:0:0:0:0:
182,192,42667,128,0,42726:0:0:0:0:
256,192,42697,128,0,42756:0:0:0:0:
329,192,42726,128,0,42785:0:0:0:0:
402,192,42756,128,0,42814:0:0:0:0:
36,192,42785,128,0,42961:0:0:0:0:
109,192,42785,1,0,0:0:0:0:
475,192,42785,128,0,42961:0:0:0:50:HK_Kick01.wav
182,192,42961,1,0,0:0:0:0:
329,192,42961,1,0,0:0:0:0:
402,192,42961,128,0,43138:0:0:0:0:
109,192,42961,128,0,43138:0:0:0:70:LR3_Snare DSW.wav
329,192,43138,128,0,43314:0:0:0:0:
182,192,43138,128,0,43314:0:0:0:0:
36,192,43314,128,0,43491:0:0:0:0:
256,192,43314,128,0,43491:0:0:0:0:
475,192,43314,1,0,0:0:0:50:HK_Kick01.wav
109,192,43491,128,0,43667:0:0:0:0:
329,192,43491,128,0,43667:0:0:0:0:
182,192,43667,1,0,0:0:0:0:
475,192,43667,128,0,43756:0:0:0:0:
36,192,43667,1,0,0:0:0:70:LR3_Snare DSW.wav
402,192,43711,128,0,43800:0:0:0:0:
329,192,43756,128,0,43844:0:0:0:0:
36,192,43844,128,0,44020:0:0:0:0:
256,192,43844,128,0,44020:0:0:0:0:
329,192,44020,128,0,44197:0:0:0:0:
109,192,44020,128,0,44197:0:0:0:0:
402,192,44197,128,0,44373:0:0:0:0:
36,192,44197,1,0,0:0:0:0:
182,192,44197,128,0,44373:0:0:0:50:HK_Kick01.wav
256,192,44373,1,0,0:0:0:0:
109,192,44373,1,0,0:0:0:0:
475,192,44373,128,0,44461:0:0:0:0:
329,192,44373,128,0,44461:0:0:0:70:LR3_Snare DSW.wav
36,192,44461,128,0,44550:0:0:0:0:
182,192,44461,128,0,44550:0:0:0:0:
402,192,44550,128,0,44638:0:0:0:0:
329,192,44550,128,0,44638:0:0:0:0:
182,192,44638,128,0,44726:0:0:0:0:
109,192,44638,128,0,44726:0:0:0:0:
36,192,44726,1,0,0:0:0:0:
475,192,44726,1,0,0:0:0:70:LR_CymbalQST.wav
256,192,44726,128,0,44770:0:0:0:50:HK_Kick01.wav
329,192,44770,128,0,44814:0:0:0:0:
402,192,44814,128,0,44859:0:0:0:0:
475,192,44859,128,0,44903:0:0:0:0:
36,192,44903,128,0,44947:0:0:0:0:
256,192,44903,1,0,0:0:0:0:
109,192,44947,128,0,44991:0:0:0:0:
182,192,44991,128,0,45035:0:0:0:0:
329,192,44991,1,0,0:0:0:0:
475,192,45035,128,0,45079:0:0:0:0:
402,192,45079,128,0,45123:0:0:0:0:
36,192,45079,1,0,0:0:0:0:
329,192,45123,128,0,45167:0:0:0:0:
182,192,45167,128,0,45211:0:0:0:0:
109,192,45211,128,0,45256:0:0:0:0:
36,192,45256,128,0,45300:0:0:0:0:
475,192,45256,1,0,0:0:0:0:
329,192,45300,128,0,45344:0:0:0:0:
402,192,45344,128,0,45388:0:0:0:0:
182,192,45344,1,0,0:0:0:0:
475,192,45388,128,0,45432:0:0:0:0:
36,192,45432,128,0,45476:0:0:0:0:
256,192,45432,1,0,0:0:0:0:
109,192,45476,128,0,45520:0:0:0:0:
182,192,45520,128,0,45564:0:0:0:0:
329,192,45520,1,0,0:0:0:0:
475,192,45564,128,0,45609:0:0:0:0:
36,192,45609,1,0,0:0:0:0:
109,192,45609,1,0,0:0:0:0:
402,192,45609,128,0,45653:0:0:0:50:HK_Kick01.wav
329,192,45653,128,0,45697:0:0:0:0:
256,192,45697,128,0,45741:0:0:0:0:
182,192,45741,128,0,45785:0:0:0:0:
402,192,45785,1,0,0:0:0:0:
36,192,45785,128,0,46138:0:0:0:0:
109,192,45785,1,0,0:0:0:0:
475,192,45785,1,0,0:0:0:70:LR3_Snare DSW.wav
402,192,46138,1,0,0:0:0:0:
109,192,46138,1,0,0:0:0:0:
256,192,46138,1,0,0:0:0:0:
475,192,46138,128,0,46314:0:0:0:70:LR_CymbalQST.wav
329,192,46138,1,0,0:0:0:50:HK_Kick01.wav
36,192,46491,1,0,0:0:0:0:
182,192,46491,1,0,0:0:0:0:
329,192,46491,1,0,0:0:0:0:
402,192,46491,1,0,0:0:0:70:LR3_Snare DSW.wav
256,192,46667,1,0,0:0:0:0:
36,192,46844,128,0,47020:0:0:0:0:
182,192,47020,1,0,0:0:0:0:
109,192,47020,1,0,0:0:0:0:
402,192,47020,1,0,0:0:0:50:HK_Kick01.wav
256,192,47197,1,0,0:0:0:0:
329,192,47197,1,0,0:0:0:0:
475,192,47197,1,0,0:0:0:0:
36,192,47197,1,0,0:0:0:70:LR3_Snare DSW.wav
329,192,47550,1,0,0:0:0:0:
402,192,47550,1,0,0:0:0:0:
109,192,47550,128,0,47726:0:0:0:50:HK_Kick01.wav
475,192,47903,1,0,0:0:0:0:
36,192,47903,1,0,0:0:0:0:
256,192,47903,1,0,0:0:0:0:
109,192,47903,1,0,0:0:0:70:LR3_Snare DSW.wav
182,192,48079,1,0,0:0:0:0:
36,192,48256,128,0,48609:0:0:0:0:
475,192,48432,1,0,0:0:0:0:
256,192,48432,1,0,0:0:0:0:
329,192,48432,1,0,0:0:0:50:HK_Kick01.wav
109,192,48609,1,0,0:0:0:0:
402,192,48609,1,0,0:0:0:0:
182,192,48609,1,0,0:0:0:0:
475,192,48609,128,0,48961:0:0:0:70:LR3_Snare DSW.wav
182,192,48961,128,0,49138:0:0:0:0:
36,192,48961,1,0,0:0:0:0:
329,192,48961,1,0,0:0:0:50:HK_Kick01.wav
329,192,49138,128,0,49314:0:0:0:0:
109,192,49314,128,0,49403:0:0:0:0:
475,192,49314,1,0,0:0:0:0:
256,192,49314,1,0,0:0:0:0:
402,192,49314,1,0,0:0:0:70:LR3_Snare DSW.wav
182,192,49491,128,0,49667:0:0:0:0:
329,192,49491,1,0,0:0:0:0:
256,192,49844,128,0,49932:0:0:0:0:
402,192,49844,1,0,0:0:0:0:
109,192,49844,1,0,0:0:0:50:HK_Kick01.wav
182,192,50020,128,0,50109:0:0:0:0:
36,192,50020,1,0,0:0:0:0:
329,192,50020,1,0,0:0:0:0:
475,192,50020,1,0,0:0:0:70:LR3_Snare DSW.wav
109,192,50197,128,0,50903:0:0:0:0:
256,192,50373,1,0,0:0:0:0:
182,192,50373,1,0,0:0:0:0:
402,192,50373,1,0,0:0:0:50:HK_Kick01.wav
256,192,50726,1,0,0:0:0:0:
329,192,50726,1,0,0:0:0:0:
475,192,50726,1,0,0:0:0:0:
36,192,50726,1,0,0:0:0:70:LR3_Snare DSW.wav
182,192,50903,1,0,0:0:0:0:
182,192,51256,1,0,0:0:0:0:
329,192,51256,1,0,0:0:0:50:HK_Kick01.wav
475,192,51256,1,0,0:0:0:0:
256,192,51432,1,0,0:0:0:0:
402,192,51432,1,0,0:0:0:0:
36,192,51432,1,0,0:0:0:0:
109,192,51432,128,0,51609:0:0:0:70:LR3_Snare DSW.wav
329,192,51609,1,0,0:0:0:0:
182,192,51697,1,0,0:0:0:0:
402,192,51785,128,0,51961:0:0:0:0:
475,192,51785,1,0,0:0:0:0:
36,192,51785,1,0,0:0:0:50:HK_Kick01.wav
475,192,52138,1,0,0:0:0:0:
109,192,52138,1,0,0:0:0:0:
329,192,52138,1,0,0:0:0:0:
256,192,52138,1,0,0:0:0:70:LR3_Snare DSW.wav
182,192,52314,1,0,0:0:0:0:
36,192,52491,128,0,52667:0:0:0:0:
256,192,52667,1,0,0:0:0:0:
402,192,52667,1,0,0:0:0:0:
109,192,52667,1,0,0:0:0:50:HK_Kick01.wav
182,192,52844,1,0,0:0:0:0:
329,192,52844,1,0,0:0:0:0:
475,192,52844,1,0,0:0:0:0:
36,192,52844,1,0,0:0:0:70:LR3_Snare DSW.wav
402,192,53197,1,0,0:0:0:0:
256,192,53197,128,0,53373:0:0:0:0:
109,192,53197,1,0,0:0:0:50:HK_Kick01.wav
36,192,53550,1,0,0:0:0:0:
475,192,53550,1,0,0:0:0:0:
109,192,53550,1,0,0:0:0:0:
329,192,53550,1,0,0:0:0:70:LR3_Snare DSW.wav
182,192,53726,1,0,0:0:0:0:
402,192,53903,128,0,54256:0:0:0:0:
475,192,54079,1,0,0:0:0:0:
256,192,54079,1,0,0:0:0:0:
109,192,54079,1,0,0:0:0:50:HK_Kick01.wav
36,192,54256,128,0,54432:0:0:0:0:
475,192,54256,1,0,0:0:0:0:
329,192,54256,1,0,0:0:0:0:
182,192,54256,1,0,0:0:0:70:LR3_Snare DSW.wav
182,192,54432,128,0,55667:0:0:0:0:
109,192,54609,1,0,0:0:0:0:
256,192,54609,1,0,0:0:0:0:
402,192,54609,1,0,0:0:0:50:HK_Kick01.wav
475,192,54961,1,0,0:0:0:0:
402,192,54961,1,0,0:0:0:0:
329,192,54961,1,0,0:0:0:0:
36,192,54961,1,0,0:0:0:70:LR3_Snare DSW.wav
256,192,55138,1,0,0:0:0:0:
109,192,55491,1,0,0:0:0:0:
329,192,55491,1,0,0:0:0:50:HK_Kick01.wav
475,192,55491,1,0,0:0:0:0:
256,192,55667,1,0,0:0:0:0:
109,192,55667,1,0,0:0:0:0:
36,192,55667,1,0,0:0:0:0:
402,192,55667,128,0,56020:0:0:0:70:LR3_Snare DSW.wav
329,192,56020,1,0,0:0:0:0:
182,192,56020,1,0,0:0:0:0:
36,192,56020,1,0,0:0:0:50:HK_Kick01.wav
256,192,56197,1,0,0:0:0:0:
475,192,56197,128,0,56285:0:0:0:0:
182,192,56285,1,0,0:0:0:0:
402,192,56285,1,0,0:0:0:0:
329,192,56373,1,0,0:0:0:0:
109,192,56373,1,0,0:0:0:0:
36,192,56373,128,0,56461:0:0:0:0:
475,192,56373,1,0,0:0:0:0:
256,192,56550,1,0,0:0:0:0:
36,192,56550,128,0,56638:0:0:0:0:
329,192,56638,1,0,0:0:0:0:
109,192,56638,1,0,0:0:0:0:
402,192,56726,1,0,0:0:0:0:
182,192,56726,1,0,0:0:0:0:
475,192,56726,128,0,56814:0:0:0:0:
256,192,56814,1,0,0:0:0:0:
329,192,56903,1,0,0:0:0:0:
109,192,56903,1,0,0:0:0:0:
36,192,56903,128,0,56991:0:0:0:0:
182,192,56991,1,0,0:0:0:0:
402,192,56991,1,0,0:0:0:0:
256,192,56991,1,0,0:0:0:0:
109,192,57079,1,0,0:0:0:0:
329,192,57079,1,0,0:0:0:0:
475,192,57079,1,0,0:0:0:0:
36,192,57079,128,0,57167:0:0:0:70:LR3_Snare RSH.wav
256,192,57432,1,0,0:0:0:0:
402,192,57432,1,0,0:0:0:0:
475,192,57432,1,0,0:0:0:0:
36,192,57432,1,0,0:0:0:50:HK_Kick01.wav
109,192,57432,128,0,57609:0:0:0:70:LR_CymbalQST.wav
329,192,57609,1,0,0:0:0:0:
475,192,57785,1,0,0:0:0:0:
109,192,57785,1,0,0:0:0:0:
36,192,57785,1,0,0:0:0:0:
256,192,57785,1,0,0:0:0:70:LR3_Snare DSW.wav
329,192,57961,1,0,0:0:0:0:
402,192,58138,128,0,58314:0:0:0:0:
475,192,58314,1,0,0:0:0:0:
182,192,58314,1,0,0:0:0:0:
36,192,58314,1,0,0:0:0:50:HK_Kick01.wav
109,192,58491,1,0,0:0:0:0:
402,192,58491,1,0,0:0:0:0:
329,192,58491,1,0,0:0:0:0:
256,192,58491,1,0,0:0:0:70:LR3_Snare DSW.wav
182,192,58667,1,0,0:0:0:0:
36,192,58844,1,0,0:0:0:0:
475,192,58844,1,0,0:0:0:0:
256,192,58844,128,0,59020:0:0:0:50:HK_Kick01.wav
329,192,59020,1,0,0:0:0:0:
402,192,59197,1,0,0:0:0:0:
475,192,59197,1,0,0:0:0:0:
256,192,59197,1,0,0:0:0:0:
36,192,59197,1,0,0:0:0:70:LR3_Snare DSW.wav
109,192,59373,1,0,0:0:0:0:
182,192,59550,128,0,59903:0:0:0:0:
402,192,59550,1,0,0:0:0:0:
329,192,59726,1,0,0:0:0:0:
475,192,59726,1,0,0:0:0:0:
36,192,59726,1,0,0:0:0:50:HK_Kick01.wav
256,192,59903,1,0,0:0:0:0:
36,192,59903,128,0,60079:0:0:0:0:
109,192,59903,1,0,0:0:0:0:
402,192,59903,1,0,0:0:0:70:LR3_Snare DSW.wav
329,192,60079,1,0,0:0:0:0:
256,192,60256,128,0,60344:0:0:0:0:
475,192,60256,1,0,0:0:0:0:
36,192,60256,1,0,0:0:0:50:HK_Kick01.wav
329,192,60432,128,0,60609:0:0:0:0:
182,192,60432,1,0,0:0:0:0:
475,192,60609,128,0,60697:0:0:0:0:
256,192,60609,1,0,0:0:0:0:
36,192,60609,1,0,0:0:0:0:
109,192,60609,1,0,0:0:0:70:LR3_Snare DSW.wav
182,192,60785,1,0,0:0:0:0:
402,192,60785,128,0,60961:0:0:0:0:
36,192,60961,1,0,0:0:0:0:
109,192,61138,128,0,61314:0:0:0:0:
475,192,61138,1,0,0:0:0:0:
329,192,61138,1,0,0:0:0:50:HK_Kick01.wav
182,192,61314,128,0,61403:0:0:0:0:
36,192,61314,1,0,0:0:0:0:
256,192,61314,1,0,0:0:0:0:
402,192,61314,1,0,0:0:0:70:LR3_Snare DSW.wav
329,192,61491,1,0,0:0:0:0:
36,192,61491,128,0,61844:0:0:0:0:
402,192,61667,1,0,0:0:0:0:
182,192,61667,1,0,0:0:0:0:
475,192,61667,1,0,0:0:0:50:HK_Kick01.wav
256,192,61844,1,0,0:0:0:0:
109,192,62020,1,0,0:0:0:0:
36,192,62020,1,0,0:0:0:0:
402,192,62020,1,0,0:0:0:0:
182,192,62020,1,0,0:0:0:70:LR3_Snare DSW.wav
329,192,62197,1,0,0:0:0:0:
256,192,62373,128,0,62550:0:0:0:0:
182,192,62550,1,0,0:0:0:0:
36,192,62550,1,0,0:0:0:0:
402,192,62550,128,0,62726:0:0:0:50:HK_Kick01.wav
182,192,62726,128,0,62903:0:0:0:0:
109,192,62726,1,0,0:0:0:0:
329,192,62726,1,0,0:0:0:0:
475,192,62726,1,0,0:0:0:70:LR3_Snare DSW.wav
329,192,62903,128,0,64314:0:0:0:0:
36,192,62903,1,0,0:0:0:0:
109,192,62991,1,0,0:0:0:0:
256,192,63079,1,0,0:0:0:0:
182,192,63079,1,0,0:0:0:0:
475,192,63079,1,0,0:0:0:50:HK_Kick01.wav
402,192,63256,1,0,0:0:0:0:
256,192,63432,1,0,0:0:0:0:
109,192,63432,1,0,0:0:0:0:
475,192,63432,1,0,0:0:0:0:
36,192,63432,1,0,0:0:0:70:LR3_Snare DSW.wav
182,192,63609,1,0,0:0:0:0:
256,192,63785,1,0,0:0:0:0:
475,192,63961,1,0,0:0:0:0:
36,192,63961,1,0,0:0:0:0:
182,192,63961,1,0,0:0:0:50:HK_Kick01.wav
475,192,64138,1,0,0:0:0:0:
402,192,64138,1,0,0:0:0:0:
109,192,64138,1,0,0:0:0:0:
256,192,64138,1,0,0:0:0:70:LR3_Snare DSW.wav
182,192,64314,1,0,0:0:0:0:
36,192,64491,1,0,0:0:0:0:
109,192,64491,1,0,0:0:0:0:
402,192,64491,1,0,0:0:0:50:HK_Kick01.wav
475,192,64667,128,0,64844:0:0:0:0:
329,192,64667,1,0,0:0:0:0:
402,192,64844,1,0,0:0:0:0:
256,192,64844,1,0,0:0:0:0:
36,192,64844,128,0,65020:0:0:0:0:
109,192,64844,1,0,0:0:0:70:LR3_Snare DSW.wav
182,192,65020,128,0,65197:0:0:0:0:
329,192,65197,1,0,0:0:0:0:
475,192,65373,128,0,65550:0:0:0:0:
109,192,65373,1,0,0:0:0:0:
256,192,65373,1,0,0:0:0:50:HK_Kick01.wav
402,192,65550,1,0,0:0:0:0:
36,192,65550,1,0,0:0:0:0:
329,192,65550,128,0,65726:0:0:0:0:
182,192,65550,1,0,0:0:0:70:LR3_Snare DSW.wav
256,192,65726,128,0,67314:0:0:0:0:
109,192,65726,1,0,0:0:0:0:
475,192,65903,1,0,0:0:0:0:
329,192,65903,1,0,0:0:0:0:
36,192,65903,1,0,0:0:0:50:HK_Kick01.wav
182,192,66079,1,0,0:0:0:0:
402,192,66079,1,0,0:0:0:0:
329,192,66167,5,0,0:0:0:0:
36,192,66256,1,0,0:0:0:0:
109,192,66256,1,0,0:0:0:0:
402,192,66256,1,0,0:0:0:0:
475,192,66256,1,0,0:0:0:70:LR3_Snare DSW.wav
182,192,66432,1,0,0:0:0:0:
329,192,66432,1,0,0:0:0:0:
109,192,66520,1,0,0:0:0:0:
182,192,66609,1,0,0:0:0:0:
475,192,66609,1,0,0:0:0:0:
329,192,66697,1,0,0:0:0:0:
36,192,66785,1,0,0:0:0:0:
402,192,66785,1,0,0:0:0:0:
109,192,66785,1,0,0:0:0:50:HK_Kick01.wav
36,192,66961,1,0,0:0:0:0:
329,192,66961,1,0,0:0:0:0:
475,192,66961,1,0,0:0:0:0:
182,192,66961,1,0,0:0:0:70:LR3_Snare DSW.wav
402,192,67138,1,0,0:0:0:0:
109,192,67226,1,0,0:0:0:0:
36,192,67314,128,0,68285:0:0:0:0:
329,192,67314,128,0,68285:0:0:0:0:
182,192,67314,128,0,68285:0:0:0:70:LR3_FX PDLR.wav
475,192,67314,128,0,68285:0:0:0:50:HK_Kick01.wav
402,192,68197,1,0,0:0:0:0:
256,192,68197,1,0,0:0:0:0:
109,192,68197,1,0,0:0:0:50:HK_Kick01.wav
36,192,68373,1,0,0:0:0:0:
182,192,68373,1,0,0:0:0:0:
329,192,68373,1,0,0:0:0:0:
475,192,68373,1,0,0:0:0:70:LR3_Snare RSH.wav
402,192,68726,128,0,69256:0:0:0:0:
36,192,68726,1,0,0:0:0:0:
256,192,68726,1,0,0:0:0:70:LR_CymbalQST.wav
475,192,68726,1,0,0:0:0:50:HK_Kick01.wav
109,192,68726,1,0,0:0:0:0:
182,192,68903,1,0,0:0:0:0:
36,192,68903,128,0,68991:0:0:0:0:
475,192,69079,1,0,0:0:0:0:
329,192,69079,1,0,0:0:0:0:
109,192,69079,128,0,69167:0:0:0:0:
256,192,69079,1,0,0:0:0:70:LR3_Snare DSW.wav
329,192,69256,128,0,69609:0:0:0:0:
182,192,69256,128,0,69344:0:0:0:0:
36,192,69344,1,0,0:0:0:0:
109,192,69432,1,0,0:0:0:0:
256,192,69432,128,0,69520:0:0:0:0:
475,192,69520,1,0,0:0:0:0:
402,192,69609,1,0,0:0:0:0:
109,192,69609,128,0,69785:0:0:0:0:
182,192,69609,1,0,0:0:0:50:HK_Kick01.wav
256,192,69785,1,0,0:0:0:0:
475,192,69785,1,0,0:0:0:0:
36,192,69785,1,0,0:0:0:0:
182,192,69785,1,0,0:0:0:70:LR3_Snare DSW.wav
402,192,69961,1,0,0:0:0:0:
329,192,69961,1,0,0:0:0:0:
182,192,70050,1,0,0:0:0:0:
109,192,70138,128,0,70667:0:0:0:0:
256,192,70138,1,0,0:0:0:50:HK_Kick01.wav
402,192,70138,128,0,70226:0:0:0:0:
475,192,70314,128,0,70403:0:0:0:0:
329,192,70314,1,0,0:0:0:0:
475,192,70491,1,0,0:0:0:0:
402,192,70491,128,0,70579:0:0:0:0:
36,192,70491,1,0,0:0:0:0:
256,192,70491,1,0,0:0:0:70:LR3_Snare DSW.wav
182,192,70667,128,0,71020:0:0:0:0:
329,192,70667,128,0,70756:0:0:0:0:
475,192,70756,1,0,0:0:0:0:
402,192,70844,1,0,0:0:0:0:
36,192,70844,1,0,0:0:0:0:
256,192,70932,1,0,0:0:0:0:
402,192,71020,128,0,71197:0:0:0:0:
109,192,71020,1,0,0:0:0:0:
329,192,71020,1,0,0:0:0:50:HK_Kick01.wav
256,192,71197,1,0,0:0:0:0:
329,192,71197,1,0,0:0:0:0:
36,192,71197,1,0,0:0:0:0:
475,192,71197,1,0,0:0:0:70:LR3_Snare DSW.wav
182,192,71373,1,0,0:0:0:0:
109,192,71373,1,0,0:0:0:0:
329,192,71461,1,0,0:0:0:0:
36,192,71550,1,0,0:0:0:0:
475,192,71550,1,0,0:0:0:0:
256,192,71550,1,0,0:0:0:50:HK_Kick01.wav
182,192,71726,1,0,0:0:0:0:
402,192,71726,1,0,0:0:0:0:
109,192,71903,1,0,0:0:0:0:
475,192,71903,1,0,0:0:0:0:
36,192,71903,128,0,72079:0:0:0:0:
256,192,71903,1,0,0:0:0:70:LR3_Snare DSW.wav
182,192,72079,128,0,72256:0:0:0:0:
402,192,72079,1,0,0:0:0:0:
109,192,72167,1,0,0:0:0:0:
329,192,72256,128,0,72432:0:0:0:0:
475,192,72256,1,0,0:0:0:0:
182,192,72344,1,0,0:0:0:0:
36,192,72432,1,0,0:0:0:0:
256,192,72432,1,0,0:0:0:50:HK_Kick01.wav
109,192,72432,128,0,72520:0:0:0:0:
475,192,72609,128,0,72785:0:0:0:0:
329,192,72609,1,0,0:0:0:0:
402,192,72609,1,0,0:0:0:70:LR3_Snare DSW.wav
182,192,72609,128,0,72697:0:0:0:0:
402,192,72785,1,0,0:0:0:0:
256,192,72785,128,0,72873:0:0:0:0:
109,192,72873,1,0,0:0:0:0:
182,192,72961,1,0,0:0:0:0:
36,192,72961,1,0,0:0:0:0:
329,192,72961,128,0,73314:0:0:0:50:HK_Kick01.wav
109,192,73138,1,0,0:0:0:0:
256,192,73138,1,0,0:0:0:0:
402,192,73226,1,0,0:0:0:0:
109,192,73314,1,0,0:0:0:0:
182,192,73314,1,0,0:0:0:0:
475,192,73314,1,0,0:0:0:0:
36,192,73314,1,0,0:0:0:70:LR3_Snare DSW.wav
256,192,73491,128,0,74020:0:0:0:0:
329,192,73491,1,0,0:0:0:0:
182,192,73579,1,0,0:0:0:0:
402,192,73667,1,0,0:0:0:0:
36,192,73667,1,0,0:0:0:0:
329,192,73756,1,0,0:0:0:0:
475,192,73844,1,0,0:0:0:0:
109,192,73844,1,0,0:0:0:50:HK_Kick01.wav
402,192,73844,128,0,73932:0:0:0:0:
475,192,74020,1,0,0:0:0:0:
36,192,74020,1,0,0:0:0:0:
329,192,74020,1,0,0:0:0:70:LR3_Snare DSW.wav
182,192,74020,128,0,74109:0:0:0:0:
256,192,74197,1,0,0:0:0:0:
109,192,74197,128,0,74285:0:0:0:0:
329,192,74285,1,0,0:0:0:0:
36,192,74373,1,0,0:0:0:0:
402,192,74373,128,0,74903:0:0:0:0:
475,192,74373,1,0,0:0:0:50:HK_Kick01.wav
329,192,74550,1,0,0:0:0:0:
182,192,74550,128,0,74638:0:0:0:0:
109,192,74726,1,0,0:0:0:0:
256,192,74726,128,0,74814:0:0:0:0:
475,192,74726,1,0,0:0:0:0:
36,192,74726,1,0,0:0:0:70:LR3_Snare DSW.wav
329,192,74903,128,0,74991:0:0:0:0:
182,192,74903,128,0,75256:0:0:0:0:
109,192,74991,1,0,0:0:0:0:
36,192,75079,1,0,0:0:0:0:
402,192,75079,128,0,75167:0:0:0:0:
256,192,75167,1,0,0:0:0:0:
329,192,75256,1,0,0:0:0:0:
475,192,75256,1,0,0:0:0:0:
109,192,75256,128,0,75432:0:0:0:50:HK_Kick01.wav
182,192,75432,1,0,0:0:0:0:
402,192,75432,1,0,0:0:0:0:
256,192,75432,1,0,0:0:0:0:
36,192,75432,1,0,0:0:0:70:LR3_Snare DSW.wav
329,192,75609,1,0,0:0:0:0:
402,192,75609,1,0,0:0:0:0:
182,192,75697,1,0,0:0:0:0:
109,192,75785,128,0,76314:0:0:0:0:
475,192,75785,1,0,0:0:0:50:HK_Kick01.wav
256,192,75785,128,0,75873:0:0:0:0:
182,192,75961,1,0,0:0:0:0:
329,192,75961,128,0,76050:0:0:0:0:
402,192,76138,1,0,0:0:0:0:
256,192,76138,128,0,76226:0:0:0:0:
36,192,76138,1,0,0:0:0:0:
475,192,76138,1,0,0:0:0:70:LR3_Snare DSW.wav
182,192,76314,128,0,76403:0:0:0:0:
329,192,76314,128,0,76667:0:0:0:0:
402,192,76403,1,0,0:0:0:0:
475,192,76491,1,0,0:0:0:0:
36,192,76491,1,0,0:0:0:0:
182,192,76579,1,0,0:0:0:0:
256,192,76667,1,0,0:0:0:0:
402,192,76667,128,0,76844:0:0:0:0:
109,192,76667,1,0,0:0:0:50:HK_Kick01.wav
36,192,76844,1,0,0:0:0:0:
475,192,76844,1,0,0:0:0:0:
182,192,76844,1,0,0:0:0:0:
329,192,76844,1,0,0:0:0:70:LR3_Snare DSW.wav
256,192,77020,1,0,0:0:0:0:
109,192,77020,1,0,0:0:0:0:
329,192,77109,1,0,0:0:0:0:
36,192,77197,1,0,0:0:0:0:
256,192,77197,1,0,0:0:0:0:
475,192,77197,128,0,77373:0:0:0:50:HK_Kick01.wav
182,192,77373,1,0,0:0:0:0:
329,192,77373,1,0,0:0:0:0:
109,192,77550,128,0,77726:0:0:0:0:
36,192,77550,1,0,0:0:0:0:
256,192,77550,1,0,0:0:0:0:
475,192,77550,1,0,0:0:0:70:LR3_Snare DSW.wav
402,192,77726,128,0,77903:0:0:0:0:
182,192,77726,1,0,0:0:0:0:
36,192,77814,1,0,0:0:0:0:
475,192,77903,1,0,0:0:0:0:
256,192,77903,1,0,0:0:0:0:
109,192,77991,1,0,0:0:0:0:
36,192,78079,128,0,78256:0:0:0:0:
329,192,78079,1,0,0:0:0:50:HK_Kick01.wav
182,192,78079,128,0,78167:0:0:0:0:
402,192,78256,1,0,0:0:0:0:
475,192,78256,1,0,0:0:0:0:
109,192,78256,1,0,0:0:0:70:LR3_Snare DSW.wav
256,192,78256,128,0,78344:0:0:0:0:
475,192,78432,128,0,78609:0:0:0:0:
329,192,78432,128,0,78520:0:0:0:0:
182,192,78520,1,0,0:0:0:0:
402,192,78609,1,0,0:0:0:0:
109,192,78609,1,0,0:0:0:0:
256,192,78609,1,0,0:0:0:50:HK_Kick01.wav
329,192,78785,128,0,78961:0:0:0:0:
36,192,78785,1,0,0:0:0:0:
109,192,78873,1,0,0:0:0:0:
402,192,78961,1,0,0:0:0:0:
182,192,78961,128,0,79667:0:0:0:0:
475,192,78961,1,0,0:0:0:0:
36,192,78961,1,0,0:0:0:70:LR3_Snare DSW.wav
402,192,79138,1,0,0:0:0:0:
256,192,79138,1,0,0:0:0:0:
109,192,79138,1,0,0:0:0:50:HK_Kick01.wav
475,192,79226,1,0,0:0:0:0:
329,192,79314,1,0,0:0:0:0:
36,192,79314,1,0,0:0:0:0:
109,192,79403,1,0,0:0:0:0:
475,192,79491,1,0,0:0:0:0:
256,192,79491,1,0,0:0:0:50:HK_Kick01.wav
402,192,79491,128,0,79579:0:0:0:0:
109,192,79667,1,0,0:0:0:0:
36,192,79667,1,0,0:0:0:0:
475,192,79667,1,0,0:0:0:70:LR3_Snare DSW.wav
329,192,79667,128,0,79756:0:0:0:0:
402,192,79844,1,0,0:0:0:0:
182,192,79844,128,0,79932:0:0:0:0:
329,192,79932,1,0,0:0:0:0:
109,192,80020,128,0,80550:0:0:0:0:
36,192,80020,1,0,0:0:0:70:LR_CymbalQST.wav
256,192,80020,1,0,0:0:0:50:HK_Kick01.wav
475,192,80020,1,0,0:0:0:0:
329,192,80197,1,0,0:0:0:0:
475,192,80197,128,0,80285:0:0:0:0:
36,192,80373,1,0,0:0:0:0:
182,192,80373,1,0,0:0:0:0:
402,192,80373,128,0,80461:0:0:0:0:
256,192,80373,1,0,0:0:0:70:LR3_Snare DSW.wav
329,192,80550,128,0,80638:0:0:0:0:
182,192,80550,128,0,80903:0:0:0:0:
475,192,80638,1,0,0:0:0:0:
36,192,80726,1,0,0:0:0:0:
256,192,80726,128,0,80814:0:0:0:0:
109,192,80814,1,0,0:0:0:0:
329,192,80903,1,0,0:0:0:0:
402,192,80903,128,0,81079:0:0:0:0:
475,192,80903,1,0,0:0:0:50:HK_Kick01.wav
109,192,81079,1,0,0:0:0:0:
36,192,81079,1,0,0:0:0:0:
329,192,81079,1,0,0:0:0:0:
256,192,81079,1,0,0:0:0:70:LR3_Snare DSW.wav
475,192,81256,1,0,0:0:0:0:
182,192,81256,1,0,0:0:0:0:
329,192,81344,1,0,0:0:0:0:
402,192,81432,128,0,81961:0:0:0:0:
256,192,81432,1,0,0:0:0:50:HK_Kick01.wav
109,192,81432,128,0,81520:0:0:0:0:
182,192,81609,1,0,0:0:0:0:
36,192,81609,128,0,81697:0:0:0:0:
256,192,81785,1,0,0:0:0:0:
109,192,81785,128,0,81873:0:0:0:0:
475,192,81785,1,0,0:0:0:0:
329,192,81785,1,0,0:0:0:70:LR3_Snare DSW.wav
182,192,81961,128,0,82050:0:0:0:0:
329,192,81961,128,0,82314:0:0:0:0:
36,192,82050,1,0,0:0:0:0:
182,192,82138,1,0,0:0:0:0:
475,192,82138,1,0,0:0:0:0:
256,192,82226,1,0,0:0:0:0:
475,192,82314,1,0,0:0:0:0:
402,192,82314,1,0,0:0:0:0:
109,192,82314,128,0,82491:0:0:0:50:HK_Kick01.wav
182,192,82491,1,0,0:0:0:0:
256,192,82491,1,0,0:0:0:0:
402,192,82491,1,0,0:0:0:0:
36,192,82491,1,0,0:0:0:70:LR3_Snare DSW.wav
329,192,82667,1,0,0:0:0:0:
475,192,82667,1,0,0:0:0:0:
182,192,82756,1,0,0:0:0:0:
402,192,82844,1,0,0:0:0:0:
36,192,82844,1,0,0:0:0:0:
256,192,82844,1,0,0:0:0:50:HK_Kick01.wav
329,192,83020,1,0,0:0:0:0:
182,192,83020,1,0,0:0:0:0:
36,192,83197,1,0,0:0:0:0:
402,192,83197,1,0,0:0:0:0:
256,192,83197,1,0,0:0:0:0:
475,192,83197,128,0,83373:0:0:0:70:LR3_Snare DSW.wav
329,192,83373,128,0,83550:0:0:0:0:
109,192,83373,1,0,0:0:0:0:
402,192,83461,1,0,0:0:0:0:
182,192,83550,128,0,83726:0:0:0:0:
36,192,83550,1,0,0:0:0:0:
329,192,83638,1,0,0:0:0:0:
256,192,83726,1,0,0:0:0:0:
475,192,83726,1,0,0:0:0:50:HK_Kick01.wav
402,192,83726,128,0,83814:0:0:0:0:
36,192,83903,128,0,84079:0:0:0:0:
182,192,83903,1,0,0:0:0:0:
475,192,83903,1,0,0:0:0:70:LR3_Snare DSW.wav
329,192,83903,128,0,83991:0:0:0:0:
109,192,84079,1,0,0:0:0:0:
256,192,84079,128,0,84167:0:0:0:0:
402,192,84167,1,0,0:0:0:0:
329,192,84256,1,0,0:0:0:0:
182,192,84256,128,0,84609:0:0:0:0:
475,192,84256,1,0,0:0:0:50:HK_Kick01.wav
256,192,84432,1,0,0:0:0:0:
402,192,84432,1,0,0:0:0:0:
109,192,84520,1,0,0:0:0:0:
402,192,84609,1,0,0:0:0:0:
329,192,84609,1,0,0:0:0:0:
36,192,84609,1,0,0:0:0:0:
475,192,84609,1,0,0:0:0:70:LR3_Snare DSW.wav
256,192,84785,128,0,85314:0:0:0:0:
182,192,84785,1,0,0:0:0:0:
329,192,84873,1,0,0:0:0:0:
36,192,84961,1,0,0:0:0:0:
475,192,84961,1,0,0:0:0:0:
182,192,85050,1,0,0:0:0:0:
109,192,85138,1,0,0:0:0:0:
402,192,85138,1,0,0:0:0:50:HK_Kick01.wav
329,192,85138,128,0,85226:0:0:0:0:
109,192,85314,1,0,0:0:0:0:
36,192,85314,1,0,0:0:0:0:
475,192,85314,1,0,0:0:0:70:LR3_Snare DSW.wav
182,192,85314,128,0,85403:0:0:0:0:
475,192,85491,1,0,0:0:0:0:
329,192,85491,128,0,85579:0:0:0:0:
182,192,85579,1,0,0:0:0:0:
109,192,85667,128,0,86197:0:0:0:0:
256,192,85667,1,0,0:0:0:50:HK_Kick01.wav
402,192,85667,1,0,0:0:0:0:
329,192,85844,1,0,0:0:0:0:
182,192,85844,128,0,85932:0:0:0:0:
256,192,86020,128,0,86109:0:0:0:0:
402,192,86020,1,0,0:0:0:0:
36,192,86020,1,0,0:0:0:0:
475,192,86020,1,0,0:0:0:70:LR3_Snare DSW.wav
329,192,86197,128,0,86285:0:0:0:0:
182,192,86197,128,0,86550:0:0:0:0:
475,192,86285,1,0,0:0:0:0:
36,192,86373,1,0,0:0:0:0:
402,192,86373,128,0,86461:0:0:0:0:
256,192,86461,1,0,0:0:0:0:
109,192,86550,1,0,0:0:0:0:
329,192,86550,1,0,0:0:0:0:
475,192,86550,128,0,86726:0:0:0:50:HK_Kick01.wav
182,192,86726,1,0,0:0:0:0:
402,192,86726,1,0,0:0:0:0:
256,192,86726,1,0,0:0:0:0:
36,192,86726,1,0,0:0:0:70:LR3_Snare DSW.wav
329,192,86903,1,0,0:0:0:0:
109,192,86903,1,0,0:0:0:0:
256,192,86991,1,0,0:0:0:0:
109,192,87079,128,0,87609:0:0:0:0:
182,192,87079,1,0,0:0:0:50:HK_Kick01.wav
402,192,87079,128,0,87167:0:0:0:0:
182,192,87256,1,0,0:0:0:0:
329,192,87256,128,0,87344:0:0:0:0:
402,192,87432,1,0,0:0:0:0:
256,192,87432,128,0,87520:0:0:0:0:
475,192,87432,1,0,0:0:0:0:
36,192,87432,1,0,0:0:0:70:LR3_Snare DSW.wav
182,192,87609,128,0,87697:0:0:0:0:
329,192,87609,128,0,87961:0:0:0:0:
36,192,87697,1,0,0:0:0:0:
182,192,87785,1,0,0:0:0:0:
475,192,87785,1,0,0:0:0:0:
256,192,87873,1,0,0:0:0:0:
109,192,87961,128,0,88138:0:0:0:0:
402,192,87961,1,0,0:0:0:0:
182,192,87961,1,0,0:0:0:50:HK_Kick01.wav
329,192,88138,1,0,0:0:0:0:
256,192,88138,1,0,0:0:0:0:
475,192,88138,1,0,0:0:0:0:
36,192,88138,1,0,0:0:0:70:LR3_Snare DSW.wav
402,192,88314,1,0,0:0:0:0:
182,192,88314,1,0,0:0:0:0:
109,192,88403,1,0,0:0:0:0:
36,192,88491,128,0,88844:0:0:0:0:
475,192,88491,1,0,0:0:0:0:
256,192,88491,1,0,0:0:0:50:HK_Kick01.wav
182,192,88667,1,0,0:0:0:0:
329,192,88667,1,0,0:0:0:0:
256,192,88844,1,0,0:0:0:0:
402,192,88844,128,0,89020:0:0:0:0:
475,192,88844,1,0,0:0:0:0:
109,192,88844,1,0,0:0:0:70:LR3_Snare DSW.wav
109,192,89020,128,0,89197:0:0:0:0:
182,192,89020,1,0,0:0:0:0:
329,192,89109,1,0,0:0:0:0:
256,192,89197,1,0,0:0:0:0:
36,192,89197,1,0,0:0:0:0:
402,192,89285,1,0,0:0:0:0:
475,192,89373,128,0,89550:0:0:0:0:
182,192,89373,1,0,0:0:0:50:HK_Kick01.wav
329,192,89373,128,0,89461:0:0:0:0:
109,192,89550,1,0,0:0:0:0:
36,192,89550,1,0,0:0:0:0:
402,192,89550,1,0,0:0:0:70:LR3_Snare DSW.wav
256,192,89550,128,0,89638:0:0:0:0:
36,192,89726,128,0,89903:0:0:0:0:
182,192,89726,128,0,89814:0:0:0:0:
329,192,89814,1,0,0:0:0:0:
256,192,89903,5,0,0:0:0:0:
475,192,89903,1,0,0:0:0:0:
402,192,89903,1,0,0:0:0:0:
109,192,89903,1,0,0:0:0:70:LR3_Snare DSW.wav
256,192,90079,1,0,0:0:0:50:HK_Kick01.wav
182,192,90138,1,0,0:0:0:50:HK_Kick01.wav
109,192,90197,1,0,0:0:0:50:HK_Kick01.wav
402,192,90256,1,0,0:0:0:0:
36,192,90256,1,0,0:0:0:0:
475,192,90256,1,0,0:0:0:50:HK_Kick01.wav
109,192,90432,1,0,0:0:0:0:
329,192,90432,1,0,0:0:0:0:
256,192,90432,1,0,0:0:0:0:
182,192,90432,1,0,0:0:0:70:LR3_Snare DSW.wav
475,192,90609,1,0,0:0:0:50:HK_Kick01.wav
402,192,90667,1,0,0:0:0:50:HK_Kick01.wav
329,192,90726,1,0,0:0:0:50:HK_Kick01.wav
36,192,90785,128,0,90961:0:0:0:0:
182,192,90785,128,0,90961:0:0:0:0:
256,192,90785,1,0,0:0:0:50:HK_Kick01.wav
109,192,90961,1,0,0:0:0:0:
402,192,90961,1,0,0:0:0:0:
329,192,90961,128,0,91138:0:0:0:0:
475,192,90961,128,0,91138:0:0:0:70:LR3_Snare DSW.wav
256,192,91138,128,0,91844:0:0:0:0:
402,192,91138,128,0,91226:0:0:0:50:HK_Kick01.wav
109,192,91226,128,0,91314:0:0:0:0:
329,192,91314,128,0,91491:0:0:0:0:
182,192,91314,128,0,91491:0:0:0:0:
475,192,91314,128,0,91491:0:0:0:70:LR_CymbalQST.wav
36,192,91314,1,0,0:0:0:50:HK_Kick01.wav
402,192,91491,128,0,91579:0:0:0:0:
36,192,91491,128,0,91579:0:0:0:0:
182,192,91579,128,0,91667:0:0:0:0:
402,192,91667,128,0,91844:0:0:0:0:
36,192,91667,128,0,91844:0:0:0:0:
109,192,91667,128,0,91844:0:0:0:0:
475,192,91667,1,0,0:0:0:70:LR3_Snare DSW.wav
329,192,91844,128,0,91932:0:0:0:0:
182,192,91844,1,0,0:0:0:0:
475,192,91932,128,0,92020:0:0:0:0:
36,192,92020,128,0,92109:0:0:0:0:
256,192,92020,1,0,0:0:0:0:
182,192,92109,128,0,92197:0:0:0:0:
109,192,92197,128,0,92373:0:0:0:0:
36,192,92197,128,0,92373:0:0:0:0:
329,192,92197,1,0,0:0:0:50:HK_Kick01.wav
402,192,92373,128,0,92550:0:0:0:0:
475,192,92373,128,0,92550:0:0:0:0:
329,192,92373,1,0,0:0:0:0:
182,192,92373,1,0,0:0:0:70:LR3_Snare DSW.wav
109,192,92550,128,0,92638:0:0:0:0:
256,192,92550,128,0,93256:0:0:0:0:
402,192,92638,128,0,92726:0:0:0:0:
36,192,92726,128,0,92903:0:0:0:0:
182,192,92726,128,0,92903:0:0:0:0:
329,192,92726,128,0,92903:0:0:0:0:
475,192,92726,1,0,0:0:0:50:HK_Kick01.wav
475,192,92903,128,0,92991:0:0:0:0:
109,192,92903,128,0,92991:0:0:0:0:
329,192,92991,128,0,93079:0:0:0:0:
36,192,93079,1,0,0:0:0:0:
109,192,93079,128,0,93256:0:0:0:0:
402,192,93079,128,0,93256:0:0:0:0:
475,192,93079,128,0,93256:0:0:0:70:LR3_Snare DSW.wav
182,192,93256,128,0,93344:0:0:0:0:
329,192,93256,1,0,0:0:0:0:
36,192,93344,128,0,93432:0:0:0:0:
475,192,93432,128,0,93520:0:0:0:0:
256,192,93432,1,0,0:0:0:0:
329,192,93520,128,0,93609:0:0:0:0:
36,192,93609,128,0,93785:0:0:0:0:
182,192,93609,1,0,0:0:0:0:
475,192,93609,128,0,93785:0:0:0:50:HK_Kick01.wav
109,192,93785,128,0,93961:0:0:0:0:
402,192,93785,128,0,93961:0:0:0:0:
182,192,93785,1,0,0:0:0:0:
329,192,93785,1,0,0:0:0:70:LR3_Snare DSW.wav
256,192,93961,128,0,94491:0:0:0:0:
182,192,93961,128,0,94050:0:0:0:0:
329,192,94050,128,0,94138:0:0:0:0:
182,192,94138,128,0,94314:0:0:0:0:
36,192,94138,1,0,0:0:0:0:
402,192,94138,128,0,94314:0:0:0:0:
475,192,94138,128,0,94314:0:0:0:50:HK_Kick01.wav
109,192,94314,128,0,94403:0:0:0:0:
402,192,94403,128,0,94491:0:0:0:0:
182,192,94491,128,0,94667:0:0:0:0:
36,192,94491,128,0,94667:0:0:0:0:
329,192,94491,1,0,0:0:0:0:
475,192,94491,1,0,0:0:0:70:LR3_Snare DSW.wav
109,192,94667,128,0,95020:0:0:0:0:
402,192,94667,128,0,95020:0:0:0:0:
329,192,94756,128,0,94844:0:0:0:0:
182,192,94844,128,0,94932:0:0:0:0:
36,192,94844,1,0,0:0:0:0:
256,192,94932,128,0,95020:0:0:0:0:
475,192,95020,1,0,0:0:0:0:
36,192,95020,128,0,95197:0:0:0:0:
329,192,95020,128,0,95197:0:0:0:50:HK_Kick01.wav
182,192,95197,1,0,0:0:0:0:
109,192,95197,1,0,0:0:0:0:
402,192,95197,1,0,0:0:0:0:
475,192,95197,1,0,0:0:0:70:LR3_Snare DSW.wav
36,192,95373,128,0,95726:0:0:0:0:
256,192,95373,128,0,95726:0:0:0:0:
475,192,95461,128,0,95550:0:0:0:0:
402,192,95550,1,0,0:0:0:50:HK_Kick01.wav
329,192,95550,1,0,0:0:0:0:
109,192,95550,1,0,0:0:0:0:
402,192,95726,128,0,95903:0:0:0:0:
182,192,95726,128,0,95903:0:0:0:0:
475,192,95903,128,0,96079:0:0:0:0:
36,192,95903,1,0,0:0:0:0:
109,192,95903,128,0,96079:0:0:0:70:LR3_Snare DSW.wav
256,192,95903,1,0,0:0:0:0:
182,192,96079,128,0,96167:0:0:0:0:
329,192,96079,1,0,0:0:0:0:
256,192,96167,128,0,96256:0:0:0:0:
36,192,96256,128,0,96344:0:0:0:0:
402,192,96256,1,0,0:0:0:0:
475,192,96344,128,0,96432:0:0:0:0:
109,192,96432,128,0,96609:0:0:0:0:
256,192,96432,1,0,0:0:0:0:
36,192,96432,128,0,96609:0:0:0:50:HK_Kick01.wav
475,192,96609,128,0,96785:0:0:0:0:
402,192,96609,128,0,96785:0:0:0:0:
182,192,96609,1,0,0:0:0:0:
329,192,96609,1,0,0:0:0:70:LR3_Snare DSW.wav
182,192,96785,128,0,96873:0:0:0:0:
256,192,96785,128,0,97491:0:0:0:0:
329,192,96873,128,0,96961:0:0:0:0:
36,192,96961,128,0,97138:0:0:0:0:
402,192,96961,1,0,0:0:0:0:
475,192,96961,128,0,97138:0:0:0:0:
182,192,96961,128,0,97138:0:0:0:50:HK_Kick01.wav
329,192,97138,128,0,97226:0:0:0:0:
109,192,97138,128,0,97226:0:0:0:0:
182,192,97226,128,0,97314:0:0:0:0:
109,192,97314,128,0,97491:0:0:0:0:
402,192,97314,1,0,0:0:0:0:
36,192,97314,128,0,97491:0:0:0:0:
475,192,97314,128,0,97491:0:0:0:70:LR3_Snare DSW.wav
329,192,97491,128,0,97579:0:0:0:0:
182,192,97491,1,0,0:0:0:0:
402,192,97579,128,0,97667:0:0:0:0:
182,192,97667,128,0,97756:0:0:0:0:
36,192,97667,1,0,0:0:0:0:
109,192,97756,128,0,97844:0:0:0:0:
402,192,97844,1,0,0:0:0:0:
329,192,97844,128,0,98020:0:0:0:0:
475,192,97844,128,0,98020:0:0:0:50:HK_Kick01.wav
109,192,98020,1,0,0:0:0:0:
256,192,98020,1,0,0:0:0:0:
36,192,98020,128,0,98197:0:0:0:0:
182,192,98020,128,0,98197:0:0:0:70:LR3_Snare DSW.wav
329,192,98197,128,0,98285:0:0:0:0:
256,192,98197,128,0,98903:0:0:0:0:
182,192,98285,128,0,98373:0:0:0:0:
329,192,98373,128,0,98550:0:0:0:0:
36,192,98373,128,0,98550:0:0:0:0:
475,192,98373,128,0,98550:0:0:0:0:
109,192,98373,1,0,0:0:0:50:HK_Kick01.wav
182,192,98550,128,0,98638:0:0:0:0:
402,192,98550,128,0,98638:0:0:0:0:
329,192,98638,128,0,98726:0:0:0:0:
109,192,98726,1,0,0:0:0:0:
402,192,98726,128,0,98903:0:0:0:0:
36,192,98726,128,0,98903:0:0:0:0:
475,192,98726,128,0,98903:0:0:0:70:LR3_Snare DSW.wav
182,192,98903,128,0,98991:0:0:0:0:
329,192,98903,1,0,0:0:0:0:
109,192,98991,128,0,99079:0:0:0:0:
329,192,99079,128,0,99167:0:0:0:0:
475,192,99079,1,0,0:0:0:0:
402,192,99167,128,0,99256:0:0:0:0:
36,192,99256,1,0,0:0:0:0:
182,192,99256,128,0,99432:0:0:0:0:
109,192,99256,128,0,99432:0:0:0:50:HK_Kick01.wav
329,192,99432,128,0,99609:0:0:0:0:
402,192,99432,128,0,99609:0:0:0:0:
475,192,99432,1,0,0:0:0:0:
256,192,99432,1,0,0:0:0:70:LR3_Snare DSW.wav
256,192,99609,128,0,100138:0:0:0:0:
109,192,99609,128,0,99697:0:0:0:0:
402,192,99697,128,0,99785:0:0:0:0:
329,192,99785,1,0,0:0:0:0:
182,192,99785,128,0,99961:0:0:0:0:
36,192,99785,128,0,99961:0:0:0:0:
475,192,99785,128,0,99961:0:0:0:50:HK_Kick01.wav
329,192,99961,128,0,100050:0:0:0:0:
182,192,100050,128,0,100138:0:0:0:0:
402,192,100138,128,0,100314:0:0:0:0:
109,192,100138,128,0,100314:0:0:0:0:
36,192,100138,1,0,0:0:0:0:
475,192,100138,1,0,0:0:0:70:LR3_Snare DSW.wav
182,192,100314,128,0,100667:0:0:0:0:
329,192,100314,128,0,100667:0:0:0:0:
256,192,100403,128,0,100491:0:0:0:0:
109,192,100491,128,0,100579:0:0:0:0:
475,192,100491,1,0,0:0:0:0:
36,192,100579,128,0,100667:0:0:0:0:
475,192,100667,1,0,0:0:0:0:
256,192,100667,128,0,100844:0:0:0:0:
402,192,100667,128,0,100844:0:0:0:50:HK_Kick01.wav
182,192,100844,1,0,0:0:0:0:
109,192,100844,1,0,0:0:0:0:
329,192,100844,1,0,0:0:0:0:
36,192,100844,1,0,0:0:0:70:LR3_Snare DSW.wav
256,192,101020,128,0,101373:0:0:0:0:
109,192,101020,128,0,101373:0:0:0:0:
329,192,101109,128,0,101197:0:0:0:0:
36,192,101197,1,0,0:0:0:0:
475,192,101197,1,0,0:0:0:70:LR_CymbalQST.wav
402,192,101197,1,0,0:0:0:50:HK_Kick01.wav
182,192,101197,1,0,0:0:0:0:
182,192,101373,128,0,101550:0:0:0:0:
329,192,101373,128,0,101550:0:0:0:0:
402,192,101550,128,0,101726:0:0:0:0:
256,192,101550,128,0,101726:0:0:0:0:
182,192,101726,128,0,101814:0:0:0:0:
36,192,101726,1,0,0:0:0:0:
329,192,101814,128,0,101903:0:0:0:0:
109,192,101903,128,0,101991:0:0:0:0:
475,192,101903,1,0,0:0:0:0:
182,192,101991,128,0,102079:0:0:0:0:
329,192,102079,128,0,102256:0:0:0:0:
256,192,102079,1,0,0:0:0:0:
36,192,102079,128,0,102256:0:0:0:50:HK_Kick01.wav
109,192,102256,128,0,102432:0:0:0:0:
402,192,102256,128,0,102432:0:0:0:0:
475,192,102256,1,0,0:0:0:0:
182,192,102256,1,0,0:0:0:70:LR3_Snare DSW.wav
256,192,102432,128,0,103138:0:0:0:0:
36,192,102432,128,0,102520:0:0:0:0:
182,192,102520,128,0,102609:0:0:0:0:
329,192,102609,128,0,102785:0:0:0:0:
36,192,102609,128,0,102785:0:0:0:0:
109,192,102609,128,0,102785:0:0:0:50:HK_Kick01.wav
475,192,102609,1,0,0:0:0:70:LR_CymbalQST.wav
182,192,102785,128,0,102873:0:0:0:0:
475,192,102785,128,0,102873:0:0:0:0:
329,192,102873,128,0,102961:0:0:0:0:
109,192,102961,128,0,103138:0:0:0:0:
475,192,102961,128,0,103138:0:0:0:0:
402,192,102961,128,0,103138:0:0:0:0:
36,192,102961,1,0,0:0:0:70:LR3_Snare DSW.wav
329,192,103138,128,0,103226:0:0:0:0:
182,192,103138,1,0,0:0:0:0:
36,192,103226,128,0,103314:0:0:0:0:
402,192,103314,128,0,103403:0:0:0:0:
256,192,103314,1,0,0:0:0:0:
109,192,103403,128,0,103491:0:0:0:0:
182,192,103491,128,0,103667:0:0:0:0:
329,192,103491,128,0,103667:0:0:0:0:
475,192,103491,1,0,0:0:0:50:HK_Kick01.wav
402,192,103667,128,0,103844:0:0:0:0:
109,192,103667,128,0,103844:0:0:0:0:
36,192,103667,1,0,0:0:0:0:
256,192,103667,1,0,0:0:0:70:LR3_Snare DSW.wav
475,192,103844,128,0,103932:0:0:0:0:
256,192,103844,128,0,104550:0:0:0:0:
329,192,103932,128,0,104020:0:0:0:0:
475,192,104020,128,0,104197:0:0:0:0:
402,192,104020,128,0,104197:0:0:0:0:
182,192,104020,128,0,104197:0:0:0:0:
36,192,104020,1,0,0:0:0:50:HK_Kick01.wav
36,192,104197,128,0,104285:0:0:0:0:
329,192,104197,128,0,104285:0:0:0:0:
182,192,104285,128,0,104373:0:0:0:0:
475,192,104373,1,0,0:0:0:0:
402,192,104373,128,0,104550:0:0:0:0:
109,192,104373,128,0,104550:0:0:0:0:
36,192,104373,128,0,104550:0:0:0:70:LR3_Snare DSW.wav
182,192,104550,128,0,104638:0:0:0:0:
329,192,104550,1,0,0:0:0:0:
475,192,104638,128,0,104726:0:0:0:0:
109,192,104726,128,0,104814:0:0:0:0:
256,192,104726,1,0,0:0:0:0:
402,192,104814,128,0,104903:0:0:0:0:
475,192,104903,128,0,105079:0:0:0:0:
182,192,104903,1,0,0:0:0:0:
36,192,104903,128,0,105079:0:0:0:50:HK_Kick01.wav
402,192,105079,128,0,105256:0:0:0:0:
109,192,105079,128,0,105256:0:0:0:0:
329,192,105079,1,0,0:0:0:0:
256,192,105079,1,0,0:0:0:70:LR3_Snare DSW.wav
256,192,105256,128,0,105785:0:0:0:0:
329,192,105256,128,0,105344:0:0:0:0:
182,192,105344,128,0,105432:0:0:0:0:
475,192,105432,128,0,105609:0:0:0:0:
36,192,105432,1,0,0:0:0:0:
329,192,105432,128,0,105609:0:0:0:0:
109,192,105432,128,0,105609:0:0:0:50:HK_Kick01.wav
402,192,105609,128,0,105697:0:0:0:0:
109,192,105697,128,0,105785:0:0:0:0:
182,192,105785,128,0,105961:0:0:0:0:
329,192,105785,128,0,105961:0:0:0:0:
36,192,105785,1,0,0:0:0:0:
475,192,105785,1,0,0:0:0:70:LR3_Snare DSW.wav
402,192,105961,128,0,106314:0:0:0:0:
36,192,105961,128,0,106314:0:0:0:0:
256,192,106050,128,0,106138:0:0:0:0:
329,192,106138,128,0,106226:0:0:0:0:
475,192,106138,1,0,0:0:0:0:
182,192,106226,128,0,106314:0:0:0:0:
109,192,106314,128,0,106491:0:0:0:0:
256,192,106314,128,0,106491:0:0:0:0:
475,192,106314,1,0,0:0:0:50:HK_Kick01.wav
329,192,106491,1,0,0:0:0:0:
36,192,106491,1,0,0:0:0:0:
402,192,106491,1,0,0:0:0:0:
182,192,106491,1,0,0:0:0:70:LR3_Snare DSW.wav
36,192,106667,128,0,107020:0:0:0:0:
182,192,106667,128,0,107020:0:0:0:0:
329,192,106756,128,0,106844:0:0:0:0:
475,192,106844,1,0,0:0:0:50:HK_Kick01.wav
256,192,106844,1,0,0:0:0:0:
109,192,106844,1,0,0:0:0:0:
109,192,107020,128,0,107197:0:0:0:0:
402,192,107020,128,0,107197:0:0:0:0:
475,192,107197,128,0,107373:0:0:0:0:
182,192,107197,1,0,0:0:0:0:
36,192,107197,128,0,107373:0:0:0:70:LR3_Snare DSW.wav
329,192,107197,1,0,0:0:0:0:
256,192,107373,128,0,107461:0:0:0:0:
109,192,107373,1,0,0:0:0:0:
329,192,107461,128,0,107550:0:0:0:0:
182,192,107550,128,0,107638:0:0:0:0:
402,192,107550,1,0,0:0:0:0:
109,192,107638,128,0,107726:0:0:0:0:
36,192,107726,128,0,107903:0:0:0:0:
475,192,107726,128,0,107903:0:0:0:0:
256,192,107726,1,0,0:0:0:50:HK_Kick01.wav
109,192,107903,128,0,108079:0:0:0:0:
402,192,107903,128,0,108079:0:0:0:0:
329,192,107903,1,0,0:0:0:0:
182,192,107903,1,0,0:0:0:70:LR3_Snare DSW.wav
329,192,108079,128,0,108167:0:0:0:0:
256,192,108079,128,0,108785:0:0:0:0:
182,192,108167,128,0,108256:0:0:0:0:
329,192,108256,128,0,108432:0:0:0:0:
36,192,108256,128,0,108432:0:0:0:0:
109,192,108256,128,0,108432:0:0:0:0:
402,192,108256,1,0,0:0:0:50:HK_Kick01.wav
182,192,108432,128,0,108520:0:0:0:0:
475,192,108432,128,0,108520:0:0:0:0:
109,192,108520,128,0,108609:0:0:0:0:
475,192,108609,128,0,108785:0:0:0:0:
329,192,108609,1,0,0:0:0:0:
402,192,108609,128,0,108785:0:0:0:0:
36,192,108609,128,0,108785:0:0:0:70:LR3_Snare DSW.wav
182,192,108785,128,0,108873:0:0:0:0:
109,192,108785,1,0,0:0:0:0:
329,192,108873,128,0,108961:0:0:0:0:
36,192,108961,128,0,109050:0:0:0:0:
475,192,108961,1,0,0:0:0:0:
182,192,109050,128,0,109138:0:0:0:0:
256,192,109138,1,0,0:0:0:0:
109,192,109138,128,0,109314:0:0:0:0:
329,192,109138,128,0,109314:0:0:0:50:HK_Kick01.wav
402,192,109314,1,0,0:0:0:0:
182,192,109314,1,0,0:0:0:0:
475,192,109314,128,0,109491:0:0:0:0:
36,192,109314,128,0,109491:0:0:0:70:LR3_Snare DSW.wav
182,192,109491,128,0,109579:0:0:0:0:
256,192,109491,128,0,110197:0:0:0:0:
329,192,109579,128,0,109667:0:0:0:0:
402,192,109667,128,0,109844:0:0:0:0:
475,192,109667,128,0,109844:0:0:0:0:
182,192,109667,128,0,109844:0:0:0:0:
109,192,109667,1,0,0:0:0:50:HK_Kick01.wav
329,192,109844,128,0,109932:0:0:0:0:
36,192,109844,128,0,109932:0:0:0:0:
402,192,109932,128,0,110020:0:0:0:0:
109,192,110020,128,0,110197:0:0:0:0:
182,192,110020,1,0,0:0:0:0:
36,192,110020,128,0,110197:0:0:0:0:
475,192,110020,128,0,110197:0:0:0:70:LR3_Snare DSW.wav
329,192,110197,128,0,110285:0:0:0:0:
402,192,110197,1,0,0:0:0:0:
182,192,110285,128,0,110373:0:0:0:0:
475,192,110373,128,0,110461:0:0:0:0:
36,192,110373,1,0,0:0:0:0:
329,192,110461,128,0,110550:0:0:0:0:
182,192,110550,128,0,110726:0:0:0:0:
402,192,110550,128,0,110726:0:0:0:0:
256,192,110550,1,0,0:0:0:50:HK_Kick01.wav
36,192,110726,1,0,0:0:0:0:
329,192,110726,1,0,0:0:0:0:
475,192,110726,128,0,110903:0:0:0:0:
109,192,110726,128,0,110903:0:0:0:70:LR3_Snare DSW.wav
256,192,110903,128,0,111432:0:0:0:0:
329,192,110903,128,0,110991:0:0:0:0:
182,192,110991,128,0,111079:0:0:0:0:
475,192,111079,128,0,111256:0:0:0:0:
36,192,111079,128,0,111256:0:0:0:0:
109,192,111079,128,0,111256:0:0:0:0:
402,192,111079,1,0,0:0:0:50:HK_Kick01.wav
402,192,111256,128,0,111344:0:0:0:0:
109,192,111344,128,0,111432:0:0:0:0:
182,192,111432,1,0,0:0:0:0:
36,192,111432,1,0,0:0:0:0:
329,192,111432,128,0,111609:0:0:0:0:
475,192,111432,128,0,111609:0:0:0:70:LR3_Snare DSW.wav
256,192,111609,128,0,111961:0:0:0:0:
109,192,111609,128,0,111961:0:0:0:0:
36,192,111697,128,0,111785:0:0:0:0:
182,192,111785,128,0,111873:0:0:0:0:
475,192,111785,1,0,0:0:0:0:
329,192,111873,128,0,111961:0:0:0:0:
402,192,111961,1,0,0:0:0:0:
36,192,111961,128,0,112138:0:0:0:0:
475,192,111961,128,0,112138:0:0:0:50:HK_Kick01.wav
256,192,112138,1,0,0:0:0:0:
182,192,112138,1,0,0:0:0:0:
329,192,112138,1,0,0:0:0:0:
109,192,112138,1,0,0:0:0:70:LR3_Snare DSW.wav
182,192,112314,128,0,112491:0:0:0:0:
329,192,112314,128,0,112491:0:0:0:0:
475,192,112403,128,0,112491:0:0:0:0:
36,192,112491,1,0,0:0:0:0:
256,192,112491,1,0,0:0:0:50:HK_Kick01.wav
402,192,112491,1,0,0:0:0:70:LR_CymbalQST.wav
109,192,112491,1,0,0:0:0:0:
182,192,112667,128,0,112844:0:0:0:0:
36,192,112667,128,0,112844:0:0:0:0:
475,192,112844,128,0,113020:0:0:0:0:
329,192,112844,128,0,113020:0:0:0:0:
256,192,113020,128,0,113373:0:0:0:0:
402,192,113373,128,0,113550:0:0:0:0:
329,192,113373,128,0,113550:0:0:0:0:
182,192,113373,1,0,0:0:0:50:HK_Kick01.wav
256,192,113550,1,0,0:0:0:0:
475,192,113550,1,0,0:0:0:0:
36,192,113550,128,0,113726:0:0:0:0:
109,192,113550,128,0,113726:0:0:0:70:LR3_Snare RSH.wav
329,192,113726,128,0,113903:0:0:0:0:
402,192,113726,128,0,113903:0:0:0:0:
109,192,113903,1,0,0:0:0:0:
475,192,113903,1,0,0:0:0:0:
256,192,113903,1,0,0:0:0:0:
182,192,113903,128,0,113991:0:0:0:50:HK_Kick01.wav
36,192,113903,1,0,0:0:0:70:LR_CymbalQST.wav
329,192,114079,1,0,0:0:0:0:
109,192,114079,128,0,114167:0:0:0:0:
402,192,114256,1,0,0:0:0:0:
256,192,114256,1,0,0:0:0:70:LR3_Snare DSW.wav
475,192,114256,1,0,0:0:0:0:
36,192,114256,128,0,114344:0:0:0:0:
182,192,114432,128,0,114609:0:0:0:0:
329,192,114432,1,0,0:0:0:0:
475,192,114520,1,0,0:0:0:0:
36,192,114609,1,0,0:0:0:0:
256,192,114609,128,0,114785:0:0:0:0:
109,192,114697,1,0,0:0:0:0:
402,192,114785,1,0,0:0:0:0:
329,192,114785,128,0,114961:0:0:0:0:
182,192,114785,1,0,0:0:0:50:HK_Kick01.wav
36,192,114961,1,0,0:0:0:0:
109,192,114961,1,0,0:0:0:0:
256,192,114961,1,0,0:0:0:0:
475,192,114961,1,0,0:0:0:70:LR3_Snare DSW.wav
182,192,115138,1,0,0:0:0:0:
256,192,115226,1,0,0:0:0:0:
329,192,115314,1,0,0:0:0:0:
36,192,115314,1,0,0:0:0:0:
402,192,115314,128,0,115403:0:0:0:50:HK_Kick01.wav
109,192,115491,1,0,0:0:0:0:
256,192,115491,128,0,115579:0:0:0:0:
329,192,115667,1,0,0:0:0:0:
36,192,115667,1,0,0:0:0:0:
475,192,115667,1,0,0:0:0:70:LR3_Snare DSW.wav
109,192,115667,128,0,115756:0:0:0:0:
329,192,115844,128,0,116197:0:0:0:0:
182,192,115844,1,0,0:0:0:0:
256,192,115932,1,0,0:0:0:0:
182,192,116020,1,0,0:0:0:0:
475,192,116020,1,0,0:0:0:0:
36,192,116109,1,0,0:0:0:0:
256,192,116197,128,0,116373:0:0:0:0:
109,192,116197,1,0,0:0:0:0:
402,192,116197,1,0,0:0:0:50:HK_Kick01.wav
475,192,116373,1,0,0:0:0:0:
36,192,116373,1,0,0:0:0:0:
182,192,116373,1,0,0:0:0:0:
329,192,116373,1,0,0:0:0:70:LR3_Snare DSW.wav
109,192,116550,1,0,0:0:0:0:
256,192,116638,1,0,0:0:0:0:
182,192,116726,1,0,0:0:0:0:
329,192,116726,1,0,0:0:0:0:
475,192,116726,1,0,0:0:0:50:HK_Kick01.wav
109,192,116903,1,0,0:0:0:0:
256,192,116903,1,0,0:0:0:0:
475,192,117079,1,0,0:0:0:0:
36,192,117079,128,0,117167:0:0:0:0:
402,192,117079,1,0,0:0:0:0:
182,192,117079,1,0,0:0:0:70:LR3_Snare DSW.wav
329,192,117256,1,0,0:0:0:0:
109,192,117256,128,0,117344:0:0:0:0:
402,192,117344,1,0,0:0:0:0:
182,192,117432,128,0,117785:0:0:0:0:
36,192,117432,1,0,0:0:0:0:
256,192,117520,1,0,0:0:0:0:
329,192,117609,1,0,0:0:0:0:
475,192,117609,1,0,0:0:0:0:
109,192,117609,1,0,0:0:0:50:HK_Kick01.wav
475,192,117785,1,0,0:0:0:0:
402,192,117785,128,0,117961:0:0:0:0:
36,192,117785,1,0,0:0:0:0:
256,192,117785,1,0,0:0:0:70:LR3_Snare DSW.wav
329,192,117961,1,0,0:0:0:0:
109,192,117961,128,0,118138:0:0:0:0:
256,192,118050,1,0,0:0:0:0:
475,192,118138,128,0,118667:0:0:0:0:
182,192,118138,1,0,0:0:0:0:
36,192,118138,1,0,0:0:0:50:HK_Kick01.wav
256,192,118314,1,0,0:0:0:0:
109,192,118314,1,0,0:0:0:0:
329,192,118491,1,0,0:0:0:0:
182,192,118491,1,0,0:0:0:0:
402,192,118491,1,0,0:0:0:0:
36,192,118491,1,0,0:0:0:70:LR3_Snare DSW.wav
329,192,118667,128,0,119020:0:0:0:0:
109,192,118667,1,0,0:0:0:0:
182,192,118756,1,0,0:0:0:0:
402,192,118844,1,0,0:0:0:0:
256,192,118844,1,0,0:0:0:0:
36,192,118932,1,0,0:0:0:0:
109,192,119020,1,0,0:0:0:0:
475,192,119020,1,0,0:0:0:0:
182,192,119020,128,0,119197:0:0:0:50:HK_Kick01.wav
402,192,119197,1,0,0:0:0:0:
256,192,119197,1,0,0:0:0:0:
36,192,119197,1,0,0:0:0:0:
475,192,119197,1,0,0:0:0:70:LR3_Snare DSW.wav
109,192,119373,1,0,0:0:0:0:
256,192,119461,1,0,0:0:0:0:
329,192,119550,1,0,0:0:0:0:
36,192,119550,128,0,119638:0:0:0:0:
475,192,119550,1,0,0:0:0:50:HK_Kick01.wav
402,192,119726,1,0,0:0:0:0:
182,192,119726,128,0,119814:0:0:0:0:
36,192,119903,1,0,0:0:0:0:
475,192,119903,1,0,0:0:0:70:LR3_Snare DSW.wav
256,192,119903,1,0,0:0:0:0:
109,192,119903,128,0,119991:0:0:0:0:
329,192,120079,128,0,120256:0:0:0:0:
182,192,120079,1,0,0:0:0:0:
402,192,120167,1,0,0:0:0:0:
256,192,120256,128,0,120432:0:0:0:0:
109,192,120256,1,0,0:0:0:0:
329,192,120344,1,0,0:0:0:0:
182,192,120432,128,0,120609:0:0:0:0:
36,192,120432,1,0,0:0:0:0:
475,192,120432,1,0,0:0:0:50:HK_Kick01.wav
36,192,120609,1,0,0:0:0:0:
109,192,120609,1,0,0:0:0:0:
256,192,120609,1,0,0:0:0:0:
402,192,120609,1,0,0:0:0:70:LR3_Snare DSW.wav
182,192,120785,1,0,0:0:0:0:
256,192,120873,1,0,0:0:0:0:
475,192,120961,1,0,0:0:0:0:
329,192,120961,1,0,0:0:0:50:HK_Kick01.wav
36,192,120961,128,0,121050:0:0:0:0:
402,192,121138,1,0,0:0:0:0:
182,192,121138,128,0,121226:0:0:0:0:
109,192,121314,1,0,0:0:0:0:
36,192,121314,1,0,0:0:0:0:
475,192,121314,1,0,0:0:0:70:LR3_Snare DSW.wav
329,192,121314,128,0,121403:0:0:0:0:
182,192,121491,128,0,121844:0:0:0:0:
402,192,121491,1,0,0:0:0:0:
256,192,121579,1,0,0:0:0:0:
475,192,121667,1,0,0:0:0:0:
329,192,121667,1,0,0:0:0:0:
36,192,121756,1,0,0:0:0:0:
256,192,121844,128,0,122020:0:0:0:0:
402,192,121844,1,0,0:0:0:0:
109,192,121844,1,0,0:0:0:50:HK_Kick01.wav
182,192,122020,1,0,0:0:0:0:
475,192,122020,1,0,0:0:0:0:
329,192,122020,1,0,0:0:0:0:
36,192,122020,1,0,0:0:0:70:LR3_Snare DSW.wav
256,192,122197,1,0,0:0:0:0:
109,192,122285,1,0,0:0:0:0:
402,192,122373,128,0,122726:0:0:0:0:
329,192,122373,1,0,0:0:0:0:
36,192,122373,1,0,0:0:0:50:HK_Kick01.wav
256,192,122550,1,0,0:0:0:0:
182,192,122550,1,0,0:0:0:0:
475,192,122726,128,0,122903:0:0:0:0:
109,192,122726,1,0,0:0:0:0:
329,192,122726,1,0,0:0:0:0:
36,192,122726,1,0,0:0:0:70:LR3_Snare DSW.wav
402,192,122903,1,0,0:0:0:0:
182,192,122903,128,0,123079:0:0:0:0:
256,192,122991,1,0,0:0:0:0:
329,192,123079,1,0,0:0:0:0:
475,192,123079,1,0,0:0:0:0:
36,192,123167,1,0,0:0:0:0:
402,192,123256,128,0,123432:0:0:0:0:
109,192,123256,1,0,0:0:0:0:
256,192,123256,1,0,0:0:0:50:HK_Kick01.wav
36,192,123432,1,0,0:0:0:0:
475,192,123432,1,0,0:0:0:0:
182,192,123432,1,0,0:0:0:0:
329,192,123432,1,0,0:0:0:70:LR3_Snare DSW.wav
256,192,123609,1,0,0:0:0:0:
109,192,123609,128,0,123785:0:0:0:0:
329,192,123697,1,0,0:0:0:0:
402,192,123785,1,0,0:0:0:0:
475,192,123785,1,0,0:0:0:0:
182,192,123785,1,0,0:0:0:50:HK_Kick01.wav
109,192,123961,1,0,0:0:0:0:
329,192,123961,128,0,124138:0:0:0:0:
475,192,124138,1,0,0:0:0:0:
256,192,124138,1,0,0:0:0:0:
182,192,124138,128,0,124314:0:0:0:0:
36,192,124138,1,0,0:0:0:70:LR3_Snare DSW.wav
36,192,124314,128,0,124491:0:0:0:0:
109,192,124314,1,0,0:0:0:0:
402,192,124314,1,0,0:0:0:50:HK_Kick01.wav
256,192,124403,1,0,0:0:0:0:
329,192,124491,128,0,124667:0:0:0:0:
475,192,124491,1,0,0:0:0:0:
109,192,124579,1,0,0:0:0:0:
182,192,124667,1,0,0:0:0:0:
256,192,124667,1,0,0:0:0:0:
36,192,124667,1,0,0:0:0:50:HK_Kick01.wav
256,192,124844,128,0,125197:0:0:0:0:
109,192,124844,1,0,0:0:0:0:
402,192,124844,1,0,0:0:0:0:
475,192,124844,1,0,0:0:0:70:LR3_Snare DSW.wav
329,192,125020,1,0,0:0:0:0:
182,192,125109,1,0,0:0:0:0:
402,192,125197,1,0,0:0:0:0:
475,192,125197,1,0,0:0:0:0:
329,192,125197,1,0,0:0:0:0:
36,192,125197,128,0,125285:0:0:0:70:LR_CymbalQST.wav
109,192,125197,1,0,0:0:0:50:HK_Kick01.wav
402,192,125373,1,0,0:0:0:0:
182,192,125373,128,0,125461:0:0:0:0:
475,192,125550,1,0,0:0:0:0:
36,192,125550,1,0,0:0:0:0:
109,192,125550,1,0,0:0:0:70:LR3_Snare DSW.wav
329,192,125550,128,0,125638:0:0:0:0:
402,192,125726,128,0,125903:0:0:0:0:
256,192,125726,1,0,0:0:0:0:
182,192,125814,1,0,0:0:0:0:
36,192,125903,1,0,0:0:0:0:
329,192,125903,128,0,126079:0:0:0:0:
109,192,125991,1,0,0:0:0:0:
256,192,126079,128,0,126256:0:0:0:0:
36,192,126079,1,0,0:0:0:0:
402,192,126079,1,0,0:0:0:50:HK_Kick01.wav
475,192,126256,1,0,0:0:0:0:
329,192,126256,1,0,0:0:0:0:
109,192,126256,1,0,0:0:0:0:
36,192,126256,1,0,0:0:0:70:LR3_Snare DSW.wav
182,192,126432,1,0,0:0:0:0:
329,192,126520,1,0,0:0:0:0:
475,192,126609,128,0,126697:0:0:0:0:
109,192,126609,1,0,0:0:0:0:
36,192,126609,1,0,0:0:0:50:HK_Kick01.wav
256,192,126785,1,0,0:0:0:0:
402,192,126785,128,0,126873:0:0:0:0:
182,192,126961,1,0,0:0:0:0:
475,192,126961,1,0,0:0:0:0:
36,192,126961,1,0,0:0:0:70:LR3_Snare DSW.wav
329,192,126961,128,0,127050:0:0:0:0:
256,192,127138,1,0,0:0:0:0:
109,192,127138,128,0,127491:0:0:0:0:
329,192,127226,1,0,0:0:0:0:
182,192,127314,1,0,0:0:0:0:
36,192,127314,1,0,0:0:0:0:
256,192,127403,1,0,0:0:0:0:
329,192,127491,128,0,127667:0:0:0:0:
402,192,127491,1,0,0:0:0:0:
182,192,127491,1,0,0:0:0:50:HK_Kick01.wav
256,192,127667,1,0,0:0:0:0:
475,192,127667,1,0,0:0:0:0:
36,192,127667,1,0,0:0:0:0:
109,192,127667,1,0,0:0:0:70:LR3_Snare DSW.wav
182,192,127844,1,0,0:0:0:0:
329,192,127932,1,0,0:0:0:0:
109,192,128020,1,0,0:0:0:0:
36,192,128020,1,0,0:0:0:0:
475,192,128020,1,0,0:0:0:50:HK_Kick01.wav
182,192,128197,1,0,0:0:0:0:
402,192,128197,1,0,0:0:0:0:
329,192,128373,1,0,0:0:0:0:
109,192,128373,1,0,0:0:0:0:
256,192,128373,128,0,128461:0:0:0:0:
475,192,128373,1,0,0:0:0:70:LR3_Snare DSW.wav
329,192,128550,128,0,128638:0:0:0:0:
182,192,128550,1,0,0:0:0:0:
36,192,128638,1,0,0:0:0:0:
402,192,128726,128,0,129079:0:0:0:0:
256,192,128726,1,0,0:0:0:0:
109,192,128814,1,0,0:0:0:0:
182,192,128903,1,0,0:0:0:0:
329,192,128903,1,0,0:0:0:0:
36,192,128903,1,0,0:0:0:50:HK_Kick01.wav
36,192,129079,128,0,129256:0:0:0:0:
256,192,129079,1,0,0:0:0:0:
109,192,129079,1,0,0:0:0:0:
475,192,129079,1,0,0:0:0:70:LR3_Snare DSW.wav
182,192,129256,128,0,129432:0:0:0:0:
329,192,129256,1,0,0:0:0:0:
402,192,129344,1,0,0:0:0:0:
329,192,129432,1,0,0:0:0:0:
36,192,129432,1,0,0:0:0:0:
475,192,129432,128,0,129961:0:0:0:50:HK_Kick01.wav
182,192,129609,1,0,0:0:0:0:
329,192,129697,1,0,0:0:0:0:
36,192,129785,1,0,0:0:0:0:
109,192,129785,1,0,0:0:0:0:
402,192,129785,1,0,0:0:0:0:
256,192,129785,1,0,0:0:0:70:LR3_Snare DSW.wav
329,192,129961,128,0,130314:0:0:0:0:
182,192,129961,1,0,0:0:0:0:
402,192,130050,1,0,0:0:0:0:
109,192,130138,1,0,0:0:0:0:
256,192,130138,1,0,0:0:0:0:
475,192,130226,1,0,0:0:0:0:
182,192,130314,128,0,130491:0:0:0:0:
36,192,130314,1,0,0:0:0:0:
402,192,130314,1,0,0:0:0:50:HK_Kick01.wav
329,192,130491,1,0,0:0:0:0:
475,192,130491,1,0,0:0:0:0:
109,192,130491,1,0,0:0:0:0:
256,192,130491,1,0,0:0:0:70:LR3_Snare DSW.wav
182,192,130667,1,0,0:0:0:0:
109,192,130756,1,0,0:0:0:0:
36,192,130844,1,0,0:0:0:0:
402,192,130844,1,0,0:0:0:0:
475,192,130844,128,0,130932:0:0:0:50:HK_Kick01.wav
109,192,131020,1,0,0:0:0:0:
256,192,131020,128,0,131109:0:0:0:0:
329,192,131197,1,0,0:0:0:0:
475,192,131197,1,0,0:0:0:0:
182,192,131197,1,0,0:0:0:70:LR3_Snare DSW.wav
36,192,131197,128,0,131285:0:0:0:0:
109,192,131373,128,0,131550:0:0:0:0:
256,192,131373,1,0,0:0:0:0:
329,192,131461,1,0,0:0:0:0:
475,192,131550,1,0,0:0:0:0:
182,192,131550,128,0,131726:0:0:0:0:
402,192,131638,1,0,0:0:0:0:
256,192,131726,128,0,131903:0:0:0:0:
109,192,131726,1,0,0:0:0:0:
475,192,131726,1,0,0:0:0:50:HK_Kick01.wav
402,192,131903,1,0,0:0:0:0:
329,192,131903,1,0,0:0:0:0:
182,192,131903,1,0,0:0:0:0:
36,192,131903,1,0,0:0:0:70:LR3_Snare DSW.wav
109,192,132079,1,0,0:0:0:0:
329,192,132167,1,0,0:0:0:0:
475,192,132256,1,0,0:0:0:0:
182,192,132256,128,0,132344:0:0:0:0:
36,192,132256,1,0,0:0:0:50:HK_Kick01.wav
402,192,132432,1,0,0:0:0:0:
256,192,132432,128,0,132520:0:0:0:0:
36,192,132609,1,0,0:0:0:0:
475,192,132609,1,0,0:0:0:0:
109,192,132609,1,0,0:0:0:70:LR3_Snare DSW.wav
329,192,132609,128,0,132697:0:0:0:0:
402,192,132785,128,0,133138:0:0:0:0:
256,192,132785,1,0,0:0:0:0:
329,192,132873,1,0,0:0:0:0:
182,192,132961,1,0,0:0:0:0:
475,192,132961,1,0,0:0:0:0:
36,192,133050,1,0,0:0:0:0:
256,192,133138,128,0,133314:0:0:0:0:
329,192,133138,1,0,0:0:0:0:
109,192,133138,1,0,0:0:0:50:HK_Kick01.wav
182,192,133314,1,0,0:0:0:0:
36,192,133314,1,0,0:0:0:0:
475,192,133314,1,0,0:0:0:0:
329,192,133314,1,0,0:0:0:70:LR3_Snare DSW.wav
109,192,133491,1,0,0:0:0:0:
402,192,133579,1,0,0:0:0:0:
182,192,133667,128,0,134020:0:0:0:0:
329,192,133667,1,0,0:0:0:0:
475,192,133667,1,0,0:0:0:50:HK_Kick01.wav
256,192,133844,1,0,0:0:0:0:
402,192,133844,1,0,0:0:0:0:
109,192,134020,1,0,0:0:0:0:
475,192,134020,1,0,0:0:0:0:
329,192,134020,128,0,134197:0:0:0:0:
36,192,134020,1,0,0:0:0:70:LR3_Snare DSW.wav
475,192,134197,128,0,134373:0:0:0:0:
256,192,134197,1,0,0:0:0:0:
182,192,134285,1,0,0:0:0:0:
256,192,134373,1,0,0:0:0:0:
36,192,134373,1,0,0:0:0:0:
109,192,134461,1,0,0:0:0:0:
329,192,134550,1,0,0:0:0:0:
182,192,134550,128,0,134726:0:0:0:0:
475,192,134550,1,0,0:0:0:50:HK_Kick01.wav
475,192,134726,1,0,0:0:0:0:
402,192,134726,1,0,0:0:0:0:
256,192,134726,1,0,0:0:0:0:
36,192,134726,1,0,0:0:0:70:LR3_Snare DSW.wav
109,192,134903,128,0,135079:0:0:0:0:
329,192,134903,1,0,0:0:0:0:
182,192,134991,1,0,0:0:0:0:
36,192,135079,1,0,0:0:0:0:
475,192,135079,1,0,0:0:0:0:
402,192,135079,1,0,0:0:0:50:HK_Kick01.wav
256,192,135079,1,0,0:0:0:70:LR_CymbalQST.wav
182,192,135256,1,0,0:0:0:0:
402,192,135256,1,0,0:0:0:0:
329,192,135344,1,0,0:0:0:0:
109,192,135344,1,0,0:0:0:0:
256,192,135432,1,0,0:0:0:0:
475,192,135432,1,0,0:0:0:0:
36,192,135432,1,0,0:0:0:0:
36,192,135609,1,0,0:0:0:0:
182,192,135609,1,0,0:0:0:0:
329,192,135697,1,0,0:0:0:0:
475,192,135697,1,0,0:0:0:0:
182,192,135785,1,0,0:0:0:0:
109,192,135785,1,0,0:0:0:0:
329,192,135873,1,0,0:0:0:0:
402,192,135873,1,0,0:0:0:0:
256,192,135961,1,0,0:0:0:0:
475,192,135961,1,0,0:0:0:0:
109,192,135961,1,0,0:0:0:50:HK_Kick01.wav
36,192,136138,1,0,0:0:0:0:
182,192,136138,1,0,0:0:0:0:
402,192,136138,1,0,0:0:0:0:
329,192,136138,128,0,136491:0:0:0:70:LR3_Snare DSW.wav
109,192,136491,1,0,0:0:0:0:
36,192,136491,1,0,0:0:0:0:
182,192,136491,128,0,136667:0:0:0:0:
256,192,136491,1,0,0:0:0:50:HK_Kick01.wav
475,192,136491,1,0,0:0:0:70:LR_CymbalQST.wav
475,192,136844,1,0,0:0:0:0:
36,192,136844,1,0,0:0:0:0:
256,192,136844,1,0,0:0:0:0:
402,192,136844,1,0,0:0:0:70:LR3_Snare DSW.wav
329,192,137020,1,0,0:0:0:0:
256,192,137197,128,0,137373:0:0:0:0:
182,192,137373,1,0,0:0:0:0:
36,192,137373,1,0,0:0:0:0:
402,192,137373,1,0,0:0:0:50:HK_Kick01.wav
109,192,137550,1,0,0:0:0:0:
329,192,137550,1,0,0:0:0:0:
256,192,137550,1,0,0:0:0:0:
475,192,137550,1,0,0:0:0:70:LR3_Snare DSW.wav
329,192,137903,128,0,138079:0:0:0:0:
475,192,137903,1,0,0:0:0:0:
182,192,137903,1,0,0:0:0:50:HK_Kick01.wav
36,192,138256,1,0,0:0:0:0:
109,192,138256,1,0,0:0:0:0:
256,192,138256,1,0,0:0:0:0:
475,192,138256,1,0,0:0:0:70:LR3_Snare DSW.wav
402,192,138432,1,0,0:0:0:0:
329,192,138609,128,0,138961:0:0:0:0:
475,192,138785,1,0,0:0:0:0:
36,192,138785,1,0,0:0:0:0:
182,192,138785,1,0,0:0:0:50:HK_Kick01.wav
475,192,138961,128,0,139314:0:0:0:0:
402,192,138961,1,0,0:0:0:0:
256,192,138961,1,0,0:0:0:0:
109,192,138961,1,0,0:0:0:70:LR3_Snare DSW.wav
36,192,139314,1,0,0:0:0:0:
182,192,139314,1,0,0:0:0:0:
256,192,139314,128,0,139491:0:0:0:50:HK_Kick01.wav
109,192,139491,128,0,139579:0:0:0:0:
475,192,139667,1,0,0:0:0:0:
402,192,139667,128,0,139756:0:0:0:0:
256,192,139667,1,0,0:0:0:0:
36,192,139667,1,0,0:0:0:70:LR3_Snare DSW.wav
182,192,139844,128,0,140197:0:0:0:0:
329,192,139844,1,0,0:0:0:0:
109,192,140197,128,0,140285:0:0:0:0:
402,192,140197,1,0,0:0:0:0:
256,192,140197,1,0,0:0:0:50:HK_Kick01.wav
182,192,140373,128,0,140461:0:0:0:0:
329,192,140373,1,0,0:0:0:0:
36,192,140373,1,0,0:0:0:0:
475,192,140373,1,0,0:0:0:70:LR3_Snare DSW.wav
256,192,140550,128,0,141256:0:0:0:0:
402,192,140726,1,0,0:0:0:0:
475,192,140726,1,0,0:0:0:50:HK_Kick01.wav
109,192,140726,1,0,0:0:0:0:
329,192,141079,1,0,0:0:0:0:
182,192,141079,1,0,0:0:0:0:
36,192,141079,1,0,0:0:0:0:
402,192,141079,1,0,0:0:0:70:LR3_Snare DSW.wav
109,192,141256,1,0,0:0:0:0:
182,192,141609,1,0,0:0:0:0:
329,192,141609,1,0,0:0:0:50:HK_Kick01.wav
36,192,141609,1,0,0:0:0:0:
109,192,141785,128,0,141961:0:0:0:0:
475,192,141785,1,0,0:0:0:0:
402,192,141785,1,0,0:0:0:0:
256,192,141785,1,0,0:0:0:70:LR3_Snare DSW.wav
182,192,141961,1,0,0:0:0:0:
256,192,142050,1,0,0:0:0:0:
36,192,142138,1,0,0:0:0:0:
329,192,142138,1,0,0:0:0:0:
402,192,142138,128,0,142314:0:0:0:50:HK_Kick01.wav
109,192,142491,1,0,0:0:0:0:
256,192,142491,1,0,0:0:0:0:
36,192,142491,1,0,0:0:0:0:
475,192,142491,1,0,0:0:0:70:LR3_Snare DSW.wav
329,192,142667,1,0,0:0:0:0:
256,192,142844,128,0,143020:0:0:0:0:
402,192,143020,1,0,0:0:0:0:
109,192,143020,1,0,0:0:0:0:
182,192,143020,1,0,0:0:0:50:HK_Kick01.wav
36,192,143197,1,0,0:0:0:0:
329,192,143197,1,0,0:0:0:0:
256,192,143197,1,0,0:0:0:0:
475,192,143197,1,0,0:0:0:70:LR3_Snare DSW.wav
109,192,143550,1,0,0:0:0:0:
182,192,143550,128,0,143726:0:0:0:0:
329,192,143550,1,0,0:0:0:50:HK_Kick01.wav
36,192,143903,1,0,0:0:0:0:
402,192,143903,1,0,0:0:0:0:
475,192,143903,1,0,0:0:0:0:
256,192,143903,1,0,0:0:0:70:LR3_Snare DSW.wav
182,192,144079,1,0,0:0:0:0:
109,192,144256,128,0,144609:0:0:0:0:
329,192,144432,1,0,0:0:0:0:
475,192,144432,1,0,0:0:0:0:
36,192,144432,1,0,0:0:0:50:HK_Kick01.wav
256,192,144609,1,0,0:0:0:0:
402,192,144609,1,0,0:0:0:0:
36,192,144609,1,0,0:0:0:0:
182,192,144609,128,0,144785:0:0:0:70:LR3_Snare DSW.wav
329,192,144785,128,0,146020:0:0:0:0:
256,192,144961,1,0,0:0:0:0:
109,192,144961,1,0,0:0:0:50:HK_Kick01.wav
475,192,144961,1,0,0:0:0:0:
475,192,145314,1,0,0:0:0:0:
182,192,145314,1,0,0:0:0:0:
36,192,145314,1,0,0:0:0:0:
402,192,145314,1,0,0:0:0:70:LR3_Snare DSW.wav
109,192,145491,1,0,0:0:0:0:
402,192,145844,1,0,0:0:0:0:
182,192,145844,1,0,0:0:0:50:HK_Kick01.wav
36,192,145844,1,0,0:0:0:0:
109,192,146020,128,0,146373:0:0:0:0:
475,192,146020,1,0,0:0:0:0:
402,192,146020,1,0,0:0:0:0:
256,192,146020,1,0,0:0:0:70:LR3_Snare DSW.wav
182,192,146373,1,0,0:0:0:0:
475,192,146373,1,0,0:0:0:0:
329,192,146373,1,0,0:0:0:50:HK_Kick01.wav
256,192,146550,1,0,0:0:0:0:
36,192,146550,128,0,146638:0:0:0:0:
329,192,146638,1,0,0:0:0:0:
109,192,146638,1,0,0:0:0:0:
36,192,146726,1,0,0:0:0:0:
475,192,146726,128,0,146814:0:0:0:0:
402,192,146726,1,0,0:0:0:0:
182,192,146726,1,0,0:0:0:0:
109,192,146903,1,0,0:0:0:0:
475,192,146903,128,0,146991:0:0:0:0:
329,192,146991,1,0,0:0:0:0:
182,192,146991,1,0,0:0:0:0:
256,192,147079,1,0,0:0:0:0:
402,192,147079,1,0,0:0:0:0:
36,192,147079,128,0,147167:0:0:0:0:
182,192,147167,1,0,0:0:0:0:
475,192,147256,128,0,147344:0:0:0:0:
109,192,147256,1,0,0:0:0:0:
402,192,147256,1,0,0:0:0:50:HK_Kick01.wav
256,192,147344,1,0,0:0:0:0:
329,192,147344,1,0,0:0:0:0:
36,192,147344,1,0,0:0:0:0:
402,192,147432,1,0,0:0:0:0:
182,192,147432,1,0,0:0:0:0:
109,192,147432,1,0,0:0:0:0:
475,192,147432,128,0,147520:0:0:0:70:LR3_Snare RSH.wav
256,192,147785,128,0,147961:0:0:0:0:
329,192,147785,1,0,0:0:0:0:
475,192,147785,1,0,0:0:0:0:
36,192,147785,1,0,0:0:0:70:LR_CymbalQST.wav
182,192,147785,1,0,0:0:0:50:HK_Kick01.wav
402,192,147961,1,0,0:0:0:0:
36,192,148138,1,0,0:0:0:0:
109,192,148138,1,0,0:0:0:0:
475,192,148138,1,0,0:0:0:0:
256,192,148138,1,0,0:0:0:70:LR3_Snare DSW.wav
329,192,148314,1,0,0:0:0:0:
182,192,148491,128,0,148667:0:0:0:0:
329,192,148667,1,0,0:0:0:0:
36,192,148667,1,0,0:0:0:0:
475,192,148667,1,0,0:0:0:50:HK_Kick01.wav
475,192,148844,1,0,0:0:0:0:
256,192,148844,1,0,0:0:0:0:
402,192,148844,1,0,0:0:0:0:
109,192,148844,1,0,0:0:0:70:LR3_Snare DSW.wav
182,192,149020,1,0,0:0:0:0:
36,192,149197,1,0,0:0:0:0:
109,192,149197,1,0,0:0:0:0:
329,192,149197,128,0,149373:0:0:0:50:HK_Kick01.wav
256,192,149373,1,0,0:0:0:0:
36,192,149550,1,0,0:0:0:0:
402,192,149550,1,0,0:0:0:0:
182,192,149550,1,0,0:0:0:0:
475,192,149550,1,0,0:0:0:70:LR3_Snare DSW.wav
256,192,149726,1,0,0:0:0:0:
402,192,149903,128,0,150256:0:0:0:0:
182,192,150079,1,0,0:0:0:0:
36,192,150079,1,0,0:0:0:0:
329,192,150079,1,0,0:0:0:50:HK_Kick01.wav
109,192,150256,1,0,0:0:0:0:
256,192,150256,1,0,0:0:0:0:
329,192,150256,128,0,150432:0:0:0:0:
475,192,150256,1,0,0:0:0:70:LR3_Snare DSW.wav
182,192,150432,1,0,0:0:0:0:
109,192,150609,128,0,150785:0:0:0:0:
36,192,150609,1,0,0:0:0:0:
402,192,150609,1,0,0:0:0:50:HK_Kick01.wav
182,192,150785,128,0,150873:0:0:0:0:
475,192,150961,1,0,0:0:0:0:
256,192,150961,1,0,0:0:0:0:
36,192,150961,1,0,0:0:0:0:
329,192,150961,128,0,151050:0:0:0:70:LR3_Snare DSW.wav
402,192,151138,128,0,151314:0:0:0:0:
109,192,151138,1,0,0:0:0:0:
182,192,151314,1,0,0:0:0:0:
256,192,151491,128,0,151667:0:0:0:0:
109,192,151491,1,0,0:0:0:0:
402,192,151491,1,0,0:0:0:50:HK_Kick01.wav
182,192,151667,1,0,0:0:0:0:
36,192,151667,1,0,0:0:0:0:
475,192,151667,1,0,0:0:0:0:
329,192,151667,128,0,151756:0:0:0:70:LR3_Snare DSW.wav
109,192,151844,128,0,152373:0:0:0:0:
475,192,152020,1,0,0:0:0:0:
329,192,152020,1,0,0:0:0:0:
36,192,152020,1,0,0:0:0:50:HK_Kick01.wav
256,192,152197,1,0,0:0:0:0:
329,192,152373,1,0,0:0:0:0:
182,192,152373,1,0,0:0:0:0:
475,192,152373,1,0,0:0:0:0:
36,192,152373,1,0,0:0:0:70:LR3_Snare DSW.wav
256,192,152550,1,0,0:0:0:0:
402,192,152726,128,0,152903:0:0:0:0:
109,192,152903,128,0,153079:0:0:0:0:
329,192,152903,1,0,0:0:0:0:
182,192,152903,1,0,0:0:0:50:HK_Kick01.wav
256,192,153079,1,0,0:0:0:0:
36,192,153079,1,0,0:0:0:0:
402,192,153079,128,0,153256:0:0:0:0:
475,192,153079,1,0,0:0:0:70:LR3_Snare DSW.wav
182,192,153256,1,0,0:0:0:0:
36,192,153256,128,0,154667:0:0:0:0:
329,192,153344,1,0,0:0:0:0:
109,192,153432,1,0,0:0:0:0:
475,192,153432,1,0,0:0:0:50:HK_Kick01.wav
402,192,153432,1,0,0:0:0:0:
256,192,153609,1,0,0:0:0:0:
475,192,153785,1,0,0:0:0:0:
329,192,153785,1,0,0:0:0:0:
182,192,153785,1,0,0:0:0:0:
109,192,153785,1,0,0:0:0:70:LR3_Snare DSW.wav
256,192,153961,1,0,0:0:0:0:
182,192,154138,1,0,0:0:0:0:
475,192,154314,1,0,0:0:0:0:
329,192,154314,1,0,0:0:0:0:
109,192,154314,1,0,0:0:0:50:HK_Kick01.wav
402,192,154491,1,0,0:0:0:0:
256,192,154491,1,0,0:0:0:0:
182,192,154491,1,0,0:0:0:0:
475,192,154491,1,0,0:0:0:70:LR3_Snare DSW.wav
329,192,154667,1,0,0:0:0:0:
109,192,154844,1,0,0:0:0:0:
475,192,154844,1,0,0:0:0:0:
256,192,154844,1,0,0:0:0:50:HK_Kick01.wav
182,192,155020,128,0,155197:0:0:0:0:
256,192,155197,128,0,155373:0:0:0:0:
402,192,155197,1,0,0:0:0:0:
475,192,155197,1,0,0:0:0:0:
36,192,155197,1,0,0:0:0:70:LR3_Snare DSW.wav
329,192,155373,128,0,155550:0:0:0:0:
109,192,155550,1,0,0:0:0:0:
182,192,155726,128,0,155903:0:0:0:0:
256,192,155726,1,0,0:0:0:0:
402,192,155726,1,0,0:0:0:50:HK_Kick01.wav
109,192,155903,128,0,156079:0:0:0:0:
329,192,155903,1,0,0:0:0:0:
36,192,155903,1,0,0:0:0:0:
475,192,155903,1,0,0:0:0:70:LR3_Snare DSW.wav
256,192,156079,128,0,157667:0:0:0:0:
475,192,156256,1,0,0:0:0:0:
36,192,156256,1,0,0:0:0:0:
182,192,156256,1,0,0:0:0:50:HK_Kick01.wav
329,192,156432,1,0,0:0:0:0:
402,192,156432,1,0,0:0:0:0:
109,192,156520,5,0,0:0:0:0:
402,192,156609,1,0,0:0:0:0:
36,192,156609,1,0,0:0:0:0:
182,192,156609,1,0,0:0:0:0:
475,192,156609,1,0,0:0:0:70:LR3_Snare DSW.wav
109,192,156785,1,0,0:0:0:0:
402,192,156785,1,0,0:0:0:0:
182,192,156873,1,0,0:0:0:0:
329,192,156961,1,0,0:0:0:0:
475,192,156961,1,0,0:0:0:0:
36,192,157050,1,0,0:0:0:0:
182,192,157138,1,0,0:0:0:0:
402,192,157138,1,0,0:0:0:0:
109,192,157138,1,0,0:0:0:50:HK_Kick01.wav
109,192,157314,1,0,0:0:0:0:
36,192,157314,1,0,0:0:0:0:
475,192,157314,1,0,0:0:0:0:
329,192,157314,1,0,0:0:0:70:LR3_Snare DSW.wav
182,192,157491,1,0,0:0:0:0:
329,192,157579,1,0,0:0:0:0:
402,192,157667,128,0,158638:0:0:0:0:
475,192,157667,128,0,158638:0:0:0:0:
109,192,157667,128,0,158638:0:0:0:70:LR3_FX PDLR.wav
36,192,157667,128,0,158638:0:0:0:50:HK_Kick01.wav
329,192,158550,1,0,0:0:0:0:
256,192,158550,1,0,0:0:0:0:
182,192,158550,1,0,0:0:0:50:HK_Kick01.wav
36,192,158726,1,0,0:0:0:0:
475,192,158726,1,0,0:0:0:0:
402,192,158726,1,0,0:0:0:0:
109,192,158726,1,0,0:0:0:70:LR3_Snare RSH.wav
475,192,159079,1,0,0:0:0:0:
256,192,159079,1,0,0:0:0:0:
329,192,159079,128,0,159609:0:0:0:0:
182,192,159079,1,0,0:0:0:50:HK_Kick01.wav
36,192,159079,1,0,0:0:0:70:LR_CymbalQST.wav
402,192,159256,1,0,0:0:0:0:
109,192,159256,128,0,159344:0:0:0:0:
402,192,159432,1,0,0:0:0:0:
36,192,159432,1,0,0:0:0:0:
182,192,159432,128,0,159520:0:0:0:0:
475,192,159432,1,0,0:0:0:70:LR3_Snare DSW.wav
256,192,159609,128,0,159961:0:0:0:0:
109,192,159609,128,0,159697:0:0:0:0:
402,192,159697,1,0,0:0:0:0:
182,192,159785,1,0,0:0:0:0:
36,192,159785,128,0,159873:0:0:0:0:
329,192,159873,1,0,0:0:0:0:
475,192,159961,1,0,0:0:0:0:
402,192,159961,1,0,0:0:0:0:
109,192,159961,128,0,160138:0:0:0:50:HK_Kick01.wav
36,192,160138,1,0,0:0:0:0:
182,192,160138,1,0,0:0:0:0:
329,192,160138,1,0,0:0:0:0:
475,192,160138,1,0,0:0:0:70:LR3_Snare DSW.wav
256,192,160314,1,0,0:0:0:0:
109,192,160403,1,0,0:0:0:0:
182,192,160491,128,0,161020:0:0:0:0:
329,192,160491,1,0,0:0:0:50:HK_Kick01.wav
475,192,160491,128,0,160579:0:0:0:0:
402,192,160667,128,0,160756:0:0:0:0:
36,192,160667,1,0,0:0:0:0:
329,192,160844,128,0,160932:0:0:0:0:
36,192,160844,1,0,0:0:0:0:
475,192,160844,1,0,0:0:0:0:
109,192,160844,1,0,0:0:0:70:LR3_Snare DSW.wav
256,192,161020,128,0,161373:0:0:0:0:
402,192,161020,128,0,161109:0:0:0:0:
109,192,161109,1,0,0:0:0:0:
329,192,161197,1,0,0:0:0:0:
475,192,161197,1,0,0:0:0:0:
182,192,161285,1,0,0:0:0:0:
475,192,161373,128,0,161550:0:0:0:0:
109,192,161373,1,0,0:0:0:0:
36,192,161373,1,0,0:0:0:50:HK_Kick01.wav
402,192,161550,1,0,0:0:0:0:
329,192,161550,1,0,0:0:0:0:
182,192,161550,1,0,0:0:0:0:
36,192,161550,1,0,0:0:0:70:LR3_Snare DSW.wav
109,192,161726,1,0,0:0:0:0:
256,192,161726,1,0,0:0:0:0:
36,192,161814,1,0,0:0:0:0:
475,192,161903,1,0,0:0:0:0:
182,192,161903,1,0,0:0:0:0:
329,192,161903,1,0,0:0:0:50:HK_Kick01.wav
256,192,162079,1,0,0:0:0:0:
109,192,162079,1,0,0:0:0:0:
475,192,162256,1,0,0:0:0:0:
256,192,162256,128,0,162432:0:0:0:0:
402,192,162256,1,0,0:0:0:0:
36,192,162256,1,0,0:0:0:70:LR3_Snare DSW.wav
109,192,162432,1,0,0:0:0:0:
329,192,162432,128,0,162609:0:0:0:0:
182,192,162520,1,0,0:0:0:0:
402,192,162609,128,0,162785:0:0:0:0:
36,192,162609,1,0,0:0:0:0:
256,192,162697,1,0,0:0:0:0:
475,192,162785,1,0,0:0:0:0:
329,192,162785,1,0,0:0:0:50:HK_Kick01.wav
109,192,162785,128,0,162873:0:0:0:0:
402,192,162961,1,0,0:0:0:0:
36,192,162961,128,0,163138:0:0:0:0:
329,192,162961,1,0,0:0:0:70:LR3_Snare DSW.wav
182,192,162961,128,0,163050:0:0:0:0:
109,192,163138,1,0,0:0:0:0:
256,192,163138,128,0,163226:0:0:0:0:
402,192,163226,1,0,0:0:0:0:
475,192,163314,1,0,0:0:0:0:
329,192,163314,1,0,0:0:0:0:
109,192,163314,128,0,163667:0:0:0:50:HK_Kick01.wav
402,192,163491,1,0,0:0:0:0:
182,192,163491,1,0,0:0:0:0:
256,192,163579,1,0,0:0:0:0:
182,192,163667,1,0,0:0:0:0:
329,192,163667,1,0,0:0:0:0:
36,192,163667,1,0,0:0:0:0:
475,192,163667,1,0,0:0:0:70:LR3_Snare DSW.wav
109,192,163844,1,0,0:0:0:0:
182,192,163844,128,0,164373:0:0:0:0:
402,192,163932,1,0,0:0:0:0:
475,192,164020,1,0,0:0:0:0:
256,192,164020,1,0,0:0:0:0:
36,192,164109,1,0,0:0:0:0:
329,192,164197,1,0,0:0:0:0:
402,192,164197,1,0,0:0:0:50:HK_Kick01.wav
109,192,164197,128,0,164285:0:0:0:0:
256,192,164373,1,0,0:0:0:0:
36,192,164373,1,0,0:0:0:0:
475,192,164373,1,0,0:0:0:70:LR3_Snare DSW.wav
402,192,164373,128,0,164461:0:0:0:0:
109,192,164550,1,0,0:0:0:0:
329,192,164550,128,0,164638:0:0:0:0:
182,192,164638,1,0,0:0:0:0:
402,192,164726,1,0,0:0:0:0:
36,192,164726,128,0,165256:0:0:0:0:
256,192,164726,1,0,0:0:0:50:HK_Kick01.wav
329,192,164903,1,0,0:0:0:0:
182,192,164903,128,0,164991:0:0:0:0:
109,192,165079,128,0,165167:0:0:0:0:
256,192,165079,1,0,0:0:0:0:
475,192,165079,1,0,0:0:0:0:
402,192,165079,1,0,0:0:0:70:LR3_Snare DSW.wav
329,192,165256,128,0,165344:0:0:0:0:
182,192,165256,128,0,165609:0:0:0:0:
109,192,165344,1,0,0:0:0:0:
36,192,165432,1,0,0:0:0:0:
402,192,165432,128,0,165520:0:0:0:0:
475,192,165520,1,0,0:0:0:0:
256,192,165609,1,0,0:0:0:0:
329,192,165609,128,0,165785:0:0:0:0:
109,192,165609,1,0,0:0:0:50:HK_Kick01.wav
109,192,165785,1,0,0:0:0:0:
36,192,165785,1,0,0:0:0:0:
475,192,165785,1,0,0:0:0:0:
402,192,165785,1,0,0:0:0:70:LR3_Snare DSW.wav
329,192,165961,1,0,0:0:0:0:
182,192,165961,1,0,0:0:0:0:
402,192,166050,1,0,0:0:0:0:
109,192,166138,1,0,0:0:0:0:
475,192,166138,128,0,166667:0:0:0:50:HK_Kick01.wav
256,192,166138,128,0,166226:0:0:0:0:
182,192,166314,1,0,0:0:0:0:
329,192,166314,128,0,166403:0:0:0:0:
36,192,166491,1,0,0:0:0:0:
109,192,166491,1,0,0:0:0:0:
402,192,166491,128,0,166579:0:0:0:0:
256,192,166491,1,0,0:0:0:70:LR3_Snare DSW.wav
182,192,166667,128,0,166756:0:0:0:0:
329,192,166667,128,0,167020:0:0:0:0:
402,192,166756,1,0,0:0:0:0:
475,192,166844,1,0,0:0:0:0:
109,192,166844,1,0,0:0:0:0:
36,192,166932,1,0,0:0:0:0:
402,192,167020,1,0,0:0:0:0:
256,192,167020,1,0,0:0:0:0:
182,192,167020,128,0,167197:0:0:0:50:HK_Kick01.wav
109,192,167197,1,0,0:0:0:0:
329,192,167197,1,0,0:0:0:0:
475,192,167197,1,0,0:0:0:0:
36,192,167197,1,0,0:0:0:70:LR3_Snare DSW.wav
402,192,167373,1,0,0:0:0:0:
182,192,167373,1,0,0:0:0:0:
329,192,167461,1,0,0:0:0:0:
475,192,167550,1,0,0:0:0:0:
36,192,167550,1,0,0:0:0:0:
256,192,167550,128,0,167726:0:0:0:50:HK_Kick01.wav
329,192,167726,1,0,0:0:0:0:
109,192,167726,1,0,0:0:0:0:
402,192,167903,1,0,0:0:0:0:
475,192,167903,1,0,0:0:0:0:
256,192,167903,1,0,0:0:0:0:
182,192,167903,128,0,168079:0:0:0:70:LR3_Snare DSW.wav
36,192,168079,128,0,168256:0:0:0:0:
329,192,168079,1,0,0:0:0:0:
475,192,168167,1,0,0:0:0:0:
256,192,168256,1,0,0:0:0:0:
109,192,168256,1,0,0:0:0:0:
402,192,168344,1,0,0:0:0:0:
182,192,168432,1,0,0:0:0:0:
109,192,168432,128,0,168609:0:0:0:50:HK_Kick01.wav
329,192,168432,128,0,168520:0:0:0:0:
475,192,168609,1,0,0:0:0:0:
36,192,168609,1,0,0:0:0:0:
402,192,168609,1,0,0:0:0:70:LR3_Snare DSW.wav
256,192,168609,128,0,168697:0:0:0:0:
475,192,168785,128,0,168961:0:0:0:0:
182,192,168785,128,0,168873:0:0:0:0:
329,192,168873,1,0,0:0:0:0:
256,192,168961,1,0,0:0:0:0:
109,192,168961,1,0,0:0:0:0:
36,192,168961,1,0,0:0:0:50:HK_Kick01.wav
329,192,169138,128,0,169314:0:0:0:0:
182,192,169138,1,0,0:0:0:0:
256,192,169226,1,0,0:0:0:0:
36,192,169314,1,0,0:0:0:0:
402,192,169314,1,0,0:0:0:0:
475,192,169314,128,0,170020:0:0:0:0:
109,192,169314,1,0,0:0:0:70:LR3_Snare DSW.wav
402,192,169491,1,0,0:0:0:0:
329,192,169491,1,0,0:0:0:0:
182,192,169491,1,0,0:0:0:50:HK_Kick01.wav
36,192,169579,1,0,0:0:0:0:
109,192,169667,1,0,0:0:0:0:
256,192,169667,1,0,0:0:0:0:
329,192,169756,1,0,0:0:0:0:
402,192,169844,1,0,0:0:0:0:
36,192,169844,1,0,0:0:0:50:HK_Kick01.wav
182,192,169844,128,0,169932:0:0:0:0:
109,192,170020,1,0,0:0:0:0:
329,192,170020,1,0,0:0:0:0:
402,192,170020,1,0,0:0:0:70:LR3_Snare DSW.wav
256,192,170020,128,0,170109:0:0:0:0:
182,192,170197,1,0,0:0:0:0:
329,192,170197,1,0,0:0:0:0:
109,192,170285,1,0,0:0:0:0:
402,192,170373,128,0,170903:0:0:0:0:
256,192,170373,1,0,0:0:0:0:
475,192,170373,1,0,0:0:0:50:HK_Kick01.wav
36,192,170373,1,0,0:0:0:70:LR_CymbalQST.wav
329,192,170550,1,0,0:0:0:0:
182,192,170550,128,0,170638:0:0:0:0:
329,192,170726,128,0,170814:0:0:0:0:
109,192,170726,1,0,0:0:0:0:
36,192,170726,1,0,0:0:0:0:
256,192,170726,1,0,0:0:0:70:LR3_Snare DSW.wav
182,192,170903,128,0,171256:0:0:0:0:
475,192,170903,128,0,170991:0:0:0:0:
109,192,170991,1,0,0:0:0:0:
36,192,171079,1,0,0:0:0:0:
256,192,171079,128,0,171167:0:0:0:0:
329,192,171167,1,0,0:0:0:0:
475,192,171256,1,0,0:0:0:0:
36,192,171256,128,0,171432:0:0:0:0:
402,192,171256,1,0,0:0:0:50:HK_Kick01.wav
109,192,171432,1,0,0:0:0:0:
182,192,171432,1,0,0:0:0:0:
329,192,171432,1,0,0:0:0:0:
475,192,171432,1,0,0:0:0:70:LR3_Snare DSW.wav
256,192,171609,1,0,0:0:0:0:
329,192,171697,1,0,0:0:0:0:
256,192,171785,1,0,0:0:0:0:
109,192,171785,128,0,172314:0:0:0:50:HK_Kick01.wav
475,192,171785,128,0,171873:0:0:0:0:
329,192,171961,128,0,172050:0:0:0:0:
182,192,171961,1,0,0:0:0:0:
182,192,172138,128,0,172226:0:0:0:0:
402,192,172138,1,0,0:0:0:0:
475,192,172138,1,0,0:0:0:0:
256,192,172138,1,0,0:0:0:70:LR3_Snare DSW.wav
36,192,172314,128,0,172403:0:0:0:0:
329,192,172314,128,0,172667:0:0:0:0:
402,192,172403,1,0,0:0:0:0:
475,192,172491,1,0,0:0:0:0:
256,192,172491,1,0,0:0:0:0:
182,192,172579,1,0,0:0:0:0:
475,192,172667,128,0,172844:0:0:0:0:
109,192,172667,1,0,0:0:0:0:
36,192,172667,1,0,0:0:0:50:HK_Kick01.wav
36,192,172844,1,0,0:0:0:0:
402,192,172844,1,0,0:0:0:0:
329,192,172844,1,0,0:0:0:0:
182,192,172844,1,0,0:0:0:70:LR3_Snare DSW.wav
256,192,173020,1,0,0:0:0:0:
109,192,173020,1,0,0:0:0:0:
402,192,173109,1,0,0:0:0:0:
329,192,173197,1,0,0:0:0:0:
475,192,173197,1,0,0:0:0:0:
182,192,173197,1,0,0:0:0:50:HK_Kick01.wav
256,192,173373,1,0,0:0:0:0:
109,192,173373,1,0,0:0:0:0:
475,192,173550,128,0,173726:0:0:0:0:
36,192,173550,1,0,0:0:0:0:
182,192,173550,1,0,0:0:0:0:
402,192,173550,1,0,0:0:0:70:LR3_Snare DSW.wav
109,192,173726,1,0,0:0:0:0:
256,192,173726,128,0,173903:0:0:0:0:
402,192,173814,1,0,0:0:0:0:
36,192,173903,128,0,174079:0:0:0:0:
329,192,173903,1,0,0:0:0:0:
475,192,173991,1,0,0:0:0:0:
402,192,174079,1,0,0:0:0:0:
182,192,174079,1,0,0:0:0:50:HK_Kick01.wav
109,192,174079,128,0,174167:0:0:0:0:
329,192,174256,1,0,0:0:0:0:
475,192,174256,128,0,174609:0:0:0:0:
36,192,174256,1,0,0:0:0:70:LR3_Snare DSW.wav
256,192,174256,128,0,174344:0:0:0:0:
182,192,174432,1,0,0:0:0:0:
402,192,174432,128,0,174520:0:0:0:0:
256,192,174520,1,0,0:0:0:0:
109,192,174609,1,0,0:0:0:0:
329,192,174609,1,0,0:0:0:0:
36,192,174609,128,0,174961:0:0:0:50:HK_Kick01.wav
182,192,174785,1,0,0:0:0:0:
475,192,174785,1,0,0:0:0:0:
329,192,174873,1,0,0:0:0:0:
475,192,174961,1,0,0:0:0:0:
402,192,174961,1,0,0:0:0:0:
256,192,174961,1,0,0:0:0:0:
109,192,174961,1,0,0:0:0:70:LR3_Snare DSW.wav
182,192,175138,128,0,175667:0:0:0:0:
36,192,175138,1,0,0:0:0:0:
475,192,175226,1,0,0:0:0:0:
109,192,175314,1,0,0:0:0:0:
256,192,175314,1,0,0:0:0:0:
402,192,175403,1,0,0:0:0:0:
36,192,175491,1,0,0:0:0:0:
475,192,175491,1,0,0:0:0:50:HK_Kick01.wav
329,192,175491,128,0,175579:0:0:0:0:
109,192,175667,1,0,0:0:0:0:
36,192,175667,1,0,0:0:0:0:
402,192,175667,1,0,0:0:0:70:LR3_Snare DSW.wav
256,192,175667,128,0,175756:0:0:0:0:
329,192,175844,1,0,0:0:0:0:
109,192,175844,128,0,175932:0:0:0:0:
402,192,175932,1,0,0:0:0:0:
36,192,176020,1,0,0:0:0:0:
475,192,176020,128,0,176550:0:0:0:50:HK_Kick01.wav
256,192,176020,1,0,0:0:0:0:
182,192,176197,128,0,176285:0:0:0:0:
329,192,176197,1,0,0:0:0:0:
36,192,176373,1,0,0:0:0:0:
402,192,176373,1,0,0:0:0:0:
109,192,176373,128,0,176461:0:0:0:0:
256,192,176373,1,0,0:0:0:70:LR3_Snare DSW.wav
329,192,176550,128,0,176903:0:0:0:0:
182,192,176550,128,0,176638:0:0:0:0:
402,192,176638,1,0,0:0:0:0:
475,192,176726,1,0,0:0:0:0:
36,192,176726,128,0,176814:0:0:0:0:
109,192,176814,1,0,0:0:0:0:
182,192,176903,128,0,177079:0:0:0:0:
402,192,176903,1,0,0:0:0:0:
256,192,176903,1,0,0:0:0:50:HK_Kick01.wav
109,192,177079,1,0,0:0:0:0:
36,192,177079,1,0,0:0:0:0:
329,192,177079,1,0,0:0:0:0:
475,192,177079,1,0,0:0:0:70:LR3_Snare DSW.wav
182,192,177256,1,0,0:0:0:0:
402,192,177256,1,0,0:0:0:0:
109,192,177344,1,0,0:0:0:0:
36,192,177432,128,0,177961:0:0:0:0:
475,192,177432,1,0,0:0:0:50:HK_Kick01.wav
256,192,177432,128,0,177520:0:0:0:0:
182,192,177609,1,0,0:0:0:0:
329,192,177609,128,0,177697:0:0:0:0:
475,192,177785,1,0,0:0:0:0:
109,192,177785,1,0,0:0:0:0:
402,192,177785,128,0,177873:0:0:0:0:
256,192,177785,1,0,0:0:0:70:LR3_Snare DSW.wav
329,192,177961,128,0,178050:0:0:0:0:
182,192,177961,128,0,178314:0:0:0:0:
109,192,178050,1,0,0:0:0:0:
475,192,178138,1,0,0:0:0:0:
36,192,178138,1,0,0:0:0:0:
402,192,178226,1,0,0:0:0:0:
256,192,178314,1,0,0:0:0:0:
329,192,178314,128,0,178491:0:0:0:0:
109,192,178314,1,0,0:0:0:50:HK_Kick01.wav
402,192,178491,1,0,0:0:0:0:
475,192,178491,1,0,0:0:0:0:
36,192,178491,1,0,0:0:0:0:
182,192,178491,1,0,0:0:0:70:LR3_Snare DSW.wav
109,192,178667,1,0,0:0:0:0:
256,192,178667,1,0,0:0:0:0:
475,192,178756,1,0,0:0:0:0:
36,192,178844,1,0,0:0:0:0:
182,192,178844,1,0,0:0:0:0:
329,192,178844,128,0,179020:0:0:0:50:HK_Kick01.wav
256,192,179020,1,0,0:0:0:0:
402,192,179020,1,0,0:0:0:0:
329,192,179197,1,0,0:0:0:0:
36,192,179197,1,0,0:0:0:0:
475,192,179197,1,0,0:0:0:0:
182,192,179197,128,0,179373:0:0:0:70:LR3_Snare DSW.wav
402,192,179373,128,0,179550:0:0:0:0:
109,192,179373,1,0,0:0:0:0:
256,192,179461,1,0,0:0:0:0:
36,192,179550,1,0,0:0:0:0:
475,192,179550,1,0,0:0:0:0:
182,192,179638,1,0,0:0:0:0:
109,192,179726,128,0,179903:0:0:0:0:
402,192,179726,1,0,0:0:0:50:HK_Kick01.wav
256,192,179726,128,0,179814:0:0:0:0:
475,192,179903,1,0,0:0:0:0:
182,192,179903,1,0,0:0:0:0:
36,192,179903,1,0,0:0:0:70:LR3_Snare DSW.wav
329,192,179903,128,0,179991:0:0:0:0:
256,192,180079,128,0,180256:0:0:0:0:
402,192,180079,128,0,180167:0:0:0:0:
109,192,180167,1,0,0:0:0:0:
475,192,180256,5,0,0:0:0:0:
182,192,180256,1,0,0:0:0:0:
36,192,180256,1,0,0:0:0:0:
329,192,180256,1,0,0:0:0:70:LR3_Snare DSW.wav
256,192,180432,1,0,0:0:0:50:HK_Kick01.wav
329,192,180491,1,0,0:0:0:50:HK_Kick01.wav
402,192,180550,1,0,0:0:0:50:HK_Kick01.wav
475,192,180609,1,0,0:0:0:0:
36,192,180609,1,0,0:0:0:0:
109,192,180609,1,0,0:0:0:50:HK_Kick01.wav
256,192,180785,1,0,0:0:0:0:
182,192,180785,1,0,0:0:0:0:
402,192,180785,1,0,0:0:0:0:
329,192,180785,1,0,0:0:0:70:LR3_Snare DSW.wav
36,192,180961,1,0,0:0:0:50:HK_Kick01.wav
109,192,181020,1,0,0:0:0:50:HK_Kick01.wav
182,192,181079,1,0,0:0:0:50:HK_Kick01.wav
402,192,181138,128,0,181314:0:0:0:0:
475,192,181138,128,0,181314:0:0:0:0:
256,192,181138,1,0,0:0:0:50:HK_Kick01.wav
329,192,181314,1,0,0:0:0:0:
182,192,181314,1,0,0:0:0:0:
36,192,181314,128,0,181491:0:0:0:0:
109,192,181314,128,0,181491:0:0:0:70:LR3_Snare DSW.wav
256,192,181491,128,0,182197:0:0:0:0:
475,192,181491,128,0,181579:0:0:0:50:HK_Kick01.wav
402,192,181579,128,0,181667:0:0:0:0:
182,192,181667,128,0,181844:0:0:0:0:
329,192,181667,128,0,181844:0:0:0:0:
109,192,181667,128,0,181844:0:0:0:50:HK_Kick01.wav
36,192,181667,1,0,0:0:0:70:LR_CymbalQST.wav
36,192,181844,128,0,181932:0:0:0:0:
402,192,181844,128,0,181932:0:0:0:0:
475,192,181932,128,0,182020:0:0:0:0:
109,192,182020,128,0,182197:0:0:0:0:
329,192,182020,128,0,182197:0:0:0:0:
402,192,182020,128,0,182197:0:0:0:0:
36,192,182020,1,0,0:0:0:70:LR3_Snare DSW.wav
182,192,182197,128,0,182285:0:0:0:0:
475,192,182197,1,0,0:0:0:0:
36,192,182285,128,0,182373:0:0:0:0:
256,192,182373,128,0,182461:0:0:0:0:
402,192,182373,1,0,0:0:0:0:
109,192,182461,128,0,182550:0:0:0:0:
182,192,182550,128,0,182726:0:0:0:0:
36,192,182550,128,0,182726:0:0:0:0:
475,192,182550,1,0,0:0:0:50:HK_Kick01.wav
329,192,182726,128,0,182903:0:0:0:0:
475,192,182726,128,0,182903:0:0:0:0:
109,192,182726,1,0,0:0:0:0:
402,192,182726,1,0,0:0:0:70:LR3_Snare DSW.wav
256,192,182903,128,0,183609:0:0:0:0:
36,192,182903,128,0,182991:0:0:0:0:
109,192,182991,128,0,183079:0:0:0:0:
36,192,183079,1,0,0:0:0:0:
182,192,183079,128,0,183256:0:0:0:0:
329,192,183079,128,0,183256:0:0:0:0:
402,192,183079,128,0,183256:0:0:0:50:HK_Kick01.wav
109,192,183256,128,0,183344:0:0:0:0:
475,192,183256,128,0,183344:0:0:0:0:
36,192,183344,128,0,183432:0:0:0:0:
109,192,183432,128,0,183609:0:0:0:0:
182,192,183432,128,0,183609:0:0:0:0:
402,192,183432,128,0,183609:0:0:0:0:
475,192,183432,1,0,0:0:0:70:LR3_Snare DSW.wav
329,192,183609,128,0,183697:0:0:0:0:
36,192,183609,1,0,0:0:0:0:
475,192,183697,128,0,183785:0:0:0:0:
256,192,183785,128,0,183873:0:0:0:0:
109,192,183785,1,0,0:0:0:0:
402,192,183873,128,0,183961:0:0:0:0:
36,192,183961,1,0,0:0:0:0:
475,192,183961,128,0,184138:0:0:0:0:
329,192,183961,128,0,184138:0:0:0:50:HK_Kick01.wav
402,192,184138,1,0,0:0:0:0:
256,192,184138,1,0,0:0:0:0:
36,192,184138,128,0,184314:0:0:0:0:
182,192,184138,128,0,184314:0:0:0:70:LR3_Snare DSW.wav
256,192,184314,128,0,184844:0:0:0:0:
402,192,184314,128,0,184403:0:0:0:0:
109,192,184403,128,0,184491:0:0:0:0:
36,192,184491,128,0,184667:0:0:0:0:
329,192,184491,128,0,184667:0:0:0:0:
475,192,184491,1,0,0:0:0:0:
182,192,184491,128,0,184667:0:0:0:50:HK_Kick01.wav
475,192,184667,128,0,184756:0:0:0:0:
402,192,184756,128,0,184844:0:0:0:0:
182,192,184844,128,0,185020:0:0:0:0:
329,192,184844,128,0,185020:0:0:0:0:
109,192,184844,1,0,0:0:0:0:
36,192,184844,1,0,0:0:0:70:LR3_Snare DSW.wav
256,192,185020,128,0,185373:0:0:0:0:
36,192,185020,128,0,185373:0:0:0:0:
109,192,185109,128,0,185197:0:0:0:0:
329,192,185197,128,0,185285:0:0:0:0:
475,192,185197,1,0,0:0:0:0:
182,192,185285,128,0,185373:0:0:0:0:
109,192,185373,1,0,0:0:0:0:
329,192,185373,128,0,185550:0:0:0:0:
402,192,185373,128,0,185550:0:0:0:50:HK_Kick01.wav
182,192,185550,1,0,0:0:0:0:
36,192,185550,1,0,0:0:0:0:
475,192,185550,1,0,0:0:0:0:
256,192,185550,1,0,0:0:0:70:LR3_Snare DSW.wav
402,192,185726,128,0,186079:0:0:0:0:
256,192,185726,128,0,186079:0:0:0:0:
109,192,185814,128,0,185903:0:0:0:0:
329,192,185903,1,0,0:0:0:50:HK_Kick01.wav
475,192,185903,1,0,0:0:0:0:
36,192,185903,1,0,0:0:0:0:
329,192,186079,128,0,186256:0:0:0:0:
182,192,186079,128,0,186256:0:0:0:0:
109,192,186256,128,0,186432:0:0:0:0:
36,192,186256,1,0,0:0:0:0:
402,192,186256,128,0,186432:0:0:0:70:LR3_Snare DSW.wav
475,192,186256,1,0,0:0:0:0:
182,192,186432,128,0,186520:0:0:0:0:
329,192,186432,1,0,0:0:0:0:
36,192,186520,128,0,186609:0:0:0:0:
256,192,186609,128,0,186697:0:0:0:0:
402,192,186609,1,0,0:0:0:0:
109,192,186697,128,0,186785:0:0:0:0:
475,192,186785,128,0,186961:0:0:0:0:
329,192,186785,128,0,186961:0:0:0:0:
182,192,186785,1,0,0:0:0:50:HK_Kick01.wav
182,192,186961,128,0,187138:0:0:0:0:
36,192,186961,128,0,187138:0:0:0:0:
109,192,186961,1,0,0:0:0:0:
402,192,186961,1,0,0:0:0:70:LR3_Snare DSW.wav
109,192,187138,128,0,187226:0:0:0:0:
256,192,187138,128,0,187844:0:0:0:0:
402,192,187226,128,0,187314:0:0:0:0:
475,192,187314,128,0,187491:0:0:0:0:
329,192,187314,1,0,0:0:0:0:
182,192,187314,128,0,187491:0:0:0:0:
36,192,187314,128,0,187491:0:0:0:50:HK_Kick01.wav
329,192,187491,128,0,187579:0:0:0:0:
402,192,187491,128,0,187579:0:0:0:0:
182,192,187579,128,0,187667:0:0:0:0:
36,192,187667,128,0,187844:0:0:0:0:
475,192,187667,128,0,187844:0:0:0:0:
402,192,187667,128,0,187844:0:0:0:0:
109,192,187667,1,0,0:0:0:70:LR3_Snare DSW.wav
109,192,187844,128,0,187932:0:0:0:0:
329,192,187844,1,0,0:0:0:0:
182,192,187932,128,0,188020:0:0:0:0:
256,192,188020,128,0,188109:0:0:0:0:
475,192,188020,1,0,0:0:0:0:
329,192,188109,128,0,188197:0:0:0:0:
36,192,188197,128,0,188373:0:0:0:0:
182,192,188197,128,0,188373:0:0:0:0:
109,192,188197,1,0,0:0:0:50:HK_Kick01.wav
402,192,188373,1,0,0:0:0:0:
256,192,188373,1,0,0:0:0:0:
475,192,188373,128,0,188550:0:0:0:0:
329,192,188373,128,0,188550:0:0:0:70:LR3_Snare DSW.wav
256,192,188550,128,0,189256:0:0:0:0:
402,192,188550,128,0,188638:0:0:0:0:
109,192,188638,128,0,188726:0:0:0:0:
36,192,188726,128,0,188903:0:0:0:0:
182,192,188726,1,0,0:0:0:0:
329,192,188726,128,0,188903:0:0:0:0:
475,192,188726,128,0,188903:0:0:0:50:HK_Kick01.wav
182,192,188903,128,0,188991:0:0:0:0:
109,192,188903,128,0,188991:0:0:0:0:
329,192,188991,128,0,189079:0:0:0:0:
36,192,189079,128,0,189256:0:0:0:0:
475,192,189079,128,0,189256:0:0:0:0:
109,192,189079,128,0,189256:0:0:0:0:
402,192,189079,1,0,0:0:0:70:LR3_Snare DSW.wav
402,192,189256,128,0,189344:0:0:0:0:
182,192,189256,1,0,0:0:0:0:
329,192,189344,128,0,189432:0:0:0:0:
256,192,189432,128,0,189520:0:0:0:0:
36,192,189432,1,0,0:0:0:0:
182,192,189520,128,0,189609:0:0:0:0:
475,192,189609,128,0,189785:0:0:0:0:
36,192,189609,128,0,189785:0:0:0:0:
402,192,189609,1,0,0:0:0:50:HK_Kick01.wav
109,192,189785,1,0,0:0:0:0:
329,192,189785,128,0,189961:0:0:0:0:
182,192,189785,128,0,189961:0:0:0:0:
402,192,189785,1,0,0:0:0:70:LR3_Snare DSW.wav
475,192,189961,128,0,190050:0:0:0:0:
256,192,189961,128,0,190491:0:0:0:0:
36,192,190050,128,0,190138:0:0:0:0:
402,192,190138,128,0,190314:0:0:0:0:
109,192,190138,128,0,190314:0:0:0:0:
329,192,190138,128,0,190314:0:0:0:0:
182,192,190138,1,0,0:0:0:50:HK_Kick01.wav
182,192,190314,128,0,190403:0:0:0:0:
475,192,190403,128,0,190491:0:0:0:0:
109,192,190491,1,0,0:0:0:0:
329,192,190491,1,0,0:0:0:0:
402,192,190491,128,0,190667:0:0:0:0:
36,192,190491,128,0,190667:0:0:0:70:LR3_Snare DSW.wav
256,192,190667,128,0,191020:0:0:0:0:
182,192,190667,128,0,191020:0:0:0:0:
329,192,190756,128,0,190844:0:0:0:0:
402,192,190844,128,0,190932:0:0:0:0:
36,192,190844,1,0,0:0:0:0:
475,192,190932,128,0,191020:0:0:0:0:
329,192,191020,1,0,0:0:0:0:
109,192,191020,128,0,191197:0:0:0:0:
402,192,191020,128,0,191197:0:0:0:50:HK_Kick01.wav
475,192,191197,1,0,0:0:0:0:
36,192,191197,1,0,0:0:0:0:
182,192,191197,1,0,0:0:0:0:
256,192,191197,1,0,0:0:0:70:LR3_Snare DSW.wav
329,192,191373,128,0,191726:0:0:0:0:
182,192,191373,128,0,191726:0:0:0:0:
36,192,191461,128,0,191550:0:0:0:0:
475,192,191550,1,0,0:0:0:0:
402,192,191550,1,0,0:0:0:70:LR_CymbalQST.wav
109,192,191550,1,0,0:0:0:50:HK_Kick01.wav
256,192,191550,1,0,0:0:0:0:
36,192,191726,128,0,191903:0:0:0:0:
109,192,191726,128,0,191903:0:0:0:0:
256,192,191903,128,0,192079:0:0:0:0:
402,192,191903,128,0,192079:0:0:0:0:
36,192,192079,128,0,192167:0:0:0:0:
182,192,192079,1,0,0:0:0:0:
475,192,192167,128,0,192256:0:0:0:0:
182,192,192256,128,0,192344:0:0:0:0:
329,192,192256,1,0,0:0:0:0:
109,192,192344,128,0,192432:0:0:0:0:
475,192,192432,128,0,192609:0:0:0:0:
36,192,192432,128,0,192609:0:0:0:0:
256,192,192432,1,0,0:0:0:50:HK_Kick01.wav
402,192,192609,128,0,192785:0:0:0:0:
109,192,192609,128,0,192785:0:0:0:0:
329,192,192609,1,0,0:0:0:0:
182,192,192609,1,0,0:0:0:70:LR3_Snare DSW.wav
475,192,192785,128,0,192873:0:0:0:0:
256,192,192785,128,0,193491:0:0:0:0:
36,192,192873,128,0,192961:0:0:0:0:
109,192,192961,1,0,0:0:0:0:
329,192,192961,128,0,193138:0:0:0:0:
182,192,192961,128,0,193138:0:0:0:70:LR_CymbalQST.wav
475,192,192961,128,0,193138:0:0:0:50:HK_Kick01.wav
109,192,193138,128,0,193226:0:0:0:0:
36,192,193138,128,0,193226:0:0:0:0:
329,192,193226,128,0,193314:0:0:0:0:
475,192,193314,1,0,0:0:0:0:
109,192,193314,128,0,193491:0:0:0:0:
402,192,193314,128,0,193491:0:0:0:0:
36,192,193314,128,0,193491:0:0:0:70:LR3_Snare DSW.wav
475,192,193491,128,0,193579:0:0:0:0:
182,192,193491,1,0,0:0:0:0:
402,192,193579,128,0,193667:0:0:0:0:
329,192,193667,128,0,193756:0:0:0:0:
36,192,193667,1,0,0:0:0:0:
109,192,193756,128,0,193844:0:0:0:0:
182,192,193844,128,0,194020:0:0:0:0:
402,192,193844,128,0,194020:0:0:0:0:
475,192,193844,1,0,0:0:0:50:HK_Kick01.wav
109,192,194020,128,0,194197:0:0:0:0:
329,192,194020,128,0,194197:0:0:0:0:
256,192,194020,1,0,0:0:0:0:
36,192,194020,1,0,0:0:0:70:LR3_Snare DSW.wav
256,192,194197,128,0,194903:0:0:0:0:
36,192,194197,128,0,194285:0:0:0:0:
475,192,194285,128,0,194373:0:0:0:0:
402,192,194373,1,0,0:0:0:0:
329,192,194373,128,0,194550:0:0:0:0:
182,192,194373,128,0,194550:0:0:0:0:
36,192,194373,128,0,194550:0:0:0:50:HK_Kick01.wav
475,192,194550,128,0,194638:0:0:0:0:
402,192,194550,128,0,194638:0:0:0:0:
182,192,194638,128,0,194726:0:0:0:0:
402,192,194726,128,0,194903:0:0:0:0:
475,192,194726,128,0,194903:0:0:0:0:
109,192,194726,128,0,194903:0:0:0:0:
36,192,194726,1,0,0:0:0:70:LR3_Snare DSW.wav
36,192,194903,128,0,194991:0:0:0:0:
329,192,194903,1,0,0:0:0:0:
109,192,194991,128,0,195079:0:0:0:0:
182,192,195079,128,0,195167:0:0:0:0:
475,192,195079,1,0,0:0:0:0:
402,192,195167,128,0,195256:0:0:0:0:
36,192,195256,1,0,0:0:0:0:
109,192,195256,128,0,195432:0:0:0:0:
329,192,195256,128,0,195432:0:0:0:50:HK_Kick01.wav
256,192,195432,1,0,0:0:0:0:
475,192,195432,1,0,0:0:0:0:
402,192,195432,128,0,195609:0:0:0:0:
36,192,195432,128,0,195609:0:0:0:70:LR3_Snare DSW.wav
256,192,195609,128,0,196138:0:0:0:0:
182,192,195609,128,0,195697:0:0:0:0:
329,192,195697,128,0,195785:0:0:0:0:
109,192,195785,128,0,195961:0:0:0:0:
402,192,195785,128,0,195961:0:0:0:0:
36,192,195785,128,0,195961:0:0:0:0:
475,192,195785,1,0,0:0:0:50:HK_Kick01.wav
475,192,195961,128,0,196050:0:0:0:0:
36,192,196050,128,0,196138:0:0:0:0:
329,192,196138,128,0,196314:0:0:0:0:
182,192,196138,128,0,196314:0:0:0:0:
402,192,196138,1,0,0:0:0:0:
109,192,196138,1,0,0:0:0:70:LR3_Snare DSW.wav
36,192,196314,128,0,196667:0:0:0:0:
109,192,196314,128,0,196667:0:0:0:0:
475,192,196403,128,0,196491:0:0:0:0:
329,192,196491,128,0,196579:0:0:0:0:
182,192,196491,1,0,0:0:0:0:
402,192,196579,128,0,196667:0:0:0:0:
256,192,196667,1,0,0:0:0:0:
475,192,196667,128,0,196844:0:0:0:0:
329,192,196667,128,0,196844:0:0:0:50:HK_Kick01.wav
402,192,196844,1,0,0:0:0:0:
182,192,196844,1,0,0:0:0:0:
109,192,196844,1,0,0:0:0:0:
36,192,196844,1,0,0:0:0:70:LR3_Snare DSW.wav
402,192,197020,128,0,197373:0:0:0:0:
109,192,197020,128,0,197373:0:0:0:0:
182,192,197109,128,0,197197:0:0:0:0:
329,192,197197,1,0,0:0:0:0:
475,192,197197,1,0,0:0:0:0:
36,192,197197,1,0,0:0:0:50:HK_Kick01.wav
329,192,197373,128,0,197550:0:0:0:0:
182,192,197373,128,0,197550:0:0:0:0:
475,192,197550,128,0,197726:0:0:0:0:
109,192,197550,1,0,0:0:0:0:
402,192,197550,128,0,197726:0:0:0:70:LR3_Snare DSW.wav
256,192,197550,1,0,0:0:0:0:
329,192,197726,128,0,197814:0:0:0:0:
36,192,197726,1,0,0:0:0:0:
256,192,197814,128,0,197903:0:0:0:0:
182,192,197903,128,0,197991:0:0:0:0:
109,192,197903,1,0,0:0:0:0:
475,192,197991,128,0,198079:0:0:0:0:
329,192,198079,128,0,198256:0:0:0:0:
36,192,198079,128,0,198256:0:0:0:0:
256,192,198079,1,0,0:0:0:50:HK_Kick01.wav
402,192,198256,128,0,198432:0:0:0:0:
109,192,198256,128,0,198432:0:0:0:0:
182,192,198256,1,0,0:0:0:0:
475,192,198256,1,0,0:0:0:70:LR3_Snare DSW.wav
36,192,198432,128,0,198520:0:0:0:0:
256,192,198432,128,0,199138:0:0:0:0:
402,192,198520,128,0,198609:0:0:0:0:
182,192,198609,128,0,198785:0:0:0:0:
475,192,198609,128,0,198785:0:0:0:0:
329,192,198609,128,0,198785:0:0:0:0:
109,192,198609,1,0,0:0:0:50:HK_Kick01.wav
36,192,198785,128,0,198873:0:0:0:0:
402,192,198785,128,0,198873:0:0:0:0:
329,192,198873,128,0,198961:0:0:0:0:
36,192,198961,128,0,199138:0:0:0:0:
475,192,198961,1,0,0:0:0:0:
109,192,198961,128,0,199138:0:0:0:0:
182,192,198961,128,0,199138:0:0:0:70:LR3_Snare DSW.wav
402,192,199138,128,0,199226:0:0:0:0:
475,192,199138,1,0,0:0:0:0:
329,192,199226,128,0,199314:0:0:0:0:
182,192,199314,128,0,199403:0:0:0:0:
36,192,199314,1,0,0:0:0:0:
256,192,199403,128,0,199491:0:0:0:0:
182,192,199491,128,0,199667:0:0:0:0:
329,192,199491,1,0,0:0:0:0:
402,192,199491,128,0,199667:0:0:0:50:HK_Kick01.wav
36,192,199667,1,0,0:0:0:0:
475,192,199667,1,0,0:0:0:0:
109,192,199667,128,0,199844:0:0:0:0:
329,192,199667,128,0,199844:0:0:0:70:LR3_Snare DSW.wav
256,192,199844,128,0,200550:0:0:0:0:
475,192,199844,128,0,199932:0:0:0:0:
109,192,199932,128,0,200020:0:0:0:0:
402,192,200020,1,0,0:0:0:0:
329,192,200020,128,0,200197:0:0:0:0:
182,192,200020,128,0,200197:0:0:0:0:
36,192,200020,128,0,200197:0:0:0:50:HK_Kick01.wav
109,192,200197,128,0,200285:0:0:0:0:
475,192,200197,128,0,200285:0:0:0:0:
182,192,200285,128,0,200373:0:0:0:0:
475,192,200373,128,0,200550:0:0:0:0:
329,192,200373,128,0,200550:0:0:0:0:
402,192,200373,128,0,200550:0:0:0:0:
36,192,200373,1,0,0:0:0:70:LR3_Snare DSW.wav
109,192,200550,128,0,200638:0:0:0:0:
36,192,200550,1,0,0:0:0:0:
182,192,200638,128,0,200726:0:0:0:0:
329,192,200726,128,0,200814:0:0:0:0:
475,192,200726,1,0,0:0:0:0:
256,192,200814,128,0,200903:0:0:0:0:
402,192,200903,128,0,201079:0:0:0:0:
109,192,200903,128,0,201079:0:0:0:0:
182,192,200903,1,0,0:0:0:50:HK_Kick01.wav
329,192,201079,1,0,0:0:0:0:
475,192,201079,128,0,201256:0:0:0:0:
36,192,201079,128,0,201256:0:0:0:0:
182,192,201079,1,0,0:0:0:70:LR3_Snare DSW.wav
256,192,201256,128,0,201785:0:0:0:0:
109,192,201256,128,0,201344:0:0:0:0:
402,192,201344,128,0,201432:0:0:0:0:
36,192,201432,128,0,201609:0:0:0:0:
475,192,201432,128,0,201609:0:0:0:0:
182,192,201432,128,0,201609:0:0:0:0:
329,192,201432,1,0,0:0:0:50:HK_Kick01.wav
329,192,201609,128,0,201697:0:0:0:0:
182,192,201697,128,0,201785:0:0:0:0:
402,192,201785,1,0,0:0:0:0:
475,192,201785,1,0,0:0:0:0:
109,192,201785,128,0,201961:0:0:0:0:
36,192,201785,128,0,201961:0:0:0:70:LR3_Snare DSW.wav
256,192,201961,128,0,202314:0:0:0:0:
402,192,201961,128,0,202314:0:0:0:0:
329,192,202050,128,0,202138:0:0:0:0:
36,192,202138,128,0,202226:0:0:0:0:
475,192,202138,1,0,0:0:0:0:
182,192,202226,128,0,202314:0:0:0:0:
329,192,202314,1,0,0:0:0:0:
109,192,202314,128,0,202491:0:0:0:0:
475,192,202314,128,0,202491:0:0:0:50:HK_Kick01.wav
402,192,202491,1,0,0:0:0:0:
36,192,202491,1,0,0:0:0:0:
182,192,202491,1,0,0:0:0:0:
256,192,202491,1,0,0:0:0:70:LR3_Snare DSW.wav
329,192,202667,128,0,202844:0:0:0:0:
182,192,202667,128,0,202844:0:0:0:0:
36,192,202756,128,0,202844:0:0:0:0:
256,192,202844,1,0,0:0:0:0:
402,192,202844,1,0,0:0:0:70:LR_CymbalQST.wav
475,192,202844,1,0,0:0:0:50:HK_Kick01.wav
109,192,202844,1,0,0:0:0:0:
182,192,203020,128,0,203197:0:0:0:0:
36,192,203020,128,0,203197:0:0:0:0:
475,192,203197,128,0,203373:0:0:0:0:
256,192,203197,128,0,203373:0:0:0:0:
329,192,203373,128,0,203726:0:0:0:0:
109,192,203726,128,0,203903:0:0:0:0:
402,192,203726,1,0,0:0:0:0:
36,192,203726,128,0,203903:0:0:0:50:HK_Kick01.wav
475,192,203903,128,0,204079:0:0:0:0:
329,192,203903,128,0,204079:0:0:0:0:
256,192,203903,1,0,0:0:0:0:
182,192,203903,1,0,0:0:0:70:LR3_Snare RSH.wav
402,192,204079,128,0,204256:0:0:0:0:
256,192,204079,128,0,204256:0:0:0:0:
329,192,204256,1,0,0:0:0:0:
475,192,204256,1,0,0:0:0:0:
182,192,204256,1,0,0:0:0:0:
109,192,204256,1,0,0:0:0:70:LR_CymbalQST.wav
36,192,204256,128,0,204344:0:0:0:50:HK_Kick01.wav
329,192,204432,1,0,0:0:0:0:
109,192,204432,128,0,204520:0:0:0:0:
402,192,204609,1,0,0:0:0:0:
475,192,204609,1,0,0:0:0:0:
256,192,204609,1,0,0:0:0:70:LR3_Snare DSW.wav
182,192,204609,128,0,204697:0:0:0:0:
402,192,204785,128,0,204961:0:0:0:0:
36,192,204785,1,0,0:0:0:0:
109,192,204873,1,0,0:0:0:0:
182,192,204961,1,0,0:0:0:0:
256,192,204961,128,0,205138:0:0:0:0:
329,192,205050,1,0,0:0:0:0:
36,192,205138,1,0,0:0:0:0:
109,192,205138,128,0,205314:0:0:0:0:
475,192,205138,1,0,0:0:0:50:HK_Kick01.wav
402,192,205314,1,0,0:0:0:0:
36,192,205314,1,0,0:0:0:0:
475,192,205314,1,0,0:0:0:0:
256,192,205314,1,0,0:0:0:70:LR3_Snare DSW.wav
182,192,205491,1,0,0:0:0:0:
329,192,205579,1,0,0:0:0:0:
109,192,205667,1,0,0:0:0:50:HK_Kick01.wav
256,192,205667,1,0,0:0:0:0:
475,192,205667,128,0,205756:0:0:0:0:
182,192,205844,1,0,0:0:0:0:
402,192,205844,128,0,205932:0:0:0:0:
109,192,206020,1,0,0:0:0:0:
475,192,206020,1,0,0:0:0:0:
36,192,206020,1,0,0:0:0:70:LR3_Snare DSW.wav
329,192,206020,128,0,206109:0:0:0:0:
109,192,206197,128,0,206550:0:0:0:0:
402,192,206197,1,0,0:0:0:0:
182,192,206285,1,0,0:0:0:0:
256,192,206373,1,0,0:0:0:0:
329,192,206373,1,0,0:0:0:0:
475,192,206461,1,0,0:0:0:0:
36,192,206550,128,0,206726:0:0:0:0:
402,192,206550,1,0,0:0:0:0:
182,192,206550,1,0,0:0:0:50:HK_Kick01.wav
256,192,206726,1,0,0:0:0:0:
475,192,206726,1,0,0:0:0:0:
329,192,206726,1,0,0:0:0:0:
109,192,206726,1,0,0:0:0:70:LR3_Snare DSW.wav
182,192,206903,1,0,0:0:0:0:
256,192,206991,1,0,0:0:0:0:
36,192,207079,1,0,0:0:0:0:
109,192,207079,1,0,0:0:0:0:
329,192,207079,1,0,0:0:0:50:HK_Kick01.wav
402,192,207256,1,0,0:0:0:0:
182,192,207256,1,0,0:0:0:0:
36,192,207432,1,0,0:0:0:0:
329,192,207432,128,0,207520:0:0:0:0:
475,192,207432,1,0,0:0:0:0:
256,192,207432,1,0,0:0:0:70:LR3_Snare DSW.wav
402,192,207609,128,0,207697:0:0:0:0:
182,192,207609,1,0,0:0:0:0:
109,192,207697,1,0,0:0:0:0:
329,192,207785,1,0,0:0:0:0:
475,192,207785,128,0,208138:0:0:0:0:
256,192,207873,1,0,0:0:0:0:
182,192,207961,1,0,0:0:0:0:
36,192,207961,1,0,0:0:0:0:
402,192,207961,1,0,0:0:0:50:HK_Kick01.wav
256,192,208138,1,0,0:0:0:0:
109,192,208138,1,0,0:0:0:0:
36,192,208138,1,0,0:0:0:0:
329,192,208138,128,0,208314:0:0:0:70:LR3_Snare DSW.wav
475,192,208314,128,0,208491:0:0:0:0:
182,192,208314,1,0,0:0:0:0:
329,192,208403,1,0,0:0:0:0:
109,192,208491,128,0,209020:0:0:0:0:
402,192,208491,1,0,0:0:0:0:
36,192,208491,1,0,0:0:0:50:HK_Kick01.wav
329,192,208667,1,0,0:0:0:0:
256,192,208667,1,0,0:0:0:0:
475,192,208844,1,0,0:0:0:0:
36,192,208844,1,0,0:0:0:0:
402,192,208844,1,0,0:0:0:0:
182,192,208844,1,0,0:0:0:70:LR3_Snare DSW.wav
329,192,209020,1,0,0:0:0:0:
256,192,209020,128,0,209373:0:0:0:0:
182,192,209109,1,0,0:0:0:0:
109,192,209197,1,0,0:0:0:0:
475,192,209197,1,0,0:0:0:0:
402,192,209285,1,0,0:0:0:0:
182,192,209373,128,0,209550:0:0:0:0:
329,192,209373,1,0,0:0:0:0:
36,192,209373,1,0,0:0:0:50:HK_Kick01.wav
36,192,209550,1,0,0:0:0:0:
475,192,209550,1,0,0:0:0:0:
256,192,209550,1,0,0:0:0:0:
109,192,209550,1,0,0:0:0:70:LR3_Snare DSW.wav
402,192,209726,1,0,0:0:0:0:
329,192,209814,1,0,0:0:0:0:
109,192,209903,128,0,209991:0:0:0:0:
475,192,209903,1,0,0:0:0:0:
256,192,209903,1,0,0:0:0:50:HK_Kick01.wav
329,192,210079,1,0,0:0:0:0:
182,192,210079,128,0,210167:0:0:0:0:
36,192,210256,1,0,0:0:0:0:
402,192,210256,1,0,0:0:0:0:
475,192,210256,1,0,0:0:0:70:LR3_Snare DSW.wav
256,192,210256,128,0,210344:0:0:0:0:
36,192,210432,128,0,210609:0:0:0:0:
329,192,210432,1,0,0:0:0:0:
402,192,210520,1,0,0:0:0:0:
475,192,210609,128,0,210785:0:0:0:0:
182,192,210609,1,0,0:0:0:0:
256,192,210697,1,0,0:0:0:0:
36,192,210785,1,0,0:0:0:0:
402,192,210785,128,0,210961:0:0:0:0:
182,192,210785,1,0,0:0:0:50:HK_Kick01.wav
256,192,210961,1,0,0:0:0:0:
329,192,210961,1,0,0:0:0:0:
109,192,210961,1,0,0:0:0:0:
475,192,210961,1,0,0:0:0:70:LR3_Snare DSW.wav
182,192,211138,1,0,0:0:0:0:
402,192,211226,1,0,0:0:0:0:
475,192,211314,1,0,0:0:0:0:
36,192,211314,1,0,0:0:0:0:
256,192,211314,128,0,211403:0:0:0:50:HK_Kick01.wav
109,192,211491,1,0,0:0:0:0:
329,192,211491,128,0,211579:0:0:0:0:
475,192,211667,1,0,0:0:0:0:
182,192,211667,1,0,0:0:0:0:
36,192,211667,1,0,0:0:0:70:LR3_Snare DSW.wav
402,192,211667,128,0,211756:0:0:0:0:
109,192,211844,1,0,0:0:0:0:
256,192,211844,128,0,212197:0:0:0:0:
402,192,211932,1,0,0:0:0:0:
36,192,212020,1,0,0:0:0:0:
329,192,212020,1,0,0:0:0:0:
475,192,212109,1,0,0:0:0:0:
182,192,212197,128,0,212373:0:0:0:0:
109,192,212197,1,0,0:0:0:0:
402,192,212197,1,0,0:0:0:50:HK_Kick01.wav
475,192,212373,1,0,0:0:0:0:
329,192,212373,1,0,0:0:0:0:
36,192,212373,1,0,0:0:0:0:
256,192,212373,1,0,0:0:0:70:LR3_Snare DSW.wav
109,192,212550,1,0,0:0:0:0:
402,192,212638,1,0,0:0:0:0:
36,192,212726,128,0,213079:0:0:0:0:
182,192,212726,1,0,0:0:0:0:
475,192,212726,1,0,0:0:0:50:HK_Kick01.wav
256,192,212903,1,0,0:0:0:0:
329,192,212903,1,0,0:0:0:0:
109,192,213079,1,0,0:0:0:0:
475,192,213079,1,0,0:0:0:0:
182,192,213079,128,0,213256:0:0:0:0:
402,192,213079,1,0,0:0:0:70:LR3_Snare DSW.wav
36,192,213256,1,0,0:0:0:0:
402,192,213256,128,0,213432:0:0:0:0:
329,192,213344,1,0,0:0:0:0:
256,192,213432,1,0,0:0:0:0:
109,192,213432,1,0,0:0:0:0:
36,192,213520,1,0,0:0:0:0:
256,192,213609,128,0,213785:0:0:0:0:
402,192,213609,1,0,0:0:0:0:
109,192,213609,1,0,0:0:0:50:HK_Kick01.wav
36,192,213785,1,0,0:0:0:0:
475,192,213785,1,0,0:0:0:0:
329,192,213785,1,0,0:0:0:0:
182,192,213785,1,0,0:0:0:70:LR3_Snare DSW.wav
109,192,213961,1,0,0:0:0:0:
475,192,213961,128,0,214138:0:0:0:0:
182,192,214050,1,0,0:0:0:0:
256,192,214138,1,0,0:0:0:0:
36,192,214138,1,0,0:0:0:0:
402,192,214138,1,0,0:0:0:50:HK_Kick01.wav
182,192,214314,1,0,0:0:0:0:
329,192,214314,128,0,214491:0:0:0:0:
475,192,214491,1,0,0:0:0:0:
109,192,214491,1,0,0:0:0:0:
256,192,214491,128,0,214667:0:0:0:0:
402,192,214491,1,0,0:0:0:70:LR3_Snare DSW.wav
182,192,214667,128,0,214844:0:0:0:0:
36,192,214667,1,0,0:0:0:0:
402,192,214667,1,0,0:0:0:50:HK_Kick01.wav
329,192,214756,1,0,0:0:0:0:
109,192,214844,128,0,215020:0:0:0:0:
256,192,214844,1,0,0:0:0:0:
402,192,214932,1,0,0:0:0:0:
475,192,215020,1,0,0:0:0:0:
329,192,215020,1,0,0:0:0:0:
182,192,215020,1,0,0:0:0:50:HK_Kick01.wav
36,192,215197,128,0,215550:0:0:0:0:
402,192,215197,1,0,0:0:0:0:
109,192,215197,1,0,0:0:0:0:
256,192,215197,1,0,0:0:0:70:LR3_Snare DSW.wav
182,192,215373,1,0,0:0:0:0:
329,192,215461,1,0,0:0:0:0:
182,192,215550,1,0,0:0:0:0:
402,192,215550,1,0,0:0:0:0:
109,192,215550,1,0,0:0:0:0:
256,192,215550,128,0,215638:0:0:0:50:HK_Kick01.wav
475,192,215550,1,0,0:0:0:70:LR_CymbalQST.wav
36,192,215726,1,0,0:0:0:0:
329,192,215726,128,0,215814:0:0:0:0:
109,192,215903,1,0,0:0:0:0:
475,192,215903,1,0,0:0:0:0:
182,192,215903,1,0,0:0:0:70:LR3_Snare DSW.wav
402,192,215903,128,0,215991:0:0:0:0:
36,192,216079,128,0,216256:0:0:0:0:
256,192,216079,1,0,0:0:0:0:
329,192,216167,1,0,0:0:0:0:
182,192,216256,128,0,216432:0:0:0:0:
475,192,216256,1,0,0:0:0:0:
402,192,216344,1,0,0:0:0:0:
329,192,216432,128,0,216609:0:0:0:0:
256,192,216432,1,0,0:0:0:0:
109,192,216432,1,0,0:0:0:50:HK_Kick01.wav
36,192,216609,1,0,0:0:0:0:
182,192,216609,1,0,0:0:0:0:
402,192,216609,1,0,0:0:0:0:
475,192,216609,1,0,0:0:0:70:LR3_Snare DSW.wav
329,192,216785,1,0,0:0:0:0:
256,192,216873,1,0,0:0:0:0:
475,192,216961,128,0,217050:0:0:0:0:
182,192,216961,1,0,0:0:0:0:
36,192,216961,1,0,0:0:0:50:HK_Kick01.wav
109,192,217138,1,0,0:0:0:0:
402,192,217138,128,0,217226:0:0:0:0:
36,192,217314,1,0,0:0:0:0:
256,192,217314,1,0,0:0:0:0:
182,192,217314,1,0,0:0:0:70:LR3_Snare DSW.wav
329,192,217314,128,0,217403:0:0:0:0:
182,192,217491,1,0,0:0:0:0:
402,192,217491,128,0,217844:0:0:0:0:
109,192,217579,1,0,0:0:0:0:
475,192,217667,1,0,0:0:0:0:
36,192,217667,1,0,0:0:0:0:
182,192,217756,1,0,0:0:0:0:
329,192,217844,128,0,218020:0:0:0:0:
109,192,217844,1,0,0:0:0:0:
256,192,217844,1,0,0:0:0:50:HK_Kick01.wav
182,192,218020,1,0,0:0:0:0:
36,192,218020,1,0,0:0:0:0:
402,192,218020,1,0,0:0:0:0:
475,192,218020,1,0,0:0:0:70:LR3_Snare DSW.wav
329,192,218197,1,0,0:0:0:0:
182,192,218285,1,0,0:0:0:0:
36,192,218373,1,0,0:0:0:0:
475,192,218373,1,0,0:0:0:0:
256,192,218373,1,0,0:0:0:50:HK_Kick01.wav
402,192,218550,1,0,0:0:0:0:
109,192,218550,1,0,0:0:0:0:
182,192,218726,1,0,0:0:0:0:
475,192,218726,1,0,0:0:0:0:
329,192,218726,1,0,0:0:0:0:
109,192,218726,128,0,218814:0:0:0:70:LR3_Snare DSW.wav
182,192,218903,128,0,218991:0:0:0:0:
36,192,218903,1,0,0:0:0:0:
402,192,218991,1,0,0:0:0:0:
256,192,219079,128,0,219432:0:0:0:0:
109,192,219079,1,0,0:0:0:0:
475,192,219167,1,0,0:0:0:0:
182,192,219256,1,0,0:0:0:0:
329,192,219256,1,0,0:0:0:0:
36,192,219256,1,0,0:0:0:50:HK_Kick01.wav
402,192,219432,128,0,219609:0:0:0:0:
109,192,219432,1,0,0:0:0:0:
475,192,219432,1,0,0:0:0:0:
36,192,219432,1,0,0:0:0:70:LR3_Snare DSW.wav
329,192,219609,128,0,219785:0:0:0:0:
182,192,219609,1,0,0:0:0:0:
109,192,219697,1,0,0:0:0:0:
36,192,219785,1,0,0:0:0:0:
256,192,219785,1,0,0:0:0:0:
475,192,219785,128,0,220314:0:0:0:50:HK_Kick01.wav
329,192,219961,1,0,0:0:0:0:
182,192,220050,1,0,0:0:0:0:
36,192,220138,1,0,0:0:0:0:
402,192,220138,1,0,0:0:0:0:
109,192,220138,1,0,0:0:0:0:
256,192,220138,1,0,0:0:0:70:LR3_Snare DSW.wav
109,192,220314,128,0,220667:0:0:0:0:
329,192,220314,1,0,0:0:0:0:
402,192,220403,1,0,0:0:0:0:
36,192,220491,1,0,0:0:0:0:
256,192,220491,1,0,0:0:0:0:
329,192,220579,1,0,0:0:0:0:
402,192,220667,128,0,220844:0:0:0:0:
475,192,220667,1,0,0:0:0:0:
182,192,220667,1,0,0:0:0:50:HK_Kick01.wav
36,192,220844,1,0,0:0:0:0:
256,192,220844,1,0,0:0:0:0:
329,192,220844,1,0,0:0:0:0:
109,192,220844,1,0,0:0:0:70:LR3_Snare DSW.wav
475,192,221020,1,0,0:0:0:0:
329,192,221109,1,0,0:0:0:0:
402,192,221197,1,0,0:0:0:0:
36,192,221197,1,0,0:0:0:0:
182,192,221197,128,0,221285:0:0:0:50:HK_Kick01.wav
475,192,221373,1,0,0:0:0:0:
109,192,221373,128,0,221461:0:0:0:0:
182,192,221550,1,0,0:0:0:0:
402,192,221550,1,0,0:0:0:0:
329,192,221550,1,0,0:0:0:70:LR3_Snare DSW.wav
36,192,221550,128,0,221638:0:0:0:0:
475,192,221726,128,0,221903:0:0:0:0:
256,192,221726,1,0,0:0:0:0:
182,192,221814,1,0,0:0:0:0:
36,192,221903,1,0,0:0:0:0:
329,192,221903,128,0,222079:0:0:0:0:
109,192,221991,1,0,0:0:0:0:
256,192,222079,128,0,222256:0:0:0:0:
402,192,222079,1,0,0:0:0:0:
182,192,222079,1,0,0:0:0:50:HK_Kick01.wav
109,192,222256,1,0,0:0:0:0:
329,192,222256,1,0,0:0:0:0:
475,192,222256,1,0,0:0:0:0:
36,192,222256,1,0,0:0:0:70:LR3_Snare DSW.wav
182,192,222432,1,0,0:0:0:0:
329,192,222520,1,0,0:0:0:0:
402,192,222609,128,0,222697:0:0:0:0:
475,192,222609,1,0,0:0:0:0:
109,192,222609,1,0,0:0:0:50:HK_Kick01.wav
36,192,222785,1,0,0:0:0:0:
256,192,222785,128,0,222873:0:0:0:0:
475,192,222961,1,0,0:0:0:0:
329,192,222961,1,0,0:0:0:0:
182,192,222961,1,0,0:0:0:70:LR3_Snare DSW.wav
109,192,222961,128,0,223050:0:0:0:0:
36,192,223138,1,0,0:0:0:0:
256,192,223138,128,0,223491:0:0:0:0:
182,192,223226,1,0,0:0:0:0:
329,192,223314,1,0,0:0:0:0:
109,192,223314,1,0,0:0:0:0:
475,192,223403,1,0,0:0:0:0:
109,192,223491,128,0,223667:0:0:0:0:
36,192,223491,1,0,0:0:0:0:
402,192,223491,1,0,0:0:0:50:HK_Kick01.wav
256,192,223667,1,0,0:0:0:0:
182,192,223667,1,0,0:0:0:0:
475,192,223667,1,0,0:0:0:0:
329,192,223667,1,0,0:0:0:70:LR3_Snare DSW.wav
402,192,223844,1,0,0:0:0:0:
109,192,223932,1,0,0:0:0:0:
329,192,224020,128,0,224373:0:0:0:0:
182,192,224020,1,0,0:0:0:0:
36,192,224020,1,0,0:0:0:50:HK_Kick01.wav
475,192,224197,1,0,0:0:0:0:
109,192,224197,1,0,0:0:0:0:
36,192,224373,1,0,0:0:0:0:
402,192,224373,1,0,0:0:0:0:
256,192,224373,128,0,224550:0:0:0:0:
182,192,224373,1,0,0:0:0:70:LR3_Snare DSW.wav
36,192,224550,128,0,224726:0:0:0:0:
329,192,224550,1,0,0:0:0:0:
182,192,224638,1,0,0:0:0:0:
256,192,224726,1,0,0:0:0:0:
475,192,224726,1,0,0:0:0:0:
402,192,224814,1,0,0:0:0:0:
36,192,224903,1,0,0:0:0:0:
329,192,224903,1,0,0:0:0:0:
182,192,224903,128,0,225079:0:0:0:50:HK_Kick01.wav
256,192,225079,1,0,0:0:0:0:
475,192,225079,1,0,0:0:0:0:
109,192,225079,1,0,0:0:0:0:
402,192,225079,1,0,0:0:0:70:LR3_Snare DSW.wav
329,192,225256,128,0,225432:0:0:0:0:
182,192,225256,1,0,0:0:0:0:
402,192,225344,1,0,0:0:0:0:
36,192,225432,1,0,0:0:0:0:
109,192,225432,1,0,0:0:0:0:
475,192,225432,1,0,0:0:0:70:LR_CymbalQST.wav
256,192,225432,1,0,0:0:0:50:HK_Kick01.wav
329,192,225609,1,0,0:0:0:0:
475,192,225785,128,0,225961:0:0:0:0:
256,192,225785,128,0,225961:0:0:0:0:
182,192,225961,128,0,226138:0:0:0:0:
402,192,225961,128,0,226138:0:0:0:0:
329,192,226138,128,0,226314:0:0:0:0:
109,192,226138,128,0,226314:0:0:0:0:
256,192,226314,1,0,0:0:0:0:
402,192,226314,1,0,0:0:0:50:HK_Kick01.wav
36,192,226314,1,0,0:0:0:0:
182,192,226491,128,0,226844:0:0:0:0:
475,192,226491,1,0,0:0:0:0:
329,192,226491,1,0,0:0:0:0:
109,192,226491,1,0,0:0:0:70:LR3_Snare DSW.wav
36,192,226844,1,0,0:0:0:0:
402,192,226844,1,0,0:0:0:50:HK_Kick01.wav
256,192,226844,1,0,0:0:0:70:LR4_BassKickReverbXD.wav
109,192,227020,128,0,227109:0:0:0:0:
256,192,227197,128,0,227285:0:0:0:0:
36,192,227373,128,0,227461:0:0:0:0:
182,192,227550,128,0,227638:0:0:0:0:
475,192,228256,1,0,0:0:0:0:
36,192,228256,1,0,0:0:0:0:
402,192,228432,128,0,228520:0:0:0:0:
329,192,228609,128,0,228697:0:0:0:0:
256,192,228785,128,0,228873:0:0:0:0:
109,192,229667,1,0,0:0:0:0:
402,192,229667,1,0,0:0:0:0:
182,192,229844,1,0,0:0:0:0:
329,192,230020,1,0,0:0:0:0:
475,192,230197,1,0,0:0:0:0:
182,192,230550,128,0,230638:0:0:0:0:
36,192,230726,128,0,230814:0:0:0:0:
256,192,230903,128,0,230991:0:0:0:0:
329,192,231079,1,0,0:0:0:0:
182,192,231079,1,0,0:0:0:0:
475,192,231256,1,0,0:0:0:0:
36,192,231432,1,0,0:0:0:0:
182,192,231609,1,0,0:0:0:0:
256,192,231961,128,0,232050:0:0:0:0:
402,192,232138,128,0,232226:0:0:0:0:
329,192,232491,1,0,0:0:0:0:
475,192,232491,1,0,0:0:0:0:
182,192,232667,128,0,232756:0:0:0:0:
109,192,232844,128,0,232932:0:0:0:0:
256,192,233020,128,0,233109:0:0:0:0:
182,192,233197,128,0,233285:0:0:0:0:
475,192,233903,1,0,0:0:0:0:
36,192,233903,1,0,0:0:0:0:
402,192,234079,128,0,234167:0:0:0:0:
329,192,234256,128,0,234344:0:0:0:0:
256,192,234432,128,0,234520:0:0:0:0:
109,192,235314,1,0,0:0:0:0:
402,192,235314,1,0,0:0:0:0:
329,192,235491,1,0,0:0:0:0:
256,192,235667,1,0,0:0:0:0:
182,192,235844,1,0,0:0:0:0:
256,192,236197,128,0,236285:0:0:0:0:
475,192,236373,128,0,236461:0:0:0:0:
36,192,236550,128,0,236638:0:0:0:0:
182,192,236726,1,0,0:0:0:0:
329,192,236726,1,0,0:0:0:0:
475,192,236903,1,0,0:0:0:0:
256,192,237079,1,0,0:0:0:0:
402,192,237256,1,0,0:0:0:0:
109,192,237609,128,0,237697:0:0:0:0:
402,192,237785,128,0,237873:0:0:0:0:
256,192,238138,5,0,0:0:0:0:
402,192,238138,1,0,0:0:0:0:
475,192,238138,1,0,0:0:0:50:HK_Kick01.wav
36,192,238138,1,0,0:0:0:70:LR4_BassKickReverbXD.wav
109,192,238138,1,0,0:0:0:70:LR3_Snare FCSRL.wav
329,192,238314,1,0,0:0:0:0:
182,192,238314,1,0,0:0:0:50:LR3_Snare RSH.wav
402,192,238403,1,0,0:0:0:0:
36,192,238491,1,0,0:0:0:0:
475,192,238491,1,0,0:0:0:0:
256,192,238491,1,0,0:0:0:50:LR3_Snare RSH.wav
329,192,238667,1,0,0:0:0:0:
109,192,238667,1,0,0:0:0:50:LR3_Snare RSH.wav
256,192,238756,1,0,0:0:0:0:
36,192,238844,1,0,0:0:0:0:
402,192,238844,1,0,0:0:0:50:LR3_Snare RSH.wav
329,192,238932,1,0,0:0:0:0:
475,192,239020,1,0,0:0:0:0:
109,192,239020,1,0,0:0:0:50:LR3_Snare RSH.wav
256,192,239109,1,0,0:0:0:0:
475,192,239197,1,0,0:0:0:0:
402,192,239197,1,0,0:0:0:0:
36,192,239197,1,0,0:0:0:50:LR3_Snare RSH.wav
329,192,239373,1,0,0:0:0:0:
182,192,239373,1,0,0:0:0:50:LR3_Snare RSH.wav
109,192,239461,1,0,0:0:0:0:
256,192,239550,1,0,0:0:0:0:
36,192,239550,1,0,0:0:0:50:LR3_Snare RSH.wav
182,192,239726,1,0,0:0:0:0:
329,192,239726,1,0,0:0:0:50:LR3_Snare RSH.wav
36,192,239903,1,0,0:0:0:0:
109,192,239903,1,0,0:0:0:0:
475,192,239903,1,0,0:0:0:50:LR3_Snare RSH.wav
182,192,240079,1,0,0:0:0:0:
402,192,240079,1,0,0:0:0:50:LR3_Snare RSH.wav
256,192,240167,1,0,0:0:0:0:
475,192,240256,1,0,0:0:0:0:
109,192,240256,1,0,0:0:0:50:LR3_Snare RSH.wav
182,192,240344,1,0,0:0:0:0:
36,192,240432,1,0,0:0:0:0:
402,192,240432,1,0,0:0:0:50:LR3_Snare RSH.wav
256,192,240520,1,0,0:0:0:0:
475,192,240609,1,0,0:0:0:0:
36,192,240609,1,0,0:0:0:0:
109,192,240609,1,0,0:0:0:50:LR3_Snare RSH.wav
402,192,240785,1,0,0:0:0:0:
182,192,240785,1,0,0:0:0:50:LR3_Snare RSH.wav
329,192,240873,1,0,0:0:0:0:
402,192,240961,1,0,0:0:0:0:
109,192,240961,1,0,0:0:0:60:LR3_Snare RSH.wav
182,192,241138,1,0,0:0:0:0:
329,192,241138,1,0,0:0:0:60:LR3_Snare RSH.wav
256,192,241314,1,0,0:0:0:0:
475,192,241314,1,0,0:0:0:0:
36,192,241314,1,0,0:0:0:60:LR3_Snare RSH.wav
109,192,241491,1,0,0:0:0:0:
402,192,241491,1,0,0:0:0:60:LR3_Snare RSH.wav
329,192,241579,1,0,0:0:0:0:
475,192,241667,1,0,0:0:0:0:
182,192,241667,1,0,0:0:0:60:LR3_Snare RSH.wav
109,192,241756,1,0,0:0:0:0:
475,192,241844,1,0,0:0:0:0:
256,192,241844,1,0,0:0:0:60:LR3_Snare RSH.wav
329,192,241932,1,0,0:0:0:0:
36,192,242020,1,0,0:0:0:0:
402,192,242020,1,0,0:0:0:0:
182,192,242020,1,0,0:0:0:60:LR3_Snare RSH.wav
109,192,242197,1,0,0:0:0:0:
329,192,242197,1,0,0:0:0:60:LR3_Snare RSH.wav
182,192,242285,1,0,0:0:0:0:
402,192,242373,1,0,0:0:0:0:
109,192,242373,1,0,0:0:0:70:LR3_Snare RSH.wav
182,192,242550,1,0,0:0:0:0:
329,192,242550,1,0,0:0:0:70:LR3_Snare RSH.wav
36,192,242726,1,0,0:0:0:0:
256,192,242726,1,0,0:0:0:0:
475,192,242726,1,0,0:0:0:70:LR3_Snare RSH.wav
109,192,242903,1,0,0:0:0:0:
402,192,242903,1,0,0:0:0:70:LR3_Snare RSH.wav
182,192,242991,1,0,0:0:0:0:
329,192,243079,1,0,0:0:0:0:
36,192,243079,1,0,0:0:0:70:LR3_Snare RSH.wav
402,192,243167,1,0,0:0:0:0:
36,192,243256,1,0,0:0:0:0:
256,192,243256,1,0,0:0:0:70:LR3_Snare RSH.wav
182,192,243344,1,0,0:0:0:0:
109,192,243432,1,0,0:0:0:0:
329,192,243432,1,0,0:0:0:0:
475,192,243432,1,0,0:0:0:70:LR3_Snare RSH.wav
182,192,243609,1,0,0:0:0:0:
36,192,243609,1,0,0:0:0:70:LR3_Snare RSH.wav
329,192,243697,1,0,0:0:0:0:
109,192,243785,1,0,0:0:0:0:
402,192,243785,1,0,0:0:0:0:
475,192,243785,1,0,0:0:0:50:HK_Kick01.wav
182,192,243873,1,0,0:0:0:0:
256,192,243961,1,0,0:0:0:0:
402,192,243961,1,0,0:0:0:0:
475,192,243961,1,0,0:0:0:50:HK_Kick01.wav
109,192,244050,1,0,0:0:0:0:
182,192,244138,1,0,0:0:0:0:
475,192,244138,1,0,0:0:0:0:
329,192,244138,1,0,0:0:0:0:
36,192,244138,1,0,0:0:0:50:HK_Kick01.wav
256,192,244226,1,0,0:0:0:0:
109,192,244314,1,0,0:0:0:0:
402,192,244314,1,0,0:0:0:0:
475,192,244314,1,0,0:0:0:50:HK_Kick01.wav
256,192,244403,1,0,0:0:0:0:
402,192,244491,1,0,0:0:0:0:
36,192,244491,1,0,0:0:0:0:
109,192,244491,1,0,0:0:0:50:HK_Kick01.wav
329,192,244579,1,0,0:0:0:0:
109,192,244667,1,0,0:0:0:0:
36,192,244667,1,0,0:0:0:0:
256,192,244667,1,0,0:0:0:50:HK_Kick01.wav
402,192,244756,1,0,0:0:0:0:
182,192,244844,1,0,0:0:0:0:
329,192,244844,1,0,0:0:0:0:
475,192,244844,1,0,0:0:0:0:
36,192,244844,1,0,0:0:0:50:HK_Kick01.wav
256,192,244932,1,0,0:0:0:0:
36,192,245020,1,0,0:0:0:0:
402,192,245020,1,0,0:0:0:0:
109,192,245020,1,0,0:0:0:50:HK_Kick01.wav
256,192,245109,1,0,0:0:0:0:
329,192,245197,1,0,0:0:0:0:
109,192,245197,1,0,0:0:0:0:
475,192,245197,1,0,0:0:0:50:HK_Kick01.wav
182,192,245285,1,0,0:0:0:0:
36,192,245373,1,0,0:0:0:0:
329,192,245373,1,0,0:0:0:0:
475,192,245373,1,0,0:0:0:50:HK_Kick01.wav
182,192,245461,1,0,0:0:0:0:
402,192,245550,1,0,0:0:0:0:
256,192,245550,1,0,0:0:0:0:
475,192,245550,1,0,0:0:0:0:
36,192,245550,1,0,0:0:0:50:HK_Kick01.wav
109,192,245638,1,0,0:0:0:0:
329,192,245726,1,0,0:0:0:0:
475,192,245726,1,0,0:0:0:0:
182,192,245726,1,0,0:0:0:50:HK_Kick01.wav
256,192,245814,1,0,0:0:0:0:
182,192,245903,1,0,0:0:0:0:
402,192,245903,1,0,0:0:0:0:
36,192,245903,1,0,0:0:0:50:HK_Kick01.wav
329,192,245991,1,0,0:0:0:0:
475,192,246079,1,0,0:0:0:0:
182,192,246079,1,0,0:0:0:0:
36,192,246079,1,0,0:0:0:50:HK_Kick01.wav
329,192,246167,1,0,0:0:0:0:
256,192,246256,1,0,0:0:0:0:
475,192,246256,1,0,0:0:0:0:
36,192,246256,1,0,0:0:0:0:
109,192,246256,1,0,0:0:0:50:HK_Kick01.wav
402,192,246344,1,0,0:0:0:0:
182,192,246432,1,0,0:0:0:0:
329,192,246432,1,0,0:0:0:0:
36,192,246432,1,0,0:0:0:50:HK_Kick01.wav
256,192,246520,1,0,0:0:0:0:
109,192,246609,1,0,0:0:0:0:
475,192,246609,1,0,0:0:0:50:HK_Kick01.wav
402,192,246653,1,0,0:0:0:0:
329,192,246697,1,0,0:0:0:0:
36,192,246697,1,0,0:0:0:50:HK_Kick01.wav
256,192,246741,1,0,0:0:0:0:
475,192,246785,1,0,0:0:0:0:
182,192,246785,1,0,0:0:0:50:HK_Kick01.wav
109,192,246829,1,0,0:0:0:0:
329,192,246873,1,0,0:0:0:0:
36,192,246873,1,0,0:0:0:50:HK_Kick01.wav
256,192,246917,1,0,0:0:0:0:
475,192,246961,1,0,0:0:0:0:
182,192,246961,1,0,0:0:0:50:HK_Kick01.wav
109,192,247006,1,0,0:0:0:0:
36,192,247050,1,0,0:0:0:0:
329,192,247050,1,0,0:0:0:50:HK_Kick01.wav
402,192,247094,1,0,0:0:0:0:
182,192,247138,1,0,0:0:0:0:
475,192,247138,1,0,0:0:0:50:HK_Kick01.wav
256,192,247182,1,0,0:0:0:0:
329,192,247226,1,0,0:0:0:0:
36,192,247226,1,0,0:0:0:50:HK_Kick01.wav
402,192,247270,1,0,0:0:0:0:
182,192,247314,1,0,0:0:0:0:
475,192,247314,1,0,0:0:0:50:HK_Kick01.wav
109,192,247359,1,0,0:0:0:0:
329,192,247403,1,0,0:0:0:0:
36,192,247403,1,0,0:0:0:50:HK_Kick01.wav
256,192,247447,1,0,0:0:0:0:
475,192,247491,1,0,0:0:0:0:
182,192,247491,1,0,0:0:0:50:HK_Kick01.wav
402,192,247535,1,0,0:0:0:0:
329,192,247579,1,0,0:0:0:0:
36,192,247579,1,0,0:0:0:50:HK_Kick01.wav
256,192,247623,1,0,0:0:0:0:
182,192,247667,1,0,0:0:0:0:
475,192,247667,1,0,0:0:0:50:HK_Kick01.wav
109,192,247711,1,0,0:0:0:0:
329,192,247756,1,0,0:0:0:0:
36,192,247756,1,0,0:0:0:50:HK_Kick01.wav
402,192,247800,1,0,0:0:0:0:
182,192,247844,1,0,0:0:0:0:
475,192,247844,1,0,0:0:0:50:HK_Kick01.wav
256,192,247888,1,0,0:0:0:0:
329,192,247932,1,0,0:0:0:0:
36,192,247932,1,0,0:0:0:50:HK_Kick01.wav
402,192,247976,1,0,0:0:0:0:
475,192,248020,1,0,0:0:0:0:
182,192,248020,1,0,0:0:0:50:LR3_FX FGED.wav
109,192,248020,1,0,0:0:0:50:HK_Kick01.wav
36,192,248197,1,0,0:0:0:0:
475,192,248197,1,0,0:0:0:0:
402,192,248285,1,0,0:0:0:0:
109,192,248285,1,0,0:0:0:0:
182,192,248373,1,0,0:0:0:0:
329,192,248373,1,0,0:0:0:0:
256,192,248373,1,0,0:0:0:0:
36,192,248550,1,0,0:0:0:0:
109,192,248550,1,0,0:0:0:0:
402,192,248638,1,0,0:0:0:0:
475,192,248638,1,0,0:0:0:0:
36,192,248726,1,0,0:0:0:0:
182,192,248726,1,0,0:0:0:0:
475,192,248814,1,0,0:0:0:0:
329,192,248814,1,0,0:0:0:0:
402,192,248903,1,0,0:0:0:0:
256,192,248903,1,0,0:0:0:0:
109,192,248903,1,0,0:0:0:50:HK_Kick01.wav
182,192,249079,1,0,0:0:0:0:
36,192,249079,1,0,0:0:0:0:
329,192,249079,1,0,0:0:0:0:
475,192,249079,1,0,0:0:0:70:LR3_Snare RSH.wav
256,192,249256,128,0,249432:0:0:0:0:
182,192,249432,1,0,0:0:0:0:
402,192,249432,128,0,249520:0:0:0:0:
475,192,249432,1,0,0:0:0:0:
109,192,249432,128,0,249520:0:0:0:50:HK_Kick01.wav
36,192,249432,1,0,0:0:0:70:LR_CymbalQST.wav
182,192,249609,128,0,249697:0:0:0:0:
329,192,249609,128,0,249697:0:0:0:0:
256,192,249697,128,0,249785:0:0:0:0:
402,192,249697,128,0,249785:0:0:0:0:
475,192,249785,128,0,249873:0:0:0:0:
329,192,249785,128,0,249873:0:0:0:0:
36,192,249785,1,0,0:0:0:0:
109,192,249785,1,0,0:0:0:70:LR3_Snare DSW.wav
36,192,249961,128,0,250050:0:0:0:0:
182,192,249961,128,0,250050:0:0:0:0:
329,192,250050,128,0,250138:0:0:0:0:
475,192,250050,128,0,250138:0:0:0:0:
109,192,250138,128,0,250314:0:0:0:0:
256,192,250138,128,0,250314:0:0:0:0:
402,192,250314,128,0,250491:0:0:0:0:
475,192,250314,128,0,250491:0:0:0:0:
182,192,250314,1,0,0:0:0:50:HK_Kick01.wav
329,192,250491,1,0,0:0:0:0:
36,192,250491,128,0,250667:0:0:0:0:
256,192,250491,1,0,0:0:0:0:
109,192,250491,128,0,250667:0:0:0:70:LR3_Snare DSW.wav
402,192,250667,128,0,250756:0:0:0:0:
182,192,250667,128,0,250756:0:0:0:0:
36,192,250844,1,0,0:0:0:0:
475,192,250844,128,0,250932:0:0:0:0:
256,192,250844,128,0,250932:0:0:0:50:HK_Kick01.wav
182,192,251020,128,0,251109:0:0:0:0:
329,192,251020,128,0,251109:0:0:0:0:
256,192,251109,128,0,251197:0:0:0:0:
109,192,251109,128,0,251197:0:0:0:0:
36,192,251197,128,0,251285:0:0:0:0:
182,192,251197,128,0,251285:0:0:0:0:
475,192,251197,1,0,0:0:0:0:
402,192,251197,1,0,0:0:0:70:LR3_Snare DSW.wav
109,192,251373,128,0,251461:0:0:0:0:
182,192,251373,128,0,251461:0:0:0:0:
402,192,251461,128,0,251550:0:0:0:0:
329,192,251461,128,0,251550:0:0:0:0:
256,192,251550,128,0,251726:0:0:0:0:
36,192,251550,128,0,251726:0:0:0:0:
329,192,251726,128,0,251903:0:0:0:0:
475,192,251726,1,0,0:0:0:0:
109,192,251726,128,0,251903:0:0:0:50:HK_Kick01.wav
256,192,251903,1,0,0:0:0:0:
36,192,251903,1,0,0:0:0:0:
402,192,251903,128,0,252079:0:0:0:0:
182,192,251903,128,0,252079:0:0:0:70:LR3_Snare DSW.wav
475,192,252079,128,0,252167:0:0:0:0:
329,192,252079,128,0,252167:0:0:0:0:
36,192,252256,128,0,252432:0:0:0:0:
109,192,252256,1,0,0:0:0:0:
182,192,252256,128,0,252432:0:0:0:50:HK_Kick01.wav
402,192,252432,1,0,0:0:0:0:
256,192,252432,1,0,0:0:0:0:
329,192,252520,128,0,252609:0:0:0:0:
182,192,252520,128,0,252609:0:0:0:0:
256,192,252609,128,0,252785:0:0:0:0:
475,192,252609,128,0,252785:0:0:0:0:
36,192,252609,1,0,0:0:0:0:
109,192,252609,1,0,0:0:0:70:LR3_Snare DSW.wav
36,192,252785,128,0,252873:0:0:0:0:
329,192,252785,128,0,252873:0:0:0:0:
109,192,252873,128,0,252961:0:0:0:0:
402,192,252873,128,0,252961:0:0:0:0:
475,192,252961,128,0,253138:0:0:0:0:
182,192,252961,128,0,253138:0:0:0:0:
36,192,253138,1,0,0:0:0:0:
109,192,253138,128,0,253314:0:0:0:0:
329,192,253138,128,0,253314:0:0:0:50:HK_Kick01.wav
256,192,253314,128,0,253491:0:0:0:0:
402,192,253314,128,0,253491:0:0:0:0:
475,192,253314,1,0,0:0:0:0:
182,192,253314,1,0,0:0:0:70:LR3_Snare DSW.wav
36,192,253491,128,0,253667:0:0:0:0:
109,192,253491,128,0,253667:0:0:0:0:
329,192,253667,128,0,253844:0:0:0:0:
182,192,253667,1,0,0:0:0:0:
475,192,253667,128,0,253844:0:0:0:50:HK_Kick01.wav
36,192,253844,128,0,254020:0:0:0:0:
182,192,253844,128,0,254020:0:0:0:0:
475,192,254020,128,0,254197:0:0:0:0:
402,192,254020,128,0,254197:0:0:0:0:
109,192,254020,1,0,0:0:0:0:
256,192,254020,1,0,0:0:0:70:LR3_Snare DSW.wav
329,192,254197,128,0,254285:0:0:0:0:
182,192,254197,128,0,254285:0:0:0:0:
256,192,254373,128,0,254461:0:0:0:0:
109,192,254373,128,0,254461:0:0:0:0:
182,192,254550,128,0,254638:0:0:0:0:
329,192,254550,1,0,0:0:0:0:
36,192,254550,128,0,254638:0:0:0:50:HK_Kick01.wav
256,192,254726,1,0,0:0:0:0:
402,192,254726,128,0,254903:0:0:0:0:
475,192,254726,1,0,0:0:0:0:
109,192,254726,128,0,254903:0:0:0:70:LR3_Snare DSW.wav
182,192,254903,128,0,254991:0:0:0:0:
329,192,254903,128,0,254991:0:0:0:0:
256,192,255079,128,0,255167:0:0:0:0:
475,192,255079,1,0,0:0:0:0:
36,192,255079,128,0,255167:0:0:0:50:HK_Kick01.wav
329,192,255256,128,0,255344:0:0:0:0:
109,192,255256,128,0,255344:0:0:0:0:
182,192,255344,128,0,255432:0:0:0:0:
402,192,255344,128,0,255432:0:0:0:0:
256,192,255432,128,0,255520:0:0:0:0:
475,192,255432,128,0,255520:0:0:0:0:
109,192,255432,1,0,0:0:0:0:
36,192,255432,1,0,0:0:0:70:LR3_Snare DSW.wav
36,192,255609,128,0,255697:0:0:0:0:
329,192,255609,128,0,255697:0:0:0:0:
182,192,255697,128,0,255785:0:0:0:0:
475,192,255697,128,0,255785:0:0:0:0:
402,192,255785,128,0,255961:0:0:0:0:
256,192,255785,128,0,255961:0:0:0:0:
109,192,255961,128,0,256138:0:0:0:0:
36,192,255961,128,0,256138:0:0:0:0:
329,192,255961,1,0,0:0:0:50:HK_Kick01.wav
475,192,256138,1,0,0:0:0:0:
402,192,256138,1,0,0:0:0:0:
182,192,256138,128,0,256314:0:0:0:0:
329,192,256138,128,0,256314:0:0:0:70:LR3_Snare DSW.wav
475,192,256314,128,0,256403:0:0:0:0:
256,192,256314,128,0,256403:0:0:0:0:
109,192,256491,128,0,256579:0:0:0:0:
36,192,256491,1,0,0:0:0:0:
329,192,256491,128,0,256579:0:0:0:50:HK_Kick01.wav
256,192,256667,128,0,256756:0:0:0:0:
402,192,256667,128,0,256756:0:0:0:0:
182,192,256756,128,0,256844:0:0:0:0:
329,192,256756,128,0,256844:0:0:0:0:
475,192,256844,1,0,0:0:0:0:
36,192,256844,1,0,0:0:0:0:
256,192,256844,128,0,256932:0:0:0:0:
109,192,256844,128,0,256932:0:0:0:70:LR3_Snare DSW.wav
182,192,257020,128,0,257109:0:0:0:0:
329,192,257020,128,0,257109:0:0:0:0:
36,192,257109,128,0,257197:0:0:0:0:
475,192,257109,128,0,257197:0:0:0:0:
256,192,257197,128,0,257373:0:0:0:0:
109,192,257197,128,0,257373:0:0:0:0:
182,192,257373,128,0,257550:0:0:0:0:
36,192,257373,1,0,0:0:0:0:
402,192,257373,128,0,257550:0:0:0:50:HK_Kick01.wav
329,192,257550,128,0,257726:0:0:0:0:
475,192,257550,128,0,257726:0:0:0:0:
109,192,257550,1,0,0:0:0:0:
256,192,257550,1,0,0:0:0:70:LR3_Snare DSW.wav
182,192,257726,128,0,257903:0:0:0:0:
36,192,257726,128,0,257903:0:0:0:0:
402,192,257903,128,0,258079:0:0:0:0:
256,192,257903,1,0,0:0:0:0:
475,192,257903,128,0,258079:0:0:0:50:HK_Kick01.wav
109,192,258079,128,0,258256:0:0:0:0:
329,192,258079,128,0,258256:0:0:0:0:
182,192,258256,128,0,258432:0:0:0:0:
402,192,258256,128,0,258432:0:0:0:0:
36,192,258256,1,0,0:0:0:0:
256,192,258256,1,0,0:0:0:70:LR3_Snare DSW.wav
329,192,258432,1,0,0:0:0:0:
475,192,258432,1,0,0:0:0:0:
109,192,258520,128,0,258609:0:0:0:0:
256,192,258520,128,0,258609:0:0:0:0:
475,192,258609,128,0,258785:0:0:0:0:
329,192,258609,128,0,258785:0:0:0:0:
109,192,258785,128,0,258961:0:0:0:0:
36,192,258785,128,0,258961:0:0:0:0:
182,192,258785,1,0,0:0:0:50:HK_Kick01.wav
475,192,258961,1,0,0:0:0:0:
402,192,258961,128,0,259138:0:0:0:0:
256,192,258961,128,0,259138:0:0:0:0:
329,192,258961,1,0,0:0:0:70:LR3_Snare DSW.wav
329,192,259138,128,0,259314:0:0:0:0:
182,192,259138,128,0,259314:0:0:0:0:
256,192,259314,128,0,259491:0:0:0:0:
36,192,259314,1,0,0:0:0:0:
109,192,259314,128,0,259491:0:0:0:50:HK_Kick01.wav
475,192,259491,128,0,259667:0:0:0:0:
402,192,259491,128,0,259667:0:0:0:0:
182,192,259667,128,0,259844:0:0:0:0:
329,192,259667,1,0,0:0:0:0:
256,192,259667,1,0,0:0:0:0:
36,192,259667,128,0,259844:0:0:0:70:LR3_Snare DSW.wav
402,192,259844,128,0,259932:0:0:0:0:
475,192,259844,1,0,0:0:0:0:
109,192,259844,128,0,259932:0:0:0:50:HK_Kick01.wav
329,192,260020,128,0,260109:0:0:0:0:
182,192,260020,128,0,260109:0:0:0:0:
256,192,260197,128,0,260285:0:0:0:0:
475,192,260197,128,0,260285:0:0:0:0:
109,192,260197,1,0,0:0:0:50:HK_Kick01.wav
182,192,260373,1,0,0:0:0:0:
402,192,260373,128,0,260461:0:0:0:0:
36,192,260373,128,0,260461:0:0:0:0:
329,192,260373,1,0,0:0:0:70:LR3_Snare DSW.wav
109,192,260550,128,0,260726:0:0:0:0:
475,192,260550,128,0,260726:0:0:0:0:
329,192,260726,1,0,0:0:0:0:
182,192,260726,1,0,0:0:0:0:
36,192,260726,1,0,0:0:0:0:
256,192,260726,128,0,260903:0:0:0:50:HK_Kick01.wav
402,192,260726,128,0,260903:0:0:0:70:LR_CymbalQST.wav
182,192,260903,128,0,261079:0:0:0:0:
36,192,260903,128,0,261079:0:0:0:0:
329,192,261079,128,0,261256:0:0:0:0:
402,192,261079,128,0,261256:0:0:0:0:
475,192,261079,1,0,0:0:0:0:
109,192,261079,1,0,0:0:0:70:LR3_Snare DSW.wav
36,192,261256,128,0,261344:0:0:0:0:
182,192,261256,128,0,261344:0:0:0:0:
109,192,261344,128,0,261432:0:0:0:0:
256,192,261344,128,0,261432:0:0:0:0:
182,192,261432,128,0,261520:0:0:0:0:
329,192,261432,128,0,261520:0:0:0:0:
402,192,261609,128,0,261785:0:0:0:0:
256,192,261609,128,0,261785:0:0:0:0:
36,192,261609,1,0,0:0:0:50:HK_Kick01.wav
109,192,261785,1,0,0:0:0:0:
329,192,261785,128,0,261961:0:0:0:0:
475,192,261785,128,0,261961:0:0:0:0:
182,192,261785,1,0,0:0:0:70:LR3_Snare DSW.wav
36,192,261961,128,0,262138:0:0:0:0:
182,192,261961,128,0,262138:0:0:0:0:
109,192,262138,128,0,262314:0:0:0:0:
256,192,262138,128,0,262314:0:0:0:0:
402,192,262138,1,0,0:0:0:50:HK_Kick01.wav
475,192,262314,128,0,262403:0:0:0:0:
329,192,262314,128,0,262403:0:0:0:0:
256,192,262403,128,0,262491:0:0:0:0:
402,192,262403,128,0,262491:0:0:0:0:
329,192,262491,128,0,262579:0:0:0:0:
182,192,262491,128,0,262579:0:0:0:0:
36,192,262491,1,0,0:0:0:0:
109,192,262491,1,0,0:0:0:70:LR3_Snare DSW.wav
36,192,262667,128,0,262756:0:0:0:0:
475,192,262667,128,0,262756:0:0:0:0:
329,192,262756,128,0,262844:0:0:0:0:
182,192,262756,128,0,262844:0:0:0:0:
402,192,262844,128,0,263020:0:0:0:0:
256,192,262844,128,0,263020:0:0:0:0:
109,192,263020,128,0,263197:0:0:0:0:
36,192,263020,128,0,263197:0:0:0:0:
182,192,263020,1,0,0:0:0:50:HK_Kick01.wav
402,192,263197,128,0,263373:0:0:0:0:
475,192,263197,128,0,263373:0:0:0:0:
329,192,263197,1,0,0:0:0:0:
256,192,263197,1,0,0:0:0:70:LR3_Snare DSW.wav
329,192,263373,128,0,263550:0:0:0:0:
182,192,263373,128,0,263550:0:0:0:0:
475,192,263550,128,0,263726:0:0:0:0:
109,192,263550,128,0,263726:0:0:0:0:
36,192,263550,1,0,0:0:0:50:HK_Kick01.wav
256,192,263726,128,0,263903:0:0:0:0:
402,192,263726,128,0,263903:0:0:0:0:
182,192,263903,1,0,0:0:0:0:
36,192,263903,1,0,0:0:0:0:
475,192,263903,128,0,264079:0:0:0:0:
329,192,263903,128,0,264079:0:0:0:70:LR3_Snare DSW.wav
109,192,264079,128,0,264256:0:0:0:0:
182,192,264079,128,0,264256:0:0:0:0:
256,192,264256,128,0,264432:0:0:0:0:
36,192,264256,128,0,264432:0:0:0:0:
402,192,264432,128,0,264609:0:0:0:0:
475,192,264432,128,0,264609:0:0:0:0:
109,192,264432,1,0,0:0:0:50:HK_Kick01.wav
182,192,264609,128,0,264785:0:0:0:0:
329,192,264609,128,0,264785:0:0:0:0:
36,192,264609,1,0,0:0:0:0:
256,192,264609,1,0,0:0:0:70:LR3_Snare DSW.wav
256,192,264785,128,0,264961:0:0:0:0:
36,192,264785,128,0,264961:0:0:0:0:
402,192,264961,1,0,0:0:0:0:
109,192,264961,128,0,265314:0:0:0:0:
182,192,264961,128,0,265314:0:0:0:50:HK_Kick01.wav
329,192,265138,1,0,0:0:0:0:
475,192,265138,1,0,0:0:0:0:
256,192,265314,1,0,0:0:0:0:
402,192,265314,1,0,0:0:0:0:
36,192,265314,1,0,0:0:0:70:LR3_Snare DSW.wav
475,192,265314,1,0,0:0:0:0:
475,192,265491,128,0,265844:0:0:0:0:
329,192,265491,128,0,265844:0:0:0:0:
182,192,265579,1,0,0:0:0:0:
36,192,265667,1,0,0:0:0:0:
256,192,265667,1,0,0:0:0:0:
109,192,265756,1,0,0:0:0:0:
182,192,265844,1,0,0:0:0:0:
402,192,265844,1,0,0:0:0:0:
36,192,265844,1,0,0:0:0:50:HK_Kick01.wav
329,192,266020,128,0,266373:0:0:0:0:
475,192,266020,1,0,0:0:0:0:
109,192,266020,128,0,266373:0:0:0:0:
256,192,266020,1,0,0:0:0:70:LR3_Snare DSW.wav
402,192,266197,1,0,0:0:0:0:
256,192,266197,1,0,0:0:0:0:
36,192,266373,128,0,267785:0:0:0:0:
475,192,266373,1,0,0:0:0:50:HK_Kick01.wav
182,192,266373,1,0,0:0:0:0:
329,192,266550,1,0,0:0:0:0:
182,192,266550,1,0,0:0:0:0:
256,192,266726,1,0,0:0:0:0:
402,192,266726,1,0,0:0:0:0:
475,192,266726,1,0,0:0:0:0:
109,192,266726,1,0,0:0:0:70:LR3_Snare DSW.wav
182,192,266903,1,0,0:0:0:0:
402,192,266903,1,0,0:0:0:0:
475,192,266991,1,0,0:0:0:0:
109,192,267079,1,0,0:0:0:0:
256,192,267079,1,0,0:0:0:0:
329,192,267167,1,0,0:0:0:0:
475,192,267256,1,0,0:0:0:0:
402,192,267256,1,0,0:0:0:0:
109,192,267256,1,0,0:0:0:50:HK_Kick01.wav
329,192,267432,1,0,0:0:0:0:
256,192,267432,1,0,0:0:0:0:
475,192,267432,1,0,0:0:0:0:
182,192,267432,1,0,0:0:0:70:LR3_Snare DSW.wav
402,192,267609,1,0,0:0:0:0:
256,192,267697,1,0,0:0:0:0:
109,192,267785,1,0,0:0:0:0:
475,192,267785,1,0,0:0:0:0:
329,192,267785,1,0,0:0:0:50:HK_Kick01.wav
36,192,267961,1,0,0:0:0:0:
182,192,267961,1,0,0:0:0:0:
402,192,268138,1,0,0:0:0:0:
256,192,268138,1,0,0:0:0:0:
109,192,268138,1,0,0:0:0:0:
475,192,268138,1,0,0:0:0:70:LR3_Snare DSW.wav
182,192,268314,1,0,0:0:0:0:
329,192,268314,1,0,0:0:0:0:
256,192,268403,1,0,0:0:0:0:
36,192,268491,128,0,268579:0:0:0:0:
475,192,268491,1,0,0:0:0:0:
182,192,268579,1,0,0:0:0:0:
329,192,268667,1,0,0:0:0:0:
109,192,268667,128,0,268756:0:0:0:0:
402,192,268667,1,0,0:0:0:50:HK_Kick01.wav
329,192,268844,128,0,269020:0:0:0:0:
36,192,268844,1,0,0:0:0:0:
475,192,268844,1,0,0:0:0:70:LR3_Snare DSW.wav
182,192,268844,1,0,0:0:0:0:
109,192,269020,1,0,0:0:0:0:
256,192,269020,128,0,270609:0:0:0:0:
36,192,269109,1,0,0:0:0:0:
329,192,269197,1,0,0:0:0:0:
475,192,269197,1,0,0:0:0:0:
182,192,269197,1,0,0:0:0:50:HK_Kick01.wav
402,192,269373,1,0,0:0:0:0:
36,192,269373,1,0,0:0:0:0:
329,192,269550,1,0,0:0:0:0:
182,192,269550,1,0,0:0:0:0:
475,192,269550,1,0,0:0:0:0:
109,192,269550,1,0,0:0:0:70:LR3_Snare DSW.wav
36,192,269726,1,0,0:0:0:0:
402,192,269726,1,0,0:0:0:0:
109,192,269814,1,0,0:0:0:0:
475,192,269903,1,0,0:0:0:0:
36,192,269903,1,0,0:0:0:0:
402,192,269991,1,0,0:0:0:0:
36,192,270079,1,0,0:0:0:0:
475,192,270079,1,0,0:0:0:0:
182,192,270079,1,0,0:0:0:50:HK_Kick01.wav
329,192,270256,1,0,0:0:0:0:
182,192,270256,1,0,0:0:0:0:
402,192,270256,1,0,0:0:0:0:
109,192,270256,1,0,0:0:0:70:LR3_Snare DSW.wav
109,192,270432,1,0,0:0:0:0:
402,192,270520,1,0,0:0:0:0:
329,192,270609,1,0,0:0:0:0:
475,192,270609,1,0,0:0:0:0:
182,192,270609,1,0,0:0:0:0:
36,192,270609,1,0,0:0:0:70:LR3_Snare DSW.wav
36,192,270785,1,0,0:0:0:50:HK_Kick01.wav
109,192,270844,1,0,0:0:0:50:HK_Kick01.wav
182,192,270903,1,0,0:0:0:50:HK_Kick01.wav
256,192,270961,1,0,0:0:0:0:
475,192,270961,1,0,0:0:0:0:
402,192,270961,1,0,0:0:0:50:HK_Kick01.wav
182,192,271138,1,0,0:0:0:0:
36,192,271138,1,0,0:0:0:0:
109,192,271138,1,0,0:0:0:0:
329,192,271138,1,0,0:0:0:70:LR3_Snare DSW.wav
475,192,271314,1,0,0:0:0:50:HK_Kick01.wav
402,192,271373,1,0,0:0:0:50:HK_Kick01.wav
329,192,271432,1,0,0:0:0:50:HK_Kick01.wav
109,192,271491,128,0,271667:0:0:0:0:
182,192,271491,128,0,271667:0:0:0:0:
256,192,271491,1,0,0:0:0:50:HK_Kick01.wav
475,192,271667,1,0,0:0:0:0:
36,192,271667,1,0,0:0:0:0:
402,192,271667,128,0,271844:0:0:0:0:
329,192,271667,128,0,271844:0:0:0:70:LR3_Snare DSW.wav
256,192,271844,128,0,272550:0:0:0:0:
36,192,271844,128,0,272285:0:0:0:50:HK_Kick01.wav
109,192,271932,128,0,272109:0:0:0:0:
329,192,272020,128,0,272197:0:0:0:0:
182,192,272020,128,0,272109:0:0:0:0:
402,192,272020,128,0,272285:0:0:0:70:LR_CymbalQST.wav
475,192,272020,128,0,272285:0:0:0:50:HK_Kick01.wav
109,192,272197,128,0,272461:0:0:0:0:
182,192,272197,128,0,272285:0:0:0:0:
329,192,272285,128,0,272461:0:0:0:0:
402,192,272373,128,0,272550:0:0:0:0:
182,192,272373,128,0,272550:0:0:0:0:
36,192,272373,128,0,272550:0:0:0:0:
475,192,272373,128,0,272550:0:0:0:70:LR3_Snare DSW.wav
109,192,272550,128,0,272638:0:0:0:0:
329,192,272550,1,0,0:0:0:0:
182,192,272638,128,0,272726:0:0:0:0:
256,192,272726,128,0,272814:0:0:0:0:
402,192,272726,1,0,0:0:0:0:
36,192,272814,128,0,272903:0:0:0:0:
475,192,272903,128,0,273079:0:0:0:0:
329,192,272903,128,0,273079:0:0:0:0:
109,192,272903,1,0,0:0:0:50:HK_Kick01.wav
109,192,273079,1,0,0:0:0:0:
182,192,273079,128,0,273256:0:0:0:0:
36,192,273079,128,0,273256:0:0:0:0:
402,192,273079,1,0,0:0:0:70:LR3_Snare DSW.wav
475,192,273256,128,0,273697:0:0:0:0:
256,192,273256,128,0,273961:0:0:0:0:
402,192,273344,128,0,273520:0:0:0:0:
109,192,273432,128,0,273697:0:0:0:0:
182,192,273432,128,0,273609:0:0:0:0:
329,192,273432,128,0,273520:0:0:0:0:
36,192,273432,128,0,273697:0:0:0:50:HK_Kick01.wav
329,192,273609,128,0,273697:0:0:0:0:
402,192,273609,128,0,273873:0:0:0:0:
182,192,273697,128,0,273873:0:0:0:0:
109,192,273785,128,0,273961:0:0:0:0:
36,192,273785,128,0,273961:0:0:0:0:
329,192,273785,128,0,273961:0:0:0:0:
475,192,273785,128,0,273961:0:0:0:70:LR3_Snare DSW.wav
402,192,273961,128,0,274050:0:0:0:0:
182,192,273961,1,0,0:0:0:0:
329,192,274050,128,0,274138:0:0:0:0:
256,192,274138,128,0,274226:0:0:0:0:
109,192,274138,1,0,0:0:0:0:
475,192,274226,128,0,274314:0:0:0:0:
182,192,274314,128,0,274491:0:0:0:0:
36,192,274314,128,0,274491:0:0:0:0:
402,192,274314,1,0,0:0:0:50:HK_Kick01.wav
475,192,274491,128,0,274667:0:0:0:0:
329,192,274491,128,0,274667:0:0:0:0:
109,192,274491,1,0,0:0:0:0:
402,192,274491,1,0,0:0:0:70:LR3_Snare DSW.wav
256,192,274667,128,0,275197:0:0:0:0:
109,192,274667,128,0,275020:0:0:0:0:
402,192,274756,128,0,274932:0:0:0:0:
329,192,274844,128,0,275109:0:0:0:0:
36,192,274844,128,0,275109:0:0:0:0:
475,192,274844,128,0,275109:0:0:0:0:
182,192,274844,128,0,274932:0:0:0:50:HK_Kick01.wav
402,192,275020,128,0,275197:0:0:0:0:
182,192,275020,128,0,275109:0:0:0:0:
109,192,275109,128,0,275197:0:0:0:0:
329,192,275197,128,0,275373:0:0:0:0:
182,192,275197,128,0,275373:0:0:0:0:
475,192,275197,128,0,275285:0:0:0:0:
36,192,275197,128,0,275285:0:0:0:70:LR3_Snare DSW.wav
475,192,275373,128,0,275726:0:0:0:0:
36,192,275373,128,0,275726:0:0:0:0:
402,192,275461,128,0,275550:0:0:0:0:
329,192,275550,128,0,275638:0:0:0:0:
182,192,275550,1,0,0:0:0:0:
256,192,275638,128,0,275726:0:0:0:0:
109,192,275726,128,0,275903:0:0:0:0:
182,192,275726,128,0,275903:0:0:0:0:
402,192,275726,1,0,0:0:0:50:HK_Kick01.wav
256,192,275903,1,0,0:0:0:0:
329,192,275903,1,0,0:0:0:0:
475,192,275903,1,0,0:0:0:0:
36,192,275903,1,0,0:0:0:70:LR3_Snare DSW.wav
402,192,276079,128,0,276432:0:0:0:0:
475,192,276079,128,0,276432:0:0:0:0:
182,192,276167,128,0,276256:0:0:0:0:
109,192,276256,1,0,0:0:0:0:
256,192,276256,1,0,0:0:0:50:HK_Kick01.wav
36,192,276256,1,0,0:0:0:0:
182,192,276432,128,0,276609:0:0:0:0:
329,192,276432,128,0,276609:0:0:0:0:
36,192,276609,128,0,276785:0:0:0:0:
475,192,276609,1,0,0:0:0:0:
109,192,276609,128,0,276785:0:0:0:70:LR3_Snare DSW.wav
402,192,276609,1,0,0:0:0:0:
256,192,276785,128,0,276873:0:0:0:0:
182,192,276785,1,0,0:0:0:0:
329,192,276873,128,0,276961:0:0:0:0:
475,192,276961,128,0,277050:0:0:0:0:
36,192,276961,1,0,0:0:0:0:
402,192,277050,128,0,277138:0:0:0:0:
109,192,277138,128,0,277314:0:0:0:0:
182,192,277138,128,0,277314:0:0:0:0:
256,192,277138,1,0,0:0:0:50:HK_Kick01.wav
402,192,277314,128,0,277491:0:0:0:0:
329,192,277314,128,0,277491:0:0:0:0:
475,192,277314,1,0,0:0:0:0:
36,192,277314,1,0,0:0:0:70:LR3_Snare DSW.wav
182,192,277491,128,0,277756:0:0:0:0:
256,192,277491,128,0,278197:0:0:0:0:
109,192,277579,128,0,277932:0:0:0:0:
36,192,277667,128,0,277932:0:0:0:0:
329,192,277667,128,0,277756:0:0:0:0:
475,192,277667,128,0,277844:0:0:0:0:
402,192,277667,128,0,277932:0:0:0:50:HK_Kick01.wav
329,192,277844,128,0,277932:0:0:0:0:
182,192,277844,128,0,278109:0:0:0:0:
475,192,277932,128,0,278197:0:0:0:0:
109,192,278020,128,0,278197:0:0:0:0:
36,192,278020,128,0,278109:0:0:0:0:
329,192,278020,128,0,278197:0:0:0:0:
402,192,278020,128,0,278197:0:0:0:70:LR3_Snare DSW.wav
182,192,278197,128,0,278285:0:0:0:0:
36,192,278197,1,0,0:0:0:0:
475,192,278285,128,0,278373:0:0:0:0:
402,192,278373,128,0,278461:0:0:0:0:
256,192,278373,1,0,0:0:0:0:
182,192,278461,128,0,278550:0:0:0:0:
109,192,278550,1,0,0:0:0:0:
329,192,278550,128,0,278726:0:0:0:0:
475,192,278550,128,0,278726:0:0:0:50:HK_Kick01.wav
402,192,278726,1,0,0:0:0:0:
256,192,278726,1,0,0:0:0:0:
36,192,278726,128,0,278903:0:0:0:0:
182,192,278726,128,0,278903:0:0:0:70:LR3_Snare DSW.wav
256,192,278903,128,0,279609:0:0:0:0:
329,192,278903,128,0,279167:0:0:0:0:
402,192,278991,128,0,279344:0:0:0:0:
182,192,279079,128,0,279167:0:0:0:0:
109,192,279079,128,0,279344:0:0:0:0:
475,192,279079,128,0,279344:0:0:0:0:
36,192,279079,128,0,279256:0:0:0:50:HK_Kick01.wav
182,192,279256,128,0,279344:0:0:0:0:
329,192,279256,128,0,279520:0:0:0:0:
36,192,279344,128,0,279609:0:0:0:0:
475,192,279432,128,0,279520:0:0:0:0:
182,192,279432,128,0,279609:0:0:0:0:
402,192,279432,128,0,279609:0:0:0:0:
109,192,279432,128,0,279609:0:0:0:70:LR3_Snare DSW.wav
329,192,279609,128,0,279697:0:0:0:0:
475,192,279609,1,0,0:0:0:0:
36,192,279697,128,0,279785:0:0:0:0:
109,192,279785,128,0,279873:0:0:0:0:
256,192,279785,1,0,0:0:0:0:
329,192,279873,128,0,279961:0:0:0:0:
182,192,279961,1,0,0:0:0:0:
475,192,279961,128,0,280138:0:0:0:0:
36,192,279961,128,0,280138:0:0:0:50:HK_Kick01.wav
182,192,280138,128,0,280314:0:0:0:0:
329,192,280138,128,0,280314:0:0:0:0:
402,192,280138,1,0,0:0:0:0:
109,192,280138,1,0,0:0:0:70:LR3_Snare DSW.wav
402,192,280314,128,0,280667:0:0:0:0:
256,192,280314,128,0,280844:0:0:0:0:
109,192,280403,128,0,280579:0:0:0:0:
36,192,280491,128,0,280756:0:0:0:0:
182,192,280491,128,0,280756:0:0:0:0:
329,192,280491,128,0,280579:0:0:0:0:
475,192,280491,128,0,280756:0:0:0:50:HK_Kick01.wav
109,192,280667,128,0,280844:0:0:0:0:
329,192,280667,128,0,280756:0:0:0:0:
402,192,280756,128,0,280844:0:0:0:0:
329,192,280844,128,0,280932:0:0:0:0:
475,192,280844,128,0,281020:0:0:0:0:
36,192,280844,128,0,281020:0:0:0:0:
182,192,280844,128,0,280932:0:0:0:70:LR3_Snare DSW.wav
182,192,281020,128,0,281373:0:0:0:0:
329,192,281020,128,0,281373:0:0:0:0:
109,192,281109,128,0,281197:0:0:0:0:
475,192,281197,128,0,281285:0:0:0:0:
36,192,281197,1,0,0:0:0:0:
402,192,281285,128,0,281373:0:0:0:0:
36,192,281373,128,0,281550:0:0:0:0:
256,192,281373,128,0,281550:0:0:0:0:
109,192,281373,1,0,0:0:0:50:HK_Kick01.wav
402,192,281550,1,0,0:0:0:0:
182,192,281550,1,0,0:0:0:0:
475,192,281550,1,0,0:0:0:0:
329,192,281550,1,0,0:0:0:70:LR3_Snare DSW.wav
402,192,281726,128,0,282079:0:0:0:0:
109,192,281726,128,0,282079:0:0:0:0:
256,192,281814,128,0,281903:0:0:0:0:
36,192,281903,1,0,0:0:0:0:
182,192,281903,1,0,0:0:0:70:LR_CymbalQST.wav
475,192,281903,1,0,0:0:0:50:HK_Kick01.wav
329,192,281903,1,0,0:0:0:0:
329,192,282079,128,0,282256:0:0:0:0:
182,192,282079,128,0,282256:0:0:0:0:
36,192,282256,128,0,282432:0:0:0:0:
475,192,282256,128,0,282432:0:0:0:0:
329,192,282432,128,0,282520:0:0:0:0:
182,192,282432,1,0,0:0:0:0:
36,192,282520,128,0,282609:0:0:0:0:
402,192,282609,128,0,282697:0:0:0:0:
256,192,282609,1,0,0:0:0:0:
109,192,282697,128,0,282785:0:0:0:0:
329,192,282785,128,0,282961:0:0:0:0:
475,192,282785,1,0,0:0:0:0:
36,192,282785,128,0,282961:0:0:0:50:HK_Kick01.wav
475,192,282961,128,0,283138:0:0:0:0:
402,192,282961,128,0,283138:0:0:0:0:
182,192,282961,1,0,0:0:0:0:
109,192,282961,1,0,0:0:0:70:LR3_Snare DSW.wav
256,192,283138,128,0,283844:0:0:0:0:
182,192,283138,128,0,283756:0:0:0:0:
329,192,283226,128,0,283491:0:0:0:0:
475,192,283314,128,0,283579:0:0:0:0:
109,192,283314,128,0,283403:0:0:0:0:
402,192,283314,128,0,283403:0:0:0:50:HK_Kick01.wav
36,192,283314,128,0,283579:0:0:0:70:LR_CymbalQST.wav
109,192,283491,128,0,283579:0:0:0:0:
402,192,283491,128,0,283579:0:0:0:0:
329,192,283579,128,0,283756:0:0:0:0:
109,192,283667,128,0,283844:0:0:0:0:
475,192,283667,128,0,283844:0:0:0:0:
402,192,283667,128,0,283844:0:0:0:0:
36,192,283667,128,0,283844:0:0:0:70:LR3_Snare DSW.wav
329,192,283844,128,0,283932:0:0:0:0:
182,192,283844,1,0,0:0:0:0:
402,192,283932,128,0,284020:0:0:0:0:
475,192,284020,128,0,284109:0:0:0:0:
36,192,284020,1,0,0:0:0:0:
182,192,284109,128,0,284197:0:0:0:0:
109,192,284197,128,0,284373:0:0:0:0:
402,192,284197,128,0,284373:0:0:0:0:
256,192,284197,1,0,0:0:0:50:HK_Kick01.wav
329,192,284373,1,0,0:0:0:0:
475,192,284373,1,0,0:0:0:0:
36,192,284373,128,0,284550:0:0:0:0:
182,192,284373,128,0,284550:0:0:0:70:LR3_Snare DSW.wav
256,192,284550,128,0,285256:0:0:0:0:
329,192,284550,128,0,285167:0:0:0:0:
182,192,284638,128,0,284903:0:0:0:0:
109,192,284726,128,0,284814:0:0:0:0:
475,192,284726,128,0,284991:0:0:0:0:
402,192,284726,128,0,284814:0:0:0:0:
36,192,284726,128,0,284991:0:0:0:50:HK_Kick01.wav
109,192,284903,128,0,284991:0:0:0:0:
402,192,284903,128,0,284991:0:0:0:0:
182,192,284991,128,0,285167:0:0:0:0:
475,192,285079,128,0,285256:0:0:0:0:
36,192,285079,128,0,285256:0:0:0:0:
402,192,285079,128,0,285256:0:0:0:0:
109,192,285079,128,0,285256:0:0:0:70:LR3_Snare DSW.wav
182,192,285256,128,0,285344:0:0:0:0:
329,192,285256,1,0,0:0:0:0:
109,192,285344,128,0,285432:0:0:0:0:
36,192,285432,128,0,285520:0:0:0:0:
475,192,285432,1,0,0:0:0:0:
329,192,285520,128,0,285609:0:0:0:0:
402,192,285609,128,0,285785:0:0:0:0:
182,192,285609,128,0,285785:0:0:0:0:
256,192,285609,1,0,0:0:0:50:HK_Kick01.wav
329,192,285785,128,0,285961:0:0:0:0:
109,192,285785,128,0,285961:0:0:0:0:
36,192,285785,1,0,0:0:0:0:
475,192,285785,1,0,0:0:0:70:LR3_Snare DSW.wav
256,192,285961,128,0,286491:0:0:0:0:
475,192,285961,128,0,286314:0:0:0:0:
36,192,286050,128,0,286403:0:0:0:0:
329,192,286138,128,0,286491:0:0:0:0:
182,192,286138,128,0,286403:0:0:0:0:
109,192,286138,128,0,286226:0:0:0:0:
402,192,286138,128,0,286226:0:0:0:50:HK_Kick01.wav
402,192,286314,128,0,286403:0:0:0:0:
109,192,286314,128,0,286403:0:0:0:0:
475,192,286403,128,0,286491:0:0:0:0:
109,192,286491,128,0,286579:0:0:0:0:
36,192,286491,128,0,286579:0:0:0:0:
402,192,286491,128,0,286667:0:0:0:0:
182,192,286491,128,0,286667:0:0:0:70:LR3_Snare DSW.wav
329,192,286667,128,0,287020:0:0:0:0:
109,192,286667,128,0,287020:0:0:0:0:
256,192,286756,128,0,286844:0:0:0:0:
402,192,286844,128,0,286932:0:0:0:0:
36,192,286844,1,0,0:0:0:0:
475,192,286932,128,0,287020:0:0:0:0:
182,192,287020,1,0,0:0:0:0:
36,192,287020,128,0,287197:0:0:0:0:
256,192,287020,128,0,287197:0:0:0:50:HK_Kick01.wav
182,192,287197,1,0,0:0:0:0:
402,192,287197,1,0,0:0:0:0:
109,192,287197,1,0,0:0:0:0:
329,192,287197,1,0,0:0:0:70:LR3_Snare DSW.wav
329,192,287373,128,0,287726:0:0:0:0:
475,192,287373,128,0,287726:0:0:0:0:
182,192,287461,128,0,287550:0:0:0:0:
109,192,287550,1,0,0:0:0:50:HK_Kick01.wav
402,192,287550,1,0,0:0:0:0:
36,192,287550,1,0,0:0:0:0:
182,192,287726,128,0,287903:0:0:0:0:
36,192,287726,128,0,287903:0:0:0:0:
402,192,287903,128,0,288079:0:0:0:0:
256,192,287903,1,0,0:0:0:0:
475,192,287903,128,0,288079:0:0:0:70:LR3_Snare DSW.wav
329,192,287903,1,0,0:0:0:0:
109,192,288079,128,0,288167:0:0:0:0:
36,192,288079,1,0,0:0:0:0:
182,192,288167,128,0,288256:0:0:0:0:
329,192,288256,128,0,288344:0:0:0:0:
475,192,288256,1,0,0:0:0:0:
36,192,288344,128,0,288432:0:0:0:0:
256,192,288432,128,0,288609:0:0:0:0:
402,192,288432,128,0,288609:0:0:0:0:
109,192,288432,1,0,0:0:0:50:HK_Kick01.wav
182,192,288609,128,0,288785:0:0:0:0:
329,192,288609,128,0,288785:0:0:0:0:
475,192,288609,1,0,0:0:0:0:
36,192,288609,1,0,0:0:0:70:LR3_Snare DSW.wav
402,192,288785,128,0,289226:0:0:0:0:
256,192,288785,128,0,289491:0:0:0:0:
109,192,288873,128,0,289491:0:0:0:0:
329,192,288961,128,0,289226:0:0:0:0:
36,192,288961,128,0,289050:0:0:0:0:
182,192,288961,128,0,289138:0:0:0:0:
475,192,288961,128,0,289050:0:0:0:50:HK_Kick01.wav
475,192,289138,128,0,289226:0:0:0:0:
36,192,289138,128,0,289226:0:0:0:0:
182,192,289226,128,0,289403:0:0:0:0:
329,192,289314,128,0,289491:0:0:0:0:
402,192,289314,128,0,289403:0:0:0:0:
36,192,289314,128,0,289491:0:0:0:0:
475,192,289314,128,0,289491:0:0:0:70:LR3_Snare DSW.wav
182,192,289491,128,0,289579:0:0:0:0:
402,192,289491,1,0,0:0:0:0:
256,192,289579,128,0,289667:0:0:0:0:
109,192,289667,128,0,289756:0:0:0:0:
475,192,289667,1,0,0:0:0:0:
36,192,289756,128,0,289844:0:0:0:0:
182,192,289844,1,0,0:0:0:0:
402,192,289844,128,0,290020:0:0:0:0:
256,192,289844,128,0,290020:0:0:0:50:HK_Kick01.wav
475,192,290020,1,0,0:0:0:0:
36,192,290020,1,0,0:0:0:0:
182,192,290020,128,0,290197:0:0:0:0:
329,192,290020,128,0,290197:0:0:0:70:LR3_Snare DSW.wav
256,192,290197,128,0,290903:0:0:0:0:
109,192,290197,128,0,290638:0:0:0:0:
402,192,290285,128,0,290903:0:0:0:0:
36,192,290373,128,0,290461:0:0:0:0:
182,192,290373,128,0,290638:0:0:0:0:
475,192,290373,128,0,290461:0:0:0:0:
329,192,290373,128,0,290550:0:0:0:50:HK_Kick01.wav
36,192,290550,128,0,290638:0:0:0:0:
475,192,290550,128,0,290638:0:0:0:0:
329,192,290638,128,0,290814:0:0:0:0:
475,192,290726,128,0,290903:0:0:0:0:
109,192,290726,128,0,290814:0:0:0:0:
36,192,290726,128,0,290903:0:0:0:0:
182,192,290726,128,0,290903:0:0:0:70:LR3_Snare DSW.wav
329,192,290903,128,0,290991:0:0:0:0:
109,192,290903,1,0,0:0:0:0:
256,192,290991,128,0,291079:0:0:0:0:
402,192,291079,128,0,291167:0:0:0:0:
36,192,291079,1,0,0:0:0:0:
475,192,291167,128,0,291256:0:0:0:0:
402,192,291256,128,0,291432:0:0:0:0:
109,192,291256,128,0,291432:0:0:0:0:
256,192,291256,1,0,0:0:0:50:HK_Kick01.wav
329,192,291432,128,0,291609:0:0:0:0:
182,192,291432,128,0,291609:0:0:0:0:
475,192,291432,1,0,0:0:0:0:
36,192,291432,1,0,0:0:0:70:LR3_Snare DSW.wav
36,192,291609,128,0,291961:0:0:0:0:
256,192,291609,128,0,292138:0:0:0:0:
475,192,291697,128,0,292050:0:0:0:0:
182,192,291785,128,0,292138:0:0:0:0:
329,192,291785,128,0,292050:0:0:0:0:
109,192,291785,128,0,291873:0:0:0:0:
402,192,291785,128,0,291873:0:0:0:50:HK_Kick01.wav
109,192,291961,128,0,292050:0:0:0:0:
402,192,291961,128,0,292050:0:0:0:0:
36,192,292050,128,0,292138:0:0:0:0:
329,192,292138,128,0,292226:0:0:0:0:
402,192,292138,128,0,292314:0:0:0:0:
109,192,292138,128,0,292226:0:0:0:0:
475,192,292138,128,0,292314:0:0:0:70:LR3_Snare DSW.wav
36,192,292314,128,0,292667:0:0:0:0:
109,192,292314,128,0,292667:0:0:0:0:
329,192,292403,128,0,292491:0:0:0:0:
402,192,292491,128,0,292579:0:0:0:0:
182,192,292491,1,0,0:0:0:0:
475,192,292579,128,0,292667:0:0:0:0:
256,192,292667,1,0,0:0:0:0:
329,192,292667,128,0,292844:0:0:0:0:
182,192,292667,128,0,292844:0:0:0:50:HK_Kick01.wav
402,192,292844,1,0,0:0:0:0:
36,192,292844,1,0,0:0:0:0:
109,192,292844,1,0,0:0:0:0:
475,192,292844,1,0,0:0:0:70:LR3_Snare DSW.wav
109,192,293020,128,0,293197:0:0:0:0:
256,192,293020,128,0,293197:0:0:0:0:
402,192,293109,128,0,293197:0:0:0:0:
329,192,293197,1,0,0:0:0:0:
182,192,293197,1,0,0:0:0:70:LR_CymbalQST.wav
36,192,293197,1,0,0:0:0:50:HK_Kick01.wav
475,192,293197,1,0,0:0:0:0:
475,192,293373,128,0,293550:0:0:0:0:
402,192,293373,128,0,293550:0:0:0:0:
36,192,293550,128,0,293726:0:0:0:0:
109,192,293550,128,0,293726:0:0:0:0:
182,192,293726,128,0,294079:0:0:0:0:
475,192,294079,1,0,0:0:0:0:
402,192,294079,128,0,294256:0:0:0:0:
256,192,294079,128,0,294256:0:0:0:50:HK_Kick01.wav
182,192,294256,128,0,294432:0:0:0:0:
329,192,294256,128,0,294432:0:0:0:0:
109,192,294256,1,0,0:0:0:0:
36,192,294256,1,0,0:0:0:70:LR3_Snare DSW.wav
402,192,294432,128,0,294609:0:0:0:0:
109,192,294432,128,0,294609:0:0:0:0:
256,192,294609,128,0,294697:0:0:0:0:
475,192,294609,1,0,0:0:0:0:
36,192,294609,1,0,0:0:0:0:
329,192,294609,1,0,0:0:0:50:HK_Kick01.wav
182,192,294609,1,0,0:0:0:70:LR_CymbalQST.wav
36,192,294785,1,0,0:0:0:0:
182,192,294785,128,0,294873:0:0:0:0:
402,192,294961,1,0,0:0:0:0:
475,192,294961,1,0,0:0:0:0:
256,192,294961,1,0,0:0:0:70:LR3_Snare DSW.wav
109,192,294961,128,0,295050:0:0:0:0:
182,192,295138,1,0,0:0:0:0:
36,192,295138,128,0,295314:0:0:0:0:
475,192,295226,1,0,0:0:0:0:
402,192,295314,1,0,0:0:0:0:
109,192,295314,128,0,295491:0:0:0:0:
256,192,295403,1,0,0:0:0:0:
475,192,295491,1,0,0:0:0:0:
182,192,295491,128,0,295667:0:0:0:0:
329,192,295491,1,0,0:0:0:50:HK_Kick01.wav
256,192,295667,1,0,0:0:0:0:
402,192,295667,1,0,0:0:0:0:
36,192,295667,1,0,0:0:0:0:
109,192,295667,1,0,0:0:0:70:LR3_Snare DSW.wav
182,192,295844,1,0,0:0:0:0:
256,192,295932,1,0,0:0:0:0:
475,192,296020,128,0,296109:0:0:0:0:
329,192,296020,1,0,0:0:0:0:
36,192,296020,1,0,0:0:0:50:HK_Kick01.wav
109,192,296197,1,0,0:0:0:0:
402,192,296197,128,0,296285:0:0:0:0:
256,192,296373,1,0,0:0:0:0:
36,192,296373,1,0,0:0:0:0:
109,192,296373,1,0,0:0:0:70:LR3_Snare DSW.wav
329,192,296373,128,0,296461:0:0:0:0:
475,192,296550,128,0,296903:0:0:0:0:
182,192,296550,1,0,0:0:0:0:
329,192,296638,1,0,0:0:0:0:
256,192,296726,1,0,0:0:0:0:
36,192,296726,1,0,0:0:0:0:
109,192,296814,1,0,0:0:0:0:
182,192,296903,1,0,0:0:0:0:
329,192,296903,1,0,0:0:0:0:
36,192,296903,128,0,297079:0:0:0:50:HK_Kick01.wav
475,192,297079,1,0,0:0:0:0:
256,192,297079,1,0,0:0:0:0:
109,192,297079,1,0,0:0:0:0:
402,192,297079,1,0,0:0:0:70:LR3_Snare DSW.wav
36,192,297256,1,0,0:0:0:0:
182,192,297344,1,0,0:0:0:0:
475,192,297432,1,0,0:0:0:0:
109,192,297432,1,0,0:0:0:0:
256,192,297432,1,0,0:0:0:50:HK_Kick01.wav
402,192,297609,1,0,0:0:0:0:
182,192,297609,1,0,0:0:0:0:
475,192,297785,1,0,0:0:0:0:
256,192,297785,128,0,297873:0:0:0:0:
109,192,297785,1,0,0:0:0:0:
36,192,297785,1,0,0:0:0:70:LR3_Snare DSW.wav
402,192,297961,128,0,298050:0:0:0:0:
182,192,297961,1,0,0:0:0:0:
36,192,298050,1,0,0:0:0:0:
109,192,298138,128,0,298491:0:0:0:0:
329,192,298138,1,0,0:0:0:0:
256,192,298226,1,0,0:0:0:0:
402,192,298314,1,0,0:0:0:0:
475,192,298314,1,0,0:0:0:0:
182,192,298314,1,0,0:0:0:50:HK_Kick01.wav
36,192,298491,1,0,0:0:0:0:
256,192,298491,1,0,0:0:0:0:
475,192,298491,1,0,0:0:0:0:
329,192,298491,128,0,298667:0:0:0:70:LR3_Snare DSW.wav
402,192,298667,1,0,0:0:0:0:
182,192,298667,128,0,298844:0:0:0:0:
109,192,298756,1,0,0:0:0:0:
36,192,298844,1,0,0:0:0:0:
329,192,298844,1,0,0:0:0:0:
475,192,298844,128,0,299373:0:0:0:50:HK_Kick01.wav
256,192,299020,1,0,0:0:0:0:
109,192,299020,1,0,0:0:0:0:
36,192,299197,1,0,0:0:0:0:
402,192,299197,1,0,0:0:0:0:
182,192,299197,1,0,0:0:0:0:
329,192,299197,1,0,0:0:0:70:LR3_Snare DSW.wav
256,192,299373,128,0,299726:0:0:0:0:
36,192,299373,1,0,0:0:0:0:
182,192,299461,1,0,0:0:0:0:
402,192,299550,1,0,0:0:0:0:
109,192,299550,1,0,0:0:0:0:
475,192,299638,1,0,0:0:0:0:
329,192,299726,128,0,299903:0:0:0:0:
36,192,299726,1,0,0:0:0:0:
182,192,299726,1,0,0:0:0:50:HK_Kick01.wav
402,192,299903,1,0,0:0:0:0:
256,192,299903,1,0,0:0:0:0:
109,192,299903,1,0,0:0:0:0:
475,192,299903,1,0,0:0:0:70:LR3_Snare DSW.wav
182,192,300079,1,0,0:0:0:0:
329,192,300167,1,0,0:0:0:0:
36,192,300256,128,0,300344:0:0:0:0:
256,192,300256,1,0,0:0:0:0:
402,192,300256,1,0,0:0:0:50:HK_Kick01.wav
329,192,300432,1,0,0:0:0:0:
109,192,300432,128,0,300520:0:0:0:0:
402,192,300609,1,0,0:0:0:0:
475,192,300609,1,0,0:0:0:0:
256,192,300609,1,0,0:0:0:70:LR3_Snare DSW.wav
36,192,300609,128,0,300697:0:0:0:0:
329,192,300785,128,0,300961:0:0:0:0:
182,192,300785,1,0,0:0:0:0:
256,192,300873,1,0,0:0:0:0:
475,192,300961,128,0,301138:0:0:0:0:
109,192,300961,1,0,0:0:0:0:
182,192,301050,1,0,0:0:0:0:
402,192,301138,1,0,0:0:0:0:
256,192,301138,128,0,301314:0:0:0:0:
36,192,301138,1,0,0:0:0:50:HK_Kick01.wav
329,192,301314,1,0,0:0:0:0:
109,192,301314,1,0,0:0:0:0:
475,192,301314,1,0,0:0:0:0:
182,192,301314,1,0,0:0:0:70:LR3_Snare DSW.wav
256,192,301491,1,0,0:0:0:0:
182,192,301579,1,0,0:0:0:0:
475,192,301667,128,0,301756:0:0:0:0:
36,192,301667,1,0,0:0:0:0:
329,192,301667,1,0,0:0:0:50:HK_Kick01.wav
109,192,301844,1,0,0:0:0:0:
402,192,301844,128,0,301932:0:0:0:0:
182,192,302020,1,0,0:0:0:0:
36,192,302020,1,0,0:0:0:0:
256,192,302020,1,0,0:0:0:70:LR3_Snare DSW.wav
475,192,302020,128,0,302109:0:0:0:0:
256,192,302197,128,0,302550:0:0:0:0:
109,192,302197,1,0,0:0:0:0:
182,192,302285,1,0,0:0:0:0:
329,192,302373,1,0,0:0:0:0:
475,192,302373,1,0,0:0:0:0:
109,192,302461,1,0,0:0:0:0:
36,192,302550,1,0,0:0:0:0:
182,192,302550,1,0,0:0:0:0:
402,192,302550,128,0,302726:0:0:0:50:HK_Kick01.wav
256,192,302726,1,0,0:0:0:0:
475,192,302726,1,0,0:0:0:0:
329,192,302726,1,0,0:0:0:0:
182,192,302726,1,0,0:0:0:70:LR3_Snare DSW.wav
109,192,302903,1,0,0:0:0:0:
402,192,302991,1,0,0:0:0:0:
182,192,303079,128,0,303432:0:0:0:0:
329,192,303079,1,0,0:0:0:0:
36,192,303079,1,0,0:0:0:50:HK_Kick01.wav
256,192,303256,1,0,0:0:0:0:
402,192,303256,1,0,0:0:0:0:
36,192,303432,128,0,303609:0:0:0:0:
109,192,303432,1,0,0:0:0:0:
329,192,303432,1,0,0:0:0:0:
475,192,303432,1,0,0:0:0:70:LR3_Snare DSW.wav
256,192,303609,128,0,303785:0:0:0:0:
402,192,303609,1,0,0:0:0:0:
475,192,303697,1,0,0:0:0:0:
36,192,303785,1,0,0:0:0:0:
329,192,303785,1,0,0:0:0:0:
109,192,303873,1,0,0:0:0:0:
256,192,303961,1,0,0:0:0:0:
475,192,303961,128,0,304138:0:0:0:0:
402,192,303961,1,0,0:0:0:50:HK_Kick01.wav
182,192,304138,1,0,0:0:0:0:
329,192,304138,1,0,0:0:0:0:
109,192,304138,1,0,0:0:0:0:
36,192,304138,1,0,0:0:0:70:LR3_Snare DSW.wav
256,192,304314,1,0,0:0:0:0:
109,192,304314,128,0,304491:0:0:0:0:
329,192,304403,1,0,0:0:0:0:
36,192,304491,1,0,0:0:0:0:
475,192,304491,1,0,0:0:0:0:
402,192,304491,1,0,0:0:0:50:HK_Kick01.wav
329,192,304667,1,0,0:0:0:0:
182,192,304667,128,0,304844:0:0:0:0:
475,192,304844,128,0,305020:0:0:0:0:
36,192,304844,1,0,0:0:0:0:
109,192,304844,1,0,0:0:0:0:
256,192,304844,1,0,0:0:0:70:LR3_Snare DSW.wav
329,192,305020,128,0,305197:0:0:0:0:
109,192,305020,1,0,0:0:0:0:
402,192,305020,1,0,0:0:0:50:HK_Kick01.wav
182,192,305109,1,0,0:0:0:0:
256,192,305197,128,0,305373:0:0:0:0:
475,192,305197,1,0,0:0:0:0:
109,192,305285,1,0,0:0:0:0:
36,192,305373,1,0,0:0:0:0:
182,192,305373,1,0,0:0:0:0:
402,192,305373,1,0,0:0:0:50:HK_Kick01.wav
475,192,305550,128,0,305903:0:0:0:0:
109,192,305550,1,0,0:0:0:0:
329,192,305550,1,0,0:0:0:0:
256,192,305550,1,0,0:0:0:70:LR3_Snare DSW.wav
182,192,305726,1,0,0:0:0:0:
256,192,305814,1,0,0:0:0:0:
109,192,305903,128,0,305991:0:0:0:0:
36,192,305903,1,0,0:0:0:0:
182,192,305903,1,0,0:0:0:0:
329,192,305903,1,0,0:0:0:70:LR_CymbalQST.wav
402,192,305903,1,0,0:0:0:50:HK_Kick01.wav
475,192,306079,1,0,0:0:0:0:
256,192,306079,128,0,306167:0:0:0:0:
109,192,306256,1,0,0:0:0:0:
182,192,306256,1,0,0:0:0:0:
36,192,306256,1,0,0:0:0:70:LR3_Snare DSW.wav
402,192,306256,128,0,306344:0:0:0:0:
475,192,306432,128,0,306609:0:0:0:0:
329,192,306432,1,0,0:0:0:0:
182,192,306520,1,0,0:0:0:0:
36,192,306609,128,0,306785:0:0:0:0:
402,192,306609,1,0,0:0:0:0:
256,192,306697,1,0,0:0:0:0:
475,192,306785,1,0,0:0:0:0:
329,192,306785,1,0,0:0:0:0:
109,192,306785,128,0,306961:0:0:0:50:HK_Kick01.wav
475,192,306961,1,0,0:0:0:0:
402,192,306961,1,0,0:0:0:0:
256,192,306961,1,0,0:0:0:0:
182,192,306961,1,0,0:0:0:70:LR3_Snare DSW.wav
329,192,307138,1,0,0:0:0:0:
182,192,307226,1,0,0:0:0:0:
36,192,307314,1,0,0:0:0:0:
329,192,307314,128,0,307403:0:0:0:0:
109,192,307314,1,0,0:0:0:50:HK_Kick01.wav
182,192,307491,1,0,0:0:0:0:
402,192,307491,128,0,307579:0:0:0:0:
256,192,307667,1,0,0:0:0:0:
109,192,307667,1,0,0:0:0:0:
36,192,307667,1,0,0:0:0:70:LR3_Snare DSW.wav
475,192,307667,128,0,307756:0:0:0:0:
329,192,307844,128,0,308197:0:0:0:0:
109,192,307844,1,0,0:0:0:0:
256,192,307932,1,0,0:0:0:0:
182,192,308020,1,0,0:0:0:0:
36,192,308020,1,0,0:0:0:0:
475,192,308109,1,0,0:0:0:0:
256,192,308197,128,0,308373:0:0:0:0:
402,192,308197,1,0,0:0:0:0:
109,192,308197,1,0,0:0:0:50:HK_Kick01.wav
475,192,308373,1,0,0:0:0:0:
329,192,308373,1,0,0:0:0:0:
36,192,308373,1,0,0:0:0:0:
182,192,308373,1,0,0:0:0:70:LR3_Snare DSW.wav
109,192,308550,1,0,0:0:0:0:
256,192,308638,1,0,0:0:0:0:
329,192,308726,1,0,0:0:0:0:
182,192,308726,1,0,0:0:0:0:
36,192,308726,1,0,0:0:0:50:HK_Kick01.wav
402,192,308903,1,0,0:0:0:0:
256,192,308903,1,0,0:0:0:0:
182,192,309079,128,0,309167:0:0:0:0:
475,192,309079,1,0,0:0:0:0:
109,192,309079,1,0,0:0:0:0:
329,192,309079,1,0,0:0:0:70:LR3_Snare DSW.wav
329,192,309256,128,0,309344:0:0:0:0:
402,192,309256,1,0,0:0:0:0:
36,192,309344,1,0,0:0:0:0:
182,192,309432,128,0,309785:0:0:0:0:
109,192,309432,1,0,0:0:0:0:
475,192,309520,1,0,0:0:0:0:
36,192,309609,1,0,0:0:0:0:
256,192,309609,1,0,0:0:0:0:
402,192,309609,1,0,0:0:0:50:HK_Kick01.wav
109,192,309785,128,0,309961:0:0:0:0:
402,192,309785,1,0,0:0:0:0:
329,192,309785,1,0,0:0:0:0:
475,192,309785,1,0,0:0:0:70:LR3_Snare DSW.wav
256,192,309961,1,0,0:0:0:0:
36,192,309961,128,0,310138:0:0:0:0:
329,192,310050,1,0,0:0:0:0:
256,192,310138,128,0,310667:0:0:0:0:
402,192,310138,1,0,0:0:0:0:
182,192,310138,1,0,0:0:0:50:HK_Kick01.wav
109,192,310314,1,0,0:0:0:0:
475,192,310403,1,0,0:0:0:0:
329,192,310491,1,0,0:0:0:0:
402,192,310491,1,0,0:0:0:0:
36,192,310491,1,0,0:0:0:0:
182,192,310491,1,0,0:0:0:70:LR3_Snare DSW.wav
329,192,310667,128,0,311020:0:0:0:0:
109,192,310667,1,0,0:0:0:0:
182,192,310756,1,0,0:0:0:0:
36,192,310844,1,0,0:0:0:0:
475,192,310844,1,0,0:0:0:0:
109,192,310932,1,0,0:0:0:0:
182,192,311020,1,0,0:0:0:0:
402,192,311020,128,0,311197:0:0:0:0:
256,192,311020,1,0,0:0:0:50:HK_Kick01.wav
109,192,311197,1,0,0:0:0:0:
36,192,311197,1,0,0:0:0:0:
475,192,311197,1,0,0:0:0:0:
329,192,311197,1,0,0:0:0:70:LR3_Snare DSW.wav
256,192,311373,1,0,0:0:0:0:
109,192,311461,1,0,0:0:0:0:
329,192,311550,128,0,311638:0:0:0:0:
182,192,311550,1,0,0:0:0:0:
475,192,311550,1,0,0:0:0:50:HK_Kick01.wav
109,192,311726,1,0,0:0:0:0:
256,192,311726,128,0,311814:0:0:0:0:
329,192,311903,1,0,0:0:0:0:
36,192,311903,1,0,0:0:0:0:
402,192,311903,1,0,0:0:0:70:LR3_Snare DSW.wav
182,192,311903,128,0,311991:0:0:0:0:
109,192,312079,128,0,312256:0:0:0:0:
475,192,312079,1,0,0:0:0:0:
402,192,312167,1,0,0:0:0:0:
36,192,312256,128,0,312432:0:0:0:0:
256,192,312256,1,0,0:0:0:0:
329,192,312344,1,0,0:0:0:0:
109,192,312432,1,0,0:0:0:0:
475,192,312432,1,0,0:0:0:0:
256,192,312432,128,0,312609:0:0:0:50:HK_Kick01.wav
402,192,312609,1,0,0:0:0:0:
36,192,312609,1,0,0:0:0:0:
109,192,312609,1,0,0:0:0:0:
329,192,312609,1,0,0:0:0:70:LR3_Snare DSW.wav
182,192,312785,1,0,0:0:0:0:
402,192,312873,1,0,0:0:0:0:
475,192,312961,1,0,0:0:0:0:
329,192,312961,128,0,313050:0:0:0:0:
36,192,312961,1,0,0:0:0:50:HK_Kick01.wav
109,192,313138,1,0,0:0:0:0:
256,192,313138,128,0,313226:0:0:0:0:
36,192,313314,1,0,0:0:0:0:
475,192,313314,1,0,0:0:0:0:
329,192,313314,1,0,0:0:0:70:LR3_Snare DSW.wav
182,192,313314,128,0,313403:0:0:0:0:
475,192,313491,128,0,313844:0:0:0:0:
109,192,313491,1,0,0:0:0:0:
256,192,313579,1,0,0:0:0:0:
329,192,313667,1,0,0:0:0:0:
182,192,313667,1,0,0:0:0:0:
36,192,313756,1,0,0:0:0:0:
109,192,313844,128,0,314020:0:0:0:0:
402,192,313844,1,0,0:0:0:0:
256,192,313844,1,0,0:0:0:50:HK_Kick01.wav
182,192,314020,1,0,0:0:0:0:
36,192,314020,1,0,0:0:0:0:
475,192,314020,1,0,0:0:0:0:
329,192,314020,1,0,0:0:0:70:LR3_Snare DSW.wav
402,192,314197,1,0,0:0:0:0:
109,192,314285,1,0,0:0:0:0:
475,192,314373,1,0,0:0:0:0:
36,192,314373,1,0,0:0:0:0:
256,192,314373,128,0,314726:0:0:0:50:HK_Kick01.wav
109,192,314550,1,0,0:0:0:0:
402,192,314550,1,0,0:0:0:0:
182,192,314726,128,0,314903:0:0:0:0:
36,192,314726,1,0,0:0:0:0:
329,192,314726,1,0,0:0:0:0:
475,192,314726,1,0,0:0:0:70:LR3_Snare DSW.wav
109,192,314903,128,0,315079:0:0:0:0:
402,192,314903,1,0,0:0:0:0:
329,192,314991,1,0,0:0:0:0:
36,192,315079,1,0,0:0:0:0:
256,192,315079,1,0,0:0:0:0:
402,192,315167,1,0,0:0:0:0:
182,192,315256,128,0,315432:0:0:0:0:
329,192,315256,1,0,0:0:0:0:
475,192,315256,1,0,0:0:0:50:HK_Kick01.wav
256,192,315432,1,0,0:0:0:0:
36,192,315432,1,0,0:0:0:0:
402,192,315432,1,0,0:0:0:0:
475,192,315432,1,0,0:0:0:70:LR3_Snare DSW.wav
109,192,315609,1,0,0:0:0:0:
329,192,315609,128,0,315785:0:0:0:0:
182,192,315697,1,0,0:0:0:0:
36,192,315785,1,0,0:0:0:0:
475,192,315785,1,0,0:0:0:0:
402,192,315785,1,0,0:0:0:50:HK_Kick01.wav
256,192,315785,1,0,0:0:0:70:LR_CymbalQST.wav
329,192,315961,1,0,0:0:0:0:
182,192,315961,1,0,0:0:0:0:
109,192,316050,1,0,0:0:0:0:
402,192,316050,1,0,0:0:0:0:
36,192,316138,1,0,0:0:0:0:
256,192,316138,1,0,0:0:0:0:
475,192,316138,1,0,0:0:0:0:
36,192,316314,1,0,0:0:0:0:
182,192,316314,1,0,0:0:0:0:
475,192,316403,1,0,0:0:0:0:
329,192,316403,1,0,0:0:0:0:
182,192,316491,1,0,0:0:0:0:
109,192,316491,1,0,0:0:0:0:
402,192,316579,1,0,0:0:0:0:
329,192,316579,1,0,0:0:0:0:
36,192,316667,1,0,0:0:0:0:
256,192,316667,1,0,0:0:0:0:
475,192,316667,1,0,0:0:0:50:HK_Kick01.wav
109,192,316844,1,0,0:0:0:0:
402,192,316844,1,0,0:0:0:0:
256,192,316844,128,0,317197:0:0:0:0:
182,192,316844,1,0,0:0:0:70:LR3_Snare DSW.wav
182,192,317197,1,0,0:0:0:0:
36,192,317197,1,0,0:0:0:0:
109,192,317197,1,0,0:0:0:0:
402,192,317197,1,0,0:0:0:50:HK_Kick01.wav
475,192,317197,1,0,0:0:0:70:LR_CymbalQST.wav
329,192,317373,128,0,317461:0:0:0:0:
402,192,317550,128,0,317638:0:0:0:0:
182,192,317550,1,0,0:0:0:0:
36,192,317550,1,0,0:0:0:0:
475,192,317550,1,0,0:0:0:70:LR3_Snare DSW.wav
256,192,317726,128,0,317814:0:0:0:0:
329,192,317903,128,0,317991:0:0:0:0:
402,192,318079,1,0,0:0:0:0:
109,192,318079,1,0,0:0:0:0:
256,192,318079,1,0,0:0:0:50:HK_Kick01.wav
109,192,318256,1,0,0:0:0:0:
329,192,318256,1,0,0:0:0:0:
182,192,318256,1,0,0:0:0:0:
36,192,318256,1,0,0:0:0:70:LR3_Snare DSW.wav
402,192,318609,1,0,0:0:0:0:
475,192,318609,1,0,0:0:0:0:
256,192,318609,1,0,0:0:0:50:HK_Kick01.wav
182,192,318785,128,0,318873:0:0:0:0:
475,192,318961,1,0,0:0:0:0:
36,192,318961,1,0,0:0:0:0:
329,192,318961,128,0,319050:0:0:0:0:
109,192,318961,1,0,0:0:0:70:LR3_Snare DSW.wav
256,192,319138,128,0,319226:0:0:0:0:
329,192,319491,1,0,0:0:0:0:
475,192,319491,1,0,0:0:0:0:
109,192,319491,1,0,0:0:0:50:HK_Kick01.wav
36,192,319667,1,0,0:0:0:0:
256,192,319667,1,0,0:0:0:0:
402,192,319667,1,0,0:0:0:0:
475,192,319667,1,0,0:0:0:70:LR3_Snare DSW.wav
329,192,320020,1,0,0:0:0:0:
182,192,320020,1,0,0:0:0:0:
109,192,320020,1,0,0:0:0:50:HK_Kick01.wav
475,192,320197,1,0,0:0:0:0:
182,192,320373,1,0,0:0:0:0:
256,192,320373,1,0,0:0:0:0:
402,192,320373,1,0,0:0:0:0:
36,192,320373,1,0,0:0:0:70:LR3_Snare DSW.wav
329,192,320550,1,0,0:0:0:0:
256,192,320903,1,0,0:0:0:0:
475,192,320903,1,0,0:0:0:0:
36,192,320903,128,0,320991:0:0:0:50:HK_Kick01.wav
109,192,321079,128,0,321167:0:0:0:0:
402,192,321079,1,0,0:0:0:0:
256,192,321079,1,0,0:0:0:0:
329,192,321079,1,0,0:0:0:70:LR3_Snare DSW.wav
182,192,321256,128,0,321344:0:0:0:0:
36,192,321432,1,0,0:0:0:0:
329,192,321432,1,0,0:0:0:0:
475,192,321432,1,0,0:0:0:50:HK_Kick01.wav
402,192,321609,1,0,0:0:0:0:
475,192,321785,1,0,0:0:0:0:
109,192,321785,1,0,0:0:0:0:
256,192,321785,1,0,0:0:0:0:
36,192,321785,1,0,0:0:0:70:LR3_Snare DSW.wav
182,192,321961,1,0,0:0:0:0:
402,192,322314,128,0,322403:0:0:0:0:
329,192,322314,1,0,0:0:0:0:
109,192,322314,1,0,0:0:0:50:HK_Kick01.wav
256,192,322491,1,0,0:0:0:0:
36,192,322491,1,0,0:0:0:0:
109,192,322491,1,0,0:0:0:0:
475,192,322491,128,0,322579:0:0:0:70:LR3_Snare DSW.wav
329,192,322844,1,0,0:0:0:0:
36,192,322844,1,0,0:0:0:0:
475,192,322844,1,0,0:0:0:50:HK_Kick01.wav
182,192,323020,128,0,323109:0:0:0:0:
36,192,323197,128,0,323285:0:0:0:0:
256,192,323197,1,0,0:0:0:0:
402,192,323197,1,0,0:0:0:0:
475,192,323197,1,0,0:0:0:70:LR3_Snare DSW.wav
329,192,323373,128,0,323461:0:0:0:0:
475,192,323550,128,0,323638:0:0:0:0:
402,192,323726,1,0,0:0:0:0:
182,192,323726,1,0,0:0:0:0:
109,192,323726,1,0,0:0:0:50:HK_Kick01.wav
182,192,323903,1,0,0:0:0:0:
36,192,323903,1,0,0:0:0:0:
256,192,323903,1,0,0:0:0:0:
475,192,323903,1,0,0:0:0:70:LR3_Snare DSW.wav
329,192,324256,1,0,0:0:0:0:
109,192,324256,1,0,0:0:0:0:
475,192,324256,1,0,0:0:0:50:HK_Kick01.wav
36,192,324432,128,0,324520:0:0:0:0:
402,192,324609,1,0,0:0:0:0:
475,192,324609,1,0,0:0:0:0:
182,192,324609,128,0,324697:0:0:0:0:
256,192,324609,1,0,0:0:0:70:LR3_Snare DSW.wav
329,192,324785,128,0,324873:0:0:0:0:
36,192,325138,1,0,0:0:0:0:
109,192,325138,1,0,0:0:0:0:
329,192,325138,1,0,0:0:0:50:HK_Kick01.wav
475,192,325314,1,0,0:0:0:0:
182,192,325314,1,0,0:0:0:0:
256,192,325314,1,0,0:0:0:0:
329,192,325314,1,0,0:0:0:70:LR3_Snare DSW.wav
402,192,325667,1,0,0:0:0:0:
182,192,325667,1,0,0:0:0:0:
36,192,325667,1,0,0:0:0:50:HK_Kick01.wav
256,192,325844,1,0,0:0:0:0:
329,192,326020,1,0,0:0:0:0:
109,192,326020,1,0,0:0:0:0:
36,192,326020,1,0,0:0:0:0:
475,192,326020,1,0,0:0:0:70:LR3_Snare DSW.wav
182,192,326197,1,0,0:0:0:0:
475,192,326550,1,0,0:0:0:0:
402,192,326550,1,0,0:0:0:0:
182,192,326550,128,0,326638:0:0:0:50:HK_Kick01.wav
36,192,326726,1,0,0:0:0:0:
109,192,326726,128,0,326814:0:0:0:0:
256,192,326726,1,0,0:0:0:0:
402,192,326726,1,0,0:0:0:70:LR3_Snare DSW.wav
182,192,326903,128,0,326991:0:0:0:0:
36,192,327079,1,0,0:0:0:0:
329,192,327079,1,0,0:0:0:0:
475,192,327079,1,0,0:0:0:50:HK_Kick01.wav
182,192,327256,1,0,0:0:0:0:
109,192,327432,1,0,0:0:0:0:
329,192,327432,1,0,0:0:0:0:
256,192,327432,1,0,0:0:0:0:
475,192,327432,1,0,0:0:0:70:LR3_Snare DSW.wav
402,192,327609,1,0,0:0:0:0:
109,192,327609,1,0,0:0:0:0:
36,192,327609,1,0,0:0:0:50:HK_Kick01.wav
475,192,327961,1,0,0:0:0:0:
182,192,327961,1,0,0:0:0:50:HK_Kick01.wav
256,192,327961,128,0,328050:0:0:0:0:
36,192,328138,1,0,0:0:0:0:
475,192,328138,1,0,0:0:0:0:
109,192,328138,1,0,0:0:0:70:LR3_Snare DSW.wav
329,192,328138,128,0,328226:0:0:0:0:
329,192,328491,1,0,0:0:0:0:
182,192,328491,1,0,0:0:0:0:
475,192,328491,1,0,0:0:0:0:
36,192,328491,1,0,0:0:0:0:
256,192,328491,1,0,0:0:0:0:
109,192,328491,1,0,0:0:0:70:LR4_BassKickReverbXD.wav
402,192,328491,1,0,0:0:0:50:HK_Kick01.wav
182,192,328667,128,0,328756:0:0:0:0:
329,192,328844,128,0,328932:0:0:0:0:
475,192,329020,128,0,329109:0:0:0:0:
36,192,329020,1,0,0:0:0:0:
256,192,329020,1,0,0:0:0:0:
402,192,329197,128,0,329285:0:0:0:0:
475,192,329903,1,0,0:0:0:0:
329,192,329903,1,0,0:0:0:0:
402,192,330079,128,0,330167:0:0:0:0:
256,192,330256,128,0,330344:0:0:0:0:
329,192,330432,1,0,0:0:0:0:
109,192,330432,128,0,330520:0:0:0:0:
475,192,330432,1,0,0:0:0:0:
109,192,331314,1,0,0:0:0:0:
256,192,331314,1,0,0:0:0:0:
329,192,331491,1,0,0:0:0:0:
402,192,331667,1,0,0:0:0:0:
256,192,331844,1,0,0:0:0:0:
109,192,331844,1,0,0:0:0:0:
36,192,332197,128,0,332285:0:0:0:0:
256,192,332373,128,0,332461:0:0:0:0:
475,192,332550,128,0,332638:0:0:0:0:
182,192,332726,1,0,0:0:0:0:
329,192,332726,1,0,0:0:0:0:
109,192,332903,1,0,0:0:0:0:
36,192,333079,1,0,0:0:0:0:
182,192,333256,1,0,0:0:0:0:
329,192,333256,1,0,0:0:0:0:
182,192,333609,128,0,333697:0:0:0:0:
329,192,333785,128,0,333873:0:0:0:0:
109,192,333785,1,0,0:0:0:0:
402,192,333785,1,0,0:0:0:0:
182,192,333961,128,0,334050:0:0:0:0:
475,192,334138,1,0,0:0:0:0:
36,192,334138,1,0,0:0:0:0:
402,192,334314,128,0,334403:0:0:0:0:
109,192,334491,128,0,334579:0:0:0:0:
256,192,334667,128,0,334756:0:0:0:0:
36,192,334667,1,0,0:0:0:0:
475,192,334667,1,0,0:0:0:0:
402,192,334844,128,0,334932:0:0:0:0:
182,192,335020,128,0,335109:0:0:0:0:
329,192,335197,128,0,335285:0:0:0:0:
256,192,335550,1,0,0:0:0:0:
109,192,335550,1,0,0:0:0:0:
475,192,335726,128,0,335814:0:0:0:0:
402,192,335903,128,0,335991:0:0:0:0:
329,192,336079,128,0,336167:0:0:0:0:
109,192,336079,1,0,0:0:0:0:
256,192,336079,1,0,0:0:0:0:
182,192,336256,128,0,336344:0:0:0:0:
36,192,336432,128,0,336520:0:0:0:0:
256,192,336961,1,0,0:0:0:0:
402,192,336961,1,0,0:0:0:0:
36,192,337138,1,0,0:0:0:0:
182,192,337314,1,0,0:0:0:0:
402,192,337491,1,0,0:0:0:0:
256,192,337491,1,0,0:0:0:0:
182,192,337844,128,0,337932:0:0:0:0:
329,192,338020,128,0,338109:0:0:0:0:
475,192,338197,128,0,338285:0:0:0:0:
36,192,338373,1,0,0:0:0:0:
256,192,338373,128,0,338461:0:0:0:0:
402,192,338550,128,0,338638:0:0:0:0:
182,192,338726,1,0,0:0:0:0:
256,192,338903,1,0,0:0:0:0:
36,192,338903,1,0,0:0:0:0:
402,192,339256,128,0,339344:0:0:0:0:
475,192,339432,1,0,0:0:0:0:
109,192,339432,128,0,339520:0:0:0:0:
36,192,339432,1,0,0:0:0:0:
329,192,339609,128,0,339697:0:0:0:0:
182,192,339785,128,0,339873:0:0:0:0:
