osu file format v14

[General]
AudioFilename: audio.mp3
AudioLeadIn: 0
PreviewTime: 76574
Countdown: 1
SampleSet: Normal
StackLeniency: 0.7
Mode: 0
LetterboxInBreaks: 0
WidescreenStoryboard: 0

[Editor]
DistanceSpacing: 1.3
BeatDivisor: 4
GridSize: 32
TimelineZoom: 2.3

[Metadata]
Title:Koi no Serenade
TitleUnicode:Koi no Serenade
Artist:Halozy
ArtistUnicode:Halozy
Creator:Xilver
Version:Nitori
Source:東方Project
Tags:Touhou Nitori Kawashiro Hotaru Sumijun Mountain of Faith Stage 3 Theme Tonic Triangle c81 short version cut ZUN Gensokyo the Gods Loved 河城 にとり 東方風神録 神々が恋した幻想郷 ほたる
BeatmapID:1035457
BeatmapSetID:485559

[Difficulty]
HPDrainRate:8
CircleSize:4
OverallDifficulty:8
ApproachRate:9
SliderMultiplier:1.8
SliderTickRate:1

[Events]
//Background and Video events
0,0,"nitori.jpg",0,0
//Break Periods
//Storyboard Layer 0 (Background)
//Storyboard Layer 1 (Fail)
//Storyboard Layer 2 (Pass)
//Storyboard Layer 3 (Foreground)
//Storyboard Sound Samples

[TimingPoints]
754,468.75,4,2,1,60,1,0
754,-100,4,2,1,60,0,0
28879,-100,4,3,1,60,0,0
29582,-66.6666666666667,4,3,1,60,0,0
29816,-100,4,3,1,60,0,0
30285,-166.666666666667,4,3,1,60,0,0
30754,-100,4,1,1,60,0,0
44464,-100,4,1,1,15,0,0
44582,-100,4,1,1,60,0,0
44816,-83.3333333333333,4,1,1,60,0,0
44933,-83.3333333333333,4,1,1,15,0,0
45050,-83.3333333333333,4,1,1,60,0,0
45402,-83.3333333333333,4,1,1,15,0,0
45519,-83.3333333333333,4,1,1,60,0,0
45636,-83.3333333333333,4,1,1,15,0,0
45753,-83.3333333333333,4,1,1,65,0,0
45754,-100,4,1,1,65,0,0
75754,-83.3333333333333,4,3,1,65,0,0
75812,-83.3333333333333,4,3,1,15,0,0
76222,-83.3333333333333,4,3,1,65,0,0
76281,-83.3333333333333,4,3,1,15,0,0
76691,-83.3333333333333,4,3,1,65,0,0
76750,-83.3333333333333,4,3,1,15,0,0
76925,-83.3333333333333,4,3,1,65,0,0
77629,-83.3333333333333,4,1,1,75,0,1
91339,-83.3333333333333,4,1,1,40,0,1
91457,-83.3333333333333,4,1,1,75,0,1
91808,-83.3333333333333,4,1,1,40,0,1
91925,-83.3333333333333,4,1,1,75,0,1
92511,-83.3333333333333,4,1,1,40,0,1
92629,-83.3333333333333,4,1,1,75,0,1
107629,-83.3333333333333,4,1,1,70,0,0

[Colours]
Combo1 : 192,15,0
Combo2 : 64,164,223
Combo3 : 145,194,255
Combo4 : 212,103,25

[HitObjects]
402,109,754,5,2,0:0:0:0:
314,86,988,1,0,0:0:0:0:
312,262,1222,2,0,P|295:221|302:177,1,90,8|0,0:0|0:0,0:0:0:0:
416,337,1691,1,2,0:0:0:0:
393,249,1925,1,0,0:0:0:0:
239,338,2159,2,0,P|280:354|324:348,1,90,8|0,0:0|0:0,0:0:0:0:
116,270,2629,5,2,0:0:0:0:
194,226,2863,1,0,0:0:0:0:
101,91,3097,2,0,P|92:134|110:175,1,90,8|0,0:0|0:0,0:0:0:0:
204,121,3566,1,2,0:0:0:0:
277,30,3800,1,8,0:0:0:0:
303,263,4034,2,0,P|293:219|311:178,1,90,10|0,0:0|0:0,0:0:0:0:
400,56,4504,5,2,0:0:0:0:
470,112,4738,1,0,0:0:0:0:
393,231,4972,2,0,L|385:142,1,90,8|0,0:0|0:0,0:0:0:0:
294,189,5441,1,2,0:0:0:0:
224,245,5675,1,0,0:0:0:0:
300,364,5909,2,0,L|308:274,1,90,8|0,0:0|0:0,0:0:0:0:
302,49,6379,5,2,0:0:0:0:
308,138,6613,1,0,0:0:0:0:
141,87,6847,2,0,L|230:93,1,90,8|0,0:0|0:0,0:0:0:0:
388,91,7316,1,2,0:0:0:0:
274,224,7550,1,8,0:0:0:0:
406,341,7785,2,0,L|397:251,1,90,10|0,0:0|0:0,0:0:0:0:
298,131,8254,5,2,0:0:0:0:
215,96,8488,1,0,0:0:0:0:
235,273,8722,2,0,P|242:229|231:186,1,90,8|0,0:0|0:0,0:0:0:0:
144,265,9191,1,2,0:0:0:0:
179,348,9425,1,0,0:0:0:0:
1,327,9659,2,0,P|45:319|88:331,1,90,8|0,0:0|0:0,0:0:0:0:
288,244,10129,5,2,0:0:0:0:
290,334,10363,1,0,0:0:0:0:
453,281,10597,2,0,P|409:274|369:292,1,90,8|0,0:0|0:0,0:0:0:0:
188,328,11066,1,2,0:0:0:0:
311,219,11300,1,8,0:0:0:0:
152,92,11535,2,0,L|166:180,1,90,10|0,0:0|0:0,0:0:0:0:
265,318,12004,5,2,0:0:0:0:
328,254,12238,1,0,0:0:0:0:
443,331,12472,2,0,P|400:322|357:336,1,90,8|0,0:0|0:0,0:0:0:0:
337,123,12941,1,2,0:0:0:0:
401,60,13175,1,0,0:0:0:0:
414,238,13409,2,0,P|405:194|418:151,1,90,8|0,0:0|0:0,0:0:0:0:
173,172,13879,5,2,0:0:0:0:
207,139,14113,1,0,0:0:0:0:
177,138,14347,1,8,0:0:0:0:
210,172,14582,1,2,0:0:0:0:
112,81,14816,5,2,0:0:0:0:
298,181,15050,1,0,0:3:0:0:
88,220,15285,1,2,0:1:0:0:
274,42,15519,1,0,0:0:0:0:
124,310,15754,6,0,P|207:277|289:308,1,180,4|8,0:1|0:0,0:0:0:0:
406,226,16457,1,0,0:0:0:0:
406,226,16574,1,0,0:0:0:0:
406,226,16691,2,0,P|363:235|321:220,1,90,2|0,0:0|0:0,0:0:0:0:
324,57,17160,2,0,P|353:90|362:133,1,90,8|0,0:0|0:0,0:0:0:0:
176,180,17629,6,0,B|73:221|105:145|2:177,1,180,2|8,0:0|0:0,0:0:0:0:
127,78,18332,1,0,0:0:0:0:
263,177,18566,1,2,0:0:0:0:
295,22,18800,1,8,0:0:0:0:
176,185,19034,1,8,0:0:0:0:
203,12,19269,1,0,0:0:0:0:
356,254,19504,6,0,P|288:206|320:130,1,180,2|8,0:0|0:0,0:0:0:0:
249,293,20207,1,0,0:0:0:0:
249,293,20324,1,0,0:0:0:0:
249,293,20441,2,0,P|204:280|160:294,1,90,2|0,0:0|0:0,0:0:0:0:
68,157,20910,2,0,P|113:170|157:156,1,90,8|0,0:0|0:0,0:0:0:0:
396,74,21379,6,0,P|313:66|290:145,1,180,2|8,0:0|0:0,0:0:0:0:
364,236,22082,1,0,0:0:0:0:
147,195,22316,1,2,0:0:0:0:
270,356,22550,1,8,0:0:0:0:
270,356,22668,1,0,0:0:0:0:
270,356,22785,1,8,0:0:0:0:
290,145,23019,1,0,0:0:0:0:
94,291,23254,6,0,P|137:280|180:292,1,90,2|0,1:2|0:0,0:0:0:0:
367,328,23722,2,0,P|356:284|368:241,1,90,8|0,1:0|0:0,0:0:0:0:
210,110,24191,1,2,1:2:0:0:
270,311,24425,1,0,0:0:0:0:
270,311,24543,1,0,0:0:0:0:
270,311,24660,1,8,1:0:0:0:
377,137,24894,1,0,0:0:0:0:
115,258,25129,6,0,L|206:243,1,90,2|0,1:2|0:0,0:0:0:0:
377,137,25597,2,0,L|285:122,1,90,8|0,1:2|0:0,0:0:0:0:
133,89,26066,1,2,1:2:0:0:
243,2,26300,1,8,1:2:0:0:
203,243,26535,2,0,L|190:153,1,90,8|0,1:2|0:0,0:0:0:0:
220,332,27004,5,2,1:2:0:0:
309,279,27238,1,0,1:0:0:0:
220,227,27472,1,8,1:2:0:0:
309,175,27707,1,0,1:0:0:0:
352,367,27941,5,10,1:2:0:0:
273,233,28175,1,8,1:0:0:0:
195,367,28409,1,10,1:0:0:0:
116,233,28644,1,8,1:0:0:0:
344,291,28879,5,4,0:0:0:0:
388,294,28996,1,0,0:0:0:0:
426,272,29113,1,8,0:0:0:0:
443,231,29230,1,0,0:0:0:0:
432,187,29347,2,0,P|421:158|382:142,1,45,8|0,0:0|0:0,0:0:0:0:
165,284,29582,6,0,P|197:276|230:281,1,67.5000025749208,10|0,0:0|0:0,0:0:0:0:
305,108,29816,6,0,P|292:91|287:69,1,45,10|0,0:0|0:0,0:0:0:0:
60,210,30050,6,0,P|74:192|79:171,1,45,8|0,0:0|0:0,0:0:0:0:
183,41,30285,6,0,L|186:67,1,26.9999991760254,10|0,0:0|0:0,0:0:0:0:
199,166,30519,2,0,L|202:192,1,26.9999991760254,10|0,0:0|0:0,0:0:0:0:
356,340,30754,6,0,P|321:284|348:225,1,135,6|0,0:0|0:0,0:0:0:0:
247,337,31222,2,0,P|205:350|164:334,1,90,8|8,0:2|0:0,0:0:0:0:
119,214,31691,1,2,0:2:0:0:
283,132,31925,1,0,0:0:0:0:
283,132,32043,1,0,0:0:0:0:
283,132,32160,1,8,0:2:0:0:
113,36,32394,1,8,0:0:0:0:
225,309,32629,6,0,P|193:259|220:192,1,135,2|0,0:0|0:0,0:0:0:0:
374,254,33097,2,0,P|330:264|287:251,1,90,8|8,0:0|0:0,0:0:0:0:
329,119,33566,1,2,0:2:0:0:
103,203,33800,2,0,P|122:193|134:174,1,45,0|0,0:0|0:0,0:0:0:0:
232,124,34035,2,0,P|212:112|190:110,1,45,10|0,0:2|0:0,0:0:0:0:
98,51,34269,2,0,P|97:73|107:93,1,45,8|0,0:0|0:0,0:0:0:0:
196,325,34504,6,0,P|224:264|203:203,1,135,2|0,0:0|0:0,0:0:0:0:
55,254,34972,2,0,P|97:270|141:262,1,90,10|0,0:2|0:0,0:0:0:0:
421,182,35441,1,2,0:2:0:0:
312,309,35675,1,0,0:2:0:0:
312,309,35793,1,0,0:0:0:0:
312,309,35910,1,10,0:2:0:0:
230,145,36144,1,0,0:0:0:0:
395,326,36379,6,0,L|420:272,1,45,2|0,0:0|0:0,0:0:0:0:
305,173,36613,2,0,L|323:213,1,45,0|0,0:0|0:0,0:0:0:0:
478,179,36847,2,0,L|433:174,1,45,10|0,0:2|0:0,0:0:0:0:
349,35,37082,2,0,L|344:82,1,45,0|0,0:0|0:0,0:0:0:0:
328,287,37316,1,2,0:2:0:0:
226,144,37550,2,0,L|230:188,1,45,0|0,0:0|0:0,0:0:0:0:
248,348,37785,1,10,0:2:0:0:
35,198,38019,2,0,P|56:201|72:217,1,45,0|0,0:0|0:0,0:0:0:0:
139,352,38254,6,0,P|125:287|164:235,1,135,2|0,0:0|0:0,0:0:0:0:
310,309,38722,2,0,P|267:321|223:310,1,90,10|8,0:2|0:0,0:0:0:0:
263,167,39191,1,2,0:2:0:0:
418,273,39425,1,0,0:0:0:0:
418,273,39543,1,0,0:0:0:0:
418,273,39660,1,10,0:2:0:0:
394,79,39894,1,8,0:0:0:0:
278,210,40129,6,0,P|217:184|155:206,1,135,2|0,0:0|0:0,0:0:0:0:
188,367,40597,2,0,P|213:331|212:286,1,90,10|0,0:2|0:0,0:0:0:0:
176,105,41066,1,2,0:2:0:0:
68,243,41300,2,0,L|112:236,1,45,0|0,0:0|0:0,0:0:0:0:
295,206,41535,1,10,0:2:0:0:
88,146,41769,1,0,0:0:0:0:
223,354,42004,6,0,P|194:295|217:233,1,135,2|0,0:0|0:0,0:0:0:0:
384,290,42472,2,0,P|341:303|297:292,1,90,10|0,0:2|0:0,0:0:0:0:
115,230,42941,1,2,0:2:0:0:
188,69,43175,2,0,L|185:113,1,45,0|0,0:0|0:0,0:0:0:0:
174,327,43410,1,10,0:2:0:0:
368,168,43644,2,0,L|323:165,1,45,0|0,0:0|0:0,0:0:0:0:
96,151,43879,6,0,B|108:91|108:91|85:57,1,90,2|8,3:1|3:0,0:0:0:0:
198,42,44230,1,0,3:0:0:0:
198,42,44347,2,0,L|185:85,1,45,10|0,3:0|3:0,0:0:0:0:
325,201,44582,2,0,L|312:157,1,45,8|0,3:0|3:0,0:0:0:0:
188,288,44816,6,0,L|177:312,1,26.9999991760254,10|0,3:0|0:0,0:0:0:0:
402,128,45168,6,0,L|428:124,1,26.9999991760254,8|0,3:0|0:0,0:0:0:0:
77,114,45519,6,0,L|60:92,1,26.9999991760254,10|0,3:0|0:0,0:0:0:0:
136,226,45754,6,0,P|143:161|201:134,1,135,6|0,0:0|0:0,0:0:0:0:
175,305,46222,2,0,P|134:320|92:307,1,90,8|8,0:0|0:0,0:0:0:0:
256,237,46691,1,2,0:2:0:0:
330,345,46925,1,0,3:0:0:0:
330,345,47043,1,2,3:0:0:0:
330,345,47160,1,10,3:0:0:0:
405,210,47394,1,8,3:0:0:0:
232,351,47629,6,0,B|140:351|140:351|175:326,1,135,2|0,0:2|0:0,0:0:0:0:
259,178,48097,2,0,P|265:221|243:260,1,90,8|8,0:0|0:0,0:0:0:0:
139,238,48566,1,2,0:2:0:0:
318,340,48800,1,0,0:0:0:0:
318,340,48918,1,0,0:0:0:0:
318,340,49035,1,8,0:0:0:0:
348,184,49269,1,0,3:0:0:0:
454,348,49504,6,0,P|435:285|475:234,1,135,2|0,0:2|0:0,0:0:0:0:
276,264,49972,2,0,P|315:287|358:278,1,90,8|8,0:0|0:0,0:0:0:0:
371,152,50441,1,2,0:2:0:0:
292,358,50675,1,0,3:0:0:0:
292,358,50793,1,2,3:0:0:0:
292,358,50910,1,10,3:0:0:0:
213,152,51144,1,8,3:0:0:0:
74,338,51379,6,0,P|116:326|160:336,1,90,2|0,0:2|0:0,0:0:0:0:
201,225,51730,1,0,0:0:0:0:
201,225,51847,2,0,L|211:282,1,45,8|0,0:0|0:0,0:0:0:0:
268,139,52082,2,0,L|278:196,1,45,8|0,0:0|0:0,0:0:0:0:
326,351,52316,2,0,P|302:315|305:271,1,90,2|0,0:2|3:0,0:0:0:0:
462,246,52668,1,2,3:0:0:0:
462,246,52785,2,0,L|440:285,1,45,10|0,3:0|3:0,0:0:0:0:
345,193,53019,2,0,L|364:233,1,45,8|0,3:0|0:0,0:0:0:0:
434,76,53254,6,0,B|373:50|373:50|308:76,1,135,2|0,0:2|0:0,0:0:0:0:
364,233,53722,2,0,P|383:193|378:149,1,90,8|8,0:0|0:0,0:0:0:0:
209,184,54191,1,2,0:2:0:0:
263,327,54425,1,0,3:0:0:0:
263,327,54543,1,2,3:0:0:0:
263,327,54660,1,10,3:0:0:0:
357,204,54894,1,8,3:0:0:0:
190,271,55129,6,0,P|127:243|66:272,1,135,2|0,0:2|0:0,0:0:0:0:
249,356,55597,2,0,P|280:325|289:281,1,90,8|8,0:0|0:0,0:0:0:0:
58,162,56066,1,2,0:2:0:0:
245,149,56300,1,0,3:0:0:0:
245,149,56418,1,2,3:0:0:0:
245,149,56535,1,10,3:0:0:0:
93,24,56769,1,8,3:0:0:0:
26,267,57004,6,0,B|86:241|86:241|149:270,1,135,2|0,0:2|0:0,0:0:0:0:
223,354,57472,2,0,P|217:311|240:273,1,90,10|0,0:2|0:0,0:0:0:0:
200,161,57941,1,2,0:2:0:0:
389,230,58175,1,0,0:0:0:0:
389,230,58293,1,0,0:0:0:0:
389,230,58410,1,10,3:0:0:0:
383,80,58644,1,8,3:0:0:0:
314,269,58879,6,0,L|224:274,1,90,2|0,0:0|0:0,0:0:0:0:
101,210,59230,1,0,0:0:0:0:
101,210,59347,2,0,L|119:271,1,45,0|0,0:0|0:0,0:0:0:0:
220,114,59582,2,0,L|202:175,1,45,0|0,0:0|0:0,0:0:0:0:
217,354,59816,2,0,P|182:319|189:272,1,90,10|0,0:1|0:0,0:0:0:0:
273,232,60168,1,0,0:0:0:0:
273,232,60285,2,0,L|260:290,1,45,10|0,3:0|3:0,0:0:0:0:
354,163,60519,2,0,L|369:218,1,45,8|0,3:0|0:0,0:0:0:0:
480,296,60754,6,0,P|415:282|360:319,1,135,6|0,0:1|0:0,0:0:0:0:
253,358,61222,2,0,P|272:318|262:275,1,90,8|8,0:0|0:0,0:0:0:0:
230,152,61691,1,2,0:2:0:0:
109,310,61925,1,0,3:0:0:0:
109,310,62043,1,2,3:0:0:0:
109,310,62160,1,10,3:0:0:0:
23,125,62394,1,8,3:0:0:0:
196,223,62629,6,0,B|260:196|260:196|322:216,1,135,2|0,0:2|0:0,0:0:0:0:
284,367,63097,2,0,P|256:326|267:283,1,90,8|8,0:0|0:0,0:0:0:0:
327,125,63566,1,2,0:2:0:0:
443,274,63800,2,0,L|397:285,1,45,0|2,3:0|3:0,0:0:0:0:
211,193,64035,2,0,L|257:204,1,45,10|0,3:0|3:0,0:0:0:0:
452,143,64269,1,8,3:0:0:0:
341,350,64504,6,0,P|315:289|343:231,1,135,2|0,0:1|0:0,0:0:0:0:
224,268,64972,2,0,P|181:281|138:271,1,90,8|8,0:0|0:0,0:0:0:0:
29,205,65441,1,2,0:2:0:0:
243,171,65675,1,0,3:0:0:0:
243,171,65793,1,2,3:0:0:0:
243,171,65910,1,10,3:0:0:0:
68,48,66144,1,8,3:0:0:0:
94,285,66379,6,0,P|134:272|183:282,1,90,2|0,0:2|0:0,0:0:0:0:
299,338,66730,1,0,0:0:0:0:
299,338,66847,2,0,L|319:297,1,45,8|0,0:0|0:0,0:0:0:0:
244,186,67082,2,0,L|264:226,1,45,8|0,0:0|0:0,0:0:0:0:
420,305,67316,2,0,P|404:264|427:222,1,90,2|0,0:1|3:0,0:0:0:0:
326,120,67668,1,2,3:0:0:0:
326,120,67785,2,0,L|361:147,1,45,10|0,3:1|3:0,0:0:0:0:
462,49,68019,2,0,L|426:76,1,45,8|0,3:0|0:0,0:0:0:0:
182,212,68254,6,0,B|248:189|248:189|316:213,1,135,2|0,0:2|0:0,0:0:0:0:
253,363,68722,2,0,P|237:321|248:278,1,90,8|8,0:0|0:0,0:0:0:0:
326,120,69191,1,2,0:2:0:0:
370,301,69425,1,0,3:0:0:0:
370,301,69543,1,2,3:0:0:0:
370,301,69660,1,10,3:1:0:0:
487,157,69894,1,8,3:0:0:0:
288,272,70129,6,0,P|241:227|253:163,1,135,2|0,0:2|0:0,0:0:0:0:
68,122,70597,2,0,P|112:129|155:118,1,90,10|10,0:1|0:2,0:0:0:0:
301,58,71066,1,2,0:2:0:0:
412,115,71300,2,0,P|395:130|385:150,1,45,0|0,3:0|0:0,0:0:0:0:
347,245,71535,2,0,P|368:253|391:253,1,45,10|0,3:1|3:0,0:0:0:0:
490,241,71769,2,0,P|486:219|475:200,1,45,8|0,3:0|0:0,0:0:0:0:
437,359,72004,6,0,P|372:341|309:363,1,135,2|0,0:2|0:0,0:0:0:0:
220,334,72472,2,0,P|241:294|236:250,1,90,8|8,0:0|0:0,0:0:0:0:
123,51,72941,6,0,P|105:115|127:178,1,135,2|2,0:2|3:0,0:0:0:0:
99,267,73409,2,0,P|59:246|15:251,1,90,10|8,3:0|3:0,0:0:0:0:
296,350,73879,6,0,L|287:253,1,90,2|0,0:0|0:0,0:0:0:0:
412,250,74230,1,0,0:0:0:0:
412,250,74347,2,0,L|372:271,1,45,10|0,0:1|0:0,0:0:0:0:
292,144,74582,2,0,L|313:183,1,45,0|0,0:0|0:0,0:0:0:0:
440,140,74816,6,0,B|418:98|418:98|432:57,1,90,2|0,0:2|0:0,0:0:0:0:
277,206,75168,1,0,0:0:0:0:
277,206,75285,2,0,L|319:191,1,45,10|0,3:0|3:0,0:0:0:0:
310,27,75519,2,0,L|324:69,1,45,8|0,3:0|2:0,2:0:0:0:
407,324,75754,6,0,L|381:332,1,26.9999991760254,8|0,0:0|0:0,0:0:0:0:
77,253,76222,6,0,L|102:261,1,26.9999991760254,2|0,0:0|0:0,0:0:0:0:
367,133,76691,6,0,L|341:141,1,26.9999991760254,4|0,0:0|0:0,0:0:0:0:
35,138,76925,5,10,0:0:0:0:
76,109,77043,1,8,0:0:0:0:
122,129,77160,5,10,0:0:0:0:
161,99,77277,1,8,0:0:0:0:
206,118,77394,5,10,0:0:0:0:
245,89,77511,1,8,0:0:0:0:
300,221,77629,6,0,P|355:165|341:88,1,161.999995056153,6|0,0:0|0:0,0:0:0:0:
205,208,78097,2,0,P|192:258|223:301,1,107.999996704102,8|0,0:0|0:0,0:0:0:0:
279,367,78449,1,0,0:0:0:0:
279,367,78566,2,0,L|312:324,1,53.9999983520508,2|0,0:2|0:0,0:0:0:0:
283,168,78800,2,0,L|316:210,1,53.9999983520508,0|0,0:0|0:0,0:0:0:0:
409,301,79035,2,0,P|397:250|420:203,1,107.999996704102,8|0,0:2|0:2,0:0:0:0:
457,104,79386,1,0,0:0:0:0:
457,104,79504,6,0,L|404:115,1,53.9999983520508,2|0,0:2|0:0,0:0:0:0:
295,15,79738,2,0,L|306:67,1,53.9999983520508,0|0,0:0|0:0,0:0:0:0:
323,216,79972,2,0,P|297:209|279:189,1,53.9999983520508,8|0,0:0|0:0,0:0:0:0:
192,72,80207,2,0,P|199:97|190:122,1,53.9999983520508,0|0,0:0|0:0,0:0:0:0:
139,213,80441,5,2,0:2:0:0:
168,282,80558,2,0,L|119:305,1,53.9999983520508,0|0,0:0|0:0,0:0:0:0:
45,158,80793,1,0,0:0:0:0:
16,227,80910,2,0,L|65:250,1,53.9999983520508,10|0,3:0|3:0,0:0:0:0:
169,114,81144,2,0,L|120:137,1,53.9999983520508,8|0,3:0|0:0,0:0:0:0:
200,346,81379,6,0,P|157:282|187:210,1,161.999995056153,2|0,0:0|0:0,0:0:0:0:
354,250,81847,2,0,P|311:282|258:279,1,107.999996704102,8|8,0:0|0:0,0:0:0:0:
305,170,82199,1,0,0:0:0:0:
305,170,82316,2,0,L|333:124,1,53.9999983520508,0|0,0:2|0:0,0:0:0:0:
158,33,82550,2,0,L|187:79,1,53.9999983520508
71,226,82785,2,0,B|122:208|122:208|174:224,1,107.999996704102,2|0,0:2|0:0,0:0:0:0:
92,355,83136,1,0,0:0:0:0:
92,355,83254,6,0,L|118:307,1,53.9999983520508,2|0,0:0|0:0,0:0:0:0:
155,169,83488,2,0,L|181:216,1,53.9999983520508,0|0,0:0|0:0,0:0:0:0:
257,345,83722,2,0,P|230:337|213:313,1,53.9999983520508,8|0,0:0|0:0,0:0:0:0:
298,165,83957,2,0,P|304:192|292:219,1,53.9999983520508,8|0,0:0|0:0,0:0:0:0:
383,336,84191,1,2,0:2:0:0:
471,175,84425,1,0,0:0:0:0:
471,175,84543,1,0,0:0:0:0:
471,175,84660,2,0,L|455:230,1,53.9999983520508,8|0,0:0|0:0,0:0:0:0:
354,61,84894,2,0,L|370:116,1,53.9999983520508,0|0,0:0|0:0,0:0:0:0:
208,245,85129,6,0,P|247:209|300:210,1,107.999996704102,2|0,0:0|0:0,0:0:0:0:
318,346,85480,1,0,0:0:0:0:
318,346,85597,2,0,L|284:303,1,53.9999983520508,8|0,0:0|0:0,0:0:0:0:
419,200,85832,2,0,L|385:242,1,53.9999983520508,8|0,0:0|0:0,0:0:0:0:
54,206,86066,1,2,0:2:0:0:
101,269,86183,2,0,P|127:269|152:259,1,53.9999983520508,0|0,0:0|0:0,0:0:0:0:
254,109,86418,1,0,0:0:0:0:
206,172,86535,2,0,P|179:172|154:162,1,53.9999983520508,8|0,0:0|0:0,0:0:0:0:
50,91,86769,2,0,P|76:91|101:81,1,53.9999983520508,0|0,0:0|0:0,0:0:0:0:
270,236,87004,6,0,P|257:160|322:121,1,161.999995056153,2|0,0:0|0:0,0:0:0:0:
342,291,87472,6,0,P|283:339|216:302,1,161.999995056153,10|0,0:1|0:0,0:0:0:0:
356,199,87941,6,0,P|427:225|428:301,1,161.999995056153,2|0,0:2|0:0,0:0:0:0:
307,336,88410,2,0,L|255:352,1,53.9999983520508,10|0,3:0|3:0,0:0:0:0:
255,126,88644,2,0,L|271:177,1,53.9999983520508,8|0,3:0|3:0,0:0:0:0:
76,284,88879,6,0,P|126:265|183:277,1,107.999996704102,2|0,0:1|0:0,0:0:0:0:
254,316,89230,1,0,0:0:0:0:
254,316,89347,2,0,L|265:263,1,53.9999983520508,8|0,0:0|0:0,0:0:0:0:
131,167,89582,2,0,L|182:183,1,53.9999983520508,8|0,0:0|0:0,0:0:0:0:
379,317,89816,5,2,0:2:0:0:
433,260,89933,2,0,P|450:240|457:211,1,53.9999983520508,0|10,0:0|3:0,0:0:0:0:
301,103,90168,1,0,3:0:0:0:
323,178,90285,2,0,P|331:202|352:223,1,53.9999983520508,10|0,3:0|3:0,0:0:0:0:
455,124,90519,2,0,P|429:119|401:127,1,53.9999983520508,8|0,3:0|3:0,0:0:0:0:
187,277,90754,6,0,B|240:256|240:256|294:271,1,107.999996704102,14|8,3:0|3:0,0:0:0:0:
368,350,91105,1,0,3:0:0:0:
368,350,91222,2,0,L|358:293,1,53.9999983520508,10|0,3:0|2:0,0:0:0:0:
475,154,91457,2,0,L|465:207,1,53.9999983520508,8|0,3:0|3:0,0:0:0:0:
478,351,91691,1,10,3:0:0:0:
277,29,91925,5,8,3:0:0:0:
287,105,92042,1,2,3:0:0:0:
297,181,92160,6,0,L|303:234,1,53.9999983520508,10|0,3:0|3:0,0:0:0:0:
79,79,92394,6,0,L|85:132,1,53.9999983520508,14|0,3:0|2:0,0:0:0:0:
44,309,92629,6,0,P|115:274|193:289,1,161.999995056153,6|0,0:0|0:0,0:0:0:0:
289,358,93097,2,0,P|276:306|296:256,1,107.999996704102,8|0,0:0|0:0,0:0:0:0:
373,298,93449,1,0,0:0:0:0:
373,298,93566,2,0,P|404:301|426:292,1,53.9999983520508,2|0,0:0|0:0,0:0:0:0:
490,170,93800,2,0,P|471:195|467:219,1,53.9999983520508,0|0,0:0|0:0,0:0:0:0:
323,134,94035,2,0,P|363:100|360:48,1,107.999996704102,10|8,3:3|3:0,0:0:0:0:
315,248,94386,1,0,0:0:0:0:
315,248,94504,6,0,L|262:262,1,53.9999983520508,2|0,0:0|0:0,0:0:0:0:
186,109,94738,2,0,L|200:161,1,53.9999983520508,0|0,0:0|0:0,0:0:0:0:
375,119,94972,2,0,L|322:133,1,53.9999983520508,8|0,0:0|0:0,0:0:0:0:
245,0,95207,2,0,L|259:52,1,53.9999983520508,8|0,0:0|0:0,0:0:0:0:
247,205,95441,5,2,0:2:0:0:
276,283,95558,2,0,L|295:340,1,53.9999983520508,0|0,0:0|0:0,0:0:0:0:
412,115,95793,1,0,0:0:0:0:
383,193,95910,2,0,L|364:250,1,53.9999983520508,8|0,0:2|0:0,0:0:0:0:
277,44,96144,2,0,L|296:101,1,53.9999983520508,0|0,0:0|0:0,0:0:0:0:
129,205,96379,6,0,B|247:203|247:203|206:163,1,161.999995056153,2|0,0:0|0:0,0:0:0:0:
319,342,96847,2,0,P|300:292|313:241,1,107.999996704102,8|8,0:0|0:0,0:0:0:0:
419,292,97199,1,0,0:0:0:0:
419,292,97316,2,0,P|444:283|464:263,1,53.9999983520508,2|0,0:2|0:0,0:0:0:0:
319,105,97550,2,0,P|318:131|327:156,1,53.9999983520508,10|0,3:0|3:0,0:0:0:0:
141,300,97785,2,0,B|201:269|201:269|255:291,1,107.999996704102,10|8,3:0|3:0,0:0:0:0:
186,171,98136,1,0,0:0:0:0:
186,171,98254,6,0,L|140:199,1,53.9999983520508,2|0,0:0|0:0,0:0:0:0:
49,82,98488,2,0,L|94:110,1,53.9999983520508,0|0,0:0|0:0,0:0:0:0:
262,211,98722,2,0,P|280:187|283:161,1,53.9999983520508,8|0,0:0|0:0,0:0:0:0:
196,33,98957,2,0,P|207:60|227:76,1,53.9999983520508,0|0,0:0|0:0,0:0:0:0:
352,62,99191,1,8,0:0:0:0:
287,268,99425,5,0,0:0:0:0:
370,235,99543,1,0,0:0:0:0:
439,292,99660,2,0,L|468:247,1,53.9999983520508,10|0,3:3|0:0,0:0:0:0:
384,100,99894,2,0,L|408:147,1,53.9999983520508,8|0,3:0|2:0,2:0:0:0:
187,293,100129,6,0,P|233:266|286:268,1,107.999996704102,2|0,0:0|0:0,0:0:0:0:
377,347,100480,1,0,0:0:0:0:
377,347,100597,2,0,P|360:320|363:294,1,53.9999983520508,8|0,0:0|0:0,0:0:0:0:
494,249,100832,2,0,P|479:277|455:286,1,53.9999983520508,0|0,0:0|0:0,0:0:0:0:
280,141,101066,1,8,0:0:0:0:
347,190,101183,2,0,L|397:170,1,53.9999983520508,0|0,0:0|0:0,0:0:0:0:
498,29,101418,1,0,0:0:0:0:
431,78,101535,2,0,L|380:58,1,53.9999983520508,10|0,3:3|3:0,0:0:0:0:
329,246,101769,2,0,L|349:195,1,53.9999983520508,8|0,3:0|0:0,0:0:0:0:
130,103,102004,6,0,B|184:122|184:122|232:107,1,107.999996704102,2|0,0:0|0:0,0:0:0:0:
306,14,102355,1,0,0:0:0:0:
306,14,102472,2,0,P|318:40|317:69,1,53.9999983520508,10|0,0:1|0:0,0:0:0:0:
243,212,102707,2,0,P|259:184|285:174,1,53.9999983520508,0|0,0:0|0:0,0:0:0:0:
508,152,102941,1,2,0:2:0:0:
434,185,103058,2,0,P|401:185|380:167,1,53.9999983520508,0|0,0:0|0:0,0:0:0:0:
324,299,103293,1,0,0:0:0:0:
398,332,103410,2,0,P|430:332|451:314,1,53.9999983520508,10|0,3:0|3:0,0:0:0:0:
427,125,103644,2,0,L|431:178,1,53.9999983520508,8|0,3:0|0:0,0:0:0:0:
113,240,103879,6,0,P|181:200|261:204,1,161.999995056153,10|0,1:1|1:0,0:0:0:0:
295,245,104347,2,0,P|267:199|277:148,1,107.999996704102,10|8,1:2|1:0,0:0:0:0:
336,31,104816,1,10,1:1:0:0:
492,181,105050,1,8,3:2:0:0:
492,181,105168,1,0,3:0:0:0:
492,181,105285,2,0,P|439:170|389:189,1,107.999996704102,10|10,3:0|3:0,0:0:0:0:
68,282,105754,6,0,P|90:298|118:301,1,53.9999983520508,2|6,1:3|2:1,0:0:0:0:
233,336,105988,2,0,P|255:320|267:294,1,53.9999983520508,0|0,0:0|0:0,0:0:0:0:
334,196,106222,2,0,P|325:170|304:150,1,53.9999983520508,0|0,0:0|0:0,0:0:0:0:
233,56,106457,2,0,P|205:55|180:69,1,53.9999983520508,0|0,0:0|0:0,0:0:0:0:
182,222,106691,5,0,0:0:0:0:
433,36,106925,6,0,L|418:93,1,53.9999983520508,0|0,0:0|0:0,0:0:0:0:
296,129,107160,2,0,L|311:186,1,53.9999983520508,0|0,0:0|0:0,0:0:0:0:
427,206,107394,2,0,L|412:263,1,53.9999983520508,0|0,0:0|0:0,0:0:0:0:
328,338,107629,5,0,0:0:0:0:
