osu file format v14

[General]
AudioFilename: audio.mp3
AudioLeadIn: 0
PreviewTime: 151316
Countdown: 0
SampleSet: None
StackLeniency: 0.4
Mode: 0
LetterboxInBreaks: 1
WidescreenStoryboard: 1

[Editor]
Bookmarks: 14375,25140,46493,52669,62022,84963,107552,139669,145846,197905,226140
DistanceSpacing: 0.8
BeatDivisor: 4
GridSize: 4
TimelineZoom: 1.7

[Metadata]
Title:Koi No Sutajiamu
TitleUnicode:恋のスタジアム
Artist:Halozy
ArtistUnicode:Halozy
Creator:TwixNeko
Version:Spicy
Source:東方Project
Tags:touhou th10 Mountain of Faith Stage 5 theme 東方風神録 少女が見た日本の原風景 Kotiya Sanae 水瀬ましろ VALLEYSTONE sumijun c90 c91 Grand Slam InuYasha383 ColaSoft0
BeatmapID:1302120
BeatmapSetID:617561

[Difficulty]
HPDrainRate:8
CircleSize:4
OverallDifficulty:7.5
ApproachRate:9
SliderMultiplier:2.1
SliderTickRate:1

[Events]
//Background and Video events
0,0,"Sanae Kochiya.jpg",0,0
//Break Periods
2,14398,22246
2,84986,106952
2,130163,135187
2,175339,186010
//Storyboard Layer 0 (Background)
//Storyboard Layer 1 (Fail)
//Storyboard Layer 2 (Pass)
//Storyboard Layer 3 (Foreground)
//Storyboard Sound Samples

[TimingPoints]
258,352.941176470588,4,1,0,75,1,0
22846,-100,4,2,0,45,0,0
25140,-100,4,1,0,75,0,0
27081,-142.857142857143,4,1,0,75,0,0
30963,-100,4,1,0,75,0,0
34846,-142.857142857143,4,1,0,75,0,0
36610,-100,4,1,0,75,0,0
41552,-142.857142857143,4,1,0,75,0,0
42257,-100,4,1,0,75,0,0
54257,-142.857142857143,4,1,0,75,0,0
56375,-100,4,1,0,75,0,0
63787,-142.857142857143,4,1,0,75,0,0
67669,-100,4,1,0,75,0,0
72257,-142.857142857143,4,1,0,75,0,0
73316,-100,4,1,0,75,0,0
75081,-142.857142857143,4,1,0,75,0,0
78963,-100,4,1,0,75,0,0
82669,-142.857142857143,4,1,0,75,0,0
84610,-100,4,1,0,75,0,0
107552,-142.857142857143,4,2,0,45,0,0
110375,-100,4,2,0,45,0,0
113199,-100,4,1,0,75,0,0
115316,-142.857142857143,4,1,0,75,0,0
118493,-100,4,1,0,75,0,0
120963,-142.857142857143,4,1,0,75,0,0
121669,-100,4,1,0,75,0,0
126610,-142.857142857143,4,1,0,75,0,0
129787,-100,4,1,0,75,0,0
150963,-100,4,3,0,85,0,0
152728,-100,4,3,0,85,0,1
175316,-100,4,2,0,45,0,0
195081,-200,4,1,0,55,0,0
199316,-200,4,1,0,60,0,0
202140,-100,4,1,0,75,0,0
210610,-142.857142857143,4,1,0,75,0,0
214493,-100,4,1,0,75,0,0
218375,-142.857142857143,4,1,0,75,0,0
220140,-100,4,1,0,75,0,0
223316,-142.857142857143,4,1,0,75,0,0
225787,-100,4,1,0,75,0,0
248728,-200,4,1,0,75,0,0
248816,-200,4,1,0,5,0,0
252963,-200,4,3,0,5,0,0

[Colours]
Combo1 : 234,228,11
Combo2 : 225,162,30
Combo3 : 206,36,6

[HitObjects]
242,244,3081,6,0,B|192:283|192:283|130:283,1,105
270,140,3434,2,0,B|320:101|320:101|382:101,1,105
350,212,3787,1,0,0:0:0:0:
361,101,3963,1,0,0:0:0:0:
244,247,4140,1,0,0:0:0:0:
338,48,4316,1,0,0:0:0:0:
242,65,4493,6,0,P|194:116|190:154,1,105
317,293,4846,2,0,P|365:243|367:190,1,105
239,214,5199,1,0,0:0:0:0:
373,212,5375,1,0,0:0:0:0:
202,166,5552,1,0,0:0:0:0:
408,161,5728,1,0,0:0:0:0:
320,88,5905,5,0,0:0:0:0:
316,84,5993,1,0,0:0:0:0:
312,80,6081,2,0,L|264:32,2,52.5
208,233,6434,1,0,0:0:0:0:
202,232,6522,1,0,0:0:0:0:
196,232,6610,2,0,L|132:220,2,52.5
344,300,6963,2,0,P|376:240|344:192,1,105
255,113,7316,5,0,0:0:0:0:
225,101,7404,1,0,0:0:0:0:
195,91,7493,2,0,P|143:79|123:79,2,52.5
187,273,7846,1,0,0:0:0:0:
212,285,7934,1,0,0:0:0:0:
241,295,8022,2,0,P|292:304|314:301,2,52.5
404,84,8375,2,0,P|372:144|320:172,1,105
216,152,8728,6,0,L|96:152,1,105
288,228,9081,2,0,L|400:228,1,105
308,144,9434,1,0,0:0:0:0:
196,232,9610,1,0,0:0:0:0:
288,116,9787,1,0,0:0:0:0:
232,300,9963,1,0,0:0:0:0:
196,232,10140,6,0,P|168:168|176:120,1,105
396,200,10493,2,0,P|416:260|408:312,1,105
304,240,10846,1,0,0:0:0:0:
408,296,11022,1,0,0:0:0:0:
296,276,11199,1,0,0:0:0:0:
440,224,11375,1,0,0:0:0:0:
306,134,11552,5,0,0:0:0:0:
301,131,11640,1,0,0:0:0:0:
297,127,11728,2,0,L|248:88,2,52.5
133,128,12081,1,0,0:0:0:0:
133,128,12169,1,0,0:0:0:0:
133,128,12257,2,0,L|179:173,2,52.5
264,220,12610,2,0,P|224:284|152:312,1,105
345,283,12963,5,0,0:0:0:0:
371,268,13051,1,0,0:0:0:0:
395,246,13140,2,0,P|427:200|431:184,2,52.5
248,90,13493,1,0,0:0:0:0:
218,84,13581,1,0,0:0:0:0:
188,84,13669,2,0,P|147:93|119:112,2,52.5
172,276,14022,2,0,P|232:292|280:288,1,105
123,130,22846,6,0,P|169:107|231:109,1,105
229,222,23199,1,0,0:0:0:0:
334,90,23375,1,0,0:0:0:0:
400,183,23552,2,0,P|387:268|342:289,1,105
301,177,23905,5,0,0:0:0:0:
235,271,24081,1,0,0:0:0:0:
158,196,24257,2,0,P|141:160|160:90,1,105
276,187,24610,1,0,0:0:0:0:
262,326,24787,1,0,0:0:0:0:
134,242,24963,1,0,0:0:0:0:
173,170,25140,5,0,0:0:0:0:
179,162,25228,1,0,0:0:0:0:
186,156,25316,2,0,P|230:120|286:108,1,105
379,249,25669,6,0,P|336:300|299:316,1,105
313,164,26022,1,0,0:0:0:0:
296,315,26199,1,0,0:0:0:0:
216,268,26375,2,0,P|174:234|145:187,1,105
313,164,26728,5,0,0:0:0:0:
146,191,26905,1,0,0:0:0:0:
101,108,27081,2,0,B|123:49|189:42|189:42|221:57,1,146.999995513916
416,156,27610,1,0,0:0:0:0:
296,80,27787,2,0,P|239:111|264:176,1,146.999995513916
117,216,28316,1,0,0:0:0:0:
248,264,28493,6,0,B|312:276|360:232|360:232|340:192,1,146.999995513916
292,84,29022,1,0,0:0:0:0:
408,160,29199,2,0,B|412:76|436:52|436:52|448:96,1,146.999995513916
380,239,29728,1,0,0:0:0:0:
280,96,29905,2,0,B|212:96|172:80|172:80|148:116,1,146.999995513916
84,248,30434,1,0,0:0:0:0:
151,110,30610,1,0,0:0:0:0:
206,210,30787,5,0,0:0:0:0:
206,210,30875,1,0,0:0:0:0:
206,210,30963,2,0,P|252:264|289:286,1,105
392,164,31316,6,0,P|341:90|321:78,1,105
206,210,31669,1,0,0:0:0:0:
330,83,31846,1,0,0:0:0:0:
382,172,32022,2,0,P|402:246|436:267,1,105
240,284,32375,5,0,0:0:0:0:
421,263,32552,1,0,0:0:0:0:
276,192,32728,2,0,P|221:182|160:200,1,105
64,96,33081,1,0,0:0:0:0:
84,261,33258,1,0,0:0:0:0:
156,122,33434,2,0,P|195:86|261:72,1,105
311,211,33787,1,0,0:0:0:0:
246,73,33963,1,0,0:0:0:0:
190,211,34140,6,0,P|159:276|126:297,1,105
44,224,34493,1,0,0:0:0:0:
134,297,34669,1,0,0:0:0:0:
256,316,34846,2,0,B|316:296|356:260|356:260|308:228,1,146.999995513916
249,176,35375,1,0,0:0:0:0:
412,192,35552,6,0,P|423:118|384:52,1,146.999995513916
249,176,36081,1,0,0:0:0:0:
389,56,36257,1,0,0:0:0:0:
270,64,36434,1,0,0:0:0:0:
263,62,36522,1,0,0:0:0:0:
254,62,36610,2,0,P|218:63|144:80,1,105
198,253,36963,6,0,P|264:280|307:278,1,105
248,128,37316,1,0,0:0:0:0:
296,279,37493,1,0,0:0:0:0:
411,203,37669,2,0,P|402:124|376:86,1,105
248,128,38022,1,0,0:0:0:0:
390,102,38199,1,0,0:0:0:0:
248,128,38375,6,0,P|303:184|328:198,1,105
147,268,38728,1,0,0:0:0:0:
325,196,38905,1,0,0:0:0:0:
413,84,39081,2,0,B|409:30|409:30|341:47,1,105
328,200,39434,1,0,0:0:0:0:
216,48,39610,1,0,0:0:0:0:
224,128,39787,6,0,P|180:180|131:200,1,105
100,44,40140,1,0,0:0:0:0:
147,195,40316,1,0,0:0:0:0:
251,282,40493,2,0,P|305:297|354:294,1,105
152,200,40846,5,0,0:0:0:0:
302,173,41022,1,0,0:0:0:0:
154,306,41199,2,0,P|233:260|246:228,1,105
136,104,41552,2,0,P|80:124|48:212,1,146.999995513916
232,132,42081,1,0,0:0:0:0:
232,132,42169,1,0,0:0:0:0:
232,132,42257,2,0,P|288:164|336:176,1,105
343,97,42610,6,0,P|296:66|248:47,1,105
107,105,42963,2,0,B|93:142|93:142|155:188,1,105
73,280,43316,1,0,0:0:0:0:
145,180,43493,1,0,0:0:0:0:
257,151,43669,2,0,P|327:165|363:187,1,105
248,250,44022,5,0,0:0:0:0:
355,181,44199,1,0,0:0:0:0:
380,307,44375,2,0,B|318:308|318:308|267:283,1,105
190,213,44728,1,0,0:0:0:0:
131,121,44905,1,0,0:0:0:0:
243,68,45081,2,0,P|303:65|353:74,1,105
352,243,45434,6,0,P|285:248|221:239,1,105
250,158,45787,2,0,P|308:153|362:157,1,105
359,333,46140,2,0,P|281:337|234:332,1,105
197,267,46493,5,0,0:0:0:0:
261,52,46669,1,0,0:0:0:0:
326,268,46846,1,0,0:0:0:0:
150,133,47022,1,0,0:0:0:0:
372,136,47199,1,0,0:0:0:0:
197,267,47375,1,0,0:0:0:0:
261,52,47552,1,0,0:0:0:0:
408,108,47728,5,0,0:0:0:0:
408,108,47816,1,0,0:0:0:0:
408,108,47905,2,0,P|432:156|432:224,1,105
261,52,48257,2,0,P|264:108|292:152,1,105
368,256,48610,2,0,B|388:312|388:312|352:348,1,105
258,329,48963,1,0,0:0:0:0:
155,308,49140,1,0,0:0:0:0:
66,251,49316,1,0,0:0:0:0:
4,167,49493,1,0,0:0:0:0:
162,219,49669,6,0,P|204:239|262:243,1,105
361,202,50022,2,0,B|402:158|402:158|369:124,1,105
144,84,50375,2,0,P|201:98|254:136,1,105
371,127,50728,2,0,P|394:193|369:253,1,105
461,255,51081,2,0,P|436:318|384:348,1,105
259,287,51434,5,0,0:0:0:0:
259,287,51610,1,0,0:0:0:0:
139,112,51787,1,0,0:0:0:0:
139,112,51963,1,0,0:0:0:0:
143,280,52140,1,0,0:0:0:0:
143,280,52316,1,0,0:0:0:0:
260,167,52493,1,0,0:0:0:0:
171,260,52669,5,0,0:0:0:0:
269,77,52846,1,0,0:0:0:0:
282,300,53022,1,0,0:0:0:0:
223,73,53199,1,0,0:0:0:0:
208,268,53375,1,0,0:0:0:0:
216,272,53463,1,0,0:0:0:0:
216,272,53552,2,0,P|272:276|316:308,1,105
241,62,53905,6,0,P|187:46|132:50,1,105
49,149,54257,1,0,0:0:0:0:
121,248,54434,2,0,P|219:287|272:288,1,146.999995513916
344,80,54963,1,0,0:0:0:0:
173,121,55140,1,0,0:0:0:0:
259,288,55316,6,0,P|324:280|402:247,1,146.999995513916
348,72,55846,2,0,P|247:67|196:82,1,146.999995513916
398,248,56375,2,0,B|437:203|437:203|398:174,1,105
216,258,56728,1,0,0:0:0:0:
388,182,56905,1,0,0:0:0:0:
273,108,57081,2,0,B|215:90|215:90|211:142,1,105
282,279,57434,1,0,0:0:0:0:
211,134,57610,1,0,0:0:0:0:
128,68,57787,2,0,P|64:44|24:48,1,105
28,180,58140,5,0,0:0:0:0:
128,68,58316,1,0,0:0:0:0:
318,148,58493,2,0,P|360:176|376:236,1,105
176,300,58846,1,0,0:0:0:0:
161,173,59022,1,0,0:0:0:0:
188,156,59110,1,0,0:0:0:0:
219,145,59199,2,0,P|298:138|327:154,1,105
252,288,59552,1,0,0:0:0:0:
256,192,59905,12,0,62022,0:0:0:0:
106,172,62375,6,0,P|148:114|201:84,1,105
27,82,62728,1,0,0:0:0:0:
174,95,62905,1,0,0:0:0:0:
309,168,63081,2,0,P|348:208|369:259,1,105
202,269,63434,1,0,0:0:0:0:
367,252,63610,1,0,0:0:0:0:
452,152,63787,6,0,B|472:88|472:88|432:60|432:60|396:64,1,146.999995513916
255,101,64316,1,0,0:0:0:0:
367,252,64493,2,0,B|368:320|304:336|304:336|256:316,1,146.999995513916
152,276,65022,1,0,0:0:0:0:
88,176,65199,6,0,B|64:112|88:68|88:68|128:76,1,146.999995513916
272,104,65728,1,0,0:0:0:0:
152,276,65905,2,0,B|204:312|260:320|260:320|292:296,1,146.999995513916
364,240,66434,1,0,0:0:0:0:
400,112,66610,2,0,B|424:40|424:40|460:56|464:112,1,146.999995513916
484,236,67140,1,0,0:0:0:0:
157,111,67493,1,0,0:0:0:0:
149,111,67581,1,0,0:0:0:0:
141,111,67669,2,0,P|85:123|53:159,1,105
253,254,68022,6,0,P|319:226|346:194,1,105
280,166,68375,1,0,0:0:0:0:
420,88,68552,1,0,0:0:0:0:
216,88,68728,2,0,P|272:144|284:180,1,105
124,164,69081,1,0,0:0:0:0:
280,166,69257,1,0,0:0:0:0:
404,244,69434,6,0,B|432:296|432:296|384:336,1,105
184,304,69787,1,0,0:0:0:0:
284,172,69963,1,0,0:0:0:0:
300,276,70140,1,0,0:0:0:0:
156,180,70316,1,0,0:0:0:0:
288,64,70493,2,0,B|344:56|344:56|388:92,1,105
300,276,70846,6,0,B|244:280|244:280|208:240,1,105
408,156,71199,1,0,0:0:0:0:
304,272,71375,1,0,0:0:0:0:
140,200,71552,2,0,P|112:144|136:100,1,105
292,120,71905,1,0,0:0:0:0:
127,108,72081,1,0,0:0:0:0:
40,244,72257,2,0,B|48:296|160:324,1,146.999995513916
348,268,72787,5,0,0:0:0:0:
200,164,73140,1,0,0:0:0:0:
184,156,73228,1,0,0:0:0:0:
168,152,73316,2,0,P|108:152|60:176,1,105
288,268,73669,6,0,P|356:280|404:272,1,105
260,164,74022,1,0,0:0:0:0:
440,156,74199,1,0,0:0:0:0:
288,64,74375,2,0,P|232:48|168:64,2,105
392,240,74905,5,0,0:0:0:0:
240,184,75081,2,0,B|176:156|120:164|120:164|124:204,1,146.999995513916
140,300,75610,1,0,0:0:0:0:
296,284,75787,2,0,B|344:268|412:264|412:264|420:220,1,146.999995513916
444,80,76316,5,0,0:0:0:0:
264,60,76493,2,0,B|184:52|152:76|152:76|136:108,1,146.999995513916
64,248,77022,1,0,0:0:0:0:
204,176,77199,2,0,B|252:144|288:176|288:176|344:120,1,146.999995513916
152,112,77728,1,0,0:0:0:0:
327,136,77905,2,0,P|392:156|448:216,1,146.999995513916
242,279,78434,5,0,0:0:0:0:
306,151,78787,1,0,0:0:0:0:
311,141,78875,1,0,0:0:0:0:
319,133,78963,2,0,P|355:101|415:81,1,105
408,256,79316,6,0,P|356:292|308:304,1,105
100,228,79669,1,0,0:0:0:0:
168,316,79846,1,0,0:0:0:0:
96,120,80022,2,0,B|92:64|92:64|160:80,1,105
324,104,80375,1,0,0:0:0:0:
212,156,80552,5,0,0:0:0:0:
360,236,80728,2,0,P|424:248|472:240,1,105
416,96,81081,1,0,0:0:0:0:
240,212,81257,1,0,0:0:0:0:
288,48,81434,2,0,B|224:72|224:72|200:104,1,105
144,264,81787,1,0,0:0:0:0:
72,80,81963,5,0,0:0:0:0:
202,101,82140,2,0,P|254:109|314:129,1,105
124,200,82493,1,0,0:0:0:0:
216,260,82669,1,0,0:0:0:0:
316,296,82846,2,0,B|400:304|440:280|440:280|416:244,1,146.999995513916
344,140,83375,1,0,0:0:0:0:
200,72,83552,2,0,P|140:60|52:72,1,146.999995513916
56,276,84081,5,0,0:0:0:0:
260,208,84434,1,0,0:0:0:0:
292,192,84522,1,0,0:0:0:0:
328,176,84610,2,0,L|440:124,1,105
146,216,107552,6,0,B|171:159|224:137|224:137|224:101,1,146.999995513916
141,89,108081,5,0,0:0:0:0:
305,127,108257,2,0,P|352:151|418:224,1,146.999995513916
364,275,108787,1,0,0:0:0:0:
471,169,108963,2,0,B|438:75|438:75|384:56,1,146.999995513916
301,85,109493,1,0,0:0:0:0:
230,135,109669,2,0,P|190:175|149:262,1,146.999995513916
128,329,110199,5,0,0:0:0:0:
276,292,110375,2,0,L|380:264,1,105
248,180,110728,1,0,0:0:0:0:
384,128,110905,1,0,0:0:0:0:
216,88,111081,2,0,P|136:96|76:116,1,105
56,240,111434,5,0,0:0:0:0:
112,102,111610,1,0,0:0:0:0:
264,32,111787,2,0,P|328:24|376:36,1,105
368,128,112140,1,0,0:0:0:0:
300,184,112316,2,0,L|256:196,8,26.25
256,196,112757,1,0,0:0:0:0:
236,200,112846,2,0,P|184:204|116:208,1,105
112,104,113199,6,0,P|172:92|220:92,1,105
320,152,113552,1,0,0:0:0:0:
400,232,113728,1,0,0:0:0:0:
284,260,113905,1,0,0:0:0:0:
320,152,114081,1,0,0:0:0:0:
400,232,114257,5,0,0:0:0:0:
300,336,114434,2,0,P|208:328|164:320,1,105
88,204,114787,1,0,0:0:0:0:
68,92,114963,2,0,B|120:64|120:64|184:80,1,105
224,144,115316,2,0,P|292:164|368:156,1,146.999995513916
160,220,115846,1,0,0:0:0:0:
304,260,116022,6,0,B|372:288|408:316|408:316|392:280,1,146.999995513916
325,164,116552,1,0,0:0:0:0:
180,128,116728,2,0,P|112:128|40:172,1,146.999995513916
180,240,117257,5,0,0:0:0:0:
99,74,117434,2,0,B|180:54|218:76|218:76|237:109,1,146.999995513916
296,256,117963,1,0,0:0:0:0:
112,204,118140,1,0,0:0:0:0:
256,136,118316,1,0,0:0:0:0:
284,120,118405,1,0,0:0:0:0:
320,112,118493,2,0,P|380:104|432:112,1,105
328,268,118846,6,0,P|260:272|208:260,1,105
92,160,119199,1,0,0:0:0:0:
28,288,119375,1,0,0:0:0:0:
92,160,119552,2,0,P|152:116|200:92,1,105
256,268,119905,5,0,0:0:0:0:
178,101,120081,1,0,0:0:0:0:
308,48,120257,2,0,B|380:32|380:32|428:48,1,105
276,184,120610,1,0,0:0:0:0:
412,136,120787,1,0,0:0:0:0:
328,264,120963,2,0,P|276:284|186:254,1,146.999995513916
92,322,121493,1,0,0:0:0:0:
184,172,121669,6,0,P|236:112|264:88,1,105
158,72,122022,1,0,0:0:0:0:
327,100,122199,1,0,0:0:0:0:
455,136,122375,2,0,B|495:176|495:176|495:244,1,105
352,192,122728,5,0,0:0:0:0:
400,316,122905,1,0,0:0:0:0:
280,236,123081,2,0,P|216:216|160:220,1,105
100,280,123434,1,0,0:0:0:0:
264,132,123610,1,0,0:0:0:0:
72,144,123787,1,0,0:0:0:0:
240,256,123963,1,0,0:0:0:0:
268,272,124052,1,0,0:0:0:0:
304,280,124140,2,0,P|360:284|408:280,1,105
372,116,124493,6,0,P|300:104|260:104,1,105
392,32,124846,1,0,0:0:0:0:
268,103,125022,1,0,0:0:0:0:
176,184,125199,2,0,P|112:220|56:240,1,105
100,136,125552,5,0,0:0:0:0:
236,240,125728,1,0,0:0:0:0:
300,304,125905,2,0,B|332:324|328:352|328:352|400:328,1,105
296,188,126257,1,0,0:0:0:0:
448,248,126434,1,0,0:0:0:0:
352,112,126610,2,0,P|308:64|208:48,1,146.999995513916
228,168,127140,5,0,0:0:0:0:
40,186,127316,2,0,B|64:259|116:281|116:281|152:244,1,146.999995513916
228,168,127846,1,0,0:0:0:0:
335,267,128022,2,0,B|412:280|412:280|368:212,1,146.999995513916
228,168,128552,5,0,0:0:0:0:
320,84,128728,2,0,P|372:48|456:32,1,146.999995513916
336,184,129257,1,0,0:0:0:0:
384,336,129434,1,0,0:0:0:0:
252,264,129610,1,0,0:0:0:0:
242,259,129699,1,0,0:0:0:0:
232,256,129787,2,0,P|184:236|124:228,1,105
196,165,135787,6,0,L|300:132,1,105
240,239,136140,1,0,0:0:0:0:
296,55,136316,1,0,0:0:0:0:
394,110,136493,2,0,P|409:168|406:219,1,105
306,275,136846,1,0,0:0:0:0:
413,315,137022,1,0,0:0:0:0:
251,325,137199,6,0,P|183:325|131:309,1,105
64,231,137552,1,0,0:0:0:0:
38,337,137728,1,0,0:0:0:0:
150,243,137905,2,0,P|199:211|253:196,1,105
333,283,138257,1,0,0:0:0:0:
243,197,138434,1,0,0:0:0:0:
150,123,138610,6,0,B|87:86|87:86|49:84,1,105
104,231,138963,1,0,0:0:0:0:
236,134,139140,1,0,0:0:0:0:
320,259,139316,2,0,P|256:293|208:293,1,105
80,216,139669,5,0,0:0:0:0:
244,128,139846,1,0,0:0:0:0:
236,308,140022,1,0,0:0:0:0:
96,172,140199,1,0,0:0:0:0:
260,84,140376,5,0,0:0:0:0:
384,212,140552,1,0,0:0:0:0:
236,308,140728,1,0,0:0:0:0:
140,320,140905,1,0,0:0:0:0:
128,320,140993,1,0,0:0:0:0:
116,320,141081,2,0,P|56:320|0:312,1,105
138,205,141434,6,0,L|257:205,1,105
321,149,141787,1,0,0:0:0:0:
258,285,141963,1,0,0:0:0:0:
393,228,142140,1,0,0:0:0:0:
447,97,142316,2,0,B|418:64|418:64|351:63,1,105
152,102,142669,5,0,0:0:0:0:
152,102,142846,2,0,P|80:81|57:55,1,105
193,182,143199,1,0,0:0:0:0:
34,191,143375,1,0,0:0:0:0:
188,272,143552,1,0,0:0:0:0:
354,312,143728,2,0,P|420:317|472:300,1,105
382,135,144081,5,0,0:0:0:0:
382,135,144257,2,0,B|357:67|357:67|304:57,1,105
168,70,144610,1,0,0:0:0:0:
290,152,144787,1,0,0:0:0:0:
129,171,144963,1,0,0:0:0:0:
233,260,145140,2,0,P|308:302|350:313,1,105
356,206,145493,1,0,0:0:0:0:
356,206,145669,1,0,0:0:0:0:
172,228,145846,5,0,0:0:0:0:
288,84,146022,1,0,0:0:0:0:
216,312,146199,1,0,0:0:0:0:
176,96,146375,1,0,0:0:0:0:
328,216,146552,1,0,0:0:0:0:
333,219,146640,1,0,0:0:0:0:
337,223,146728,2,0,P|394:272|419:305,1,105
217,276,147081,6,0,P|170:224|143:159,1,105
35,242,147434,1,0,0:0:0:0:
154,193,147610,1,0,0:0:0:0:
281,159,147787,2,0,P|360:151|412:159,1,105
253,248,148140,1,0,0:0:0:0:
405,268,148316,1,0,0:0:0:0:
229,318,148493,6,0,B|148:311|148:311|121:275,1,105
133,167,148846,1,0,0:0:0:0:
2,269,149022,1,0,0:0:0:0:
209,237,149199,2,0,L|331:219,1,105
321,129,149552,2,0,P|251:107|206:133,1,105
256,192,149905,12,0,151316,0:0:0:0:
88,188,152728,6,0,B|116:180|116:180|116:196|116:196|140:180|140:180|140:196|140:196|164:180|164:180|164:196|164:196|188:180|188:180|188:196|188:196|216:184,1,210
304,152,153257,1,0,0:0:0:0:
220,284,153434,1,0,0:0:0:0:
176,112,153610,1,0,0:0:0:0:
332,240,153787,1,0,0:0:0:0:
344,56,153963,1,0,0:0:0:0:
176,112,154140,6,0,P|124:152|112:192,1,105
112,200,154405,2,0,P|112:248|64:300,1,105
204,224,154669,5,0,0:0:0:0:
212,220,154757,1,0,0:0:0:0:
220,215,154846,2,0,P|274:178|326:161,1,105
276,312,155199,1,0,0:0:0:0:
288,76,155375,1,0,0:0:0:0:
288,76,155552,6,0,B|312:59|312:59|317:74|317:74|334:52|334:52|339:67|339:67|357:44|357:44|362:60|362:60|380:37|380:37|385:52|385:52|408:32,1,210
248,204,156081,1,0,0:0:0:0:
388,256,156257,2,0,P|320:292|268:308,1,105
400,140,156610,1,0,0:0:0:0:
264,100,156787,1,0,0:0:0:0:
128,160,156963,6,0,P|64:144|64:200,3,105
48,180,157581,1,0,0:0:0:0:
44,192,157669,2,0,L|144:244,1,105
148,240,157934,1,0,0:0:0:0:
160,240,158022,2,0,L|280:256,1,105
416,240,158375,6,0,B|389:227|389:227|400:215|400:215|371:211|371:211|382:199|382:199|353:196|353:196|363:184|363:184|335:180|335:180|345:168|345:168|316:159,1,210
208,128,158905,1,0,0:0:0:0:
256,252,159081,2,0,P|296:296|352:320,2,105
172,144,159610,5,0,0:0:0:0:
165,138,159699,1,0,0:0:0:0:
158,132,159787,2,0,P|115:93|64:60,2,105
276,96,160316,1,0,0:0:0:0:
300,88,160405,1,0,0:0:0:0:
324,84,160493,2,0,B|329:67|329:67|333:95|333:95|337:66|337:66|340:94|340:94|345:65|345:65|349:93|349:93|353:64|353:64|357:92|357:92|361:63|361:63|365:90|365:90|368:62|368:62|373:90|373:90|377:61|377:61|381:88|381:88|386:72,1,367.5
448,140,161199,6,0,P|464:200|424:200,3,105
432,228,161905,2,0,P|448:288|408:288,3,105
412,296,162522,1,0,0:0:0:0:
400,296,162610,1,0,0:0:0:0:
236,268,162787,5,0,0:0:0:0:
344,156,162963,1,0,0:0:0:0:
288,324,163140,1,0,0:0:0:0:
192,168,163316,1,0,0:0:0:0:
400,200,163493,1,0,0:0:0:0:
318,340,163669,1,0,0:0:0:0:
149,290,163846,5,0,0:0:0:0:
149,290,164022,2,0,B|125:271|125:271|139:262|139:262|111:251|111:251|125:242|125:242|97:232|97:232|109:223|109:223|83:213|83:213|96:203|96:203|69:188,1,210
213,70,164552,1,0,0:0:0:0:
266,236,164729,1,0,0:0:0:0:
168,148,164905,1,0,0:0:0:0:
361,207,165082,1,0,0:0:0:0:
318,43,165258,1,0,0:0:0:0:
238,206,165435,6,0,P|181:226|141:206,1,105
136,203,165699,2,0,P|88:169|36:150,1,105
47,143,165964,5,0,0:0:0:0:
55,139,166052,1,0,0:0:0:0:
63,134,166141,2,0,P|117:97|169:80,1,105
226,230,166494,1,0,0:0:0:0:
288,76,166670,1,0,0:0:0:0:
374,184,166847,6,0,B|397:201|397:201|384:210|384:210|411:220|411:220|398:229|398:229|425:239|425:239|412:249|412:249|439:259|439:259|426:268|426:268|452:284,1,210
232,219,167376,1,0,0:0:0:0:
327,108,167552,2,0,P|383:71|432:60,1,105
261,57,167905,1,0,0:0:0:0:
342,181,168082,1,0,0:0:0:0:
208,179,168258,6,0,P|149:149|136:203,3,105
129,176,168876,1,0,0:0:0:0:
126,183,168964,2,0,L|96:303,1,105
107,286,169229,1,0,0:0:0:0:
116,285,169317,2,0,L|238:281,1,105
309,180,169670,6,0,B|318:151|318:151|331:160|331:160|331:131|331:131|344:140|344:140|343:111|343:111|357:119|357:119|357:91|357:91|370:99|370:99|375:69,1,210
202,120,170200,1,0,0:0:0:0:
95,215,170376,2,0,P|66:267|80:353,2,105
253,210,170905,5,0,0:0:0:0:
262,215,170994,1,0,0:0:0:0:
270,219,171082,2,0,P|305:246|330:300,2,105
103,140,171611,1,0,0:0:0:0:
93,134,171700,1,0,0:0:0:0:
83,129,171788,2,0,B|68:139|68:139|82:114|82:114|61:135|61:135|75:111|75:111|54:132|54:132|68:107|68:107|47:128|47:128|61:103|61:103|40:124|40:124|53:100|53:100|34:120|34:120|46:95|46:95|26:116|26:116|39:92|39:92|25:102,1,367.5
37,92,172493,2,0,B|77:49|77:49|146:61,1,105
284,89,172846,5,0,0:0:0:0:
226,217,173023,1,0,0:0:0:0:
379,115,173199,1,0,0:0:0:0:
179,155,173376,1,0,0:0:0:0:
274,303,173552,2,0,B|320:345|320:345|388:323,1,105
404,235,173905,2,0,B|375:181|375:181|319:175,1,105
201,173,174257,6,0,L|87:188,1,105
106,175,174522,1,0,0:0:0:0:
113,164,174610,2,0,L|200:86,1,105
202,94,174875,1,0,0:0:0:0:
212,93,174963,2,0,L|331:91,1,105
182,206,186610,5,0,0:0:0:0:
182,206,186963,1,0,0:0:0:0:
310,103,187316,1,0,0:0:0:0:
310,103,187669,1,0,0:0:0:0:
301,298,188022,5,0,0:0:0:0:
301,298,188375,1,0,0:0:0:0:
199,109,188728,1,0,0:0:0:0:
199,109,189081,1,0,0:0:0:0:
393,189,189434,5,0,0:0:0:0:
393,189,189787,1,0,0:0:0:0:
175,279,190140,1,0,0:0:0:0:
175,279,190493,1,0,0:0:0:0:
72,124,190846,5,0,0:0:0:0:
72,124,191199,1,0,0:0:0:0:
312,48,191552,1,0,0:0:0:0:
312,48,191905,1,0,0:0:0:0:
206,248,192257,5,0,0:0:0:0:
294,163,192434,1,0,0:0:0:0:
285,294,192610,1,0,0:0:0:0:
221,129,192787,1,0,0:0:0:0:
368,264,192963,5,0,0:0:0:0:
132,272,193140,1,0,0:0:0:0:
120,88,193316,1,0,0:0:0:0:
320,80,193493,1,0,0:0:0:0:
332,260,193669,5,0,0:0:0:0:
144,176,193846,1,0,0:0:0:0:
248,80,194022,1,0,0:0:0:0:
328,192,194199,1,0,0:0:0:0:
176,256,194375,5,0,0:0:0:0:
244,60,194552,1,0,0:0:0:0:
320,256,194728,1,0,0:0:0:0:
136,136,194905,1,0,0:0:0:0:
356,136,195081,6,0,P|404:136|416:144,1,52.5
396,308,195434,2,0,P|360:316|336:308,1,52.5
144,144,195787,2,0,P|176:136|212:148,1,52.5
200,312,196140,2,0,P|160:316|124:312,1,52.5
52,164,196493,6,0,P|52:128|72:100,1,52.5
152,232,196846,2,0,P|136:192|136:172,1,52.5
264,272,197199,2,0,P|240:240|236:216,1,52.5
380,292,197552,2,0,P|352:268|344:248,1,52.5
324,156,197905,5,0,0:0:0:0:
320,129,197993,1,0,0:0:0:0:
317,103,198081,1,0,0:0:0:0:
314,77,198169,1,0,0:0:0:0:
311,52,198257,1,0,0:0:0:0:
300,75,198346,1,0,0:0:0:0:
285,97,198434,1,0,0:0:0:0:
269,118,198522,1,0,0:0:0:0:
251,137,198610,5,0,0:0:0:0:
231,154,198699,1,0,0:0:0:0:
211,171,198787,1,0,0:0:0:0:
189,186,198875,1,0,0:0:0:0:
167,199,198963,1,0,0:0:0:0:
144,212,199052,1,0,0:0:0:0:
120,224,199140,1,0,0:0:0:0:
97,235,199228,1,0,0:0:0:0:
76,244,199316,6,0,P|60:252|36:256,16,26.25
256,192,200905,12,0,202140,0:0:0:0:
256,192,203199,5,0,0:0:0:0:
256,192,203552,6,0,P|211:138|175:119,1,105
88,252,203905,1,0,0:0:0:0:
181,121,204081,1,0,0:0:0:0:
309,69,204257,2,0,B|367:45|367:45|411:82,1,105
303,202,204610,1,0,0:0:0:0:
436,188,204787,1,0,0:0:0:0:
251,301,204963,6,0,B|190:337|190:337|146:337,1,105
66,166,205316,1,0,0:0:0:0:
15,293,205493,1,0,0:0:0:0:
172,177,205669,2,0,P|239:137|285:125,1,105
276,253,206022,1,0,0:0:0:0:
264,129,206199,1,0,0:0:0:0:
149,64,206375,6,0,P|81:59|53:90,1,105
155,231,206728,1,0,0:0:0:0:
53,184,206905,1,0,0:0:0:0:
165,313,207081,2,0,B|199:349|199:349|277:349,1,105
270,224,207434,1,0,0:0:0:0:
359,301,207610,1,0,0:0:0:0:
295,81,207787,5,0,0:0:0:0:
376,185,207963,1,0,0:0:0:0:
178,88,208140,2,0,B|108:56|108:56|91:99,1,105
70,207,208493,1,0,0:0:0:0:
234,260,208669,1,0,0:0:0:0:
250,266,208757,1,0,0:0:0:0:
264,272,208846,2,0,P|316:303|353:335,1,105
331,164,209199,6,0,P|273:128|223:106,1,105
79,141,209552,1,0,0:0:0:0:
164,267,209728,1,0,0:0:0:0:
239,112,209905,2,0,P|300:71|342:81,1,105
266,217,210257,1,0,0:0:0:0:
388,147,210434,1,0,0:0:0:0:
295,276,210610,6,0,B|250:305|184:324|184:324|164:296,1,146.999995513916
106,212,211140,1,0,0:0:0:0:
236,124,211316,2,0,B|340:56|340:56|344:92,1,146.999995513916
356,175,211846,5,0,0:0:0:0:
298,260,212022,2,0,P|243:306|154:323,1,146.999995513916
170,175,212552,1,0,0:0:0:0:
172,324,212728,2,0,P|100:312|40:264,1,146.999995513916
170,175,213257,5,0,0:0:0:0:
301,125,213434,2,0,P|363:103|448:100,1,146.999995513916
336,243,213963,5,0,0:0:0:0:
162,194,214316,1,0,0:0:0:0:
150,192,214405,1,0,0:0:0:0:
139,190,214493,2,0,P|70:176|31:177,1,105
191,291,214846,6,0,P|258:304|313:305,1,105
242,162,215199,1,0,0:0:0:0:
383,242,215375,1,0,0:0:0:0:
324,112,215552,2,0,P|284:56|247:28,1,105
136,92,215905,1,0,0:0:0:0:
71,219,216081,5,0,0:0:0:0:
208,198,216257,2,0,P|276:172|305:151,1,105
227,99,216610,1,0,0:0:0:0:
360,217,216787,1,0,0:0:0:0:
407,286,216963,2,0,B|375:324|375:324|302:292,1,105
172,237,217316,1,0,0:0:0:0:
201,336,217493,5,0,0:0:0:0:
61,202,217669,2,0,P|27:147|38:91,1,105
171,150,218022,1,0,0:0:0:0:
94,67,218199,1,0,0:0:0:0:
264,102,218375,6,0,B|337:113|393:100|393:100|384:120,1,146.999995513916
296,260,218905,1,0,0:0:0:0:
136,276,219081,2,0,P|68:292|1:339,1,146.999995513916
80,154,219610,1,0,0:0:0:0:
259,134,219963,1,0,0:0:0:0:
276,133,220052,1,0,0:0:0:0:
291,133,220140,2,0,P|350:131|433:138,1,105
271,253,220493,6,0,P|192:263|133:254,1,105
109,343,220846,1,0,0:0:0:0:
229,182,221022,1,0,0:0:0:0:
293,110,221199,2,0,P|348:64|383:50,1,105
306,212,221552,1,0,0:0:0:0:
413,160,221728,5,0,0:0:0:0:
314,258,221905,2,0,P|264:298|203:326,1,105
119,293,222257,1,0,0:0:0:0:
41,226,222434,1,0,0:0:0:0:
12,125,222610,2,0,B|12:51|12:51|56:84,1,105
154,165,222963,1,0,0:0:0:0:
119,64,223140,5,0,0:0:0:0:
206,168,223316,2,0,P|252:208|328:248,1,146.999995513916
464,212,223846,1,0,0:0:0:0:
371,96,224022,2,0,P|331:63|232:36,1,146.999995513916
154,97,224552,5,0,0:0:0:0:
60,184,224728,2,0,P|21:238|4:320,1,146.999995513916
168,304,225257,1,0,0:0:0:0:
327,185,225610,1,0,0:0:0:0:
343,162,225699,1,0,0:0:0:0:
358,140,225787,2,0,P|376:107|402:37,1,105
231,73,226140,6,0,B|174:96|174:96|161:156,1,105
213,300,226493,2,0,B|269:272|269:272|280:218,1,105
167,138,226846,1,0,0:0:0:0:
277,230,227022,1,0,0:0:0:0:
296,96,227199,1,0,0:0:0:0:
154,264,227375,1,0,0:0:0:0:
167,138,227552,6,0,P|181:61|198:28,1,105
279,201,227905,2,0,P|275:263|258:333,1,105
164,227,228257,1,0,0:0:0:0:
46,86,228434,1,0,0:0:0:0:
136,90,228610,1,0,0:0:0:0:
2,221,228787,1,0,0:0:0:0:
139,313,228963,5,0,0:0:0:0:
167,320,229052,1,0,0:0:0:0:
196,324,229140,2,0,P|237:326|263:322,2,52.5
150,211,229493,1,0,0:0:0:0:
142,182,229581,1,0,0:0:0:0:
137,151,229669,2,0,P|131:113|131:89,2,52.5
253,239,230022,2,0,P|308:269|361:268,1,105
378,142,230375,5,0,0:0:0:0:
385,112,230463,1,0,0:0:0:0:
398,87,230552,2,0,P|419:60|445:43,2,52.5
266,125,230905,1,0,0:0:0:0:
243,145,230993,1,0,0:0:0:0:
224,170,231081,2,0,P|203:203|197:225,2,52.5
169,88,231434,2,0,B|119:50|119:50|58:50,1,105
96,179,231787,6,0,L|100:291,1,105
236,284,232140,2,0,L|230:167,1,105
166,93,232493,1,0,0:0:0:0:
310,230,232669,1,0,0:0:0:0:
260,79,232846,1,0,0:0:0:0:
327,141,233022,1,0,0:0:0:0:
400,280,233199,6,0,B|374:321|374:321|308:321,1,105
138,320,233552,2,0,B|68:320|68:320|50:272,1,105
56,104,233905,1,0,0:0:0:0:
152,256,234081,1,0,0:0:0:0:
156,96,234257,1,0,0:0:0:0:
204,172,234434,1,0,0:0:0:0:
336,104,234610,5,0,0:0:0:0:
342,101,234699,1,0,0:0:0:0:
349,97,234787,2,0,P|384:83|410:76,2,52.5
279,233,235140,1,0,0:0:0:0:
277,239,235229,1,0,0:0:0:0:
275,247,235317,2,0,P|261:282|248:305,2,52.5
239,118,235669,2,0,P|203:78|152:49,1,105
89,158,236022,5,0,0:0:0:0:
77,187,236110,1,0,0:0:0:0:
73,217,236199,2,0,P|71:262|78:290,2,52.5
210,222,236552,1,0,0:0:0:0:
240,219,236640,1,0,0:0:0:0:
270,211,236729,2,0,P|311:193|334:175,2,52.5
147,288,237081,2,0,P|92:310|41:311,1,105
70,141,237434,6,0,B|133:108|133:108|184:108,1,105
273,243,237787,2,0,B|318:243|318:243|380:206,1,105
269,113,238140,1,0,0:0:0:0:
161,248,238316,1,0,0:0:0:0:
310,314,238493,1,0,0:0:0:0:
302,145,238669,1,0,0:0:0:0:
141,113,238846,6,0,P|71:99|29:69,1,105
91,196,239199,2,0,P|121:257|127:308,1,105
232,170,239552,1,0,0:0:0:0:
381,111,239728,1,0,0:0:0:0:
234,74,239905,1,0,0:0:0:0:
341,244,240081,1,0,0:0:0:0:
172,295,240257,5,0,0:0:0:0:
164,298,240346,1,0,0:0:0:0:
155,299,240434,2,0,P|108:311|91:313,2,52.5
72,177,240787,1,0,0:0:0:0:
68,169,240876,1,0,0:0:0:0:
65,163,240964,2,0,P|54:115|56:98,2,52.5
210,233,241316,2,0,P|281:240|336:238,1,105
356,175,241669,5,0,0:0:0:0:
367,148,241757,1,0,0:0:0:0:
378,121,241846,2,0,P|391:80|391:54,2,52.5
256,116,242199,1,0,0:0:0:0:
227,114,242287,1,0,0:0:0:0:
199,108,242376,2,0,P|159:94|137:78,2,52.5
302,204,242728,2,0,P|359:268|372:299,1,105
192,272,243081,6,0,L|71:248,1,105
49,102,243434,2,0,L|156:123,1,105
338,147,243787,1,0,0:0:0:0:
230,58,243963,1,0,0:0:0:0:
403,72,244140,1,0,0:0:0:0:
263,217,244316,1,0,0:0:0:0:
92,252,244493,6,0,P|22:266|-25:288,1,105
181,318,244846,2,0,P|255:303|296:282,1,105
293,145,245199,1,0,0:0:0:0:
466,186,245375,1,0,0:0:0:0:
341,55,245552,1,0,0:0:0:0:
376,226,245728,1,0,0:0:0:0:
245,300,245905,5,0,0:0:0:0:
236,304,245993,1,0,0:0:0:0:
226,307,246081,2,0,P|181:319|164:320,2,52.5
155,202,246434,1,0,0:0:0:0:
145,199,246522,1,0,0:0:0:0:
135,195,246610,2,0,P|92:175|79:165,2,52.5
234,110,246963,2,0,P|296:87|342:95,1,105
337,214,247316,5,0,0:0:0:0:
341,245,247405,1,0,0:0:0:0:
352,273,247493,2,0,P|369:307|390:321,2,52.5
225,224,247846,1,0,0:0:0:0:
204,201,247934,1,0,0:0:0:0:
177,182,248022,2,0,P|131:157|109:152,2,52.5
222,321,248375,2,0,P|148:328|102:303,1,105
61,208,248728,6,0,B|41:109|130:85|130:85|162:55|162:55|175:182|175:182|240:40|240:40|254:120|361:12|416:117|416:117|301:145|301:145|373:186|373:186|279:185|259:250|380:328|380:328|431:246|431:246|466:238,1,1260
