osu file format v14

[General]
AudioFilename: audio.mp3
AudioLeadIn: 0
PreviewTime: 112106
Countdown: 0
SampleSet: Soft
StackLeniency: 0.7
Mode: 3
LetterboxInBreaks: 0
SpecialStyle: 0
WidescreenStoryboard: 0

[Editor]
DistanceSpacing: 1.4
BeatDivisor: 4
GridSize: 4
TimelineZoom: 2

[Metadata]
Title:Kikoku Doukoku Jigokuraku
TitleUnicode:Kikoku Doukoku Jigokuraku
Artist:Halozy
ArtistUnicode:Halozy
Creator:Weegle
Version:Ultimate Synthesis
Source:Touhou Project
Tags:
BeatmapID:1049817
BeatmapSetID:492833

[Difficulty]
HPDrainRate:8.5
CircleSize:4
OverallDifficulty:8
ApproachRate:5
SliderMultiplier:1.4
SliderTickRate:1

[Events]
//Background and Video events
0,0,"Kikoku Doukoku Jigokuraku.jpg",0,0
//Break Periods
//Storyboard Layer 0 (Background)
//Storyboard Layer 1 (Fail)
//Storyboard Layer 2 (Pass)
//Storyboard Layer 3 (Foreground)
//Storyboard Sound Samples

[TimingPoints]
1590,387.096774193548,4,2,1,25,1,0
13977,-100,4,2,2,25,0,0
20170,-100,4,2,1,65,0,0
20267,-100,4,2,1,45,0,0
24815,-100,4,2,1,75,0,0
26364,-100,4,2,2,75,0,0
26557,-100,4,2,1,75,0,0
37977,-100,4,2,1,50,0,0
38751,-100,4,2,1,75,0,0
100880,-100,4,2,2,45,0,0
106880,-100,4,2,1,75,0,0
111525,-100,4,2,1,75,0,0
113073,-100,4,2,1,85,0,1
150235,-100,4,2,2,85,0,0
150428,-100,4,2,1,85,0,0
212364,-100,4,2,2,55,0,0
218364,-100,4,2,1,75,0,0
224557,-100,4,2,1,85,0,1
261719,-100,4,2,2,85,0,0
261912,-100,4,2,1,85,0,0
286686,-100,4,2,2,55,0,0
292686,-100,4,2,1,75,0,0
298880,-100,4,2,1,85,0,1
336041,-100,4,2,2,85,0,0
336235,-100,4,2,1,85,0,0
348428,-100,4,2,2,75,0,0

[HitObjects]
320,192,12428,128,0,13977:0:0:0:0:
448,192,13977,1,4,0:0:0:0:
64,192,13977,1,0,0:0:0:0:
192,192,14170,1,0,0:0:0:0:
320,192,14267,1,0,0:0:0:0:
64,192,14364,1,0,0:0:0:0:
192,192,14460,1,0,0:0:0:0:
448,192,14557,1,0,0:0:0:0:
320,192,14654,1,0,0:0:0:0:
192,192,14751,1,0,0:0:0:0:
320,192,14848,1,0,0:0:0:0:
192,192,14944,1,0,0:0:0:0:
64,192,15041,1,0,0:0:0:0:
448,192,15138,1,0,0:0:0:0:
192,192,15235,1,0,0:0:0:0:
320,192,15331,1,0,0:0:0:0:
64,192,15428,1,0,0:0:0:0:
448,192,15525,1,0,0:0:0:0:
320,192,15622,1,0,0:0:0:0:
192,192,15719,1,0,0:0:0:0:
320,192,15815,1,0,0:0:0:0:
448,192,15912,1,0,0:0:0:0:
320,192,16009,1,0,0:0:0:0:
64,192,16106,1,0,0:0:0:0:
192,192,16202,1,0,0:0:0:0:
320,192,16299,1,0,0:0:0:0:
448,192,16396,1,0,0:0:0:0:
192,192,16493,1,0,0:0:0:0:
320,192,16589,1,0,0:0:0:0:
64,192,16686,1,0,0:0:0:0:
448,192,16783,1,0,0:0:0:0:
192,192,16880,1,0,0:0:0:0:
320,192,16977,1,0,0:0:0:0:
448,192,17073,1,0,0:0:0:0:
64,192,17170,1,0,0:0:0:0:
320,192,17267,1,0,0:0:0:0:
192,192,17364,1,0,0:0:0:0:
64,192,17460,1,0,0:0:0:0:
448,192,17557,1,0,0:0:0:0:
192,192,17654,1,0,0:0:0:0:
320,192,17751,1,0,0:0:0:0:
64,192,17848,1,0,0:0:0:0:
192,192,17944,1,0,0:0:0:0:
448,192,18041,1,0,0:0:0:0:
320,192,18138,1,0,0:0:0:0:
192,192,18235,1,0,0:0:0:0:
448,192,18331,1,0,0:0:0:0:
64,192,18428,1,0,0:0:0:0:
320,192,18525,1,0,0:0:0:0:
192,192,18622,1,0,0:0:0:0:
448,192,18719,1,0,0:0:0:0:
320,192,18815,1,0,0:0:0:0:
64,192,18912,1,0,0:0:0:0:
192,192,19009,1,0,0:0:0:0:
320,192,19106,1,0,0:0:0:0:
192,192,19202,1,0,0:0:0:0:
448,192,19299,1,0,0:0:0:0:
320,192,19396,1,0,0:0:0:0:
64,192,19493,1,0,0:0:0:0:
192,192,19589,1,0,0:0:0:0:
320,192,19686,1,0,0:0:0:0:
448,192,19783,1,0,0:0:0:0:
320,192,19880,1,0,0:0:0:0:
64,192,19977,1,0,0:0:0:0:
192,192,20073,1,0,0:0:0:0:
64,192,20170,1,4,0:0:0:0:
320,192,20170,1,2,0:0:0:0:
448,192,20170,1,0,0:0:0:0:
192,192,20267,1,0,0:0:0:0:
320,192,20364,1,0,0:0:0:0:
448,192,20460,1,0,0:0:0:0:
64,192,20557,1,0,0:0:0:0:
192,192,20654,1,0,0:0:0:0:
448,192,20751,1,0,0:0:0:0:
320,192,20848,1,0,0:0:0:0:
192,192,20944,1,0,0:0:0:0:
320,192,21041,1,0,0:0:0:0:
64,192,21138,1,0,0:0:0:0:
192,192,21235,1,0,0:0:0:0:
448,192,21331,1,0,0:0:0:0:
320,192,21428,1,0,0:0:0:0:
192,192,21525,1,0,0:0:0:0:
320,192,21622,1,0,0:0:0:0:
448,192,21719,1,0,0:0:0:0:
320,192,21815,1,0,0:0:0:0:
192,192,21912,1,0,0:0:0:0:
64,192,22009,1,0,0:0:0:0:
320,192,22106,1,0,0:0:0:0:
192,192,22202,1,0,0:0:0:0:
448,192,22299,1,0,0:0:0:0:
320,192,22396,1,0,0:0:0:0:
64,192,22493,1,0,0:0:0:0:
192,192,22589,1,0,0:0:0:0:
320,192,22686,1,0,0:0:0:0:
448,192,22783,1,0,0:0:0:0:
192,192,22880,1,0,0:0:0:0:
64,192,22977,1,0,0:0:0:0:
320,192,23073,1,0,0:0:0:0:
192,192,23170,1,0,0:0:0:0:
448,192,23267,1,0,0:0:0:0:
320,192,23364,1,0,0:0:0:0:
192,192,23460,1,0,0:0:0:0:
64,192,23557,1,0,0:0:0:0:
320,192,23654,1,0,0:0:0:0:
192,192,23751,1,0,0:0:0:0:
64,192,23848,1,0,0:0:0:0:
192,192,23944,1,0,0:0:0:0:
448,192,24041,1,0,0:0:0:0:
320,192,24138,1,0,0:0:0:0:
64,192,24235,1,0,0:0:0:0:
192,192,24331,1,0,0:0:0:0:
448,192,24428,1,0,0:0:0:0:
320,192,24525,1,0,0:0:0:0:
64,192,24622,1,0,0:0:0:0:
192,192,24719,1,0,0:0:0:0:
320,192,24815,1,4,0:0:0:0:
64,192,24815,1,2,0:0:0:0:
448,192,24815,1,0,0:0:0:0:
448,192,25009,1,0,0:0:0:0:
320,192,25106,1,0,0:0:0:0:
64,192,25202,1,0,0:0:0:0:
192,192,25299,1,0,0:0:0:0:
320,192,25396,1,0,0:0:0:0:
192,192,25493,1,0,0:0:0:0:
448,192,25589,1,0,0:0:0:0:
320,192,25686,1,0,0:0:0:0:
64,192,25783,1,0,0:0:0:0:
192,192,25880,1,0,0:0:0:0:
320,192,25977,128,0,26364:0:0:0:0:
448,192,26364,1,4,0:0:0:0:
64,192,26364,1,2,0:0:0:0:
192,192,26460,1,0,0:0:0:0:
320,192,26557,1,0,0:0:0:0:
192,192,26654,1,0,0:0:0:0:
448,192,26751,1,2,0:0:0:0:
64,192,26751,1,0,0:0:0:0:
320,192,26848,1,0,0:0:0:0:
64,192,26944,1,0,0:0:0:0:
192,192,27041,1,0,0:0:0:0:
320,192,27138,1,2,0:0:0:0:
448,192,27138,1,0,0:0:0:0:
64,192,27235,1,0,0:0:0:0:
320,192,27331,1,0,0:0:0:0:
192,192,27428,1,0,0:0:0:0:
448,192,27525,1,0,0:0:0:0:
320,192,27525,1,2,0:0:0:0:
64,192,27622,1,0,0:0:0:0:
192,192,27719,1,0,0:0:0:0:
320,192,27815,1,0,0:0:0:0:
448,192,27912,1,0,0:0:0:0:
192,192,27912,1,2,0:0:0:0:
64,192,28009,1,0,0:0:0:0:
192,192,28106,1,0,0:0:0:0:
448,192,28202,1,0,0:0:0:0:
320,192,28299,1,2,0:0:0:0:
64,192,28299,1,0,0:0:0:0:
192,192,28396,1,0,0:0:0:0:
448,192,28493,1,0,0:0:0:0:
320,192,28589,1,0,0:0:0:0:
192,192,28686,1,2,0:0:0:0:
64,192,28686,1,0,0:0:0:0:
448,192,28783,1,0,0:0:0:0:
192,192,28880,1,0,0:0:0:0:
320,192,28977,1,0,0:0:0:0:
192,192,29073,1,2,0:0:0:0:
64,192,29073,1,0,0:0:0:0:
448,192,29170,1,0,0:0:0:0:
64,192,29267,1,0,0:0:0:0:
192,192,29364,1,0,0:0:0:0:
320,192,29460,1,2,0:0:0:0:
64,192,29460,1,0,0:0:0:0:
192,192,29557,1,0,0:0:0:0:
320,192,29654,1,0,0:0:0:0:
448,192,29751,1,0,0:0:0:0:
192,192,29848,1,2,0:0:0:0:
64,192,29848,1,0,0:0:0:0:
320,192,29944,1,0,0:0:0:0:
64,192,30041,1,0,0:0:0:0:
192,192,30138,1,0,0:0:0:0:
320,192,30235,1,2,0:0:0:0:
448,192,30235,1,0,0:0:0:0:
64,192,30331,1,0,0:0:0:0:
192,192,30428,1,0,0:0:0:0:
320,192,30525,1,0,0:0:0:0:
448,192,30622,1,2,0:0:0:0:
64,192,30622,1,0,0:0:0:0:
192,192,30719,1,0,0:0:0:0:
448,192,30815,1,0,0:0:0:0:
320,192,30912,1,0,0:0:0:0:
192,192,31009,1,2,0:0:0:0:
64,192,31009,1,0,0:0:0:0:
448,192,31106,1,0,0:0:0:0:
192,192,31202,1,0,0:0:0:0:
320,192,31299,1,0,0:0:0:0:
192,192,31396,1,2,0:0:0:0:
64,192,31396,1,0,0:0:0:0:
448,192,31493,1,0,0:0:0:0:
64,192,31589,1,0,0:0:0:0:
192,192,31686,1,0,0:0:0:0:
320,192,31783,1,2,0:0:0:0:
448,192,31783,1,0,0:0:0:0:
64,192,31880,1,0,0:0:0:0:
320,192,31977,1,0,0:0:0:0:
192,192,32073,1,0,0:0:0:0:
320,192,32170,1,2,0:0:0:0:
64,192,32170,1,0,0:0:0:0:
448,192,32267,1,0,0:0:0:0:
320,192,32364,1,0,0:0:0:0:
192,192,32460,1,0,0:0:0:0:
320,192,32557,1,2,0:0:0:0:
64,192,32557,1,0,0:0:0:0:
448,192,32654,1,0,0:0:0:0:
64,192,32751,1,0,0:0:0:0:
192,192,32848,1,0,0:0:0:0:
320,192,32944,1,2,0:0:0:0:
448,192,32944,1,0,0:0:0:0:
64,192,33041,1,0,0:0:0:0:
320,192,33138,1,0,0:0:0:0:
192,192,33235,1,0,0:0:0:0:
64,192,33331,1,0,0:0:0:0:
448,192,33331,1,2,0:0:0:0:
320,192,33428,1,0,0:0:0:0:
64,192,33525,1,0,0:0:0:0:
192,192,33622,1,0,0:0:0:0:
320,192,33719,1,2,0:0:0:0:
448,192,33719,1,0,0:0:0:0:
64,192,33815,1,0,0:0:0:0:
192,192,33912,1,0,0:0:0:0:
448,192,34009,1,0,0:0:0:0:
320,192,34106,1,2,0:0:0:0:
64,192,34106,1,0,0:0:0:0:
192,192,34202,1,0,0:0:0:0:
320,192,34299,1,0,0:0:0:0:
448,192,34396,1,0,0:0:0:0:
192,192,34493,1,2,0:0:0:0:
64,192,34493,1,0,0:0:0:0:
320,192,34589,1,0,0:0:0:0:
192,192,34686,1,0,0:0:0:0:
64,192,34783,1,0,0:0:0:0:
448,192,34880,1,0,0:0:0:0:
320,192,34880,1,2,0:0:0:0:
192,192,34977,1,0,0:0:0:0:
448,192,35073,1,0,0:0:0:0:
320,192,35170,1,0,0:0:0:0:
192,192,35267,1,2,0:0:0:0:
64,192,35267,1,0,0:0:0:0:
448,192,35364,1,0,0:0:0:0:
320,192,35460,1,0,0:0:0:0:
192,192,35557,1,0,0:0:0:0:
64,192,35654,1,0,0:0:0:0:
448,192,35654,1,2,0:0:0:0:
320,192,35751,1,0,0:0:0:0:
64,192,35848,1,0,0:0:0:0:
192,192,35944,1,0,0:0:0:0:
320,192,36041,1,2,0:0:0:0:
64,192,36041,1,0,0:0:0:0:
192,192,36138,1,0,0:0:0:0:
320,192,36235,1,0,0:0:0:0:
448,192,36331,1,0,0:0:0:0:
192,192,36428,1,2,0:0:0:0:
64,192,36428,1,0,0:0:0:0:
320,192,36525,1,0,0:0:0:0:
192,192,36622,1,0,0:0:0:0:
320,192,36719,1,0,0:0:0:0:
448,192,36815,1,2,0:0:0:0:
64,192,36815,1,0,0:0:0:0:
192,192,36912,1,0,0:0:0:0:
320,192,37009,1,0,0:0:0:0:
64,192,37106,1,0,0:0:0:0:
448,192,37202,1,2,0:0:0:0:
320,192,37202,1,4,0:0:0:0:
192,192,37202,1,0,0:0:0:0:
64,192,37299,1,0,0:0:0:0:
192,192,37396,1,0,0:0:0:0:
320,192,37493,1,0,0:0:0:0:
448,192,37589,1,2,0:0:0:0:
64,192,37589,1,0,0:0:0:0:
192,192,37686,1,0,0:0:0:0:
320,192,37783,1,2,0:0:0:0:
448,192,37783,1,0,0:0:0:0:
192,192,37880,1,2,0:0:0:0:
64,192,37880,1,0,0:0:0:0:
448,192,38073,1,2,0:0:0:0:
320,192,38106,1,2,0:0:0:0:
64,192,38138,1,2,0:0:0:0:
192,192,38170,1,2,0:0:0:0:
320,192,38267,1,2,0:0:0:0:
448,192,38267,1,0,0:0:0:0:
192,192,38364,1,2,0:0:0:0:
64,192,38364,1,0,0:0:0:0:
448,192,38460,1,0,0:0:0:0:
320,192,38460,1,2,0:0:0:0:
192,192,38557,1,2,0:0:0:0:
64,192,38557,1,0,0:0:0:0:
320,192,38654,1,2,0:0:0:0:
448,192,38654,1,0,0:0:0:0:
192,192,38751,1,2,0:0:0:0:
64,192,38751,1,0,0:0:0:0:
448,192,38751,1,4,0:0:0:0:
320,192,38944,1,0,0:0:0:0:
448,192,39138,1,2,0:0:0:0:
64,192,39138,1,0,0:0:0:0:
192,192,39331,1,0,0:0:0:0:
320,192,39525,1,0,0:0:0:0:
448,192,39525,1,2,0:0:0:0:
64,192,39719,1,0,0:0:0:0:
448,192,39912,1,2,0:0:0:0:
192,192,39912,1,0,0:0:0:0:
320,192,40106,1,0,0:0:0:0:
64,192,40299,1,0,0:0:0:0:
448,192,40299,1,2,0:0:0:0:
320,192,40493,1,0,0:0:0:0:
192,192,40686,1,2,0:0:0:0:
64,192,40686,1,0,0:0:0:0:
448,192,40880,1,0,0:0:0:0:
320,192,41073,1,2,0:0:0:0:
64,192,41073,1,0,0:0:0:0:
192,192,41267,1,0,0:0:0:0:
64,192,41460,1,0,0:0:0:0:
448,192,41460,1,2,0:0:0:0:
192,192,41654,1,0,0:0:0:0:
320,192,41848,1,2,0:0:0:0:
448,192,41848,1,0,0:0:0:0:
192,192,42041,1,0,0:0:0:0:
448,192,42235,1,2,0:0:0:0:
64,192,42235,1,0,0:0:0:0:
192,192,42428,1,0,0:0:0:0:
64,192,42622,1,0,0:0:0:0:
320,192,42622,1,2,0:0:0:0:
448,192,42815,1,0,0:0:0:0:
320,192,43009,1,2,0:0:0:0:
192,192,43009,1,0,0:0:0:0:
64,192,43202,1,0,0:0:0:0:
192,192,43396,1,2,0:0:0:0:
448,192,43396,1,0,0:0:0:0:
320,192,43589,1,0,0:0:0:0:
448,192,43783,1,2,0:0:0:0:
64,192,43783,1,0,0:0:0:0:
192,192,43977,1,0,0:0:0:0:
64,192,44170,1,0,0:0:0:0:
320,192,44170,1,2,0:0:0:0:
192,192,44364,1,0,0:0:0:0:
448,192,44557,1,2,0:0:0:0:
320,192,44557,1,0,0:0:0:0:
64,192,44751,1,0,0:0:0:0:
448,192,44944,1,2,0:0:0:0:
192,192,44944,1,0,0:0:0:0:
320,192,45138,1,0,0:0:0:0:
448,192,45235,1,0,0:0:0:0:
192,192,45331,1,2,0:0:0:0:
64,192,45331,1,0,0:0:0:0:
320,192,45525,1,0,0:0:0:0:
192,192,45622,1,0,0:0:0:0:
320,192,45719,1,2,0:0:0:0:
64,192,45719,1,0,0:0:0:0:
192,192,45912,1,0,0:0:0:0:
320,192,46009,1,0,0:0:0:0:
64,192,46106,1,0,0:0:0:0:
448,192,46106,1,2,0:0:0:0:
192,192,46299,1,0,0:0:0:0:
320,192,46396,1,0,0:0:0:0:
192,192,46493,1,2,0:0:0:0:
64,192,46493,1,0,0:0:0:0:
320,192,46686,1,0,0:0:0:0:
192,192,46783,1,0,0:0:0:0:
320,192,46880,1,2,0:0:0:0:
448,192,46880,1,0,0:0:0:0:
64,192,47073,1,0,0:0:0:0:
320,192,47170,1,0,0:0:0:0:
192,192,47267,1,0,0:0:0:0:
448,192,47267,1,2,0:0:0:0:
320,192,47460,1,0,0:0:0:0:
192,192,47557,1,0,0:0:0:0:
64,192,47654,1,0,0:0:0:0:
320,192,47654,1,2,0:0:0:0:
192,192,47848,1,0,0:0:0:0:
320,192,47944,1,0,0:0:0:0:
64,192,48041,1,0,0:0:0:0:
448,192,48041,1,2,0:0:0:0:
192,192,48235,1,0,0:0:0:0:
64,192,48331,1,0,0:0:0:0:
320,192,48428,5,0,0:0:0:0:
448,192,48428,1,2,0:0:0:0:
192,192,48622,1,0,0:0:0:0:
320,192,48719,1,0,0:0:0:0:
448,192,48815,1,2,0:0:0:0:
192,192,48815,1,0,0:0:0:0:
320,192,49009,1,0,0:0:0:0:
192,192,49106,1,0,0:0:0:0:
64,192,49202,1,0,0:0:0:0:
448,192,49202,1,2,0:0:0:0:
320,192,49396,1,0,0:0:0:0:
192,192,49493,1,0,0:0:0:0:
320,192,49589,1,2,0:0:0:0:
64,192,49589,1,0,0:0:0:0:
448,192,49589,1,4,0:0:0:0:
192,192,49686,1,0,0:0:0:0:
64,192,49783,1,0,0:0:0:0:
320,192,49880,1,0,0:0:0:0:
64,192,50073,1,0,0:0:0:0:
192,192,50170,1,0,0:0:0:0:
320,192,50267,1,0,0:0:0:0:
64,192,50460,1,0,0:0:0:0:
448,192,50557,5,2,0:0:0:0:
320,192,50557,1,0,0:0:0:0:
192,192,50557,1,0,0:0:0:0:
64,192,50751,1,0,0:0:0:0:
192,192,50751,1,0,0:0:0:0:
448,192,50751,1,2,0:0:0:0:
448,192,50944,1,2,0:0:0:0:
320,192,50944,1,0,0:0:0:0:
64,192,50944,1,0,0:0:0:0:
320,192,51138,1,2,0:0:0:0:
192,192,51138,1,4,0:0:0:0:
64,192,51138,1,0,0:0:0:0:
448,192,51235,1,0,0:0:0:0:
64,192,51331,1,0,0:0:0:0:
192,192,51428,1,0,0:0:0:0:
320,192,51525,1,0,0:0:0:0:
448,192,51525,1,2,0:0:0:0:
64,192,51622,1,0,0:0:0:0:
192,192,51719,1,0,0:0:0:0:
448,192,51815,1,0,0:0:0:0:
320,192,51912,1,2,0:0:0:0:
64,192,51912,1,0,0:0:0:0:
192,192,52009,1,0,0:0:0:0:
448,192,52106,1,0,0:0:0:0:
320,192,52202,1,0,0:0:0:0:
192,192,52299,1,2,0:0:0:0:
64,192,52299,1,0,0:0:0:0:
448,192,52396,1,0,0:0:0:0:
320,192,52493,1,0,0:0:0:0:
192,192,52589,1,0,0:0:0:0:
64,192,52686,1,0,0:0:0:0:
448,192,52686,1,2,0:0:0:0:
320,192,52783,1,0,0:0:0:0:
192,192,52880,1,0,0:0:0:0:
320,192,52977,1,0,0:0:0:0:
192,192,53073,1,2,0:0:0:0:
64,192,53073,1,0,0:0:0:0:
448,192,53170,1,0,0:0:0:0:
320,192,53267,1,0,0:0:0:0:
64,192,53364,1,0,0:0:0:0:
192,192,53460,1,0,0:0:0:0:
448,192,53460,1,2,0:0:0:0:
320,192,53557,1,0,0:0:0:0:
64,192,53654,1,0,0:0:0:0:
192,192,53751,1,0,0:0:0:0:
448,192,53848,1,2,0:0:0:0:
320,192,53848,1,0,0:0:0:0:
64,192,53944,1,0,0:0:0:0:
320,192,54041,1,0,0:0:0:0:
192,192,54138,1,0,0:0:0:0:
320,192,54235,1,0,0:0:0:0:
448,192,54235,1,2,0:0:0:0:
64,192,54331,1,0,0:0:0:0:
192,192,54428,1,0,0:0:0:0:
448,192,54525,1,0,0:0:0:0:
320,192,54622,1,2,0:0:0:0:
64,192,54622,1,0,0:0:0:0:
192,192,54719,1,0,0:0:0:0:
448,192,54815,1,0,0:0:0:0:
320,192,54912,1,0,0:0:0:0:
64,192,55009,1,0,0:0:0:0:
192,192,55009,1,2,0:0:0:0:
320,192,55106,1,0,0:0:0:0:
192,192,55202,1,0,0:0:0:0:
320,192,55299,1,0,0:0:0:0:
448,192,55396,1,2,0:0:0:0:
64,192,55396,1,0,0:0:0:0:
192,192,55493,1,0,0:0:0:0:
448,192,55589,1,0,0:0:0:0:
320,192,55686,1,0,0:0:0:0:
192,192,55783,1,2,0:0:0:0:
64,192,55783,1,0,0:0:0:0:
448,192,55880,1,0,0:0:0:0:
192,192,55977,1,0,0:0:0:0:
320,192,56073,1,0,0:0:0:0:
448,192,56170,1,2,0:0:0:0:
64,192,56170,1,0,0:0:0:0:
192,192,56267,1,0,0:0:0:0:
320,192,56364,1,0,0:0:0:0:
448,192,56460,1,0,0:0:0:0:
192,192,56557,1,2,0:0:0:0:
64,192,56557,1,0,0:0:0:0:
320,192,56654,1,0,0:0:0:0:
448,192,56751,1,0,0:0:0:0:
320,192,56848,1,0,0:0:0:0:
192,192,56944,1,2,0:0:0:0:
64,192,56944,1,0,0:0:0:0:
448,192,57041,1,0,0:0:0:0:
320,192,57138,1,0,0:0:0:0:
64,192,57235,1,0,0:0:0:0:
192,192,57331,1,0,0:0:0:0:
448,192,57331,1,2,0:0:0:0:
320,192,57428,1,0,0:0:0:0:
64,192,57525,1,0,0:0:0:0:
192,192,57622,1,0,0:0:0:0:
320,192,57719,1,0,0:0:0:0:
448,192,57719,1,2,0:0:0:0:
64,192,57815,1,0,0:0:0:0:
448,192,57912,1,0,0:0:0:0:
320,192,58009,1,0,0:0:0:0:
192,192,58106,1,2,0:0:0:0:
64,192,58106,1,0,0:0:0:0:
448,192,58202,1,0,0:0:0:0:
320,192,58299,1,0,0:0:0:0:
192,192,58396,1,0,0:0:0:0:
320,192,58493,1,2,0:0:0:0:
64,192,58493,1,0,0:0:0:0:
448,192,58589,1,0,0:0:0:0:
320,192,58686,1,0,0:0:0:0:
192,192,58783,1,0,0:0:0:0:
448,192,58880,1,2,0:0:0:0:
64,192,58880,1,0,0:0:0:0:
320,192,58977,1,0,0:0:0:0:
64,192,59073,1,0,0:0:0:0:
192,192,59170,1,0,0:0:0:0:
320,192,59267,1,0,0:0:0:0:
448,192,59267,1,2,0:0:0:0:
64,192,59364,1,0,0:0:0:0:
320,192,59460,1,0,0:0:0:0:
192,192,59557,1,0,0:0:0:0:
320,192,59654,1,0,0:0:0:0:
448,192,59654,1,2,0:0:0:0:
64,192,59751,1,0,0:0:0:0:
448,192,59848,1,0,0:0:0:0:
320,192,59944,1,0,0:0:0:0:
192,192,60041,1,2,0:0:0:0:
64,192,60041,1,0,0:0:0:0:
320,192,60138,1,0,0:0:0:0:
192,192,60235,1,0,0:0:0:0:
64,192,60331,1,0,0:0:0:0:
448,192,60428,1,2,0:0:0:0:
192,192,60428,1,0,0:0:0:0:
320,192,60525,1,0,0:0:0:0:
64,192,60622,1,0,0:0:0:0:
192,192,60719,1,0,0:0:0:0:
448,192,60815,1,2,0:0:0:0:
320,192,60815,1,0,0:0:0:0:
64,192,60912,1,0,0:0:0:0:
320,192,61009,1,0,0:0:0:0:
192,192,61106,1,0,0:0:0:0:
320,192,61202,1,2,0:0:0:0:
64,192,61202,1,0,0:0:0:0:
448,192,61299,1,0,0:0:0:0:
320,192,61396,1,0,0:0:0:0:
192,192,61493,1,0,0:0:0:0:
64,192,61589,1,0,0:0:0:0:
448,192,61589,1,2,0:0:0:0:
320,192,61686,1,0,0:0:0:0:
192,192,61783,1,0,0:0:0:0:
320,192,61880,1,0,0:0:0:0:
64,192,61977,1,0,0:0:0:0:
192,192,61977,1,4,0:0:0:0:
448,192,61977,1,2,0:0:0:0:
320,192,62073,1,0,0:0:0:0:
192,192,62170,1,0,0:0:0:0:
448,192,62267,1,0,0:0:0:0:
320,192,62364,1,0,0:0:0:0:
192,192,62460,1,0,0:0:0:0:
64,192,62557,1,0,0:0:0:0:
320,192,62654,1,0,0:0:0:0:
448,192,62654,1,2,0:0:0:0:
192,192,62654,1,0,0:0:0:0:
64,192,62848,1,0,0:0:0:0:
192,192,62848,1,0,0:0:0:0:
448,192,62848,1,2,0:0:0:0:
320,192,62944,1,0,0:0:0:0:
192,192,63041,1,0,0:0:0:0:
448,192,63041,1,2,0:0:0:0:
320,192,63138,1,2,0:0:0:0:
64,192,63138,1,4,0:0:0:0:
448,192,63525,1,4,0:0:0:0:
64,192,63525,1,2,0:0:0:0:
192,192,63525,1,0,0:0:0:0:
320,192,63719,1,0,0:0:0:0:
64,192,63912,1,0,0:0:0:0:
448,192,63912,1,2,0:0:0:0:
192,192,64106,1,0,0:0:0:0:
64,192,64202,1,0,0:0:0:0:
320,192,64299,1,0,0:0:0:0:
448,192,64299,1,2,0:0:0:0:
64,192,64493,1,0,0:0:0:0:
192,192,64686,1,0,0:0:0:0:
448,192,64686,1,2,0:0:0:0:
320,192,64880,1,0,0:0:0:0:
192,192,64977,1,0,0:0:0:0:
64,192,65073,1,0,0:0:0:0:
320,192,65073,1,2,0:0:0:0:
192,192,65267,1,0,0:0:0:0:
64,192,65460,1,0,0:0:0:0:
448,192,65460,1,2,0:0:0:0:
320,192,65654,1,0,0:0:0:0:
192,192,65751,1,0,0:0:0:0:
64,192,65848,1,0,0:0:0:0:
320,192,65848,1,2,0:0:0:0:
192,192,66041,1,0,0:0:0:0:
320,192,66235,1,0,0:0:0:0:
448,192,66235,1,2,0:0:0:0:
64,192,66428,1,0,0:0:0:0:
192,192,66525,1,0,0:0:0:0:
448,192,66622,1,2,0:0:0:0:
320,192,66622,1,0,0:0:0:0:
192,192,66815,1,0,0:0:0:0:
320,192,67009,1,0,0:0:0:0:
448,192,67009,1,2,0:0:0:0:
192,192,67202,1,0,0:0:0:0:
320,192,67299,1,0,0:0:0:0:
448,192,67396,1,2,0:0:0:0:
64,192,67396,1,0,0:0:0:0:
192,192,67589,1,0,0:0:0:0:
448,192,67783,1,2,0:0:0:0:
64,192,67783,1,0,0:0:0:0:
320,192,67977,1,0,0:0:0:0:
192,192,68073,1,0,0:0:0:0:
320,192,68170,1,2,0:0:0:0:
64,192,68170,1,0,0:0:0:0:
192,192,68364,1,0,0:0:0:0:
320,192,68557,1,0,0:0:0:0:
448,192,68557,1,2,0:0:0:0:
192,192,68751,1,0,0:0:0:0:
320,192,68848,1,0,0:0:0:0:
64,192,68944,1,0,0:0:0:0:
448,192,68944,1,2,0:0:0:0:
320,192,69138,1,0,0:0:0:0:
192,192,69331,1,2,0:0:0:0:
64,192,69331,1,0,0:0:0:0:
448,192,69428,1,0,0:0:0:0:
320,192,69525,1,0,0:0:0:0:
192,192,69622,1,0,0:0:0:0:
448,192,69719,1,2,0:0:0:0:
64,192,69719,1,0,0:0:0:0:
320,192,69912,1,0,0:0:0:0:
192,192,70009,1,0,0:0:0:0:
64,192,70106,1,0,0:0:0:0:
320,192,70106,1,2,0:0:0:0:
192,192,70299,1,0,0:0:0:0:
64,192,70396,1,0,0:0:0:0:
320,192,70493,1,0,0:0:0:0:
448,192,70493,1,2,0:0:0:0:
192,192,70686,1,0,0:0:0:0:
320,192,70783,1,0,0:0:0:0:
448,192,70880,1,2,0:0:0:0:
64,192,70880,1,0,0:0:0:0:
320,192,71073,1,0,0:0:0:0:
448,192,71170,1,0,0:0:0:0:
64,192,71267,1,0,0:0:0:0:
192,192,71267,1,2,0:0:0:0:
320,192,71460,1,0,0:0:0:0:
192,192,71557,1,0,0:0:0:0:
64,192,71654,1,0,0:0:0:0:
448,192,71654,1,2,0:0:0:0:
320,192,71848,1,0,0:0:0:0:
448,192,71944,1,0,0:0:0:0:
64,192,72041,1,0,0:0:0:0:
192,192,72041,1,2,0:0:0:0:
320,192,72235,1,0,0:0:0:0:
192,192,72331,1,0,0:0:0:0:
64,192,72428,1,0,0:0:0:0:
320,192,72428,1,2,0:0:0:0:
192,192,72622,1,0,0:0:0:0:
64,192,72719,1,0,0:0:0:0:
320,192,72815,1,0,0:0:0:0:
448,192,72815,1,2,0:0:0:0:
192,192,73009,1,0,0:0:0:0:
320,192,73106,1,0,0:0:0:0:
448,192,73202,5,2,0:0:0:0:
192,192,73202,1,0,0:0:0:0:
320,192,73396,1,0,0:0:0:0:
192,192,73493,1,0,0:0:0:0:
320,192,73589,1,0,0:0:0:0:
448,192,73589,1,2,0:0:0:0:
192,192,73783,1,0,0:0:0:0:
320,192,73880,1,0,0:0:0:0:
192,192,73977,1,0,0:0:0:0:
448,192,73977,1,2,0:0:0:0:
320,192,74170,5,0,0:0:0:0:
192,192,74267,1,0,0:0:0:0:
320,192,74364,1,2,0:0:0:0:
64,192,74364,1,0,0:0:0:0:
448,192,74364,1,4,0:0:0:0:
192,192,74460,1,0,0:0:0:0:
448,192,74654,1,0,0:0:0:0:
64,192,74654,1,0,0:0:0:0:
320,192,74751,1,0,0:0:0:0:
192,192,74751,1,0,0:0:0:0:
64,192,74944,1,0,0:0:0:0:
448,192,74944,1,0,0:0:0:0:
192,192,75041,1,0,0:0:0:0:
320,192,75138,1,0,0:0:0:0:
448,192,75235,1,0,0:0:0:0:
192,192,75331,1,0,0:0:0:0:
64,192,75331,1,0,0:0:0:0:
320,192,75525,1,0,0:0:0:0:
448,192,75525,1,0,0:0:0:0:
192,192,75719,1,0,0:0:0:0:
320,192,75719,1,0,0:0:0:0:
64,192,75912,1,0,0:0:0:0:
192,192,75912,1,4,0:0:0:0:
448,192,75912,1,2,0:0:0:0:
320,192,76106,1,0,0:0:0:0:
64,192,76299,1,0,0:0:0:0:
192,192,76299,1,2,0:0:0:0:
448,192,76396,1,0,0:0:0:0:
192,192,76589,1,0,0:0:0:0:
64,192,76686,1,0,0:0:0:0:
320,192,76686,1,2,0:0:0:0:
192,192,76783,1,0,0:0:0:0:
320,192,76880,1,0,0:0:0:0:
64,192,77073,1,0,0:0:0:0:
448,192,77073,1,2,0:0:0:0:
320,192,77267,1,0,0:0:0:0:
192,192,77460,1,2,0:0:0:0:
64,192,77460,1,0,0:0:0:0:
448,192,77654,1,0,0:0:0:0:
320,192,77848,1,2,0:0:0:0:
64,192,77848,1,0,0:0:0:0:
192,192,77944,1,0,0:0:0:0:
320,192,78138,1,0,0:0:0:0:
448,192,78235,1,2,0:0:0:0:
64,192,78235,1,0,0:0:0:0:
192,192,78331,1,0,0:0:0:0:
320,192,78428,1,0,0:0:0:0:
192,192,78622,1,2,0:0:0:0:
64,192,78622,1,0,0:0:0:0:
448,192,78815,1,0,0:0:0:0:
320,192,79009,1,2,0:0:0:0:
192,192,79009,1,0,0:0:0:0:
64,192,79202,1,0,0:0:0:0:
320,192,79396,1,0,0:0:0:0:
448,192,79396,1,2,0:0:0:0:
192,192,79493,1,0,0:0:0:0:
320,192,79686,1,0,0:0:0:0:
192,192,79783,1,2,0:0:0:0:
64,192,79783,1,0,0:0:0:0:
448,192,79880,1,0,0:0:0:0:
320,192,79977,1,0,0:0:0:0:
192,192,80170,1,0,0:0:0:0:
448,192,80170,1,2,0:0:0:0:
320,192,80364,1,0,0:0:0:0:
448,192,80557,1,2,0:0:0:0:
64,192,80557,1,0,0:0:0:0:
192,192,80751,1,0,0:0:0:0:
320,192,80944,1,0,0:0:0:0:
448,192,80944,1,2,0:0:0:0:
64,192,81041,1,0,0:0:0:0:
192,192,81235,1,0,0:0:0:0:
320,192,81331,1,0,0:0:0:0:
448,192,81331,1,2,0:0:0:0:
64,192,81428,1,0,0:0:0:0:
192,192,81525,1,0,0:0:0:0:
448,192,81719,1,2,0:0:0:0:
64,192,81719,1,0,0:0:0:0:
320,192,81912,1,0,0:0:0:0:
192,192,82106,1,2,0:0:0:0:
64,192,82106,1,0,0:0:0:0:
448,192,82299,1,0,0:0:0:0:
320,192,82493,1,2,0:0:0:0:
192,192,82493,1,0,0:0:0:0:
64,192,82589,1,0,0:0:0:0:
192,192,82783,1,0,0:0:0:0:
320,192,82880,1,2,0:0:0:0:
64,192,82880,1,0,0:0:0:0:
192,192,82977,1,0,0:0:0:0:
320,192,83073,1,0,0:0:0:0:
448,192,83267,1,2,0:0:0:0:
64,192,83267,1,0,0:0:0:0:
192,192,83460,1,0,0:0:0:0:
320,192,83654,1,2,0:0:0:0:
64,192,83654,1,0,0:0:0:0:
192,192,83848,1,0,0:0:0:0:
448,192,84041,1,2,0:0:0:0:
64,192,84041,1,0,0:0:0:0:
320,192,84138,1,0,0:0:0:0:
192,192,84331,1,0,0:0:0:0:
64,192,84428,1,0,0:0:0:0:
448,192,84428,1,2,0:0:0:0:
320,192,84525,1,0,0:0:0:0:
192,192,84622,1,0,0:0:0:0:
320,192,84815,1,0,0:0:0:0:
448,192,84815,1,2,0:0:0:0:
192,192,85009,1,0,0:0:0:0:
320,192,85202,1,2,0:0:0:0:
64,192,85202,1,0,0:0:0:0:
448,192,85396,1,0,0:0:0:0:
192,192,85589,1,2,0:0:0:0:
64,192,85589,1,0,0:0:0:0:
320,192,85686,1,0,0:0:0:0:
192,192,85880,1,0,0:0:0:0:
320,192,85977,1,0,0:0:0:0:
448,192,85977,1,2,0:0:0:0:
192,192,86073,1,0,0:0:0:0:
64,192,86170,1,0,0:0:0:0:
320,192,86364,1,0,0:0:0:0:
448,192,86364,1,2,0:0:0:0:
64,192,86557,1,0,0:0:0:0:
192,192,86751,1,0,0:0:0:0:
448,192,86751,1,2,0:0:0:0:
320,192,86944,1,0,0:0:0:0:
192,192,87138,1,2,0:0:0:0:
64,192,87138,1,0,0:0:0:0:
320,192,87235,1,0,0:0:0:0:
192,192,87428,1,0,0:0:0:0:
320,192,87525,1,2,0:0:0:0:
64,192,87525,1,0,0:0:0:0:
192,192,87622,1,0,0:0:0:0:
320,192,87719,1,0,0:0:0:0:
448,192,87912,1,2,0:0:0:0:
64,192,87912,1,0,0:0:0:0:
320,192,88009,1,0,0:0:0:0:
192,192,88106,1,0,0:0:0:0:
320,192,88202,1,0,0:0:0:0:
448,192,88299,1,2,0:0:0:0:
192,192,88299,1,0,0:0:0:0:
64,192,88299,1,4,0:0:0:0:
320,192,88493,1,0,0:0:0:0:
64,192,88686,1,0,0:0:0:0:
448,192,88686,1,2,0:0:0:0:
320,192,88783,1,0,0:0:0:0:
192,192,88977,1,0,0:0:0:0:
320,192,89073,1,2,0:0:0:0:
64,192,89073,1,0,0:0:0:0:
192,192,89170,1,0,0:0:0:0:
320,192,89267,1,0,0:0:0:0:
448,192,89460,1,2,0:0:0:0:
64,192,89460,1,0,0:0:0:0:
192,192,89654,1,0,0:0:0:0:
320,192,89848,1,0,0:0:0:0:
448,192,89848,1,2,0:0:0:0:
192,192,90041,1,0,0:0:0:0:
64,192,90235,1,0,0:0:0:0:
448,192,90235,1,2,0:0:0:0:
320,192,90331,1,0,0:0:0:0:
192,192,90525,1,0,0:0:0:0:
320,192,90622,1,0,0:0:0:0:
448,192,90622,1,2,0:0:0:0:
64,192,90719,1,0,0:0:0:0:
192,192,90815,1,0,0:0:0:0:
448,192,91009,1,2,0:0:0:0:
320,192,91009,1,0,0:0:0:0:
64,192,91202,1,0,0:0:0:0:
192,192,91396,1,0,0:0:0:0:
320,192,91396,1,2,0:0:0:0:
448,192,91589,1,0,0:0:0:0:
192,192,91783,1,2,0:0:0:0:
64,192,91783,1,0,0:0:0:0:
320,192,91880,1,0,0:0:0:0:
192,192,92073,1,0,0:0:0:0:
320,192,92170,1,2,0:0:0:0:
64,192,92170,1,0,0:0:0:0:
192,192,92267,1,0,0:0:0:0:
448,192,92364,1,0,0:0:0:0:
320,192,92557,1,2,0:0:0:0:
192,192,92557,1,0,0:0:0:0:
64,192,92751,1,0,0:0:0:0:
192,192,92944,1,0,0:0:0:0:
448,192,92944,1,2,0:0:0:0:
320,192,93138,1,0,0:0:0:0:
192,192,93331,1,2,0:0:0:0:
64,192,93331,1,0,0:0:0:0:
320,192,93428,1,0,0:0:0:0:
448,192,93622,1,0,0:0:0:0:
320,192,93719,1,2,0:0:0:0:
64,192,93719,1,0,0:0:0:0:
192,192,93815,1,0,0:0:0:0:
320,192,93912,1,0,0:0:0:0:
192,192,94106,1,2,0:0:0:0:
64,192,94106,1,0,0:0:0:0:
448,192,94299,1,0,0:0:0:0:
320,192,94493,1,2,0:0:0:0:
192,192,94493,1,0,0:0:0:0:
64,192,94493,1,4,0:0:0:0:
192,192,94686,1,0,0:0:0:0:
448,192,94880,1,2,0:0:0:0:
64,192,94880,1,0,0:0:0:0:
320,192,94977,1,0,0:0:0:0:
192,192,95170,1,0,0:0:0:0:
320,192,95267,1,2,0:0:0:0:
64,192,95267,1,0,0:0:0:0:
192,192,95364,1,0,0:0:0:0:
320,192,95460,1,0,0:0:0:0:
448,192,95654,1,2,0:0:0:0:
64,192,95654,1,0,0:0:0:0:
192,192,95848,1,0,0:0:0:0:
320,192,96041,1,0,0:0:0:0:
448,192,96041,1,2,0:0:0:0:
64,192,96041,1,4,0:0:0:0:
192,192,96235,1,0,0:0:0:0:
320,192,96428,1,0,0:0:0:0:
448,192,96428,1,2,0:0:0:0:
192,192,96525,1,0,0:0:0:0:
320,192,96719,1,0,0:0:0:0:
192,192,96815,1,2,0:0:0:0:
64,192,96815,1,0,0:0:0:0:
448,192,96912,1,0,0:0:0:0:
320,192,97009,1,0,0:0:0:0:
448,192,97202,1,2,0:0:0:0:
64,192,97202,1,0,0:0:0:0:
192,192,97396,1,0,0:0:0:0:
448,192,97589,1,2,0:0:0:0:
64,192,97589,1,0,0:0:0:0:
320,192,97589,1,4,0:0:0:0:
192,192,97783,1,2,0:0:0:0:
64,192,97783,1,0,0:0:0:0:
320,192,97977,1,2,0:0:0:0:
448,192,97977,1,0,0:0:0:0:
192,192,98073,1,2,0:0:0:0:
64,192,98073,1,0,0:0:0:0:
320,192,98170,1,0,0:0:0:0:
448,192,98267,1,0,0:0:0:0:
192,192,98267,1,2,0:0:0:0:
320,192,98364,1,4,0:0:0:0:
64,192,98364,1,0,0:0:0:0:
192,192,98460,1,2,0:0:0:0:
448,192,98460,1,0,0:0:0:0:
320,192,98557,1,2,0:0:0:0:
64,192,98557,1,0,0:0:0:0:
192,192,98654,1,0,0:0:0:0:
320,192,98751,1,4,0:0:0:0:
448,192,98751,1,2,0:0:0:0:
192,192,98848,1,0,0:0:0:0:
64,192,98944,1,2,0:0:0:0:
192,192,98993,1,2,0:0:0:0:
448,192,99041,1,2,0:0:0:0:
320,192,99089,1,2,0:0:0:0:
192,192,99138,1,6,0:0:0:0:
64,192,99138,1,0,0:0:0:0:
448,192,99331,1,0,0:0:0:0:
320,192,99525,5,0,0:0:0:0:
192,192,99622,1,0,0:0:0:0:
320,192,99719,1,2,0:0:0:0:
64,192,99719,1,0,0:0:0:0:
192,192,99815,1,0,0:0:0:0:
448,192,99815,1,2,0:0:0:0:
320,192,100009,1,2,0:0:0:0:
448,192,100009,1,0,0:0:0:0:
192,192,100106,1,2,0:0:0:0:
64,192,100106,1,0,0:0:0:0:
320,192,100202,1,0,0:0:0:0:
64,192,100299,1,0,0:0:0:0:
448,192,100299,1,2,0:0:0:0:
192,192,100396,1,0,0:0:0:0:
320,192,100493,1,0,0:0:0:0:
448,192,100493,1,2,0:0:0:0:
320,192,100686,5,2,0:0:0:0:
192,192,100686,1,4,0:0:0:0:
64,192,100686,1,0,0:0:0:0:
192,192,100880,1,0,0:0:0:0:
64,192,100880,1,2,0:0:0:0:
320,192,101073,1,0,0:0:0:0:
448,192,101073,1,8,0:0:0:0:
64,192,101267,1,0,0:0:0:0:
192,192,101315,1,0,0:0:0:0:
320,192,101364,1,0,0:0:0:0:
448,192,101412,1,0,0:0:0:0:
192,192,101460,1,2,0:0:0:0:
64,192,101460,1,0,0:0:0:0:
320,192,101557,1,2,0:0:0:0:
448,192,101557,1,0,0:0:0:0:
64,192,101654,1,0,0:0:0:0:
192,192,101654,1,8,0:0:0:0:
320,192,101848,1,0,0:0:0:0:
192,192,101944,1,0,0:0:0:0:
320,192,102041,1,2,0:0:0:0:
64,192,102041,1,0,0:0:0:0:
192,192,102138,1,0,0:0:0:0:
448,192,102138,1,2,0:0:0:0:
320,192,102235,1,2,0:0:0:0:
64,192,102235,1,0,0:0:0:0:
192,192,102428,1,2,0:0:0:0:
64,192,102428,1,0,0:0:0:0:
320,192,102622,1,0,0:0:0:0:
448,192,102622,1,8,0:0:0:0:
192,192,102815,1,0,0:0:0:0:
64,192,102864,1,0,0:0:0:0:
448,192,102912,1,0,0:0:0:0:
320,192,102960,1,0,0:0:0:0:
192,192,103009,1,2,0:0:0:0:
64,192,103009,1,0,0:0:0:0:
320,192,103106,1,2,0:0:0:0:
448,192,103106,1,0,0:0:0:0:
192,192,103202,1,8,0:0:0:0:
64,192,103202,1,0,0:0:0:0:
64,192,103396,1,0,0:0:0:0:
320,192,103493,1,0,0:0:0:0:
192,192,103589,1,0,0:0:0:0:
448,192,103589,1,2,0:0:0:0:
320,192,103686,1,2,0:0:0:0:
64,192,103686,1,0,0:0:0:0:
192,192,103783,1,0,0:0:0:0:
448,192,103783,1,2,0:0:0:0:
320,192,103977,1,2,0:0:0:0:
64,192,103977,1,0,0:0:0:0:
192,192,104170,1,8,0:0:0:0:
64,192,104170,1,0,0:0:0:0:
448,192,104364,1,0,0:0:0:0:
320,192,104412,1,0,0:0:0:0:
192,192,104460,1,0,0:0:0:0:
64,192,104509,1,0,0:0:0:0:
320,192,104557,1,2,0:0:0:0:
448,192,104557,1,0,0:0:0:0:
192,192,104654,1,2,0:0:0:0:
64,192,104654,1,0,0:0:0:0:
320,192,104751,1,8,0:0:0:0:
448,192,104751,1,0,0:0:0:0:
192,192,104944,1,0,0:0:0:0:
320,192,105041,1,0,0:0:0:0:
448,192,105138,1,2,0:0:0:0:
64,192,105138,1,0,0:0:0:0:
320,192,105235,1,2,0:0:0:0:
192,192,105235,1,0,0:0:0:0:
448,192,105331,1,2,0:0:0:0:
64,192,105331,1,0,0:0:0:0:
320,192,105525,1,2,0:0:0:0:
192,192,105525,1,0,0:0:0:0:
192,192,105719,5,8,0:0:0:0:
64,192,105719,1,0,0:0:0:0:
448,192,105912,1,0,0:0:0:0:
320,192,105960,1,0,0:0:0:0:
64,192,106009,1,0,0:0:0:0:
192,192,106057,1,0,0:0:0:0:
320,192,106106,1,2,0:0:0:0:
448,192,106106,1,0,0:0:0:0:
192,192,106202,1,2,0:0:0:0:
64,192,106202,1,0,0:0:0:0:
320,192,106299,1,0,0:0:0:0:
448,192,106299,1,8,0:0:0:0:
192,192,106493,1,0,0:0:0:0:
64,192,106589,1,0,0:0:0:0:
448,192,106686,1,2,0:0:0:0:
320,192,106686,1,0,0:0:0:0:
192,192,106783,1,0,0:0:0:0:
448,192,106880,5,4,0:0:0:0:
64,192,106880,1,2,0:0:0:0:
320,192,106977,1,0,0:0:0:0:
192,192,106977,1,2,0:0:0:0:
448,192,107073,1,0,0:0:0:0:
64,192,107073,1,2,0:0:0:0:
320,192,107170,1,0,0:0:0:0:
192,192,107170,1,2,0:0:0:0:
448,192,107267,1,0,0:0:0:0:
64,192,107267,1,2,0:0:0:0:
320,192,107364,1,0,0:0:0:0:
192,192,107364,1,2,0:0:0:0:
64,192,107460,1,2,0:0:0:0:
448,192,107460,1,0,0:0:0:0:
320,192,107557,1,0,0:0:0:0:
192,192,107557,1,2,0:0:0:0:
64,192,107654,1,2,0:0:0:0:
448,192,107654,1,0,0:0:0:0:
320,192,107751,1,0,0:0:0:0:
192,192,107751,1,2,0:0:0:0:
64,192,107848,1,2,0:0:0:0:
448,192,107848,1,0,0:0:0:0:
320,192,107944,1,0,0:0:0:0:
192,192,107944,1,2,0:0:0:0:
64,192,108041,1,2,0:0:0:0:
448,192,108041,1,0,0:0:0:0:
320,192,108138,1,0,0:0:0:0:
192,192,108138,1,2,0:0:0:0:
448,192,108235,1,2,0:0:0:0:
320,192,108283,1,2,0:0:0:0:
192,192,108331,1,2,0:0:0:0:
64,192,108380,1,2,0:0:0:0:
320,192,108428,1,2,0:0:0:0:
448,192,108428,1,4,0:0:0:0:
192,192,108525,1,2,0:0:0:0:
64,192,108525,1,0,0:0:0:0:
320,192,108622,1,2,0:0:0:0:
448,192,108622,1,0,0:0:0:0:
192,192,108719,1,2,0:0:0:0:
64,192,108719,1,0,0:0:0:0:
320,192,108815,1,2,0:0:0:0:
448,192,108815,1,0,0:0:0:0:
192,192,108912,1,2,0:0:0:0:
64,192,108912,1,0,0:0:0:0:
320,192,109009,1,2,0:0:0:0:
448,192,109009,1,0,0:0:0:0:
192,192,109106,1,2,0:0:0:0:
64,192,109106,1,0,0:0:0:0:
320,192,109202,1,2,0:0:0:0:
448,192,109202,1,0,0:0:0:0:
192,192,109299,1,2,0:0:0:0:
64,192,109299,1,0,0:0:0:0:
320,192,109396,1,2,0:0:0:0:
448,192,109396,1,0,0:0:0:0:
192,192,109493,1,2,0:0:0:0:
64,192,109493,1,0,0:0:0:0:
320,192,109589,1,2,0:0:0:0:
448,192,109589,1,0,0:0:0:0:
192,192,109686,1,2,0:0:0:0:
64,192,109686,1,0,0:0:0:0:
448,192,109783,1,2,0:0:0:0:
320,192,109831,1,2,0:0:0:0:
192,192,109880,1,2,0:0:0:0:
64,192,109928,1,2,0:0:0:0:
448,192,109977,1,2,0:0:0:0:
320,192,109977,1,4,0:0:0:0:
192,192,110025,1,2,0:0:0:0:
64,192,110073,1,2,0:0:0:0:
448,192,110122,1,2,0:0:0:0:
320,192,110170,1,2,0:0:0:0:
64,192,110219,1,2,0:0:0:0:
192,192,110267,1,2,0:0:0:0:
320,192,110315,1,2,0:0:0:0:
448,192,110364,1,6,0:0:0:0:
320,192,110412,1,2,0:0:0:0:
64,192,110460,1,2,0:0:0:0:
192,192,110509,1,2,0:0:0:0:
448,192,110557,1,2,0:0:0:0:
320,192,110606,1,2,0:0:0:0:
64,192,110654,1,2,0:0:0:0:
192,192,110702,1,2,0:0:0:0:
320,192,110751,1,6,0:0:0:0:
448,192,110799,1,2,0:0:0:0:
192,192,110848,1,2,0:0:0:0:
64,192,110896,1,2,0:0:0:0:
448,192,110944,1,2,0:0:0:0:
320,192,110993,1,2,0:0:0:0:
64,192,111041,1,2,0:0:0:0:
192,192,111089,1,2,0:0:0:0:
320,192,111138,1,6,0:0:0:0:
448,192,111138,1,0,0:0:0:0:
64,192,111235,1,0,0:0:0:0:
192,192,111235,1,2,0:0:0:0:
448,192,111331,1,0,0:0:0:0:
320,192,111331,1,2,0:0:0:0:
64,192,111428,1,0,0:0:0:0:
192,192,111428,1,2,0:0:0:0:
448,192,111525,1,4,0:0:0:0:
320,192,111525,128,0,113073:0:0:0:0:
192,192,112106,128,0,112299:0:0:0:0:
448,192,112299,128,0,112493:0:0:0:0:
64,192,112493,128,0,112686:0:0:0:0:
448,192,112686,128,0,112880:0:0:0:0:
192,192,112880,128,0,113073:0:0:0:0:
448,192,113073,1,6,0:0:0:0:
64,192,113170,1,0,0:0:0:0:
448,192,113460,1,2,0:0:0:0:
320,192,113460,1,0,0:0:0:0:
192,192,113557,1,0,0:0:0:0:
320,192,113751,1,0,0:0:0:0:
192,192,113848,1,2,0:0:0:0:
64,192,113848,1,0,0:0:0:0:
448,192,113944,1,0,0:0:0:0:
320,192,114041,1,0,0:0:0:0:
192,192,114138,1,0,0:0:0:0:
448,192,114235,1,2,0:0:0:0:
64,192,114235,1,0,0:0:0:0:
320,192,114331,1,0,0:0:0:0:
448,192,114525,1,0,0:0:0:0:
192,192,114622,1,2,0:0:0:0:
64,192,114622,1,0,0:0:0:0:
320,192,114815,1,0,0:0:0:0:
448,192,115009,1,2,0:0:0:0:
64,192,115009,1,0,0:0:0:0:
192,192,115106,1,0,0:0:0:0:
320,192,115299,1,0,0:0:0:0:
448,192,115396,1,2,0:0:0:0:
192,192,115396,1,0,0:0:0:0:
320,192,115493,1,0,0:0:0:0:
192,192,115589,1,0,0:0:0:0:
448,192,115783,1,2,0:0:0:0:
320,192,115783,1,0,0:0:0:0:
64,192,115880,1,0,0:0:0:0:
192,192,115977,1,0,0:0:0:0:
320,192,116073,1,0,0:0:0:0:
448,192,116170,1,2,0:0:0:0:
192,192,116170,1,0,0:0:0:0:
320,192,116364,1,0,0:0:0:0:
192,192,116557,1,2,0:0:0:0:
64,192,116557,1,0,0:0:0:0:
448,192,116654,1,0,0:0:0:0:
320,192,116848,1,0,0:0:0:0:
448,192,116944,1,2,0:0:0:0:
192,192,116944,1,0,0:0:0:0:
320,192,117041,1,0,0:0:0:0:
192,192,117138,1,0,0:0:0:0:
64,192,117235,1,0,0:0:0:0:
320,192,117331,1,0,0:0:0:0:
448,192,117331,1,2,0:0:0:0:
192,192,117428,1,0,0:0:0:0:
320,192,117622,1,0,0:0:0:0:
448,192,117719,1,2,0:0:0:0:
64,192,117719,1,0,0:0:0:0:
192,192,117912,1,0,0:0:0:0:
320,192,118106,1,2,0:0:0:0:
64,192,118106,1,0,0:0:0:0:
192,192,118202,1,0,0:0:0:0:
320,192,118396,1,0,0:0:0:0:
448,192,118493,1,2,0:0:0:0:
192,192,118493,1,0,0:0:0:0:
320,192,118589,1,0,0:0:0:0:
192,192,118686,1,0,0:0:0:0:
448,192,118880,1,2,0:0:0:0:
320,192,118880,1,0,0:0:0:0:
64,192,118977,1,0,0:0:0:0:
448,192,119073,1,0,0:0:0:0:
320,192,119170,1,0,0:0:0:0:
192,192,119267,1,2,0:0:0:0:
64,192,119267,1,0,0:0:0:0:
448,192,119460,1,0,0:0:0:0:
192,192,119654,1,2,0:0:0:0:
64,192,119654,1,0,0:0:0:0:
320,192,119751,1,0,0:0:0:0:
448,192,119848,1,0,0:0:0:0:
192,192,119944,1,0,0:0:0:0:
320,192,120041,1,0,0:0:0:0:
448,192,120041,1,2,0:0:0:0:
64,192,120138,1,0,0:0:0:0:
192,192,120235,1,0,0:0:0:0:
320,192,120331,1,0,0:0:0:0:
448,192,120428,1,2,0:0:0:0:
64,192,120428,1,0,0:0:0:0:
192,192,120525,1,0,0:0:0:0:
320,192,120622,1,0,0:0:0:0:
192,192,120719,1,0,0:0:0:0:
320,192,120815,1,2,0:0:0:0:
64,192,120815,1,0,0:0:0:0:
192,192,121009,1,0,0:0:0:0:
320,192,121202,1,0,0:0:0:0:
448,192,121202,1,2,0:0:0:0:
64,192,121299,1,0,0:0:0:0:
192,192,121396,1,0,0:0:0:0:
320,192,121493,1,0,0:0:0:0:
448,192,121589,1,2,0:0:0:0:
64,192,121589,1,0,0:0:0:0:
192,192,121686,1,0,0:0:0:0:
320,192,121783,1,0,0:0:0:0:
192,192,121977,1,2,0:0:0:0:
64,192,121977,1,0,0:0:0:0:
448,192,122073,1,0,0:0:0:0:
320,192,122170,1,0,0:0:0:0:
192,192,122267,1,0,0:0:0:0:
448,192,122364,1,2,0:0:0:0:
64,192,122364,1,0,0:0:0:0:
320,192,122557,1,0,0:0:0:0:
192,192,122751,1,0,0:0:0:0:
448,192,122751,1,2,0:0:0:0:
320,192,122848,1,0,0:0:0:0:
192,192,123041,1,0,0:0:0:0:
320,192,123138,1,0,0:0:0:0:
448,192,123138,1,2,0:0:0:0:
64,192,123235,1,0,0:0:0:0:
192,192,123331,1,0,0:0:0:0:
448,192,123525,1,2,0:0:0:0:
320,192,123525,1,0,0:0:0:0:
192,192,123622,1,0,0:0:0:0:
320,192,123815,1,0,0:0:0:0:
192,192,123912,1,0,0:0:0:0:
448,192,123912,1,2,0:0:0:0:
320,192,124106,1,0,0:0:0:0:
192,192,124299,1,2,0:0:0:0:
64,192,124299,1,0,0:0:0:0:
320,192,124396,1,0,0:0:0:0:
192,192,124589,1,0,0:0:0:0:
64,192,124686,1,0,0:0:0:0:
320,192,124686,1,2,0:0:0:0:
192,192,124783,1,0,0:0:0:0:
320,192,124880,1,0,0:0:0:0:
448,192,124977,1,0,0:0:0:0:
192,192,125073,1,2,0:0:0:0:
64,192,125073,1,0,0:0:0:0:
320,192,125170,1,0,0:0:0:0:
448,192,125267,1,0,0:0:0:0:
320,192,125364,1,0,0:0:0:0:
192,192,125460,1,0,0:0:0:0:
64,192,125460,1,4,0:0:0:0:
448,192,125460,1,2,0:0:0:0:
320,192,125654,1,0,0:0:0:0:
448,192,125848,1,2,0:0:0:0:
64,192,125848,1,0,0:0:0:0:
192,192,125944,1,0,0:0:0:0:
320,192,126138,1,0,0:0:0:0:
448,192,126235,1,2,0:0:0:0:
64,192,126235,1,0,0:0:0:0:
192,192,126331,1,0,0:0:0:0:
448,192,126428,1,0,0:0:0:0:
320,192,126525,1,0,0:0:0:0:
192,192,126622,1,2,0:0:0:0:
64,192,126622,1,0,0:0:0:0:
448,192,126719,1,0,0:0:0:0:
64,192,126912,1,0,0:0:0:0:
192,192,127009,1,0,0:0:0:0:
320,192,127009,1,2,0:0:0:0:
448,192,127202,1,0,0:0:0:0:
320,192,127396,1,2,0:0:0:0:
64,192,127396,1,0,0:0:0:0:
192,192,127493,1,0,0:0:0:0:
320,192,127686,1,0,0:0:0:0:
448,192,127783,1,2,0:0:0:0:
192,192,127783,1,0,0:0:0:0:
320,192,127880,1,0,0:0:0:0:
192,192,127977,1,0,0:0:0:0:
320,192,128170,1,0,0:0:0:0:
448,192,128170,1,2,0:0:0:0:
192,192,128267,1,0,0:0:0:0:
320,192,128364,1,0,0:0:0:0:
448,192,128460,1,0,0:0:0:0:
64,192,128557,1,0,0:0:0:0:
192,192,128557,1,2,0:0:0:0:
320,192,128751,1,0,0:0:0:0:
448,192,128944,1,2,0:0:0:0:
64,192,128944,1,0,0:0:0:0:
192,192,129041,1,0,0:0:0:0:
320,192,129235,1,0,0:0:0:0:
448,192,129331,1,2,0:0:0:0:
64,192,129331,1,0,0:0:0:0:
192,192,129428,1,0,0:0:0:0:
320,192,129525,1,0,0:0:0:0:
192,192,129719,1,2,0:0:0:0:
64,192,129719,1,0,0:0:0:0:
448,192,129815,1,0,0:0:0:0:
320,192,130009,1,0,0:0:0:0:
192,192,130106,1,0,0:0:0:0:
448,192,130106,1,2,0:0:0:0:
320,192,130299,1,0,0:0:0:0:
64,192,130493,1,0,0:0:0:0:
448,192,130493,1,2,0:0:0:0:
192,192,130589,1,0,0:0:0:0:
320,192,130686,1,0,0:0:0:0:
192,192,130783,1,0,0:0:0:0:
320,192,130880,1,0,0:0:0:0:
448,192,130880,1,2,0:0:0:0:
192,192,130977,1,0,0:0:0:0:
320,192,131073,1,0,0:0:0:0:
192,192,131267,1,2,0:0:0:0:
64,192,131267,1,0,0:0:0:0:
320,192,131364,1,0,0:0:0:0:
64,192,131460,1,0,0:0:0:0:
192,192,131557,1,0,0:0:0:0:
320,192,131654,1,0,0:0:0:0:
448,192,131654,1,2,0:0:0:0:
192,192,131848,1,0,0:0:0:0:
320,192,132041,1,2,0:0:0:0:
64,192,132041,1,0,0:0:0:0:
192,192,132138,1,0,0:0:0:0:
320,192,132235,1,0,0:0:0:0:
448,192,132331,1,0,0:0:0:0:
192,192,132428,1,2,0:0:0:0:
64,192,132428,1,0,0:0:0:0:
320,192,132525,1,0,0:0:0:0:
192,192,132622,1,0,0:0:0:0:
64,192,132719,1,0,0:0:0:0:
320,192,132815,1,0,0:0:0:0:
448,192,132815,1,2,0:0:0:0:
192,192,132912,1,0,0:0:0:0:
64,192,133009,1,0,0:0:0:0:
192,192,133106,1,0,0:0:0:0:
320,192,133202,1,0,0:0:0:0:
448,192,133202,1,2,0:0:0:0:
192,192,133396,1,0,0:0:0:0:
448,192,133589,1,2,0:0:0:0:
64,192,133589,1,0,0:0:0:0:
320,192,133686,1,0,0:0:0:0:
192,192,133880,1,0,0:0:0:0:
320,192,133977,1,2,0:0:0:0:
64,192,133977,1,0,0:0:0:0:
192,192,134073,1,0,0:0:0:0:
320,192,134170,1,0,0:0:0:0:
192,192,134364,1,0,0:0:0:0:
448,192,134364,1,2,0:0:0:0:
320,192,134460,1,0,0:0:0:0:
64,192,134557,1,0,0:0:0:0:
192,192,134654,1,0,0:0:0:0:
320,192,134751,1,0,0:0:0:0:
448,192,134751,1,2,0:0:0:0:
192,192,134944,1,0,0:0:0:0:
320,192,135138,1,0,0:0:0:0:
448,192,135138,1,2,0:0:0:0:
64,192,135235,1,0,0:0:0:0:
192,192,135428,1,0,0:0:0:0:
448,192,135525,1,2,0:0:0:0:
64,192,135525,1,0,0:0:0:0:
320,192,135622,1,0,0:0:0:0:
192,192,135719,1,0,0:0:0:0:
64,192,135815,1,0,0:0:0:0:
448,192,135912,5,2,0:0:0:0:
320,192,135912,1,0,0:0:0:0:
192,192,136009,1,0,0:0:0:0:
448,192,136202,1,0,0:0:0:0:
320,192,136299,5,2,0:0:0:0:
192,192,136299,1,0,0:0:0:0:
64,192,136299,1,4,0:0:0:0:
448,192,136493,1,0,0:0:0:0:
320,192,136589,1,0,0:0:0:0:
192,192,136686,1,0,0:0:0:0:
64,192,136783,1,0,0:0:0:0:
320,192,136880,1,0,0:0:0:0:
448,192,136880,1,2,0:0:0:0:
192,192,136977,5,2,0:0:0:0:
64,192,136977,1,0,0:0:0:0:
448,192,137073,1,0,0:0:0:0:
320,192,137170,1,2,0:0:0:0:
192,192,137170,1,0,0:0:0:0:
64,192,137267,1,0,0:0:0:0:
448,192,137267,1,2,0:0:0:0:
192,192,137364,1,0,0:0:0:0:
448,192,137460,1,2,0:0:0:0:
320,192,137460,1,0,0:0:0:0:
64,192,137460,1,4,0:0:0:0:
192,192,137557,1,0,0:0:0:0:
64,192,137654,1,0,0:0:0:0:
320,192,137654,1,2,0:0:0:0:
192,192,137751,1,0,0:0:0:0:
448,192,137751,1,2,0:0:0:0:
64,192,137848,1,4,0:0:0:0:
320,192,137848,1,2,0:0:0:0:
192,192,138041,1,0,0:0:0:0:
320,192,138235,1,0,0:0:0:0:
448,192,138235,1,2,0:0:0:0:
192,192,138331,1,0,0:0:0:0:
320,192,138525,1,0,0:0:0:0:
448,192,138622,1,2,0:0:0:0:
192,192,138622,1,0,0:0:0:0:
320,192,138719,1,0,0:0:0:0:
192,192,138815,1,0,0:0:0:0:
448,192,139009,1,2,0:0:0:0:
320,192,139009,1,0,0:0:0:0:
64,192,139106,1,0,0:0:0:0:
192,192,139202,1,0,0:0:0:0:
320,192,139299,1,0,0:0:0:0:
448,192,139396,1,2,0:0:0:0:
64,192,139396,1,0,0:0:0:0:
192,192,139589,1,0,0:0:0:0:
320,192,139783,1,2,0:0:0:0:
64,192,139783,1,0,0:0:0:0:
192,192,139880,1,0,0:0:0:0:
320,192,140073,1,0,0:0:0:0:
448,192,140170,1,2,0:0:0:0:
64,192,140170,1,0,0:0:0:0:
192,192,140267,1,0,0:0:0:0:
320,192,140364,1,0,0:0:0:0:
192,192,140557,1,2,0:0:0:0:
64,192,140557,1,0,0:0:0:0:
320,192,140654,1,0,0:0:0:0:
192,192,140751,1,0,0:0:0:0:
64,192,140848,1,0,0:0:0:0:
320,192,140944,1,0,0:0:0:0:
448,192,140944,1,2,0:0:0:0:
192,192,141138,1,0,0:0:0:0:
448,192,141331,1,2,0:0:0:0:
64,192,141331,1,0,0:0:0:0:
320,192,141428,1,0,0:0:0:0:
64,192,141525,1,0,0:0:0:0:
192,192,141622,1,0,0:0:0:0:
320,192,141719,1,0,0:0:0:0:
448,192,141719,1,2,0:0:0:0:
64,192,141815,1,0,0:0:0:0:
192,192,141912,1,0,0:0:0:0:
320,192,142106,1,0,0:0:0:0:
448,192,142106,1,2,0:0:0:0:
192,192,142202,1,0,0:0:0:0:
320,192,142396,1,0,0:0:0:0:
192,192,142493,1,2,0:0:0:0:
64,192,142493,1,0,0:0:0:0:
320,192,142686,1,0,0:0:0:0:
64,192,142880,1,0,0:0:0:0:
448,192,142880,1,2,0:0:0:0:
192,192,142977,1,0,0:0:0:0:
320,192,143170,1,0,0:0:0:0:
448,192,143267,1,2,0:0:0:0:
192,192,143267,1,0,0:0:0:0:
320,192,143364,1,0,0:0:0:0:
192,192,143460,1,0,0:0:0:0:
320,192,143654,1,0,0:0:0:0:
448,192,143654,1,2,0:0:0:0:
192,192,143751,1,0,0:0:0:0:
320,192,143848,1,0,0:0:0:0:
192,192,143944,1,0,0:0:0:0:
448,192,144041,1,2,0:0:0:0:
320,192,144041,1,0,0:0:0:0:
64,192,144041,1,4,0:0:0:0:
192,192,144235,1,0,0:0:0:0:
448,192,144235,1,2,0:0:0:0:
448,192,144428,1,2,0:0:0:0:
320,192,144428,1,0,0:0:0:0:
192,192,144525,1,0,0:0:0:0:
448,192,144622,1,2,0:0:0:0:
64,192,144622,1,0,0:0:0:0:
320,192,144719,1,0,0:0:0:0:
192,192,144815,1,2,0:0:0:0:
64,192,144815,1,0,0:0:0:0:
320,192,144912,1,0,0:0:0:0:
192,192,145009,1,0,0:0:0:0:
448,192,145009,1,2,0:0:0:0:
320,192,145106,1,0,0:0:0:0:
448,192,145202,1,2,0:0:0:0:
64,192,145202,1,0,0:0:0:0:
192,192,145299,1,0,0:0:0:0:
320,192,145396,1,0,0:0:0:0:
448,192,145396,1,2,0:0:0:0:
192,192,145493,1,0,0:0:0:0:
448,192,145589,1,2,0:0:0:0:
64,192,145589,1,4,0:0:0:0:
320,192,145589,1,0,0:0:0:0:
320,192,145783,1,2,0:0:0:0:
192,192,145783,1,0,0:0:0:0:
192,192,145977,1,0,0:0:0:0:
448,192,145977,1,2,0:0:0:0:
320,192,146073,1,0,0:0:0:0:
448,192,146170,1,2,0:0:0:0:
64,192,146170,1,0,0:0:0:0:
192,192,146267,1,0,0:0:0:0:
320,192,146364,1,0,0:0:0:0:
448,192,146364,1,2,0:0:0:0:
64,192,146460,1,0,0:0:0:0:
192,192,146557,1,0,0:0:0:0:
448,192,146557,1,2,0:0:0:0:
320,192,146654,1,0,0:0:0:0:
64,192,146751,1,0,0:0:0:0:
192,192,146751,1,2,0:0:0:0:
320,192,146848,1,0,0:0:0:0:
64,192,146944,1,0,0:0:0:0:
448,192,146944,1,2,0:0:0:0:
192,192,147041,1,0,0:0:0:0:
448,192,147138,1,0,0:0:0:0:
320,192,147138,1,6,0:0:0:0:
192,192,147235,1,2,0:0:0:0:
64,192,147235,1,0,0:0:0:0:
320,192,147331,1,2,0:0:0:0:
448,192,147331,1,0,0:0:0:0:
192,192,147428,1,2,0:0:0:0:
64,192,147428,1,0,0:0:0:0:
320,192,147525,1,2,0:0:0:0:
448,192,147525,1,0,0:0:0:0:
192,192,147622,1,2,0:0:0:0:
64,192,147622,1,0,0:0:0:0:
320,192,147719,1,2,0:0:0:0:
448,192,147719,1,0,0:0:0:0:
192,192,147815,1,2,0:0:0:0:
64,192,147815,1,0,0:0:0:0:
320,192,147912,1,6,0:0:0:0:
448,192,147912,1,0,0:0:0:0:
192,192,148009,1,2,0:0:0:0:
64,192,148009,1,0,0:0:0:0:
320,192,148106,1,2,0:0:0:0:
448,192,148106,1,0,0:0:0:0:
192,192,148202,1,2,0:0:0:0:
64,192,148202,1,0,0:0:0:0:
320,192,148299,1,2,0:0:0:0:
448,192,148299,1,0,0:0:0:0:
192,192,148396,1,2,0:0:0:0:
64,192,148396,1,0,0:0:0:0:
320,192,148493,1,2,0:0:0:0:
448,192,148493,1,0,0:0:0:0:
192,192,148589,1,2,0:0:0:0:
64,192,148589,1,0,0:0:0:0:
448,192,148686,5,0,0:0:0:0:
320,192,148686,1,6,0:0:0:0:
192,192,148783,1,0,0:0:0:0:
64,192,148880,1,2,0:0:0:0:
192,192,148928,1,2,0:0:0:0:
320,192,148977,1,2,0:0:0:0:
448,192,149025,1,2,0:0:0:0:
64,192,149073,1,6,0:0:0:0:
192,192,149122,1,2,0:0:0:0:
448,192,149170,1,2,0:0:0:0:
320,192,149219,1,2,0:0:0:0:
64,192,149267,1,2,0:0:0:0:
192,192,149315,1,2,0:0:0:0:
320,192,149364,1,2,0:0:0:0:
448,192,149412,1,2,0:0:0:0:
192,192,149460,1,6,0:0:0:0:
64,192,149509,1,2,0:0:0:0:
320,192,149557,1,2,0:0:0:0:
448,192,149606,1,2,0:0:0:0:
64,192,149654,1,2,0:0:0:0:
192,192,149702,1,2,0:0:0:0:
320,192,149751,1,2,0:0:0:0:
448,192,149799,1,2,0:0:0:0:
192,192,149848,1,6,0:0:0:0:
64,192,149848,1,0,0:0:0:0:
320,192,149944,1,0,0:0:0:0:
448,192,149944,1,2,0:0:0:0:
192,192,150041,1,2,0:0:0:0:
64,192,150041,1,0,0:0:0:0:
320,192,150138,1,0,0:0:0:0:
448,192,150138,1,2,0:0:0:0:
64,192,150235,128,0,153331:0:0:0:0:
192,192,150235,1,6,0:0:0:0:
448,192,150331,1,0,0:0:0:0:
320,192,150428,1,0,0:0:0:0:
192,192,150525,1,0,0:0:0:0:
448,192,150622,1,0,0:0:0:0:
320,192,150719,1,0,0:0:0:0:
192,192,150815,1,0,0:0:0:0:
320,192,150912,1,0,0:0:0:0:
448,192,151009,1,0,0:0:0:0:
192,192,151106,1,0,0:0:0:0:
320,192,151202,1,0,0:0:0:0:
448,192,151299,1,0,0:0:0:0:
192,192,151396,1,0,0:0:0:0:
320,192,151493,1,0,0:0:0:0:
448,192,151589,1,0,0:0:0:0:
192,192,151686,1,0,0:0:0:0:
320,192,151783,1,0,0:0:0:0:
192,192,151880,1,0,0:0:0:0:
448,192,151977,1,0,0:0:0:0:
320,192,152073,1,0,0:0:0:0:
192,192,152170,1,0,0:0:0:0:
320,192,152267,1,0,0:0:0:0:
192,192,152364,1,0,0:0:0:0:
448,192,152460,1,0,0:0:0:0:
192,192,152557,1,0,0:0:0:0:
320,192,152654,1,0,0:0:0:0:
448,192,152751,1,0,0:0:0:0:
192,192,152848,1,0,0:0:0:0:
320,192,152944,1,0,0:0:0:0:
192,192,153041,1,0,0:0:0:0:
448,192,153138,1,0,0:0:0:0:
192,192,153235,1,0,0:0:0:0:
320,192,153331,1,0,0:0:0:0:
448,192,153428,1,0,0:0:0:0:
192,192,153525,1,0,0:0:0:0:
320,192,153622,1,0,0:0:0:0:
64,192,153719,1,0,0:0:0:0:
192,192,153815,1,0,0:0:0:0:
448,192,153912,1,0,0:0:0:0:
320,192,154009,1,0,0:0:0:0:
64,192,154106,1,0,0:0:0:0:
192,192,154202,1,0,0:0:0:0:
448,192,154299,1,0,0:0:0:0:
320,192,154396,1,0,0:0:0:0:
192,192,154493,1,0,0:0:0:0:
320,192,154589,1,0,0:0:0:0:
192,192,154686,1,0,0:0:0:0:
448,192,154783,1,0,0:0:0:0:
320,192,154880,1,0,0:0:0:0:
64,192,154977,1,0,0:0:0:0:
192,192,155073,1,0,0:0:0:0:
320,192,155170,1,0,0:0:0:0:
64,192,155267,1,0,0:0:0:0:
192,192,155364,1,0,0:0:0:0:
448,192,155460,1,0,0:0:0:0:
320,192,155557,1,0,0:0:0:0:
192,192,155654,1,0,0:0:0:0:
64,192,155751,1,0,0:0:0:0:
320,192,155848,1,0,0:0:0:0:
192,192,155944,1,0,0:0:0:0:
320,192,156041,1,0,0:0:0:0:
448,192,156138,1,0,0:0:0:0:
192,192,156235,1,0,0:0:0:0:
320,192,156331,1,0,0:0:0:0:
448,192,156428,1,2,0:0:0:0:
192,192,156428,1,0,0:0:0:0:
64,192,156428,1,4,0:0:0:0:
320,192,156525,1,0,0:0:0:0:
448,192,156622,1,0,0:0:0:0:
192,192,156719,1,0,0:0:0:0:
320,192,156815,1,8,0:0:0:0:
64,192,156815,1,0,0:0:0:0:
192,192,156912,1,0,0:0:0:0:
64,192,157009,1,0,0:0:0:0:
448,192,157106,1,0,0:0:0:0:
320,192,157202,1,0,0:0:0:0:
192,192,157299,1,0,0:0:0:0:
320,192,157396,1,0,0:0:0:0:
192,192,157493,1,0,0:0:0:0:
64,192,157589,1,8,0:0:0:0:
448,192,157589,1,0,0:0:0:0:
192,192,157686,1,0,0:0:0:0:
320,192,157783,1,0,0:0:0:0:
448,192,157880,1,0,0:0:0:0:
64,192,157977,1,0,0:0:0:0:
192,192,158073,1,0,0:0:0:0:
320,192,158170,1,0,0:0:0:0:
192,192,158267,1,0,0:0:0:0:
448,192,158364,1,8,0:0:0:0:
64,192,158364,1,0,0:0:0:0:
320,192,158460,1,0,0:0:0:0:
192,192,158557,1,0,0:0:0:0:
64,192,158654,1,0,0:0:0:0:
448,192,158751,1,0,0:0:0:0:
320,192,158848,1,0,0:0:0:0:
192,192,158944,1,0,0:0:0:0:
320,192,159041,1,0,0:0:0:0:
64,192,159138,1,8,0:0:0:0:
448,192,159138,1,0,0:0:0:0:
192,192,159235,1,0,0:0:0:0:
448,192,159331,1,0,0:0:0:0:
320,192,159428,1,0,0:0:0:0:
64,192,159525,1,0,0:0:0:0:
192,192,159622,1,0,0:0:0:0:
448,192,159719,1,0,0:0:0:0:
320,192,159815,1,0,0:0:0:0:
192,192,159912,1,8,0:0:0:0:
64,192,159912,1,0,0:0:0:0:
320,192,160009,1,0,0:0:0:0:
192,192,160106,1,0,0:0:0:0:
448,192,160202,1,0,0:0:0:0:
320,192,160299,1,0,0:0:0:0:
192,192,160396,1,0,0:0:0:0:
64,192,160493,1,0,0:0:0:0:
192,192,160589,1,0,0:0:0:0:
320,192,160686,1,8,0:0:0:0:
448,192,160686,1,0,0:0:0:0:
192,192,160783,1,0,0:0:0:0:
320,192,160880,1,0,0:0:0:0:
448,192,160977,1,0,0:0:0:0:
192,192,161073,1,2,0:0:0:0:
320,192,161073,1,0,0:0:0:0:
64,192,161073,1,4,0:0:0:0:
448,192,161170,1,0,0:0:0:0:
320,192,161267,1,0,0:0:0:0:
192,192,161364,1,0,0:0:0:0:
64,192,161460,1,0,0:0:0:0:
192,192,161557,1,0,0:0:0:0:
320,192,161654,1,0,0:0:0:0:
448,192,161751,1,0,0:0:0:0:
64,192,161848,1,0,0:0:0:0:
192,192,161944,1,0,0:0:0:0:
320,192,162041,1,0,0:0:0:0:
192,192,162138,1,0,0:0:0:0:
448,192,162235,128,0,162622:0:0:0:0:
320,192,162235,128,0,162622:0:0:0:0:
64,192,162622,1,6,0:0:0:0:
192,192,162719,1,0,0:0:0:0:
448,192,162815,1,0,0:0:0:0:
320,192,162912,1,0,0:0:0:0:
192,192,163009,1,2,0:0:0:0:
64,192,163009,1,0,0:0:0:0:
448,192,163106,1,0,0:0:0:0:
320,192,163202,1,0,0:0:0:0:
192,192,163299,1,0,0:0:0:0:
448,192,163396,1,2,0:0:0:0:
64,192,163396,1,0,0:0:0:0:
320,192,163493,1,0,0:0:0:0:
64,192,163589,1,0,0:0:0:0:
192,192,163686,1,0,0:0:0:0:
320,192,163783,1,0,0:0:0:0:
448,192,163783,1,2,0:0:0:0:
64,192,163880,1,0,0:0:0:0:
192,192,163977,1,0,0:0:0:0:
320,192,164073,1,0,0:0:0:0:
448,192,164170,1,2,0:0:0:0:
192,192,164170,1,0,0:0:0:0:
64,192,164267,1,0,0:0:0:0:
320,192,164364,1,0,0:0:0:0:
448,192,164460,1,0,0:0:0:0:
192,192,164557,1,2,0:0:0:0:
64,192,164557,1,0,0:0:0:0:
320,192,164654,1,0,0:0:0:0:
448,192,164751,1,0,0:0:0:0:
320,192,164848,1,0,0:0:0:0:
192,192,164944,1,2,0:0:0:0:
64,192,164944,1,0,0:0:0:0:
448,192,165041,1,0,0:0:0:0:
320,192,165138,1,0,0:0:0:0:
192,192,165235,1,0,0:0:0:0:
64,192,165331,1,0,0:0:0:0:
320,192,165331,1,2,0:0:0:0:
192,192,165428,1,0,0:0:0:0:
448,192,165525,1,0,0:0:0:0:
320,192,165622,1,0,0:0:0:0:
192,192,165719,1,2,0:0:0:0:
64,192,165719,1,0,0:0:0:0:
320,192,165815,1,0,0:0:0:0:
448,192,165912,1,0,0:0:0:0:
192,192,166009,1,0,0:0:0:0:
320,192,166106,1,2,0:0:0:0:
64,192,166106,1,0,0:0:0:0:
192,192,166202,1,0,0:0:0:0:
448,192,166299,1,0,0:0:0:0:
320,192,166396,1,0,0:0:0:0:
192,192,166493,1,2,0:0:0:0:
64,192,166493,1,0,0:0:0:0:
320,192,166589,1,0,0:0:0:0:
192,192,166686,1,0,0:0:0:0:
64,192,166783,1,0,0:0:0:0:
320,192,166880,1,0,0:0:0:0:
448,192,166880,1,2,0:0:0:0:
192,192,166977,1,0,0:0:0:0:
320,192,167073,1,0,0:0:0:0:
448,192,167170,1,0,0:0:0:0:
192,192,167267,1,2,0:0:0:0:
64,192,167267,1,0,0:0:0:0:
320,192,167364,1,0,0:0:0:0:
64,192,167460,1,0,0:0:0:0:
192,192,167557,1,0,0:0:0:0:
320,192,167654,1,0,0:0:0:0:
448,192,167654,1,2,0:0:0:0:
64,192,167751,1,0,0:0:0:0:
192,192,167848,1,0,0:0:0:0:
320,192,167944,1,0,0:0:0:0:
192,192,168041,1,0,0:0:0:0:
448,192,168041,1,2,0:0:0:0:
64,192,168138,1,0,0:0:0:0:
192,192,168235,1,0,0:0:0:0:
320,192,168331,1,0,0:0:0:0:
448,192,168428,1,2,0:0:0:0:
64,192,168428,1,0,0:0:0:0:
192,192,168525,1,0,0:0:0:0:
448,192,168622,1,0,0:0:0:0:
320,192,168719,1,0,0:0:0:0:
192,192,168815,1,2,0:0:0:0:
64,192,168815,1,0,0:0:0:0:
320,192,168912,1,0,0:0:0:0:
192,192,169009,1,0,0:0:0:0:
448,192,169106,1,0,0:0:0:0:
320,192,169202,1,2,0:0:0:0:
64,192,169202,1,0,0:0:0:0:
192,192,169299,1,0,0:0:0:0:
448,192,169396,1,0,0:0:0:0:
320,192,169493,1,0,0:0:0:0:
192,192,169589,1,2,0:0:0:0:
64,192,169589,1,0,0:0:0:0:
448,192,169686,1,0,0:0:0:0:
64,192,169783,1,0,0:0:0:0:
192,192,169880,1,0,0:0:0:0:
320,192,169977,1,0,0:0:0:0:
448,192,169977,1,2,0:0:0:0:
64,192,170073,1,0,0:0:0:0:
192,192,170170,1,0,0:0:0:0:
320,192,170267,1,0,0:0:0:0:
448,192,170364,1,2,0:0:0:0:
192,192,170364,1,0,0:0:0:0:
64,192,170460,1,0,0:0:0:0:
448,192,170557,1,0,0:0:0:0:
320,192,170654,1,0,0:0:0:0:
192,192,170751,1,2,0:0:0:0:
64,192,170751,1,0,0:0:0:0:
320,192,170848,1,0,0:0:0:0:
192,192,170944,1,0,0:0:0:0:
320,192,171041,1,0,0:0:0:0:
192,192,171138,1,0,0:0:0:0:
448,192,171138,1,2,0:0:0:0:
320,192,171235,1,0,0:0:0:0:
192,192,171331,1,0,0:0:0:0:
64,192,171428,1,0,0:0:0:0:
448,192,171525,1,2,0:0:0:0:
320,192,171525,1,0,0:0:0:0:
192,192,171622,1,0,0:0:0:0:
320,192,171719,1,0,0:0:0:0:
448,192,171815,1,0,0:0:0:0:
192,192,171912,1,2,0:0:0:0:
64,192,171912,1,0,0:0:0:0:
320,192,172009,1,0,0:0:0:0:
64,192,172106,1,0,0:0:0:0:
192,192,172202,1,0,0:0:0:0:
320,192,172299,1,0,0:0:0:0:
448,192,172299,1,2,0:0:0:0:
64,192,172396,1,0,0:0:0:0:
192,192,172493,1,0,0:0:0:0:
448,192,172589,1,0,0:0:0:0:
320,192,172686,1,2,0:0:0:0:
64,192,172686,1,0,0:0:0:0:
192,192,172783,1,0,0:0:0:0:
320,192,172880,1,0,0:0:0:0:
192,192,172977,1,0,0:0:0:0:
64,192,173073,1,0,0:0:0:0:
448,192,173073,1,2,0:0:0:0:
320,192,173170,1,0,0:0:0:0:
192,192,173267,1,0,0:0:0:0:
64,192,173364,1,0,0:0:0:0:
448,192,173460,1,2,0:0:0:0:
320,192,173460,1,0,0:0:0:0:
192,192,173460,1,0,0:0:0:0:
64,192,173557,1,0,0:0:0:0:
192,192,173654,1,0,0:0:0:0:
320,192,173751,1,0,0:0:0:0:
448,192,173848,1,2,0:0:0:0:
64,192,173848,1,0,0:0:0:0:
192,192,173944,1,0,0:0:0:0:
320,192,174041,1,0,0:0:0:0:
448,192,174041,1,2,0:0:0:0:
192,192,174138,1,2,0:0:0:0:
64,192,174138,1,0,0:0:0:0:
64,192,174331,1,2,0:0:0:0:
192,192,174364,1,2,0:0:0:0:
448,192,174396,1,2,0:0:0:0:
320,192,174428,1,2,0:0:0:0:
192,192,174525,1,2,0:0:0:0:
64,192,174525,1,0,0:0:0:0:
320,192,174622,1,2,0:0:0:0:
448,192,174622,128,0,175009:0:0:0:0:
320,192,175009,1,4,0:0:0:0:
64,192,175009,1,2,0:0:0:0:
192,192,175106,1,0,0:0:0:0:
320,192,175202,1,0,0:0:0:0:
448,192,175299,1,0,0:0:0:0:
64,192,175396,1,8,0:0:0:0:
192,192,175396,1,0,0:0:0:0:
320,192,175589,1,0,0:0:0:0:
192,192,175977,1,0,0:0:0:0:
320,192,176170,1,8,0:0:0:0:
448,192,176170,1,0,0:0:0:0:
64,192,176364,1,0,0:0:0:0:
192,192,176751,1,0,0:0:0:0:
448,192,176944,1,0,0:0:0:0:
192,192,176944,1,8,0:0:0:0:
320,192,177138,1,0,0:0:0:0:
192,192,177525,1,0,0:0:0:0:
320,192,177719,1,8,0:0:0:0:
448,192,177719,1,0,0:0:0:0:
192,192,177912,1,0,0:0:0:0:
320,192,178299,1,0,0:0:0:0:
448,192,178493,1,0,0:0:0:0:
64,192,178493,1,8,0:0:0:0:
192,192,178686,1,0,0:0:0:0:
320,192,179073,1,0,0:0:0:0:
448,192,179267,1,0,0:0:0:0:
192,192,179267,1,8,0:0:0:0:
64,192,179460,1,0,0:0:0:0:
320,192,179848,1,0,0:0:0:0:
448,192,180041,1,0,0:0:0:0:
64,192,180041,1,8,0:0:0:0:
192,192,180235,1,0,0:0:0:0:
320,192,180622,1,0,0:0:0:0:
64,192,180815,1,8,0:0:0:0:
192,192,180815,1,0,0:0:0:0:
448,192,181009,1,0,0:0:0:0:
320,192,181396,1,0,0:0:0:0:
192,192,181589,1,0,0:0:0:0:
64,192,181589,1,8,0:0:0:0:
448,192,181783,1,0,0:0:0:0:
320,192,182170,1,0,0:0:0:0:
192,192,182364,1,0,0:0:0:0:
64,192,182364,1,8,0:0:0:0:
320,192,182557,1,0,0:0:0:0:
192,192,182944,1,0,0:0:0:0:
448,192,183138,1,0,0:0:0:0:
64,192,183138,1,8,0:0:0:0:
320,192,183331,1,0,0:0:0:0:
192,192,183719,1,0,0:0:0:0:
320,192,183912,1,8,0:0:0:0:
448,192,183912,1,0,0:0:0:0:
64,192,184106,1,0,0:0:0:0:
320,192,184493,1,0,0:0:0:0:
192,192,184686,1,0,0:0:0:0:
64,192,184686,1,8,0:0:0:0:
448,192,184880,1,0,0:0:0:0:
192,192,185267,1,0,0:0:0:0:
448,192,185460,1,0,0:0:0:0:
320,192,185460,1,8,0:0:0:0:
192,192,185654,1,0,0:0:0:0:
448,192,185848,1,2,0:0:0:0:
64,192,185848,1,0,0:0:0:0:
192,192,185848,1,4,0:0:0:0:
320,192,185944,1,0,0:0:0:0:
192,192,186138,1,0,0:0:0:0:
64,192,186235,1,0,0:0:0:0:
320,192,186235,1,0,0:0:0:0:
192,192,186428,1,0,0:0:0:0:
64,192,186428,1,0,0:0:0:0:
320,192,186525,1,0,0:0:0:0:
448,192,186622,1,0,0:0:0:0:
64,192,186622,1,0,0:0:0:0:
192,192,186719,1,0,0:0:0:0:
320,192,186815,1,0,0:0:0:0:
448,192,186815,1,0,0:0:0:0:
64,192,187009,1,0,0:0:0:0:
448,192,187009,1,0,0:0:0:0:
192,192,187202,1,0,0:0:0:0:
320,192,187202,1,0,0:0:0:0:
64,192,187396,1,0,0:0:0:0:
448,192,187396,1,2,0:0:0:0:
192,192,187396,1,4,0:0:0:0:
320,192,187589,1,0,0:0:0:0:
448,192,187783,1,2,0:0:0:0:
64,192,187783,1,0,0:0:0:0:
192,192,187880,1,0,0:0:0:0:
320,192,188073,1,0,0:0:0:0:
192,192,188170,1,2,0:0:0:0:
64,192,188170,1,0,0:0:0:0:
448,192,188267,1,0,0:0:0:0:
320,192,188364,1,0,0:0:0:0:
192,192,188557,1,2,0:0:0:0:
64,192,188557,1,0,0:0:0:0:
448,192,188751,1,0,0:0:0:0:
320,192,188944,1,2,0:0:0:0:
64,192,188944,1,0,0:0:0:0:
192,192,189138,1,0,0:0:0:0:
448,192,189331,1,2,0:0:0:0:
320,192,189331,1,0,0:0:0:0:
64,192,189428,1,0,0:0:0:0:
192,192,189622,1,0,0:0:0:0:
320,192,189719,1,0,0:0:0:0:
448,192,189719,1,2,0:0:0:0:
192,192,189815,1,0,0:0:0:0:
320,192,189912,1,0,0:0:0:0:
192,192,190106,1,2,0:0:0:0:
64,192,190106,1,0,0:0:0:0:
448,192,190299,1,0,0:0:0:0:
320,192,190493,1,2,0:0:0:0:
64,192,190493,1,0,0:0:0:0:
192,192,190686,1,0,0:0:0:0:
448,192,190880,1,2,0:0:0:0:
64,192,190880,1,0,0:0:0:0:
320,192,190977,1,0,0:0:0:0:
192,192,191170,1,0,0:0:0:0:
320,192,191267,1,2,0:0:0:0:
64,192,191267,1,0,0:0:0:0:
192,192,191364,1,0,0:0:0:0:
320,192,191460,1,0,0:0:0:0:
448,192,191654,1,2,0:0:0:0:
64,192,191654,1,0,0:0:0:0:
192,192,191848,1,0,0:0:0:0:
320,192,192041,1,0,0:0:0:0:
448,192,192041,1,2,0:0:0:0:
192,192,192235,1,0,0:0:0:0:
320,192,192428,1,2,0:0:0:0:
64,192,192428,1,0,0:0:0:0:
192,192,192525,1,0,0:0:0:0:
320,192,192719,1,0,0:0:0:0:
448,192,192815,1,2,0:0:0:0:
192,192,192815,1,0,0:0:0:0:
320,192,192912,1,0,0:0:0:0:
192,192,193009,1,0,0:0:0:0:
448,192,193202,1,2,0:0:0:0:
64,192,193202,1,0,0:0:0:0:
192,192,193396,1,0,0:0:0:0:
320,192,193589,1,0,0:0:0:0:
448,192,193589,1,2,0:0:0:0:
64,192,193783,1,0,0:0:0:0:
192,192,193977,1,0,0:0:0:0:
320,192,193977,1,2,0:0:0:0:
448,192,194073,1,0,0:0:0:0:
192,192,194267,1,0,0:0:0:0:
320,192,194364,1,2,0:0:0:0:
64,192,194364,1,0,0:0:0:0:
192,192,194460,1,0,0:0:0:0:
320,192,194557,1,0,0:0:0:0:
448,192,194751,1,2,0:0:0:0:
64,192,194751,1,0,0:0:0:0:
192,192,194944,1,0,0:0:0:0:
320,192,195138,1,0,0:0:0:0:
448,192,195138,1,2,0:0:0:0:
192,192,195331,1,0,0:0:0:0:
320,192,195525,1,2,0:0:0:0:
64,192,195525,1,0,0:0:0:0:
192,192,195622,1,0,0:0:0:0:
320,192,195815,1,0,0:0:0:0:
448,192,195912,1,2,0:0:0:0:
192,192,195912,1,0,0:0:0:0:
320,192,196009,1,0,0:0:0:0:
192,192,196106,1,0,0:0:0:0:
320,192,196299,1,0,0:0:0:0:
448,192,196299,1,2,0:0:0:0:
192,192,196493,1,0,0:0:0:0:
448,192,196686,1,2,0:0:0:0:
64,192,196686,1,0,0:0:0:0:
320,192,196880,1,0,0:0:0:0:
192,192,197073,1,0,0:0:0:0:
448,192,197073,1,2,0:0:0:0:
320,192,197170,1,0,0:0:0:0:
192,192,197364,1,0,0:0:0:0:
320,192,197460,1,2,0:0:0:0:
64,192,197460,1,0,0:0:0:0:
192,192,197557,1,0,0:0:0:0:
448,192,197654,1,0,0:0:0:0:
192,192,197848,1,2,0:0:0:0:
64,192,197848,1,0,0:0:0:0:
320,192,198041,1,0,0:0:0:0:
448,192,198235,1,2,0:0:0:0:
192,192,198235,1,0,0:0:0:0:
64,192,198235,1,0,0:0:0:0:
448,192,198428,1,2,0:0:0:0:
320,192,198428,1,0,0:0:0:0:
64,192,198428,1,0,0:0:0:0:
192,192,198622,1,2,0:0:0:0:
64,192,198622,1,0,0:0:0:0:
320,192,198719,1,2,0:0:0:0:
448,192,198719,1,0,0:0:0:0:
192,192,198815,1,2,0:0:0:0:
64,192,198815,1,0,0:0:0:0:
320,192,198912,1,2,0:0:0:0:
448,192,198912,1,0,0:0:0:0:
64,192,199106,1,0,0:0:0:0:
320,192,199106,1,2,0:0:0:0:
192,192,199202,1,0,0:0:0:0:
448,192,199202,1,2,0:0:0:0:
64,192,199299,1,0,0:0:0:0:
320,192,199299,1,2,0:0:0:0:
448,192,199396,1,2,0:0:0:0:
192,192,199396,1,0,0:0:0:0:
448,192,199589,1,2,0:0:0:0:
320,192,199589,1,0,0:0:0:0:
192,192,199589,1,0,0:0:0:0:
64,192,199783,1,0,0:0:0:0:
192,192,199783,1,4,0:0:0:0:
320,192,199783,1,2,0:0:0:0:
448,192,199880,1,0,0:0:0:0:
320,192,199977,1,0,0:0:0:0:
192,192,200073,1,0,0:0:0:0:
64,192,200267,1,0,0:0:0:0:
192,192,200364,1,0,0:0:0:0:
320,192,200460,1,0,0:0:0:0:
192,192,200654,1,0,0:0:0:0:
320,192,200751,1,0,0:0:0:0:
448,192,200848,1,0,0:0:0:0:
192,192,201041,1,0,0:0:0:0:
64,192,201138,1,0,0:0:0:0:
320,192,201235,1,0,0:0:0:0:
192,192,201428,1,0,0:0:0:0:
320,192,201525,1,0,0:0:0:0:
448,192,201622,1,0,0:0:0:0:
320,192,201815,1,0,0:0:0:0:
192,192,201912,1,0,0:0:0:0:
64,192,202009,1,0,0:0:0:0:
320,192,202202,1,0,0:0:0:0:
192,192,202299,1,0,0:0:0:0:
448,192,202396,1,0,0:0:0:0:
64,192,202589,1,0,0:0:0:0:
192,192,202686,1,0,0:0:0:0:
320,192,202783,1,0,0:0:0:0:
192,192,202977,1,0,0:0:0:0:
64,192,203073,1,0,0:0:0:0:
448,192,203170,1,0,0:0:0:0:
320,192,203364,1,0,0:0:0:0:
192,192,203460,1,0,0:0:0:0:
64,192,203557,1,0,0:0:0:0:
320,192,203751,1,0,0:0:0:0:
448,192,203848,1,0,0:0:0:0:
192,192,203944,1,0,0:0:0:0:
320,192,204138,1,0,0:0:0:0:
192,192,204235,1,0,0:0:0:0:
64,192,204331,1,0,0:0:0:0:
448,192,204525,1,0,0:0:0:0:
320,192,204622,1,0,0:0:0:0:
192,192,204719,1,0,0:0:0:0:
64,192,204912,1,0,0:0:0:0:
192,192,205009,1,0,0:0:0:0:
320,192,205106,1,0,0:0:0:0:
192,192,205299,1,0,0:0:0:0:
448,192,205396,1,0,0:0:0:0:
320,192,205493,1,0,0:0:0:0:
192,192,205686,1,0,0:0:0:0:
64,192,205783,1,0,0:0:0:0:
320,192,205880,1,0,0:0:0:0:
192,192,205977,1,2,0:0:0:0:
64,192,205977,1,4,0:0:0:0:
448,192,206073,1,0,0:0:0:0:
320,192,206073,1,2,0:0:0:0:
192,192,206170,1,2,0:0:0:0:
64,192,206170,1,0,0:0:0:0:
448,192,206267,1,0,0:0:0:0:
320,192,206267,1,2,0:0:0:0:
192,192,206364,1,2,0:0:0:0:
64,192,206364,1,0,0:0:0:0:
320,192,206460,1,2,0:0:0:0:
448,192,206460,1,0,0:0:0:0:
192,192,206557,1,2,0:0:0:0:
64,192,206557,1,0,0:0:0:0:
320,192,206654,1,2,0:0:0:0:
448,192,206654,1,0,0:0:0:0:
64,192,206751,1,0,0:0:0:0:
192,192,206751,1,2,0:0:0:0:
320,192,206848,1,2,0:0:0:0:
448,192,206848,1,0,0:0:0:0:
192,192,206944,1,2,0:0:0:0:
64,192,206944,1,0,0:0:0:0:
320,192,207041,1,2,0:0:0:0:
448,192,207041,1,0,0:0:0:0:
192,192,207138,1,2,0:0:0:0:
64,192,207138,1,0,0:0:0:0:
320,192,207235,1,2,0:0:0:0:
448,192,207235,1,0,0:0:0:0:
192,192,207331,1,2,0:0:0:0:
320,192,207428,1,2,0:0:0:0:
448,192,207525,1,2,0:0:0:0:
64,192,207525,1,4,0:0:0:0:
192,192,207622,1,0,0:0:0:0:
320,192,207622,1,2,0:0:0:0:
448,192,207719,1,2,0:0:0:0:
64,192,207719,1,0,0:0:0:0:
192,192,207815,1,0,0:0:0:0:
320,192,207815,1,2,0:0:0:0:
448,192,207912,1,2,0:0:0:0:
64,192,207912,1,0,0:0:0:0:
192,192,208009,1,0,0:0:0:0:
320,192,208009,1,2,0:0:0:0:
448,192,208106,1,2,0:0:0:0:
64,192,208106,1,0,0:0:0:0:
192,192,208202,1,0,0:0:0:0:
320,192,208202,1,2,0:0:0:0:
448,192,208299,1,2,0:0:0:0:
64,192,208299,1,0,0:0:0:0:
192,192,208396,1,0,0:0:0:0:
320,192,208396,1,2,0:0:0:0:
448,192,208493,1,2,0:0:0:0:
64,192,208493,1,0,0:0:0:0:
192,192,208589,1,0,0:0:0:0:
320,192,208589,1,2,0:0:0:0:
448,192,208686,1,2,0:0:0:0:
64,192,208686,1,0,0:0:0:0:
320,192,208783,1,2,0:0:0:0:
192,192,208783,1,0,0:0:0:0:
64,192,208880,1,2,0:0:0:0:
448,192,208977,1,2,0:0:0:0:
192,192,209073,1,0,0:0:0:0:
64,192,209073,1,4,0:0:0:0:
320,192,209073,1,2,0:0:0:0:
448,192,209267,1,2,0:0:0:0:
192,192,209267,1,0,0:0:0:0:
448,192,209460,1,4,0:0:0:0:
64,192,209460,1,2,0:0:0:0:
320,192,209557,1,2,0:0:0:0:
192,192,209557,1,0,0:0:0:0:
320,192,209751,1,2,0:0:0:0:
64,192,209751,1,0,0:0:0:0:
192,192,209848,1,4,0:0:0:0:
448,192,209848,1,0,0:0:0:0:
64,192,209944,1,0,0:0:0:0:
320,192,209944,1,2,0:0:0:0:
192,192,210041,1,0,0:0:0:0:
448,192,210041,1,2,0:0:0:0:
64,192,210138,1,0,0:0:0:0:
320,192,210138,1,2,0:0:0:0:
192,192,210235,1,0,0:0:0:0:
448,192,210235,1,2,0:0:0:0:
64,192,210428,1,2,0:0:0:0:
192,192,210477,1,2,0:0:0:0:
320,192,210525,1,2,0:0:0:0:
448,192,210573,1,2,0:0:0:0:
192,192,210622,1,6,0:0:0:0:
64,192,210622,1,0,0:0:0:0:
320,192,210815,1,0,0:0:0:0:
64,192,211009,1,0,0:0:0:0:
192,192,211106,1,0,0:0:0:0:
320,192,211202,1,2,0:0:0:0:
448,192,211202,1,0,0:0:0:0:
64,192,211299,1,0,0:0:0:0:
192,192,211299,1,2,0:0:0:0:
192,192,211493,1,0,0:0:0:0:
320,192,211493,1,2,0:0:0:0:
448,192,211589,1,2,0:0:0:0:
64,192,211589,1,0,0:0:0:0:
320,192,211783,1,2,0:0:0:0:
64,192,211783,1,0,0:0:0:0:
192,192,211977,1,0,0:0:0:0:
448,192,211977,1,2,0:0:0:0:
320,192,212170,1,4,0:0:0:0:
448,192,212170,1,2,0:0:0:0:
64,192,212170,1,0,0:0:0:0:
192,192,212364,1,2,0:0:0:0:
320,192,212364,1,0,0:0:0:0:
448,192,212557,1,8,0:0:0:0:
64,192,212557,1,0,0:0:0:0:
64,192,212751,1,0,0:0:0:0:
192,192,212799,1,0,0:0:0:0:
448,192,212848,1,0,0:0:0:0:
320,192,212896,1,0,0:0:0:0:
192,192,212944,1,0,0:0:0:0:
64,192,212944,1,2,0:0:0:0:
320,192,213041,1,2,0:0:0:0:
448,192,213041,1,0,0:0:0:0:
192,192,213138,1,8,0:0:0:0:
64,192,213138,1,0,0:0:0:0:
320,192,213331,1,0,0:0:0:0:
192,192,213428,1,0,0:0:0:0:
320,192,213525,1,0,0:0:0:0:
448,192,213525,1,2,0:0:0:0:
192,192,213622,1,2,0:0:0:0:
64,192,213622,1,0,0:0:0:0:
320,192,213719,1,0,0:0:0:0:
448,192,213719,1,2,0:0:0:0:
192,192,213912,1,0,0:0:0:0:
448,192,213912,1,2,0:0:0:0:
64,192,214106,1,0,0:0:0:0:
320,192,214106,1,8,0:0:0:0:
448,192,214299,1,0,0:0:0:0:
320,192,214348,1,0,0:0:0:0:
192,192,214396,1,0,0:0:0:0:
64,192,214444,1,0,0:0:0:0:
320,192,214493,1,0,0:0:0:0:
448,192,214493,1,2,0:0:0:0:
192,192,214589,1,2,0:0:0:0:
64,192,214589,1,0,0:0:0:0:
320,192,214686,1,0,0:0:0:0:
448,192,214686,1,8,0:0:0:0:
192,192,214880,1,0,0:0:0:0:
320,192,214977,1,0,0:0:0:0:
448,192,215073,1,2,0:0:0:0:
192,192,215073,1,0,0:0:0:0:
64,192,215170,1,0,0:0:0:0:
320,192,215170,1,2,0:0:0:0:
448,192,215267,1,2,0:0:0:0:
192,192,215267,1,0,0:0:0:0:
320,192,215460,1,2,0:0:0:0:
192,192,215460,1,0,0:0:0:0:
192,192,215654,1,8,0:0:0:0:
64,192,215654,1,0,0:0:0:0:
448,192,215848,1,0,0:0:0:0:
320,192,215896,1,0,0:0:0:0:
64,192,215944,1,0,0:0:0:0:
192,192,215993,1,0,0:0:0:0:
320,192,216041,1,0,0:0:0:0:
448,192,216041,1,2,0:0:0:0:
192,192,216138,1,2,0:0:0:0:
64,192,216138,1,0,0:0:0:0:
320,192,216235,1,0,0:0:0:0:
448,192,216235,1,8,0:0:0:0:
192,192,216428,1,0,0:0:0:0:
320,192,216525,1,0,0:0:0:0:
448,192,216622,1,2,0:0:0:0:
64,192,216622,1,0,0:0:0:0:
192,192,216719,1,0,0:0:0:0:
320,192,216719,1,2,0:0:0:0:
448,192,216815,1,2,0:0:0:0:
64,192,216815,1,0,0:0:0:0:
192,192,217009,1,0,0:0:0:0:
320,192,217009,1,2,0:0:0:0:
64,192,217202,5,0,0:0:0:0:
320,192,217202,1,8,0:0:0:0:
448,192,217396,1,0,0:0:0:0:
320,192,217444,1,0,0:0:0:0:
192,192,217493,1,0,0:0:0:0:
64,192,217541,1,0,0:0:0:0:
320,192,217589,1,0,0:0:0:0:
448,192,217589,1,2,0:0:0:0:
192,192,217686,1,2,0:0:0:0:
64,192,217686,1,0,0:0:0:0:
320,192,217783,1,0,0:0:0:0:
448,192,217783,1,8,0:0:0:0:
64,192,217977,1,0,0:0:0:0:
192,192,218073,1,0,0:0:0:0:
448,192,218170,1,2,0:0:0:0:
320,192,218170,1,0,0:0:0:0:
192,192,218267,1,2,0:0:0:0:
64,192,218364,5,4,0:0:0:0:
320,192,218364,1,2,0:0:0:0:
192,192,218460,1,0,0:0:0:0:
448,192,218460,1,2,0:0:0:0:
64,192,218557,1,0,0:0:0:0:
320,192,218557,1,2,0:0:0:0:
192,192,218654,1,0,0:0:0:0:
448,192,218654,1,2,0:0:0:0:
64,192,218751,1,0,0:0:0:0:
320,192,218751,1,2,0:0:0:0:
192,192,218848,1,0,0:0:0:0:
448,192,218848,1,2,0:0:0:0:
64,192,218944,1,0,0:0:0:0:
320,192,218944,1,2,0:0:0:0:
192,192,219041,1,0,0:0:0:0:
448,192,219041,1,2,0:0:0:0:
64,192,219138,5,0,0:0:0:0:
320,192,219138,1,2,0:0:0:0:
448,192,219235,1,2,0:0:0:0:
192,192,219235,1,0,0:0:0:0:
64,192,219331,1,0,0:0:0:0:
320,192,219331,1,2,0:0:0:0:
192,192,219428,1,0,0:0:0:0:
448,192,219428,1,2,0:0:0:0:
64,192,219525,1,0,0:0:0:0:
320,192,219525,1,2,0:0:0:0:
448,192,219622,1,2,0:0:0:0:
192,192,219622,1,0,0:0:0:0:
64,192,219719,5,2,0:0:0:0:
192,192,219767,1,2,0:0:0:0:
320,192,219815,1,2,0:0:0:0:
448,192,219864,1,2,0:0:0:0:
192,192,219912,1,2,0:0:0:0:
64,192,219912,1,4,0:0:0:0:
448,192,220009,1,0,0:0:0:0:
320,192,220009,1,2,0:0:0:0:
192,192,220106,1,2,0:0:0:0:
64,192,220106,1,0,0:0:0:0:
320,192,220202,1,2,0:0:0:0:
448,192,220202,1,0,0:0:0:0:
192,192,220299,1,2,0:0:0:0:
64,192,220299,1,0,0:0:0:0:
320,192,220396,1,2,0:0:0:0:
448,192,220396,1,0,0:0:0:0:
192,192,220493,1,2,0:0:0:0:
64,192,220493,1,0,0:0:0:0:
320,192,220589,1,2,0:0:0:0:
448,192,220589,1,0,0:0:0:0:
64,192,220686,1,0,0:0:0:0:
192,192,220686,1,2,0:0:0:0:
320,192,220783,1,2,0:0:0:0:
448,192,220783,1,0,0:0:0:0:
64,192,220880,1,0,0:0:0:0:
192,192,220880,1,2,0:0:0:0:
320,192,220977,1,2,0:0:0:0:
448,192,220977,1,0,0:0:0:0:
192,192,221073,1,2,0:0:0:0:
64,192,221073,1,0,0:0:0:0:
320,192,221170,1,2,0:0:0:0:
448,192,221170,1,0,0:0:0:0:
64,192,221267,1,2,0:0:0:0:
192,192,221315,1,2,0:0:0:0:
448,192,221364,1,2,0:0:0:0:
320,192,221412,1,2,0:0:0:0:
192,192,221460,1,2,0:0:0:0:
64,192,221460,1,4,0:0:0:0:
448,192,221509,1,2,0:0:0:0:
320,192,221557,1,2,0:0:0:0:
192,192,221606,1,2,0:0:0:0:
64,192,221654,1,2,0:0:0:0:
448,192,221702,1,2,0:0:0:0:
320,192,221751,1,2,0:0:0:0:
64,192,221799,1,2,0:0:0:0:
192,192,221848,1,6,0:0:0:0:
320,192,221896,1,2,0:0:0:0:
448,192,221944,1,2,0:0:0:0:
64,192,221993,1,2,0:0:0:0:
192,192,222041,1,2,0:0:0:0:
448,192,222089,1,2,0:0:0:0:
320,192,222138,1,2,0:0:0:0:
64,192,222186,1,2,0:0:0:0:
192,192,222235,1,6,0:0:0:0:
448,192,222283,1,2,0:0:0:0:
320,192,222331,1,2,0:0:0:0:
192,192,222380,1,2,0:0:0:0:
64,192,222428,1,2,0:0:0:0:
448,192,222477,1,2,0:0:0:0:
320,192,222525,1,2,0:0:0:0:
64,192,222573,1,2,0:0:0:0:
192,192,222622,1,4,0:0:0:0:
448,192,222622,1,2,0:0:0:0:
320,192,222719,1,2,0:0:0:0:
64,192,222719,1,0,0:0:0:0:
448,192,222815,1,2,0:0:0:0:
192,192,222815,1,0,0:0:0:0:
320,192,222912,1,2,0:0:0:0:
64,192,222912,1,0,0:0:0:0:
448,192,223009,1,2,0:0:0:0:
192,192,223009,128,4,224557:0:0:0:0:
320,192,223589,128,0,223783:0:0:0:0:
64,192,223783,128,0,223977:0:0:0:0:
448,192,223977,128,0,224170:0:0:0:0:
64,192,224170,128,0,224364:0:0:0:0:
320,192,224364,128,0,224557:0:0:0:0:
64,192,224557,1,6,0:0:0:0:
448,192,224751,1,0,0:0:0:0:
64,192,224944,1,0,0:0:0:0:
320,192,224944,1,2,0:0:0:0:
192,192,225041,1,0,0:0:0:0:
320,192,225235,1,0,0:0:0:0:
192,192,225331,1,0,0:0:0:0:
448,192,225331,1,2,0:0:0:0:
320,192,225428,1,0,0:0:0:0:
64,192,225525,1,0,0:0:0:0:
192,192,225622,1,0,0:0:0:0:
448,192,225719,1,2,0:0:0:0:
320,192,225719,1,0,0:0:0:0:
192,192,225815,1,0,0:0:0:0:
320,192,226009,1,0,0:0:0:0:
192,192,226106,1,2,0:0:0:0:
64,192,226106,1,0,0:0:0:0:
320,192,226299,1,0,0:0:0:0:
192,192,226493,1,0,0:0:0:0:
448,192,226493,1,2,0:0:0:0:
320,192,226589,1,0,0:0:0:0:
192,192,226783,1,0,0:0:0:0:
64,192,226880,1,0,0:0:0:0:
320,192,226880,1,2,0:0:0:0:
192,192,226977,1,0,0:0:0:0:
320,192,227073,1,0,0:0:0:0:
64,192,227267,1,0,0:0:0:0:
192,192,227267,1,2,0:0:0:0:
448,192,227364,1,0,0:0:0:0:
320,192,227460,1,0,0:0:0:0:
192,192,227557,1,0,0:0:0:0:
448,192,227654,1,2,0:0:0:0:
320,192,227654,1,0,0:0:0:0:
64,192,227848,1,0,0:0:0:0:
192,192,228041,1,0,0:0:0:0:
448,192,228041,1,2,0:0:0:0:
320,192,228138,1,0,0:0:0:0:
192,192,228331,1,0,0:0:0:0:
64,192,228428,1,0,0:0:0:0:
320,192,228428,1,2,0:0:0:0:
192,192,228525,1,0,0:0:0:0:
320,192,228622,1,0,0:0:0:0:
448,192,228719,1,0,0:0:0:0:
192,192,228815,1,2,0:0:0:0:
64,192,228815,1,0,0:0:0:0:
320,192,228912,1,0,0:0:0:0:
192,192,229106,1,0,0:0:0:0:
320,192,229202,1,2,0:0:0:0:
64,192,229202,1,0,0:0:0:0:
448,192,229396,1,0,0:0:0:0:
192,192,229589,1,2,0:0:0:0:
64,192,229589,1,0,0:0:0:0:
320,192,229686,1,0,0:0:0:0:
192,192,229880,1,0,0:0:0:0:
448,192,229977,1,2,0:0:0:0:
64,192,229977,1,0,0:0:0:0:
320,192,230073,1,0,0:0:0:0:
192,192,230170,1,0,0:0:0:0:
64,192,230364,1,0,0:0:0:0:
320,192,230364,1,2,0:0:0:0:
192,192,230460,1,0,0:0:0:0:
320,192,230557,1,0,0:0:0:0:
448,192,230654,1,0,0:0:0:0:
192,192,230751,1,2,0:0:0:0:
64,192,230751,1,0,0:0:0:0:
320,192,230944,1,0,0:0:0:0:
192,192,231138,1,0,0:0:0:0:
448,192,231138,1,2,0:0:0:0:
320,192,231235,1,0,0:0:0:0:
192,192,231331,1,0,0:0:0:0:
64,192,231428,1,0,0:0:0:0:
320,192,231525,1,0,0:0:0:0:
448,192,231525,1,2,0:0:0:0:
192,192,231622,1,0,0:0:0:0:
320,192,231719,1,0,0:0:0:0:
448,192,231815,1,0,0:0:0:0:
320,192,231912,1,2,0:0:0:0:
64,192,231912,1,0,0:0:0:0:
192,192,232009,1,0,0:0:0:0:
320,192,232106,1,0,0:0:0:0:
448,192,232202,1,0,0:0:0:0:
192,192,232299,1,2,0:0:0:0:
64,192,232299,1,0,0:0:0:0:
320,192,232493,1,0,0:0:0:0:
192,192,232686,1,0,0:0:0:0:
448,192,232686,1,2,0:0:0:0:
320,192,232783,1,0,0:0:0:0:
192,192,232880,1,0,0:0:0:0:
320,192,232977,1,0,0:0:0:0:
448,192,233073,1,2,0:0:0:0:
64,192,233073,1,0,0:0:0:0:
192,192,233170,1,0,0:0:0:0:
320,192,233267,1,0,0:0:0:0:
192,192,233460,1,0,0:0:0:0:
448,192,233460,1,2,0:0:0:0:
320,192,233557,1,0,0:0:0:0:
64,192,233654,1,0,0:0:0:0:
192,192,233751,1,0,0:0:0:0:
448,192,233848,1,2,0:0:0:0:
320,192,233848,1,0,0:0:0:0:
192,192,234041,1,0,0:0:0:0:
320,192,234235,1,2,0:0:0:0:
64,192,234235,1,0,0:0:0:0:
192,192,234331,1,0,0:0:0:0:
320,192,234525,1,0,0:0:0:0:
64,192,234622,1,0,0:0:0:0:
448,192,234622,1,2,0:0:0:0:
192,192,234719,1,0,0:0:0:0:
320,192,234815,1,0,0:0:0:0:
448,192,235009,1,2,0:0:0:0:
320,192,235009,1,0,0:0:0:0:
192,192,235106,1,0,0:0:0:0:
320,192,235299,1,0,0:0:0:0:
192,192,235396,1,2,0:0:0:0:
64,192,235396,1,0,0:0:0:0:
448,192,235589,1,0,0:0:0:0:
320,192,235783,1,2,0:0:0:0:
64,192,235783,1,0,0:0:0:0:
192,192,235880,1,0,0:0:0:0:
320,192,236073,1,0,0:0:0:0:
192,192,236170,1,0,0:0:0:0:
448,192,236170,1,2,0:0:0:0:
320,192,236267,1,0,0:0:0:0:
192,192,236364,1,0,0:0:0:0:
64,192,236460,1,0,0:0:0:0:
448,192,236557,1,2,0:0:0:0:
320,192,236557,1,0,0:0:0:0:
192,192,236654,1,0,0:0:0:0:
320,192,236751,1,0,0:0:0:0:
448,192,236848,1,0,0:0:0:0:
192,192,236944,1,4,0:0:0:0:
64,192,236944,1,0,0:0:0:0:
320,192,236944,1,2,0:0:0:0:
192,192,237138,1,0,0:0:0:0:
448,192,237331,1,2,0:0:0:0:
320,192,237331,1,0,0:0:0:0:
192,192,237428,1,0,0:0:0:0:
320,192,237622,1,0,0:0:0:0:
192,192,237719,1,2,0:0:0:0:
64,192,237719,1,0,0:0:0:0:
448,192,237815,1,0,0:0:0:0:
320,192,237912,1,0,0:0:0:0:
192,192,238009,1,0,0:0:0:0:
320,192,238106,1,2,0:0:0:0:
64,192,238106,1,0,0:0:0:0:
192,192,238202,1,0,0:0:0:0:
448,192,238396,1,0,0:0:0:0:
192,192,238493,1,0,0:0:0:0:
320,192,238493,1,2,0:0:0:0:
64,192,238686,1,0,0:0:0:0:
192,192,238880,1,0,0:0:0:0:
448,192,238880,1,2,0:0:0:0:
320,192,238977,1,0,0:0:0:0:
192,192,239170,1,0,0:0:0:0:
64,192,239267,1,0,0:0:0:0:
320,192,239267,1,2,0:0:0:0:
192,192,239364,1,0,0:0:0:0:
320,192,239460,1,0,0:0:0:0:
64,192,239654,1,0,0:0:0:0:
448,192,239654,1,2,0:0:0:0:
192,192,239751,1,0,0:0:0:0:
320,192,239848,1,0,0:0:0:0:
448,192,239944,1,0,0:0:0:0:
64,192,240041,1,0,0:0:0:0:
192,192,240041,1,2,0:0:0:0:
320,192,240235,1,0,0:0:0:0:
448,192,240428,1,2,0:0:0:0:
192,192,240428,1,0,0:0:0:0:
320,192,240525,1,0,0:0:0:0:
192,192,240719,1,0,0:0:0:0:
448,192,240815,1,2,0:0:0:0:
64,192,240815,1,0,0:0:0:0:
320,192,240912,1,0,0:0:0:0:
192,192,241009,1,0,0:0:0:0:
320,192,241202,1,0,0:0:0:0:
448,192,241202,1,2,0:0:0:0:
192,192,241299,1,0,0:0:0:0:
320,192,241493,1,0,0:0:0:0:
192,192,241589,1,0,0:0:0:0:
448,192,241589,1,2,0:0:0:0:
320,192,241783,1,0,0:0:0:0:
64,192,241977,1,0,0:0:0:0:
448,192,241977,1,2,0:0:0:0:
192,192,242073,1,0,0:0:0:0:
320,192,242170,1,0,0:0:0:0:
192,192,242267,1,0,0:0:0:0:
320,192,242364,1,0,0:0:0:0:
448,192,242364,1,2,0:0:0:0:
192,192,242460,1,0,0:0:0:0:
320,192,242557,1,0,0:0:0:0:
192,192,242751,1,2,0:0:0:0:
64,192,242751,1,0,0:0:0:0:
448,192,242848,1,0,0:0:0:0:
320,192,242944,1,0,0:0:0:0:
192,192,243041,1,0,0:0:0:0:
64,192,243138,1,0,0:0:0:0:
448,192,243138,1,2,0:0:0:0:
320,192,243331,1,0,0:0:0:0:
192,192,243525,1,0,0:0:0:0:
448,192,243525,1,2,0:0:0:0:
320,192,243622,1,0,0:0:0:0:
192,192,243719,1,0,0:0:0:0:
64,192,243815,1,0,0:0:0:0:
448,192,243912,1,2,0:0:0:0:
192,192,243912,1,0,0:0:0:0:
320,192,244009,1,0,0:0:0:0:
64,192,244106,1,0,0:0:0:0:
192,192,244202,1,0,0:0:0:0:
320,192,244299,1,0,0:0:0:0:
448,192,244299,1,2,0:0:0:0:
192,192,244396,1,0,0:0:0:0:
320,192,244493,1,0,0:0:0:0:
448,192,244589,1,0,0:0:0:0:
192,192,244686,1,2,0:0:0:0:
64,192,244686,1,0,0:0:0:0:
320,192,244880,1,0,0:0:0:0:
448,192,245073,1,2,0:0:0:0:
192,192,245073,1,0,0:0:0:0:
320,192,245170,1,0,0:0:0:0:
192,192,245364,1,0,0:0:0:0:
320,192,245460,1,2,0:0:0:0:
64,192,245460,1,0,0:0:0:0:
192,192,245557,1,0,0:0:0:0:
320,192,245654,1,0,0:0:0:0:
64,192,245848,1,0,0:0:0:0:
448,192,245848,1,2,0:0:0:0:
320,192,245944,1,0,0:0:0:0:
192,192,246041,1,0,0:0:0:0:
64,192,246138,1,0,0:0:0:0:
320,192,246235,1,0,0:0:0:0:
448,192,246235,1,2,0:0:0:0:
192,192,246428,1,0,0:0:0:0:
64,192,246622,1,0,0:0:0:0:
448,192,246622,1,2,0:0:0:0:
320,192,246719,1,0,0:0:0:0:
192,192,246912,1,0,0:0:0:0:
448,192,247009,1,2,0:0:0:0:
64,192,247009,1,0,0:0:0:0:
320,192,247106,1,0,0:0:0:0:
192,192,247202,1,0,0:0:0:0:
64,192,247299,1,0,0:0:0:0:
448,192,247396,5,2,0:0:0:0:
320,192,247396,1,0,0:0:0:0:
192,192,247493,1,0,0:0:0:0:
320,192,247686,1,0,0:0:0:0:
448,192,247783,5,2,0:0:0:0:
192,192,247783,1,4,0:0:0:0:
64,192,247783,1,0,0:0:0:0:
320,192,247977,1,0,0:0:0:0:
448,192,248073,1,0,0:0:0:0:
192,192,248170,1,0,0:0:0:0:
64,192,248267,1,0,0:0:0:0:
320,192,248364,1,2,0:0:0:0:
448,192,248364,1,0,0:0:0:0:
192,192,248460,1,2,0:0:0:0:
64,192,248460,1,0,0:0:0:0:
448,192,248557,1,0,0:0:0:0:
320,192,248654,1,2,0:0:0:0:
192,192,248654,1,0,0:0:0:0:
64,192,248751,1,0,0:0:0:0:
448,192,248751,1,2,0:0:0:0:
192,192,248848,1,0,0:0:0:0:
448,192,248944,1,2,0:0:0:0:
320,192,248944,1,4,0:0:0:0:
64,192,248944,1,0,0:0:0:0:
192,192,249041,1,0,0:0:0:0:
64,192,249138,1,0,0:0:0:0:
320,192,249138,1,2,0:0:0:0:
192,192,249235,1,0,0:0:0:0:
448,192,249235,1,2,0:0:0:0:
64,192,249331,1,4,0:0:0:0:
320,192,249331,1,2,0:0:0:0:
192,192,249525,1,0,0:0:0:0:
320,192,249719,1,0,0:0:0:0:
448,192,249719,1,2,0:0:0:0:
192,192,249815,1,0,0:0:0:0:
320,192,250009,1,0,0:0:0:0:
448,192,250106,1,2,0:0:0:0:
192,192,250106,1,0,0:0:0:0:
320,192,250202,1,0,0:0:0:0:
192,192,250299,1,0,0:0:0:0:
448,192,250493,1,2,0:0:0:0:
320,192,250493,1,0,0:0:0:0:
64,192,250589,1,0,0:0:0:0:
192,192,250686,1,0,0:0:0:0:
320,192,250783,1,0,0:0:0:0:
448,192,250880,1,2,0:0:0:0:
64,192,250880,1,0,0:0:0:0:
192,192,251073,1,0,0:0:0:0:
320,192,251267,1,2,0:0:0:0:
64,192,251267,1,0,0:0:0:0:
192,192,251364,1,0,0:0:0:0:
320,192,251557,1,0,0:0:0:0:
448,192,251654,1,2,0:0:0:0:
64,192,251654,1,0,0:0:0:0:
192,192,251751,1,0,0:0:0:0:
320,192,251848,1,0,0:0:0:0:
192,192,252041,1,2,0:0:0:0:
64,192,252041,1,0,0:0:0:0:
320,192,252138,1,0,0:0:0:0:
192,192,252235,1,0,0:0:0:0:
64,192,252331,1,0,0:0:0:0:
320,192,252428,1,0,0:0:0:0:
448,192,252428,1,2,0:0:0:0:
192,192,252622,1,0,0:0:0:0:
448,192,252815,1,2,0:0:0:0:
64,192,252815,1,0,0:0:0:0:
320,192,252912,1,0,0:0:0:0:
64,192,253009,1,0,0:0:0:0:
192,192,253106,1,0,0:0:0:0:
320,192,253202,1,0,0:0:0:0:
448,192,253202,1,2,0:0:0:0:
64,192,253299,1,0,0:0:0:0:
192,192,253396,1,0,0:0:0:0:
320,192,253589,1,0,0:0:0:0:
448,192,253589,1,2,0:0:0:0:
192,192,253686,1,0,0:0:0:0:
320,192,253880,1,0,0:0:0:0:
192,192,253977,1,2,0:0:0:0:
64,192,253977,1,0,0:0:0:0:
320,192,254170,1,0,0:0:0:0:
64,192,254364,1,0,0:0:0:0:
448,192,254364,1,2,0:0:0:0:
192,192,254460,1,0,0:0:0:0:
320,192,254654,1,0,0:0:0:0:
448,192,254751,1,2,0:0:0:0:
192,192,254751,1,0,0:0:0:0:
320,192,254848,1,0,0:0:0:0:
192,192,254944,1,0,0:0:0:0:
320,192,255138,1,0,0:0:0:0:
448,192,255138,1,2,0:0:0:0:
192,192,255235,1,0,0:0:0:0:
320,192,255331,1,0,0:0:0:0:
192,192,255428,1,0,0:0:0:0:
448,192,255525,1,4,0:0:0:0:
64,192,255525,1,0,0:0:0:0:
320,192,255525,1,2,0:0:0:0:
64,192,255719,1,0,0:0:0:0:
448,192,255719,1,2,0:0:0:0:
192,192,255912,1,0,0:0:0:0:
448,192,255912,1,2,0:0:0:0:
320,192,256009,1,0,0:0:0:0:
448,192,256106,1,2,0:0:0:0:
64,192,256106,1,0,0:0:0:0:
192,192,256202,1,0,0:0:0:0:
448,192,256299,1,2,0:0:0:0:
320,192,256299,1,0,0:0:0:0:
192,192,256396,1,0,0:0:0:0:
64,192,256493,1,0,0:0:0:0:
448,192,256493,1,2,0:0:0:0:
320,192,256589,1,0,0:0:0:0:
64,192,256686,1,0,0:0:0:0:
192,192,256686,1,2,0:0:0:0:
448,192,256783,1,0,0:0:0:0:
64,192,256880,1,0,0:0:0:0:
320,192,256880,1,2,0:0:0:0:
192,192,256977,1,0,0:0:0:0:
448,192,257073,1,2,0:0:0:0:
64,192,257073,1,0,0:0:0:0:
320,192,257073,1,4,0:0:0:0:
64,192,257267,1,0,0:0:0:0:
448,192,257267,1,2,0:0:0:0:
192,192,257460,1,0,0:0:0:0:
320,192,257460,1,2,0:0:0:0:
64,192,257557,1,0,0:0:0:0:
448,192,257654,1,2,0:0:0:0:
320,192,257654,1,0,0:0:0:0:
192,192,257751,1,0,0:0:0:0:
64,192,257848,1,0,0:0:0:0:
448,192,257848,1,2,0:0:0:0:
320,192,257944,1,0,0:0:0:0:
192,192,258041,1,2,0:0:0:0:
64,192,258041,1,0,0:0:0:0:
320,192,258138,1,0,0:0:0:0:
448,192,258235,1,2,0:0:0:0:
64,192,258235,1,0,0:0:0:0:
192,192,258331,1,0,0:0:0:0:
448,192,258428,1,2,0:0:0:0:
320,192,258428,1,0,0:0:0:0:
192,192,258525,1,0,0:0:0:0:
320,192,258622,1,2,0:0:0:0:
64,192,258622,1,4,0:0:0:0:
448,192,258719,1,2,0:0:0:0:
192,192,258719,1,0,0:0:0:0:
64,192,258815,1,0,0:0:0:0:
320,192,258815,1,2,0:0:0:0:
448,192,258912,1,2,0:0:0:0:
192,192,258912,1,0,0:0:0:0:
64,192,259009,1,0,0:0:0:0:
320,192,259009,1,2,0:0:0:0:
448,192,259106,1,2,0:0:0:0:
192,192,259106,1,0,0:0:0:0:
64,192,259202,1,0,0:0:0:0:
320,192,259202,1,2,0:0:0:0:
448,192,259299,1,2,0:0:0:0:
192,192,259299,1,0,0:0:0:0:
64,192,259396,1,4,0:0:0:0:
320,192,259396,1,2,0:0:0:0:
448,192,259493,1,2,0:0:0:0:
192,192,259493,1,0,0:0:0:0:
64,192,259589,1,0,0:0:0:0:
320,192,259589,1,2,0:0:0:0:
448,192,259686,1,2,0:0:0:0:
192,192,259686,1,0,0:0:0:0:
64,192,259783,1,0,0:0:0:0:
320,192,259783,1,2,0:0:0:0:
448,192,259880,1,2,0:0:0:0:
192,192,259880,1,0,0:0:0:0:
64,192,259977,1,0,0:0:0:0:
320,192,259977,1,2,0:0:0:0:
448,192,260073,1,2,0:0:0:0:
192,192,260073,1,0,0:0:0:0:
320,192,260170,1,6,0:0:0:0:
192,192,260267,1,0,0:0:0:0:
64,192,260364,1,2,0:0:0:0:
192,192,260412,1,2,0:0:0:0:
320,192,260460,1,2,0:0:0:0:
448,192,260509,1,2,0:0:0:0:
64,192,260557,1,6,0:0:0:0:
192,192,260606,1,2,0:0:0:0:
320,192,260654,1,2,0:0:0:0:
448,192,260702,1,2,0:0:0:0:
320,192,260751,1,2,0:0:0:0:
192,192,260799,1,2,0:0:0:0:
64,192,260848,1,2,0:0:0:0:
448,192,260896,1,2,0:0:0:0:
320,192,260944,1,6,0:0:0:0:
64,192,260993,1,2,0:0:0:0:
192,192,261041,1,2,0:0:0:0:
448,192,261089,1,2,0:0:0:0:
320,192,261138,1,2,0:0:0:0:
64,192,261186,1,2,0:0:0:0:
192,192,261235,1,2,0:0:0:0:
320,192,261283,1,2,0:0:0:0:
448,192,261331,1,2,0:0:0:0:
64,192,261331,1,4,0:0:0:0:
320,192,261428,1,2,0:0:0:0:
192,192,261428,1,0,0:0:0:0:
448,192,261525,1,2,0:0:0:0:
64,192,261525,1,0,0:0:0:0:
320,192,261622,1,2,0:0:0:0:
192,192,261622,1,0,0:0:0:0:
448,192,261719,128,2,264815:0:0:0:0:
64,192,261719,1,4,0:0:0:0:
192,192,261912,1,0,0:0:0:0:
64,192,262106,1,0,0:0:0:0:
320,192,262299,1,0,0:0:0:0:
192,192,262493,1,0,0:0:0:0:
320,192,262686,1,0,0:0:0:0:
64,192,262880,1,0,0:0:0:0:
320,192,263073,1,0,0:0:0:0:
192,192,263267,1,0,0:0:0:0:
64,192,263460,1,0,0:0:0:0:
192,192,263654,1,0,0:0:0:0:
320,192,263848,1,0,0:0:0:0:
64,192,264041,1,0,0:0:0:0:
320,192,264235,1,0,0:0:0:0:
192,192,264428,1,0,0:0:0:0:
64,192,264622,1,0,0:0:0:0:
192,192,264815,1,0,0:0:0:0:
64,192,265009,1,0,0:0:0:0:
320,192,265202,1,0,0:0:0:0:
192,192,265396,1,0,0:0:0:0:
448,192,265589,1,0,0:0:0:0:
320,192,265783,1,0,0:0:0:0:
64,192,265977,1,0,0:0:0:0:
448,192,266170,1,0,0:0:0:0:
192,192,266364,1,0,0:0:0:0:
320,192,266557,1,0,0:0:0:0:
192,192,266751,1,0,0:0:0:0:
64,192,266848,1,0,0:0:0:0:
320,192,266944,1,0,0:0:0:0:
192,192,267138,1,0,0:0:0:0:
448,192,267331,1,0,0:0:0:0:
192,192,267525,1,0,0:0:0:0:
320,192,267719,1,0,0:0:0:0:
448,192,267719,1,0,0:0:0:0:
192,192,267912,1,0,0:0:0:0:
64,192,267912,1,0,0:0:0:0:
320,192,268106,128,0,268299:0:0:0:0:
448,192,268299,1,0,0:0:0:0:
64,192,268299,1,0,0:0:0:0:
192,192,268493,128,0,268686:0:0:0:0:
320,192,268686,1,0,0:0:0:0:
448,192,268686,1,0,0:0:0:0:
64,192,268880,128,0,269073:0:0:0:0:
448,192,269073,1,0,0:0:0:0:
192,192,269073,1,0,0:0:0:0:
320,192,269267,128,0,269460:0:0:0:0:
64,192,269460,1,0,0:0:0:0:
448,192,269460,1,0,0:0:0:0:
192,192,269589,1,0,0:0:0:0:
320,192,269719,1,0,0:0:0:0:
448,192,269848,1,0,0:0:0:0:
64,192,269848,1,0,0:0:0:0:
192,192,270041,128,0,270235:0:0:0:0:
64,192,270235,1,0,0:0:0:0:
320,192,270235,1,0,0:0:0:0:
448,192,270428,128,0,270622:0:0:0:0:
192,192,270622,1,0,0:0:0:0:
64,192,270622,1,0,0:0:0:0:
320,192,270815,128,0,271009:0:0:0:0:
192,192,270815,1,0,0:0:0:0:
64,192,271009,1,0,0:0:0:0:
448,192,271009,1,0,0:0:0:0:
192,192,271202,128,0,271396:0:0:0:0:
320,192,271396,1,0,0:0:0:0:
448,192,271396,1,0,0:0:0:0:
64,192,271589,128,0,271783:0:0:0:0:
448,192,271783,1,0,0:0:0:0:
192,192,271783,1,0,0:0:0:0:
320,192,271977,128,0,272170:0:0:0:0:
448,192,272170,1,0,0:0:0:0:
64,192,272170,1,0,0:0:0:0:
192,192,272364,128,0,272557:0:0:0:0:
320,192,272557,1,0,0:0:0:0:
448,192,272557,1,0,0:0:0:0:
64,192,272654,1,0,0:0:0:0:
192,192,272751,1,0,0:0:0:0:
320,192,272848,1,0,0:0:0:0:
64,192,272944,1,0,0:0:0:0:
448,192,273138,1,0,0:0:0:0:
320,192,273235,1,0,0:0:0:0:
64,192,273331,1,0,0:0:0:0:
192,192,273428,1,0,0:0:0:0:
320,192,273525,1,0,0:0:0:0:
192,192,273719,1,0,0:0:0:0:
448,192,273815,1,0,0:0:0:0:
64,192,273912,1,0,0:0:0:0:
320,192,274009,1,0,0:0:0:0:
192,192,274106,1,4,0:0:0:0:
64,192,274106,1,0,0:0:0:0:
448,192,274106,1,2,0:0:0:0:
320,192,274396,1,0,0:0:0:0:
64,192,274493,1,0,0:0:0:0:
448,192,274493,1,2,0:0:0:0:
192,192,274686,1,0,0:0:0:0:
320,192,274880,1,2,0:0:0:0:
64,192,274880,1,0,0:0:0:0:
64,192,275170,1,0,0:0:0:0:
192,192,275219,1,0,0:0:0:0:
448,192,275267,1,2,0:0:0:0:
320,192,275267,1,0,0:0:0:0:
192,192,275460,1,0,0:0:0:0:
448,192,275654,1,2,0:0:0:0:
64,192,275654,1,0,0:0:0:0:
320,192,275944,1,0,0:0:0:0:
448,192,276041,1,2,0:0:0:0:
192,192,276041,1,0,0:0:0:0:
64,192,276235,1,0,0:0:0:0:
320,192,276428,1,2,0:0:0:0:
192,192,276428,1,0,0:0:0:0:
448,192,276719,1,0,0:0:0:0:
192,192,276815,1,2,0:0:0:0:
64,192,276815,1,0,0:0:0:0:
320,192,277009,1,0,0:0:0:0:
64,192,277202,1,0,0:0:0:0:
448,192,277202,1,2,0:0:0:0:
192,192,277493,1,0,0:0:0:0:
448,192,277589,1,2,0:0:0:0:
320,192,277589,1,0,0:0:0:0:
192,192,277783,1,0,0:0:0:0:
320,192,277977,1,2,0:0:0:0:
64,192,277977,1,0,0:0:0:0:
320,192,278267,1,0,0:0:0:0:
448,192,278364,1,2,0:0:0:0:
192,192,278364,1,0,0:0:0:0:
64,192,278557,1,0,0:0:0:0:
320,192,278751,1,0,0:0:0:0:
448,192,278751,1,2,0:0:0:0:
192,192,278848,1,0,0:0:0:0:
64,192,278944,1,0,0:0:0:0:
192,192,279041,1,0,0:0:0:0:
320,192,279138,1,0,0:0:0:0:
448,192,279138,1,2,0:0:0:0:
192,192,279235,1,0,0:0:0:0:
320,192,279331,1,0,0:0:0:0:
192,192,279428,1,0,0:0:0:0:
448,192,279525,1,2,0:0:0:0:
64,192,279525,1,0,0:0:0:0:
320,192,279815,1,0,0:0:0:0:
448,192,279912,1,2,0:0:0:0:
192,192,279912,1,0,0:0:0:0:
320,192,280106,1,0,0:0:0:0:
192,192,280299,1,4,0:0:0:0:
64,192,280299,1,0,0:0:0:0:
448,192,280299,1,2,0:0:0:0:
448,192,280493,1,2,0:0:0:0:
320,192,280493,1,0,0:0:0:0:
192,192,280589,1,0,0:0:0:0:
64,192,280686,1,0,0:0:0:0:
448,192,280686,1,2,0:0:0:0:
320,192,280880,1,2,0:0:0:0:
192,192,280880,1,0,0:0:0:0:
448,192,281073,1,2,0:0:0:0:
192,192,281073,1,0,0:0:0:0:
192,192,281267,1,2,0:0:0:0:
64,192,281267,1,0,0:0:0:0:
320,192,281364,1,0,0:0:0:0:
448,192,281460,1,2,0:0:0:0:
64,192,281460,1,0,0:0:0:0:
192,192,281654,1,0,0:0:0:0:
448,192,281654,1,2,0:0:0:0:
320,192,281848,1,2,0:0:0:0:
64,192,281848,1,0,0:0:0:0:
192,192,281848,1,4,0:0:0:0:
448,192,282041,1,2,0:0:0:0:
64,192,282041,1,0,0:0:0:0:
192,192,282138,1,0,0:0:0:0:
320,192,282235,1,0,0:0:0:0:
448,192,282235,1,2,0:0:0:0:
192,192,282428,1,2,0:0:0:0:
64,192,282428,1,0,0:0:0:0:
320,192,282622,1,2,0:0:0:0:
192,192,282622,1,0,0:0:0:0:
448,192,282815,1,2,0:0:0:0:
192,192,282815,1,0,0:0:0:0:
320,192,282912,1,0,0:0:0:0:
192,192,283009,1,2,0:0:0:0:
64,192,283009,1,0,0:0:0:0:
448,192,283202,1,2,0:0:0:0:
320,192,283202,1,0,0:0:0:0:
192,192,283396,1,2,0:0:0:0:
64,192,283396,1,4,0:0:0:0:
320,192,283493,1,2,0:0:0:0:
448,192,283493,1,0,0:0:0:0:
192,192,283589,1,2,0:0:0:0:
64,192,283589,1,0,0:0:0:0:
320,192,283686,1,2,0:0:0:0:
448,192,283686,1,0,0:0:0:0:
192,192,283783,1,2,0:0:0:0:
64,192,283783,1,4,0:0:0:0:
320,192,283880,1,2,0:0:0:0:
448,192,283880,1,0,0:0:0:0:
192,192,283977,1,2,0:0:0:0:
64,192,283977,1,0,0:0:0:0:
320,192,284073,1,2,0:0:0:0:
192,192,284170,1,2,0:0:0:0:
448,192,284170,1,4,0:0:0:0:
64,192,284267,1,0,0:0:0:0:
320,192,284267,1,2,0:0:0:0:
192,192,284364,1,2,0:0:0:0:
448,192,284364,1,0,0:0:0:0:
320,192,284460,1,2,0:0:0:0:
64,192,284460,1,0,0:0:0:0:
192,192,284557,1,2,0:0:0:0:
448,192,284557,1,4,0:0:0:0:
320,192,284654,1,2,0:0:0:0:
64,192,284654,1,0,0:0:0:0:
192,192,284751,1,2,0:0:0:0:
448,192,284751,1,0,0:0:0:0:
320,192,284848,1,2,0:0:0:0:
64,192,284944,1,4,0:0:0:0:
192,192,284944,1,2,0:0:0:0:
320,192,285041,1,0,0:0:0:0:
448,192,285138,1,0,0:0:0:0:
320,192,285235,1,0,0:0:0:0:
192,192,285331,1,0,0:0:0:0:
64,192,285428,1,0,0:0:0:0:
192,192,285525,1,0,0:0:0:0:
320,192,285622,1,0,0:0:0:0:
448,192,285622,1,2,0:0:0:0:
192,192,285815,1,0,0:0:0:0:
448,192,285815,1,2,0:0:0:0:
320,192,285912,1,2,0:0:0:0:
64,192,285912,1,0,0:0:0:0:
192,192,286009,1,0,0:0:0:0:
448,192,286106,1,2,0:0:0:0:
64,192,286106,1,0,0:0:0:0:
320,192,286202,1,0,0:0:0:0:
192,192,286299,1,2,0:0:0:0:
64,192,286299,1,0,0:0:0:0:
320,192,286396,1,2,0:0:0:0:
448,192,286396,1,0,0:0:0:0:
192,192,286493,1,2,0:0:0:0:
64,192,286493,1,4,0:0:0:0:
192,192,286686,1,0,0:0:0:0:
448,192,286686,1,2,0:0:0:0:
320,192,286880,1,8,0:0:0:0:
64,192,286880,1,0,0:0:0:0:
448,192,287073,1,0,0:0:0:0:
320,192,287122,1,0,0:0:0:0:
64,192,287170,1,0,0:0:0:0:
192,192,287219,1,0,0:0:0:0:
448,192,287267,1,0,0:0:0:0:
320,192,287267,1,2,0:0:0:0:
192,192,287364,1,2,0:0:0:0:
64,192,287364,1,0,0:0:0:0:
320,192,287460,1,0,0:0:0:0:
448,192,287460,1,8,0:0:0:0:
192,192,287654,1,0,0:0:0:0:
320,192,287751,1,0,0:0:0:0:
192,192,287848,1,0,0:0:0:0:
448,192,287848,1,2,0:0:0:0:
320,192,287944,1,2,0:0:0:0:
64,192,287944,1,0,0:0:0:0:
192,192,288041,1,0,0:0:0:0:
448,192,288041,1,2,0:0:0:0:
320,192,288235,1,2,0:0:0:0:
64,192,288235,1,0,0:0:0:0:
448,192,288428,1,8,0:0:0:0:
64,192,288428,1,0,0:0:0:0:
192,192,288622,1,0,0:0:0:0:
320,192,288670,1,0,0:0:0:0:
448,192,288719,1,0,0:0:0:0:
64,192,288767,1,0,0:0:0:0:
192,192,288815,1,0,0:0:0:0:
320,192,288815,1,2,0:0:0:0:
448,192,288912,1,2,0:0:0:0:
64,192,288912,1,0,0:0:0:0:
192,192,289009,1,0,0:0:0:0:
320,192,289009,1,8,0:0:0:0:
448,192,289202,1,0,0:0:0:0:
192,192,289299,1,0,0:0:0:0:
320,192,289396,1,2,0:0:0:0:
448,192,289396,1,0,0:0:0:0:
192,192,289493,1,2,0:0:0:0:
64,192,289493,1,0,0:0:0:0:
320,192,289589,1,2,0:0:0:0:
448,192,289589,1,0,0:0:0:0:
64,192,289783,1,0,0:0:0:0:
448,192,289783,1,2,0:0:0:0:
320,192,289977,1,8,0:0:0:0:
192,192,289977,1,0,0:0:0:0:
448,192,290170,1,0,0:0:0:0:
320,192,290219,1,0,0:0:0:0:
192,192,290267,1,0,0:0:0:0:
64,192,290315,1,0,0:0:0:0:
320,192,290364,1,2,0:0:0:0:
448,192,290364,1,0,0:0:0:0:
64,192,290460,1,0,0:0:0:0:
192,192,290460,1,2,0:0:0:0:
320,192,290557,1,0,0:0:0:0:
448,192,290557,1,8,0:0:0:0:
192,192,290751,1,0,0:0:0:0:
320,192,290848,1,0,0:0:0:0:
448,192,290944,1,2,0:0:0:0:
64,192,290944,1,0,0:0:0:0:
320,192,291041,1,2,0:0:0:0:
192,192,291041,1,0,0:0:0:0:
448,192,291138,1,2,0:0:0:0:
64,192,291138,1,0,0:0:0:0:
320,192,291331,1,2,0:0:0:0:
64,192,291331,1,0,0:0:0:0:
448,192,291525,5,8,0:0:0:0:
192,192,291525,1,0,0:0:0:0:
64,192,291719,1,0,0:0:0:0:
192,192,291767,1,0,0:0:0:0:
448,192,291815,1,0,0:0:0:0:
320,192,291864,1,0,0:0:0:0:
192,192,291912,1,2,0:0:0:0:
64,192,291912,1,0,0:0:0:0:
320,192,292009,1,2,0:0:0:0:
448,192,292009,1,0,0:0:0:0:
192,192,292106,1,8,0:0:0:0:
64,192,292106,1,0,0:0:0:0:
320,192,292299,1,0,0:0:0:0:
448,192,292396,1,0,0:0:0:0:
64,192,292493,1,0,0:0:0:0:
192,192,292493,1,2,0:0:0:0:
320,192,292589,1,2,0:0:0:0:
192,192,292686,5,4,0:0:0:0:
448,192,292686,1,2,0:0:0:0:
320,192,292783,1,2,0:0:0:0:
64,192,292783,1,0,0:0:0:0:
448,192,292880,1,2,0:0:0:0:
192,192,292880,1,0,0:0:0:0:
320,192,292977,1,2,0:0:0:0:
64,192,292977,1,0,0:0:0:0:
448,192,293073,1,2,0:0:0:0:
192,192,293073,1,0,0:0:0:0:
320,192,293170,1,2,0:0:0:0:
64,192,293170,1,0,0:0:0:0:
448,192,293267,1,2,0:0:0:0:
192,192,293267,1,0,0:0:0:0:
320,192,293364,1,2,0:0:0:0:
64,192,293364,1,0,0:0:0:0:
448,192,293460,1,2,0:0:0:0:
192,192,293460,1,0,0:0:0:0:
320,192,293557,1,2,0:0:0:0:
64,192,293557,1,0,0:0:0:0:
448,192,293654,1,2,0:0:0:0:
192,192,293654,1,0,0:0:0:0:
320,192,293751,1,2,0:0:0:0:
64,192,293751,1,0,0:0:0:0:
448,192,293848,1,2,0:0:0:0:
192,192,293848,1,0,0:0:0:0:
320,192,293944,1,2,0:0:0:0:
64,192,293944,1,0,0:0:0:0:
192,192,294041,1,2,0:0:0:0:
64,192,294089,1,2,0:0:0:0:
448,192,294138,1,2,0:0:0:0:
320,192,294186,1,2,0:0:0:0:
64,192,294235,1,4,0:0:0:0:
192,192,294235,1,2,0:0:0:0:
320,192,294331,1,2,0:0:0:0:
448,192,294331,1,0,0:0:0:0:
192,192,294428,1,2,0:0:0:0:
64,192,294428,1,0,0:0:0:0:
320,192,294525,1,2,0:0:0:0:
448,192,294525,1,0,0:0:0:0:
192,192,294622,1,2,0:0:0:0:
64,192,294622,1,0,0:0:0:0:
320,192,294719,1,2,0:0:0:0:
448,192,294719,1,0,0:0:0:0:
192,192,294815,1,2,0:0:0:0:
64,192,294815,1,0,0:0:0:0:
320,192,294912,1,2,0:0:0:0:
448,192,294912,1,0,0:0:0:0:
64,192,295009,1,0,0:0:0:0:
192,192,295009,1,2,0:0:0:0:
448,192,295106,1,0,0:0:0:0:
320,192,295106,1,2,0:0:0:0:
192,192,295202,1,2,0:0:0:0:
64,192,295202,1,0,0:0:0:0:
448,192,295299,1,0,0:0:0:0:
320,192,295299,1,2,0:0:0:0:
192,192,295396,1,2,0:0:0:0:
64,192,295396,1,0,0:0:0:0:
448,192,295493,1,0,0:0:0:0:
320,192,295493,1,2,0:0:0:0:
64,192,295589,1,2,0:0:0:0:
192,192,295638,1,2,0:0:0:0:
320,192,295686,1,2,0:0:0:0:
448,192,295735,1,2,0:0:0:0:
192,192,295783,1,2,0:0:0:0:
64,192,295783,1,4,0:0:0:0:
320,192,295831,1,2,0:0:0:0:
448,192,295880,1,2,0:0:0:0:
192,192,295928,1,2,0:0:0:0:
64,192,295977,1,2,0:0:0:0:
448,192,296025,1,2,0:0:0:0:
320,192,296073,1,2,0:0:0:0:
192,192,296122,1,2,0:0:0:0:
64,192,296170,1,6,0:0:0:0:
192,192,296219,1,2,0:0:0:0:
320,192,296267,1,2,0:0:0:0:
448,192,296315,1,2,0:0:0:0:
64,192,296364,1,2,0:0:0:0:
192,192,296412,1,2,0:0:0:0:
320,192,296460,1,2,0:0:0:0:
448,192,296509,1,2,0:0:0:0:
64,192,296557,1,6,0:0:0:0:
192,192,296606,1,2,0:0:0:0:
448,192,296654,1,2,0:0:0:0:
320,192,296702,1,2,0:0:0:0:
192,192,296751,1,2,0:0:0:0:
64,192,296799,1,2,0:0:0:0:
192,192,296848,1,2,0:0:0:0:
320,192,296896,1,2,0:0:0:0:
64,192,296944,1,0,0:0:0:0:
448,192,296944,1,6,0:0:0:0:
320,192,297041,1,2,0:0:0:0:
192,192,297041,1,0,0:0:0:0:
64,192,297138,1,0,0:0:0:0:
448,192,297138,1,2,0:0:0:0:
320,192,297235,1,2,0:0:0:0:
192,192,297235,1,0,0:0:0:0:
64,192,297331,1,4,0:0:0:0:
448,192,297331,128,2,298880:0:0:0:0:
192,192,297912,128,0,298106:0:0:0:0:
320,192,298106,128,0,298299:0:0:0:0:
64,192,298299,128,0,298493:0:0:0:0:
320,192,298493,128,0,298686:0:0:0:0:
192,192,298686,128,0,298880:0:0:0:0:
64,192,298880,1,6,0:0:0:0:
320,192,299073,1,0,0:0:0:0:
64,192,299267,1,0,0:0:0:0:
448,192,299267,1,2,0:0:0:0:
192,192,299364,1,0,0:0:0:0:
320,192,299557,1,0,0:0:0:0:
448,192,299654,1,2,0:0:0:0:
192,192,299654,1,0,0:0:0:0:
320,192,299751,1,0,0:0:0:0:
192,192,299848,1,0,0:0:0:0:
64,192,299944,1,0,0:0:0:0:
320,192,300041,1,0,0:0:0:0:
448,192,300041,1,2,0:0:0:0:
192,192,300138,1,0,0:0:0:0:
320,192,300331,1,0,0:0:0:0:
64,192,300428,1,0,0:0:0:0:
192,192,300428,1,2,0:0:0:0:
320,192,300622,1,0,0:0:0:0:
192,192,300815,1,0,0:0:0:0:
448,192,300815,1,2,0:0:0:0:
320,192,300912,1,0,0:0:0:0:
192,192,301106,1,0,0:0:0:0:
64,192,301202,1,0,0:0:0:0:
448,192,301202,1,2,0:0:0:0:
320,192,301299,1,0,0:0:0:0:
192,192,301396,1,0,0:0:0:0:
320,192,301589,1,2,0:0:0:0:
64,192,301589,1,0,0:0:0:0:
192,192,301686,1,0,0:0:0:0:
320,192,301783,1,0,0:0:0:0:
448,192,301880,1,0,0:0:0:0:
192,192,301977,1,2,0:0:0:0:
64,192,301977,1,0,0:0:0:0:
320,192,302170,1,0,0:0:0:0:
64,192,302364,1,0,0:0:0:0:
448,192,302364,1,2,0:0:0:0:
192,192,302460,1,0,0:0:0:0:
320,192,302654,1,0,0:0:0:0:
192,192,302751,1,0,0:0:0:0:
448,192,302751,1,2,0:0:0:0:
320,192,302848,1,0,0:0:0:0:
64,192,302944,1,0,0:0:0:0:
192,192,303041,1,0,0:0:0:0:
448,192,303138,1,2,0:0:0:0:
320,192,303138,1,0,0:0:0:0:
64,192,303235,1,0,0:0:0:0:
192,192,303428,1,0,0:0:0:0:
320,192,303525,1,0,0:0:0:0:
448,192,303525,1,2,0:0:0:0:
192,192,303719,1,0,0:0:0:0:
64,192,303912,1,0,0:0:0:0:
320,192,303912,1,2,0:0:0:0:
192,192,304009,1,0,0:0:0:0:
320,192,304202,1,0,0:0:0:0:
64,192,304299,1,0,0:0:0:0:
448,192,304299,1,2,0:0:0:0:
192,192,304396,1,0,0:0:0:0:
320,192,304493,1,0,0:0:0:0:
192,192,304686,1,2,0:0:0:0:
64,192,304686,1,0,0:0:0:0:
448,192,304783,1,0,0:0:0:0:
320,192,304880,1,0,0:0:0:0:
192,192,304977,1,0,0:0:0:0:
64,192,305073,1,0,0:0:0:0:
448,192,305073,1,2,0:0:0:0:
320,192,305267,1,0,0:0:0:0:
64,192,305460,1,0,0:0:0:0:
192,192,305460,1,2,0:0:0:0:
448,192,305557,1,0,0:0:0:0:
320,192,305654,1,0,0:0:0:0:
192,192,305751,1,0,0:0:0:0:
448,192,305848,1,2,0:0:0:0:
64,192,305848,1,0,0:0:0:0:
320,192,305944,1,0,0:0:0:0:
192,192,306041,1,0,0:0:0:0:
320,192,306138,1,0,0:0:0:0:
64,192,306235,1,0,0:0:0:0:
448,192,306235,1,2,0:0:0:0:
192,192,306331,1,0,0:0:0:0:
320,192,306428,1,0,0:0:0:0:
448,192,306525,1,0,0:0:0:0:
64,192,306622,1,0,0:0:0:0:
192,192,306622,1,2,0:0:0:0:
320,192,306815,1,0,0:0:0:0:
448,192,307009,1,2,0:0:0:0:
192,192,307009,1,0,0:0:0:0:
320,192,307106,1,0,0:0:0:0:
192,192,307202,1,0,0:0:0:0:
64,192,307299,1,0,0:0:0:0:
320,192,307396,1,0,0:0:0:0:
448,192,307396,1,2,0:0:0:0:
192,192,307493,1,0,0:0:0:0:
320,192,307589,1,0,0:0:0:0:
448,192,307783,1,2,0:0:0:0:
192,192,307783,1,0,0:0:0:0:
320,192,307880,1,0,0:0:0:0:
192,192,307977,1,0,0:0:0:0:
64,192,308073,1,0,0:0:0:0:
320,192,308170,1,0,0:0:0:0:
448,192,308170,1,2,0:0:0:0:
192,192,308364,1,0,0:0:0:0:
64,192,308557,1,0,0:0:0:0:
320,192,308557,1,2,0:0:0:0:
192,192,308654,1,0,0:0:0:0:
320,192,308848,1,0,0:0:0:0:
448,192,308944,1,2,0:0:0:0:
192,192,308944,1,0,0:0:0:0:
320,192,309041,1,0,0:0:0:0:
192,192,309138,1,0,0:0:0:0:
320,192,309331,1,0,0:0:0:0:
448,192,309331,1,2,0:0:0:0:
192,192,309428,1,0,0:0:0:0:
320,192,309622,1,0,0:0:0:0:
64,192,309719,1,0,0:0:0:0:
192,192,309719,1,2,0:0:0:0:
320,192,309912,1,0,0:0:0:0:
448,192,310106,1,2,0:0:0:0:
192,192,310106,1,0,0:0:0:0:
320,192,310202,1,0,0:0:0:0:
192,192,310396,1,0,0:0:0:0:
320,192,310493,1,2,0:0:0:0:
64,192,310493,1,0,0:0:0:0:
192,192,310589,1,0,0:0:0:0:
448,192,310686,1,0,0:0:0:0:
320,192,310783,1,0,0:0:0:0:
64,192,310880,1,0,0:0:0:0:
192,192,310880,1,2,0:0:0:0:
448,192,310977,1,0,0:0:0:0:
320,192,311073,1,0,0:0:0:0:
192,192,311170,1,0,0:0:0:0:
448,192,311267,1,2,0:0:0:0:
64,192,311267,1,0,0:0:0:0:
320,192,311267,1,4,0:0:0:0:
192,192,311460,1,0,0:0:0:0:
320,192,311654,1,0,0:0:0:0:
448,192,311654,1,0,0:0:0:0:
192,192,311751,1,0,0:0:0:0:
320,192,311944,1,0,0:0:0:0:
192,192,312041,1,0,0:0:0:0:
448,192,312041,1,2,0:0:0:0:
320,192,312138,1,0,0:0:0:0:
192,192,312235,1,0,0:0:0:0:
64,192,312331,1,0,0:0:0:0:
448,192,312428,1,2,0:0:0:0:
320,192,312428,1,0,0:0:0:0:
192,192,312525,1,0,0:0:0:0:
320,192,312719,1,0,0:0:0:0:
448,192,312815,1,2,0:0:0:0:
192,192,312815,1,0,0:0:0:0:
320,192,313009,1,0,0:0:0:0:
64,192,313202,1,0,0:0:0:0:
448,192,313202,1,2,0:0:0:0:
192,192,313299,1,0,0:0:0:0:
320,192,313493,1,0,0:0:0:0:
64,192,313589,1,0,0:0:0:0:
448,192,313589,1,2,0:0:0:0:
192,192,313686,1,0,0:0:0:0:
320,192,313783,1,0,0:0:0:0:
64,192,313977,1,0,0:0:0:0:
192,192,313977,1,2,0:0:0:0:
448,192,314073,1,0,0:0:0:0:
192,192,314170,1,0,0:0:0:0:
320,192,314267,1,0,0:0:0:0:
192,192,314364,1,0,0:0:0:0:
448,192,314364,1,2,0:0:0:0:
320,192,314557,1,0,0:0:0:0:
64,192,314751,1,0,0:0:0:0:
448,192,314751,1,2,0:0:0:0:
192,192,314848,1,0,0:0:0:0:
448,192,315041,1,0,0:0:0:0:
64,192,315138,1,0,0:0:0:0:
192,192,315138,1,2,0:0:0:0:
320,192,315235,1,0,0:0:0:0:
192,192,315331,1,0,0:0:0:0:
64,192,315525,1,0,0:0:0:0:
320,192,315525,1,2,0:0:0:0:
192,192,315622,1,0,0:0:0:0:
320,192,315815,1,0,0:0:0:0:
448,192,315912,1,2,0:0:0:0:
192,192,315912,1,0,0:0:0:0:
320,192,316106,1,0,0:0:0:0:
192,192,316299,1,2,0:0:0:0:
64,192,316299,1,0,0:0:0:0:
448,192,316396,1,0,0:0:0:0:
320,192,316493,1,0,0:0:0:0:
192,192,316589,1,0,0:0:0:0:
448,192,316686,1,2,0:0:0:0:
64,192,316686,1,0,0:0:0:0:
320,192,316783,1,0,0:0:0:0:
192,192,316880,1,0,0:0:0:0:
64,192,317073,1,0,0:0:0:0:
320,192,317073,1,2,0:0:0:0:
192,192,317170,1,0,0:0:0:0:
320,192,317267,1,0,0:0:0:0:
448,192,317364,1,0,0:0:0:0:
64,192,317460,1,0,0:0:0:0:
192,192,317460,1,2,0:0:0:0:
320,192,317654,1,0,0:0:0:0:
64,192,317848,1,0,0:0:0:0:
448,192,317848,1,2,0:0:0:0:
192,192,317944,1,0,0:0:0:0:
448,192,318041,1,0,0:0:0:0:
320,192,318138,1,0,0:0:0:0:
64,192,318235,1,0,0:0:0:0:
192,192,318235,1,2,0:0:0:0:
448,192,318331,1,0,0:0:0:0:
320,192,318428,1,0,0:0:0:0:
192,192,318525,1,0,0:0:0:0:
448,192,318622,1,2,0:0:0:0:
64,192,318622,1,0,0:0:0:0:
320,192,318719,1,0,0:0:0:0:
192,192,318815,1,0,0:0:0:0:
64,192,318912,1,0,0:0:0:0:
448,192,319009,1,2,0:0:0:0:
320,192,319009,1,0,0:0:0:0:
192,192,319202,1,0,0:0:0:0:
64,192,319396,1,0,0:0:0:0:
320,192,319396,1,2,0:0:0:0:
192,192,319493,1,0,0:0:0:0:
320,192,319686,1,0,0:0:0:0:
448,192,319783,1,2,0:0:0:0:
192,192,319783,1,0,0:0:0:0:
320,192,319880,1,0,0:0:0:0:
192,192,319977,1,0,0:0:0:0:
448,192,320170,1,2,0:0:0:0:
64,192,320170,1,0,0:0:0:0:
320,192,320267,1,0,0:0:0:0:
192,192,320364,1,0,0:0:0:0:
320,192,320460,1,0,0:0:0:0:
448,192,320557,1,2,0:0:0:0:
64,192,320557,1,0,0:0:0:0:
192,192,320751,1,0,0:0:0:0:
64,192,320944,1,0,0:0:0:0:
320,192,320944,1,2,0:0:0:0:
192,192,321041,1,0,0:0:0:0:
320,192,321235,1,0,0:0:0:0:
64,192,321331,1,0,0:0:0:0:
448,192,321331,1,2,0:0:0:0:
192,192,321428,1,0,0:0:0:0:
320,192,321525,1,0,0:0:0:0:
448,192,321622,1,0,0:0:0:0:
64,192,321719,5,0,0:0:0:0:
192,192,321719,1,2,0:0:0:0:
320,192,321815,1,0,0:0:0:0:
192,192,322009,1,0,0:0:0:0:
320,192,322106,5,4,0:0:0:0:
64,192,322106,1,0,0:0:0:0:
448,192,322106,1,2,0:0:0:0:
192,192,322299,1,0,0:0:0:0:
320,192,322396,1,0,0:0:0:0:
192,192,322493,1,0,0:0:0:0:
64,192,322589,1,0,0:0:0:0:
448,192,322686,1,0,0:0:0:0:
320,192,322686,1,2,0:0:0:0:
192,192,322783,5,2,0:0:0:0:
64,192,322783,1,0,0:0:0:0:
448,192,322880,1,0,0:0:0:0:
192,192,322977,1,0,0:0:0:0:
320,192,322977,1,2,0:0:0:0:
448,192,323073,1,2,0:0:0:0:
64,192,323073,1,0,0:0:0:0:
192,192,323170,1,0,0:0:0:0:
64,192,323267,1,0,0:0:0:0:
320,192,323267,1,4,0:0:0:0:
448,192,323267,1,2,0:0:0:0:
192,192,323364,1,0,0:0:0:0:
320,192,323460,1,2,0:0:0:0:
64,192,323460,1,0,0:0:0:0:
448,192,323557,1,2,0:0:0:0:
192,192,323557,1,0,0:0:0:0:
320,192,323654,1,2,0:0:0:0:
64,192,323654,1,4,0:0:0:0:
192,192,323848,1,0,0:0:0:0:
448,192,324041,1,0,0:0:0:0:
320,192,324041,1,2,0:0:0:0:
192,192,324138,1,0,0:0:0:0:
320,192,324331,1,0,0:0:0:0:
192,192,324428,1,2,0:0:0:0:
448,192,324428,1,0,0:0:0:0:
320,192,324525,1,0,0:0:0:0:
192,192,324622,1,0,0:0:0:0:
320,192,324815,1,0,0:0:0:0:
448,192,324815,1,2,0:0:0:0:
64,192,324912,1,0,0:0:0:0:
192,192,325009,1,0,0:0:0:0:
320,192,325106,1,0,0:0:0:0:
64,192,325202,1,0,0:0:0:0:
448,192,325202,1,2,0:0:0:0:
192,192,325396,1,0,0:0:0:0:
64,192,325589,1,0,0:0:0:0:
320,192,325589,1,2,0:0:0:0:
192,192,325686,1,0,0:0:0:0:
320,192,325880,1,0,0:0:0:0:
64,192,325977,1,0,0:0:0:0:
448,192,325977,1,2,0:0:0:0:
192,192,326073,1,0,0:0:0:0:
320,192,326170,1,0,0:0:0:0:
64,192,326364,1,0,0:0:0:0:
192,192,326364,1,2,0:0:0:0:
320,192,326460,1,0,0:0:0:0:
192,192,326557,1,0,0:0:0:0:
64,192,326654,1,0,0:0:0:0:
448,192,326751,1,2,0:0:0:0:
320,192,326751,1,0,0:0:0:0:
192,192,326944,1,0,0:0:0:0:
64,192,327138,1,0,0:0:0:0:
448,192,327138,1,2,0:0:0:0:
320,192,327235,1,0,0:0:0:0:
64,192,327331,1,0,0:0:0:0:
192,192,327428,1,0,0:0:0:0:
448,192,327525,1,2,0:0:0:0:
320,192,327525,1,0,0:0:0:0:
64,192,327622,1,0,0:0:0:0:
192,192,327719,1,0,0:0:0:0:
448,192,327912,1,2,0:0:0:0:
320,192,327912,1,0,0:0:0:0:
192,192,328009,1,0,0:0:0:0:
320,192,328202,1,0,0:0:0:0:
64,192,328299,1,0,0:0:0:0:
192,192,328299,1,2,0:0:0:0:
320,192,328493,1,0,0:0:0:0:
448,192,328686,1,2,0:0:0:0:
64,192,328686,1,0,0:0:0:0:
192,192,328783,1,0,0:0:0:0:
320,192,328977,1,0,0:0:0:0:
192,192,329073,1,0,0:0:0:0:
448,192,329073,1,2,0:0:0:0:
320,192,329170,1,0,0:0:0:0:
192,192,329267,1,0,0:0:0:0:
448,192,329460,1,2,0:0:0:0:
320,192,329460,1,0,0:0:0:0:
192,192,329557,1,0,0:0:0:0:
320,192,329654,1,0,0:0:0:0:
192,192,329751,1,0,0:0:0:0:
64,192,329848,1,0,0:0:0:0:
448,192,329848,1,2,0:0:0:0:
320,192,329848,1,4,0:0:0:0:
192,192,330041,1,0,0:0:0:0:
448,192,330041,1,2,0:0:0:0:
320,192,330235,1,2,0:0:0:0:
64,192,330235,1,0,0:0:0:0:
192,192,330331,1,0,0:0:0:0:
320,192,330428,1,0,0:0:0:0:
448,192,330428,1,2,0:0:0:0:
64,192,330525,1,0,0:0:0:0:
192,192,330622,1,0,0:0:0:0:
448,192,330622,1,2,0:0:0:0:
320,192,330719,1,0,0:0:0:0:
192,192,330815,1,2,0:0:0:0:
64,192,330815,1,0,0:0:0:0:
448,192,330912,1,0,0:0:0:0:
192,192,331009,1,0,0:0:0:0:
320,192,331009,1,2,0:0:0:0:
64,192,331106,1,0,0:0:0:0:
448,192,331202,1,2,0:0:0:0:
192,192,331202,1,0,0:0:0:0:
320,192,331299,1,0,0:0:0:0:
64,192,331396,1,0,0:0:0:0:
448,192,331396,1,2,0:0:0:0:
192,192,331396,1,4,0:0:0:0:
320,192,331589,1,2,0:0:0:0:
64,192,331589,1,0,0:0:0:0:
320,192,331783,1,0,0:0:0:0:
448,192,331783,1,2,0:0:0:0:
192,192,331880,1,0,0:0:0:0:
64,192,331977,1,0,0:0:0:0:
448,192,331977,1,2,0:0:0:0:
320,192,332073,1,0,0:0:0:0:
192,192,332170,1,2,0:0:0:0:
64,192,332170,1,0,0:0:0:0:
448,192,332267,1,0,0:0:0:0:
320,192,332364,1,2,0:0:0:0:
64,192,332364,1,0,0:0:0:0:
192,192,332460,1,0,0:0:0:0:
320,192,332557,1,0,0:0:0:0:
448,192,332557,1,2,0:0:0:0:
192,192,332654,1,0,0:0:0:0:
64,192,332751,1,0,0:0:0:0:
320,192,332751,1,2,0:0:0:0:
448,192,332848,1,0,0:0:0:0:
64,192,332944,1,4,0:0:0:0:
192,192,332944,1,2,0:0:0:0:
448,192,333041,1,0,0:0:0:0:
320,192,333041,1,2,0:0:0:0:
192,192,333138,1,2,0:0:0:0:
64,192,333138,1,0,0:0:0:0:
448,192,333235,1,0,0:0:0:0:
320,192,333235,1,2,0:0:0:0:
192,192,333331,1,2,0:0:0:0:
64,192,333331,1,0,0:0:0:0:
448,192,333428,1,0,0:0:0:0:
320,192,333428,1,2,0:0:0:0:
192,192,333525,1,2,0:0:0:0:
64,192,333525,1,0,0:0:0:0:
448,192,333622,1,0,0:0:0:0:
320,192,333622,1,2,0:0:0:0:
192,192,333719,1,2,0:0:0:0:
64,192,333719,1,4,0:0:0:0:
448,192,333815,1,0,0:0:0:0:
320,192,333815,1,2,0:0:0:0:
192,192,333912,1,2,0:0:0:0:
64,192,333912,1,0,0:0:0:0:
448,192,334009,1,0,0:0:0:0:
320,192,334009,1,2,0:0:0:0:
192,192,334106,1,2,0:0:0:0:
64,192,334106,1,0,0:0:0:0:
448,192,334202,1,0,0:0:0:0:
320,192,334202,1,2,0:0:0:0:
192,192,334299,1,2,0:0:0:0:
64,192,334299,1,0,0:0:0:0:
448,192,334396,1,0,0:0:0:0:
320,192,334396,1,2,0:0:0:0:
192,192,334493,1,2,0:0:0:0:
64,192,334493,1,4,0:0:0:0:
320,192,334589,1,0,0:0:0:0:
448,192,334686,1,2,0:0:0:0:
320,192,334735,1,2,0:0:0:0:
192,192,334783,1,2,0:0:0:0:
64,192,334831,1,2,0:0:0:0:
448,192,334880,1,6,0:0:0:0:
320,192,334928,1,2,0:0:0:0:
64,192,334977,1,2,0:0:0:0:
192,192,335025,1,2,0:0:0:0:
448,192,335073,1,2,0:0:0:0:
320,192,335122,1,2,0:0:0:0:
64,192,335170,1,2,0:0:0:0:
192,192,335219,1,2,0:0:0:0:
320,192,335267,1,6,0:0:0:0:
448,192,335315,1,2,0:0:0:0:
64,192,335364,1,2,0:0:0:0:
192,192,335412,1,2,0:0:0:0:
448,192,335460,1,2,0:0:0:0:
320,192,335509,1,2,0:0:0:0:
192,192,335557,1,2,0:0:0:0:
64,192,335606,1,2,0:0:0:0:
320,192,335654,1,4,0:0:0:0:
448,192,335654,1,2,0:0:0:0:
192,192,335751,1,2,0:0:0:0:
64,192,335751,1,0,0:0:0:0:
320,192,335848,1,0,0:0:0:0:
448,192,335848,1,2,0:0:0:0:
192,192,335944,1,2,0:0:0:0:
64,192,335944,1,0,0:0:0:0:
320,192,336041,128,0,339138:0:0:0:0:
448,192,336041,1,6,0:0:0:0:
64,192,336235,1,0,0:0:0:0:
192,192,336428,1,0,0:0:0:0:
448,192,336622,1,0,0:0:0:0:
192,192,336815,1,0,0:0:0:0:
64,192,337009,1,0,0:0:0:0:
448,192,337202,1,0,0:0:0:0:
64,192,337396,1,0,0:0:0:0:
192,192,337589,1,0,0:0:0:0:
64,192,337783,1,0,0:0:0:0:
448,192,337977,1,0,0:0:0:0:
192,192,338170,1,0,0:0:0:0:
64,192,338364,1,0,0:0:0:0:
448,192,338557,1,0,0:0:0:0:
64,192,338751,1,0,0:0:0:0:
192,192,338944,1,0,0:0:0:0:
448,192,339138,1,0,0:0:0:0:
192,192,339331,1,0,0:0:0:0:
320,192,339525,1,0,0:0:0:0:
64,192,339719,1,0,0:0:0:0:
192,192,339912,1,0,0:0:0:0:
448,192,340106,1,0,0:0:0:0:
320,192,340299,1,0,0:0:0:0:
192,192,340493,1,0,0:0:0:0:
64,192,340686,1,0,0:0:0:0:
448,192,340880,1,0,0:0:0:0:
192,192,341073,1,0,0:0:0:0:
320,192,341170,1,0,0:0:0:0:
64,192,341267,1,0,0:0:0:0:
448,192,341460,1,0,0:0:0:0:
320,192,341654,1,0,0:0:0:0:
64,192,341848,1,0,0:0:0:0:
320,192,342041,1,0,0:0:0:0:
192,192,342235,1,0,0:0:0:0:
320,192,342428,1,0,0:0:0:0:
64,192,342622,1,0,0:0:0:0:
448,192,342815,1,0,0:0:0:0:
320,192,343009,1,0,0:0:0:0:
192,192,343202,1,0,0:0:0:0:
448,192,343396,1,0,0:0:0:0:
64,192,343589,1,0,0:0:0:0:
320,192,343783,1,0,0:0:0:0:
192,192,343912,1,0,0:0:0:0:
320,192,344041,1,0,0:0:0:0:
192,192,344170,1,0,0:0:0:0:
448,192,344364,1,0,0:0:0:0:
192,192,344557,1,0,0:0:0:0:
320,192,344751,1,0,0:0:0:0:
64,192,344944,1,0,0:0:0:0:
448,192,345138,1,0,0:0:0:0:
192,192,345331,1,0,0:0:0:0:
320,192,345525,1,0,0:0:0:0:
64,192,345719,1,0,0:0:0:0:
448,192,345912,1,0,0:0:0:0:
320,192,346106,1,0,0:0:0:0:
64,192,346299,1,0,0:0:0:0:
192,192,346493,1,0,0:0:0:0:
320,192,346686,1,0,0:0:0:0:
448,192,346880,1,0,0:0:0:0:
192,192,346880,1,0,0:0:0:0:
320,192,347073,1,0,0:0:0:0:
192,192,347267,5,0,0:0:0:0:
448,192,347364,1,0,0:0:0:0:
320,192,347460,1,0,0:0:0:0:
64,192,347654,1,0,0:0:0:0:
448,192,347848,1,0,0:0:0:0:
192,192,348041,1,0,0:0:0:0:
320,192,348235,1,0,0:0:0:0:
448,192,348428,128,6,356170:0:0:0:0:
64,192,348428,128,0,356170:0:0:0:0:
