osu file format v14

[General]
AudioFilename: audio.mp3
AudioLeadIn: 0
PreviewTime: 42
Countdown: 0
SampleSet: Soft
StackLeniency: 0.3
Mode: 2
LetterboxInBreaks: 0
WidescreenStoryboard: 0

[Editor]
Bookmarks: 48429,110945,115203,118106,119268,120235,122364,124106,125461,127590,128558,130493,131655,132623,134752,137268,137848,138816,140945,143461,147139,148687,150235,153332,156429,162623,226493,229590,231526,235590,238881,241977,244106,248364,250493,253203,253977,255139,256300,258623,260171,264816,300816,301977,303719,305074,306235,306623,307397,308171,309913,311268,313203,314364,316106,317461,318623,319010,319784,320558,322687,323655,324816,326752,327526,328300,329461,329848,330623,331397,332945,334493
DistanceSpacing: 1.1
BeatDivisor: 4
GridSize: 4
TimelineZoom: 3.399999

[Metadata]
Title:Kikoku Doukoku Jigokuraku
TitleUnicode:鬼哭慟哭地獄楽
Artist:Halozy
ArtistUnicode:Halozy
Creator:MMBan
Version:Kasha Grip
Source:東方Project
Tags:Ultimate Synthesis overdose slider cat Rin Kaenbyou すみじゅん 疒 ほたる 东方地霊殿 Subterranean Animism とうほうちれいでん Be of good cheer! corpse voyage touhou chireiden Lamenting Wailing Hell Music 死体旅行 ヴォヤージ sumijun hotaru comiket78 c78 hlzy-0005
BeatmapID:1055518
BeatmapSetID:495863

[Difficulty]
HPDrainRate:6
CircleSize:3.7
OverallDifficulty:9.4
ApproachRate:9.4
SliderMultiplier:2
SliderTickRate:1

[Events]
//Background and Video events
0,0,"Rin BG.png",0,0
//Break Periods
2,153531,155875
2,265015,267165
2,339338,341681
//Storyboard Layer 0 (Background)
//Storyboard Layer 1 (Fail)
//Storyboard Layer 2 (Pass)
//Storyboard Layer 3 (Foreground)
//Storyboard Sound Samples

[TimingPoints]
-1506,387.096774193548,4,2,1,40,1,0
13977,-200,4,2,1,50,0,0
20171,-133.333333333333,4,2,1,60,0,0
26364,-100,4,2,1,70,0,0
38752,-200,4,2,1,45,0,0
45816,-200,4,2,2,45,0,0
46010,-200,4,2,1,45,0,0
51139,-100,4,2,1,50,0,0
63526,-200,4,2,1,40,0,0
68074,-100,4,2,1,40,0,0
70590,-200,4,2,2,40,0,0
71171,-200,4,2,1,45,0,0
73493,-200,4,2,2,45,0,0
74074,-200,4,2,1,45,0,0
75332,-142.857142857143,4,2,1,51,0,0
75526,-111.111111111111,4,2,1,54,0,0
75913,-133.333333333333,4,2,1,60,0,0
84526,-133.333333333333,4,2,2,60,0,0
84719,-133.333333333333,4,2,1,60,0,0
85493,-133.333333333333,4,2,3,60,0,0
85784,-133.333333333333,4,2,4,60,0,0
86074,-133.333333333333,4,2,1,60,0,0
86848,-133.333333333333,4,2,3,60,0,0
87429,-133.333333333333,4,2,4,60,0,0
87816,-133.333333333333,4,2,1,60,0,0
88300,-133.333333333333,4,2,1,50,0,0
89364,-133.333333333333,4,2,3,50,0,0
89558,-133.333333333333,4,2,1,50,0,0
90719,-133.333333333333,4,2,2,50,0,0
90913,-133.333333333333,4,2,1,50,0,0
93235,-133.333333333333,4,2,3,50,0,0
93526,-133.333333333333,4,2,4,50,0,0
93913,-133.333333333333,4,2,3,50,0,0
94203,-133.333333333333,4,2,1,50,0,0
96332,-133.333333333333,4,2,3,50,0,0
96526,-133.333333333333,4,2,1,50,0,0
97106,-133.333333333333,4,2,3,50,0,0
97300,-133.333333333333,4,2,1,50,0,0
97881,-133.333333333333,4,2,3,50,0,0
98171,-133.333333333333,4,2,4,50,0,0
98558,-133.333333333333,4,2,3,50,0,0
98848,-133.333333333333,4,2,1,50,0,0
100687,-200,4,2,1,45,0,0
106881,-133.333333333333,4,2,1,50,0,0
109977,-100,4,2,1,60,0,0
111526,-66.6666666666667,4,2,1,70,0,0
113074,-50,4,2,1,80,0,1
119558,-50,4,2,3,80,0,1
119945,-50,4,2,4,80,0,1
120139,-50,4,2,1,80,0,1
121106,-50,4,2,3,80,0,1
121300,-50,4,2,1,80,0,1
122655,-50,4,2,3,80,0,1
123042,-50,4,2,4,80,0,1
123429,-50,4,2,3,80,0,1
123816,-50,4,2,4,80,0,1
124010,-50,4,2,1,80,0,1
128848,-50,4,2,3,80,0,1
129235,-50,4,2,4,80,0,1
129526,-50,4,2,3,80,0,1
129913,-50,4,2,4,80,0,1
130397,-50,4,2,1,80,0,1
133493,-50,4,2,3,80,0,1
133784,-50,4,2,1,80,0,1
135042,-50,4,2,3,80,0,1
135235,-50,4,2,4,80,0,1
135816,-50,4,2,3,80,0,1
136203,-50,4,2,4,80,0,1
136590,-50,4,2,3,80,0,1
136977,-50,4,2,1,80,0,1
137848,-66.6666666666667,4,2,1,80,0,1
141235,-66.6666666666667,4,2,3,80,0,1
141429,-66.6666666666667,4,2,1,80,0,1
142010,-66.6666666666667,4,2,3,80,0,1
142203,-66.6666666666667,4,2,1,80,0,1
142784,-66.6666666666667,4,2,3,80,0,1
143171,-66.6666666666667,4,2,4,80,0,1
143364,-66.6666666666667,4,2,1,80,0,1
144332,-66.6666666666667,4,2,3,80,0,1
144526,-66.6666666666667,4,2,1,80,0,1
147429,-66.6666666666667,4,2,3,80,0,1
147816,-66.6666666666667,4,2,4,80,0,1
148203,-66.6666666666667,4,2,3,80,0,1
148493,-66.6666666666667,4,2,1,80,0,1
148977,-66.6666666666667,4,2,3,80,0,1
149171,-66.6666666666667,4,2,4,80,0,1
149558,-66.6666666666667,4,2,3,80,0,1
149945,-66.6666666666667,4,2,1,80,0,1
150235,-100,4,2,1,53,0,0
156429,-133.333333333333,4,2,1,60,0,0
162623,-100,4,2,1,70,0,0
175010,-200,4,2,1,45,0,0
179558,-100,4,2,1,45,0,0
182074,-100,4,2,2,45,0,0
182655,-100,4,2,1,45,0,0
182752,-200,4,2,1,45,0,0
185171,-200,4,2,2,45,0,0
185558,-200,4,2,1,45,0,0
186816,-142.857142857143,4,2,1,47,0,0
187106,-111.111111111111,4,2,1,53,0,0
187397,-133.333333333333,4,2,1,60,0,0
190203,-133.333333333333,4,2,2,60,0,0
190397,-133.333333333333,4,2,1,60,0,0
196010,-133.333333333333,4,2,2,60,0,0
196203,-133.333333333333,4,2,1,60,0,0
196977,-133.333333333333,4,2,3,60,0,0
197268,-133.333333333333,4,2,4,60,0,0
197558,-133.333333333333,4,2,1,60,0,0
198332,-133.333333333333,4,2,2,60,0,0
199300,-133.333333333333,4,2,1,60,0,0
199784,-133.333333333333,4,2,1,50,0,0
200848,-133.333333333333,4,2,3,50,0,0
201042,-133.333333333333,4,2,1,50,0,0
204719,-133.333333333333,4,2,3,50,0,0
205106,-133.333333333333,4,2,4,50,0,0
205493,-133.333333333333,4,2,3,50,0,0
205687,-133.333333333333,4,2,1,50,0,0
207816,-133.333333333333,4,2,3,50,0,0
208010,-133.333333333333,4,2,1,50,0,0
208590,-133.333333333333,4,2,3,50,0,0
208784,-133.333333333333,4,2,1,50,0,0
209361,-133.333333333333,4,2,3,50,0,0
209752,-133.333333333333,4,2,4,50,0,0
210139,-133.333333333333,4,2,3,50,0,0
210526,-133.333333333333,4,2,1,50,0,0
212171,-200,4,2,1,40,0,0
218364,-133.333333333333,4,2,1,50,0,0
221461,-100,4,2,1,60,0,0
223010,-66.6666666666667,4,2,1,70,0,0
224558,-50,4,2,1,80,0,1
224848,-50,4,2,3,80,0,1
225235,-50,4,2,4,80,0,1
225623,-50,4,2,3,80,0,1
226010,-50,4,2,4,80,0,1
226397,-50,4,2,1,80,0,1
227945,-50,4,2,3,80,0,1
228332,-50,4,2,4,80,0,1
228719,-50,4,2,3,80,0,1
229106,-50,4,2,4,80,0,1
229493,-50,4,2,1,80,0,1
231042,-50,4,2,3,80,0,1
231235,-50,4,2,1,80,0,1
232590,-50,4,2,3,80,0,1
232784,-50,4,2,1,80,0,1
234139,-50,4,2,3,80,0,1
234526,-50,4,2,4,80,0,1
234913,-50,4,2,3,80,0,1
235300,-50,4,2,4,80,0,1
235493,-50,4,2,1,80,0,1
237235,-50,4,2,3,80,0,1
237623,-50,4,2,4,80,0,1
238010,-50,4,2,3,80,0,1
238397,-50,4,2,4,80,0,1
238784,-50,4,2,1,80,0,1
240332,-50,4,2,3,80,0,1
240719,-50,4,2,4,80,0,1
241106,-50,4,2,3,80,0,1
241493,-50,4,2,4,80,0,1
241881,-50,4,2,1,80,0,1
243429,-50,4,2,3,80,0,1
243816,-50,4,2,4,80,0,1
244010,-50,4,2,1,80,0,1
244977,-50,4,2,3,80,0,1
245171,-50,4,2,1,80,0,1
246526,-50,4,2,3,80,0,1
246913,-50,4,2,4,80,0,1
247300,-50,4,2,3,80,0,1
247687,-50,4,2,4,80,0,1
248074,-50,4,2,3,80,0,1
248268,-50,4,2,1,80,0,1
249332,-66.6666666666667,4,2,1,80,0,1
249623,-66.6666666666667,4,2,3,80,0,1
250010,-66.6666666666667,4,2,4,80,0,1
250203,-66.6666666666667,4,2,1,80,0,1
252719,-66.6666666666667,4,2,3,80,0,1
253106,-66.6666666666667,4,2,1,80,0,1
253493,-66.6666666666667,4,2,3,80,0,1
253784,-66.6666666666667,4,2,1,80,0,1
254268,-66.6666666666667,4,2,3,80,0,1
254655,-66.6666666666667,4,2,4,80,0,1
254848,-66.6666666666667,4,2,1,80,0,1
255816,-66.6666666666667,4,2,3,80,0,1
256010,-66.6666666666667,4,2,1,80,0,1
258913,-66.6666666666667,4,2,3,80,0,1
259300,-66.6666666666667,4,2,4,80,0,1
259687,-66.6666666666667,4,2,3,80,0,1
259977,-66.6666666666667,4,2,1,80,0,1
260461,-66.6666666666667,4,2,3,80,0,1
260752,-66.6666666666667,4,2,4,80,0,1
261235,-66.6666666666667,4,2,3,80,0,1
261429,-66.6666666666667,4,2,1,80,0,1
261719,-100,4,2,1,50,0,0
267913,-200,4,2,1,45,0,0
272558,-100,4,2,1,70,0,0
274106,-66.6666666666667,4,2,1,80,0,1
286493,-200,4,2,1,40,0,0
292687,-133.333333333333,4,2,1,50,0,0
295784,-100,4,2,1,60,0,0
297332,-66.6666666666667,4,2,1,70,0,0
298881,-50,4,2,1,80,0,1
305364,-50,4,2,3,80,0,1
305752,-50,4,2,4,80,0,1
306139,-50,4,2,1,80,0,1
306913,-50,4,2,3,80,0,1
307300,-50,4,2,1,80,0,1
308461,-50,4,2,3,80,0,1
308848,-50,4,2,1,80,0,1
309235,-50,4,2,3,80,0,1
309623,-50,4,2,1,80,0,1
311558,-50,4,2,3,80,0,1
311848,-50,4,2,4,80,0,1
312332,-50,4,2,3,80,0,1
312719,-50,4,2,4,80,0,1
313106,-50,4,2,1,80,0,1
314655,-50,4,2,3,80,0,1
315042,-50,4,2,4,80,0,1
315429,-50,4,2,3,80,0,1
315816,-50,4,2,4,80,0,1
316010,-50,4,2,1,80,0,1
317752,-50,4,2,3,80,0,1
318139,-50,4,2,4,80,0,1
318526,-50,4,2,1,80,0,1
319300,-50,4,2,3,80,0,1
319687,-50,4,2,1,80,0,1
320074,-50,4,2,3,80,0,1
320268,-50,4,2,1,80,0,1
320848,-50,4,2,3,80,0,1
321235,-50,4,2,4,80,0,1
321623,-50,4,2,3,80,0,1
322010,-50,4,2,4,80,0,1
322397,-50,4,2,3,80,0,1
322590,-50,4,2,1,80,0,1
323655,-66.6666666666667,4,2,1,80,0,1
323945,-66.6666666666667,4,2,3,80,0,1
324332,-66.6666666666667,4,2,4,80,0,1
324526,-66.6666666666667,4,2,1,80,0,1
327042,-66.6666666666667,4,2,3,80,0,1
327235,-66.6666666666667,4,2,1,80,0,1
327816,-66.6666666666667,4,2,3,80,0,1
328010,-66.6666666666667,4,2,1,80,0,1
328590,-66.6666666666667,4,2,3,80,0,1
328977,-66.6666666666667,4,2,4,80,0,1
329268,-66.6666666666667,4,2,1,80,0,1
330139,-66.6666666666667,4,2,3,80,0,1
330332,-66.6666666666667,4,2,1,80,0,1
333235,-66.6666666666667,4,2,3,80,0,1
333623,-66.6666666666667,4,2,4,80,0,1
334010,-66.6666666666667,4,2,3,80,0,1
334300,-66.6666666666667,4,2,1,80,0,1
334784,-66.6666666666667,4,2,3,80,0,1
335171,-66.6666666666667,4,2,4,80,0,1
335558,-66.6666666666667,4,2,3,80,0,1
335848,-66.6666666666667,4,2,1,80,0,1
336042,-100,4,2,1,50,0,0
342235,-200,4,2,1,40,0,0
346881,-200,4,2,1,45,0,0
348429,-66.6666666666667,4,2,1,40,0,0
351526,-66.6666666666667,4,2,1,35,0,0
353074,-66.6666666666667,4,2,1,30,0,0
354623,-66.6666666666667,4,2,1,25,0,0
356171,-66.6666666666667,4,2,1,20,0,0

[Colours]
Combo1 : 255,166,77
Combo2 : 255,128,128
Combo3 : 60,60,255
Combo4 : 0,198,99

[HitObjects]
256,192,1590,6,0,B|24:192|24:192|484:364|484:364|280:48|280:48|240:96|240:96|504:220|504:224|448:288|200:344|36:212|32:52|116:24|124:24|188:24|188:24|456:100|388:96|388:96|412:312|400:320|48:320|48:320|316:212|444:60|184:40|72:240|264:360|268:360|248:0|248:0,1,3400,4|0,0:3|0:0,0:0:0:0:
256,192,8558,12,0,12042,0:0:0:0:
140,336,12429,6,0,L|20:180,1,150
224,304,12816,2,0,L|348:216,1,150
176,320,13203,2,0,P|43:247|149:140,1,350
392,140,13977,6,0,L|446:191,1,75,8|0,1:0|0:0,0:0:0:0:
392,140,14364,2,0,L|442:140,1,50
348,84,14655,2,0,L|412:92,2,50
436,44,15139,2,0,L|420:100,1,50
252,192,15526,5,0,0:0:0:0:
104,256,15719,1,0,0:0:0:0:
64,224,15816,1,0,0:0:0:0:
32,192,15913,1,0,1:0:0:0:
108,144,16106,5,0,0:0:0:0:
136,144,16203,1,0,0:0:0:0:
272,144,16397,1,0,0:0:0:0:
220,144,16590,1,0,0:0:0:0:
320,144,16687,6,0,L|268:100,1,50
256,88,16977,1,0,0:0:0:0:
80,176,17074,2,0,L|16:160,1,50
128,116,17461,1,0,1:0:0:0:
220,120,17655,2,0,L|248:152,1,25
224,92,17945,2,0,L|292:92,1,50
328,136,18235,1,0,0:0:0:0:
436,116,18429,1,0,0:0:0:0:
484,68,18623,6,0,P|400:56|376:68,1,100,0|0,0:0|1:0,0:0:0:0:
356,336,19106,1,0,0:0:0:0:
64,112,19203,1,0,0:0:0:0:
32,152,19300,1,0,0:0:0:0:
72,196,19397,1,0,0:0:0:0:
100,216,19493,1,0,0:0:0:0:
324,220,19590,5,0,0:0:0:0:
360,188,19687,1,0,0:0:0:0:
76,252,19784,1,0,1:0:0:0:
44,204,19881,1,0,0:0:0:0:
208,248,19977,1,0,1:0:0:0:
240,200,20074,1,0,0:0:0:0:
400,296,20171,5,6,0:1:0:0:
256,296,20364,1,0,0:0:0:0:
196,292,20461,1,0,0:0:0:0:
159,284,20557,1,0,1:0:0:0:
104,276,20655,1,0,0:0:0:0:
156,340,20751,1,0,0:0:0:0:
100,336,20848,1,0,0:0:0:0:
52,252,20945,5,0,0:0:0:0:
80,212,21042,2,0,L|144:212,2,37.5000014305115
32,200,21332,1,0,0:0:0:0:
88,156,21429,2,0,L|140:160,1,37.5000014305115
408,320,21719,6,0,L|448:288,1,37.5000014305115
476,288,21913,1,0,0:0:0:0:
512,264,22010,1,0,0:0:0:0:
480,240,22106,1,0,1:0:0:0:
440,224,22203,1,0,0:0:0:0:
400,212,22300,1,0,0:0:0:0:
436,192,22397,1,0,0:0:0:0:
472,172,22493,5,0,0:0:0:0:
432,148,22590,2,0,L|376:152,1,37.5000014305115
336,152,22784,2,0,L|272:156,1,37.5000014305115
344,112,22977,2,0,L|396:112,1,37.5000014305115,0|0,0:0|1:0,0:0:0:0:
116,256,23268,6,0,L|56:252,1,37.5000014305115
96,224,23461,2,0,L|152:192,1,37.5000014305115
148,172,23655,2,0,L|216:172,1,37.5000014305115,0|0,1:0|0:0,0:0:0:0:
240,172,23848,2,0,L|300:172,1,37.5000014305115
288,132,24042,6,0,L|216:132,1,37.5000014305115
208,132,24235,2,0,L|160:132,1,37.5000014305115
120,132,24429,2,0,L|82:134,1,37.5000014305115,0|0,1:0|0:0,0:0:0:0:
120,132,24623,1,0,1:0:0:0:
396,276,24816,6,0,L|480:276,1,75.0000028610231,6|0,0:1|0:0,0:0:0:0:
484,268,25106,1,0,0:0:0:0:
152,280,25203,5,0,0:0:0:0:
96,272,25300,1,0,0:0:0:0:
64,248,25397,1,0,0:0:0:0:
344,288,25493,1,0,0:0:0:0:
380,264,25590,2,0,L|420:212,1,37.5000014305115
172,280,25784,2,0,L|120:280,2,37.5000014305115
360,348,26074,2,0,L|444:348,1,75.0000028610231
132,176,26364,5,14,0:1:0:0:
76,172,26460,1,0,0:0:0:0:
56,120,26558,1,8,0:0:0:0:
96,84,26654,1,0,0:0:0:0:
396,88,26752,1,6,0:0:0:0:
444,99,26848,1,0,0:0:0:0:
479,133,26945,1,8,0:0:0:0:
488,176,27042,1,0,0:0:0:0:
160,304,27139,5,2,0:0:0:0:
110,300,27235,1,0,0:0:0:0:
364,300,27332,1,8,0:0:0:0:
424,304,27428,1,0,0:0:0:0:
212,228,27526,1,6,0:0:0:0:
168,192,27622,1,0,0:0:0:0:
144,144,27719,1,8,0:0:0:0:
116,96,27815,1,0,0:0:0:0:
412,280,27913,5,2,0:0:0:0:
448,252,28010,1,0,0:0:0:0:
464,212,28106,1,8,0:0:0:0:
420,204,28203,1,0,0:0:0:0:
176,216,28300,1,6,0:0:0:0:
120,216,28397,1,0,0:0:0:0:
72,188,28493,1,8,0:0:0:0:
52,136,28590,1,0,0:0:0:0:
364,304,28687,5,2,0:0:0:0:
428,300,28784,1,0,0:0:0:0:
176,300,28881,1,8,0:0:0:0:
120,300,28977,1,0,0:0:0:0:
372,184,29074,1,6,0:0:0:0:
428,188,29171,1,0,0:0:0:0:
432,244,29268,1,8,0:0:0:0:
388,276,29364,1,0,0:0:0:0:
216,304,29461,5,2,0:0:0:0:
176,300,29558,1,0,0:0:0:0:
140,260,29655,1,8,0:0:0:0:
112,212,29752,1,0,0:0:0:0:
332,184,29848,1,6,0:0:0:0:
380,156,29945,1,0,0:0:0:0:
428,132,30042,1,8,0:0:0:0:
484,140,30139,1,0,0:0:0:0:
240,308,30235,5,2,0:0:0:0:
196,272,30332,1,0,0:0:0:0:
368,312,30429,1,8,0:0:0:0:
412,276,30526,1,0,0:0:0:0:
160,320,30623,5,6,0:0:0:0:
112,296,30719,1,0,0:0:0:0:
288,192,30816,1,8,0:0:0:0:
344,184,30913,1,0,0:0:0:0:
512,184,31010,1,2,0:0:0:0:
476,224,31106,1,0,0:0:0:0:
428,248,31203,1,8,0:0:0:0:
372,256,31300,1,0,0:0:0:0:
140,248,31397,5,6,0:0:0:0:
96,212,31493,1,0,0:0:0:0:
56,172,31590,1,8,0:0:0:0:
88,124,31687,1,0,0:0:0:0:
276,196,31784,1,2,0:0:0:0:
320,164,31881,1,0,0:0:0:0:
496,196,31977,1,8,0:0:0:0:
456,160,32074,1,0,0:0:0:0:
164,196,32171,5,6,0:0:0:0:
120,164,32268,1,0,0:0:0:0:
88,124,32364,1,8,0:0:0:0:
136,92,32461,1,0,0:0:0:0:
340,84,32558,1,2,0:0:0:0:
392,72,32655,1,0,0:0:0:0:
448,64,32752,1,8,0:0:0:0:
500,56,32848,1,0,0:0:0:0:
232,264,32945,5,6,0:0:0:0:
188,232,33042,1,0,0:0:0:0:
136,216,33139,1,8,0:0:0:0:
84,232,33235,1,0,0:0:0:0:
380,240,33332,5,2,0:0:0:0:
428,212,33429,1,0,0:0:0:0:
184,252,33526,1,8,0:0:0:0:
136,216,33623,1,0,0:0:0:0:
320,192,33719,1,6,0:0:0:0:
372,172,33816,1,0,0:0:0:0:
420,148,33913,1,8,0:0:0:0:
468,124,34010,1,0,0:0:0:0:
160,192,34106,5,2,0:0:0:0:
112,160,34203,1,0,0:0:0:0:
68,128,34300,1,8,0:0:0:0:
112,160,34397,1,0,0:0:0:0:
372,320,34493,1,6,0:0:0:0:
432,316,34590,1,0,0:0:0:0:
488,316,34687,1,0,0:0:0:0:
464,288,34784,1,8,0:0:0:0:
92,316,34881,5,2,0:0:0:0:
44,288,34977,1,0,0:0:0:0:
288,200,35074,1,8,0:0:0:0:
312,168,35171,1,0,0:0:0:0:
140,200,35268,1,6,0:0:0:0:
100,176,35364,1,0,0:0:0:0:
52,148,35461,1,8,0:0:0:0:
100,136,35558,1,0,0:0:0:0:
336,48,35655,5,2,0:0:0:0:
380,72,35752,1,0,0:0:0:0:
424,96,35848,1,8,0:0:0:0:
380,72,35945,1,0,0:0:0:0:
164,56,36042,1,6,0:0:0:0:
112,60,36139,1,0,0:0:0:0:
84,100,36235,1,8,0:0:0:0:
80,148,36332,1,0,0:0:0:0:
484,208,36429,5,2,0:0:0:0:
460,256,36526,1,0,0:0:0:0:
304,264,36623,1,8,0:0:0:0:
276,212,36719,1,0,0:0:0:0:
120,220,36816,1,6,0:0:0:0:
72,224,36913,1,0,0:0:0:0:
20,224,37010,1,8,0:0:0:0:
68,236,37106,1,0,0:0:0:0:
344,336,37203,6,0,P|416:276|460:208,1,150,6|0,0:1|0:0,0:0:0:0:
96,288,37590,2,0,L|36:288,2,50,2|0|2,0:0|0:0|0:0,0:0:0:0:
336,284,37881,5,0,0:0:0:0:
376,240,37977,1,2,0:0:0:0:
152,276,38074,1,0,0:0:0:0:
100,244,38171,1,2,0:0:0:0:
144,268,38268,1,0,0:0:0:0:
440,264,38364,1,2,0:0:0:0:
416,308,38461,1,2,0:0:0:0:
32,328,38558,1,2,0:0:0:0:
72,340,38655,1,2,0:0:0:0:
256,200,38752,5,2,0:0:0:0:
420,236,39139,2,0,L|484:236,2,50,2|0|2,0:0|0:0|0:0,0:0:0:0:
260,224,39719,1,0,0:0:0:0:
64,224,39913,2,0,L|0:192,1,50,2|0,0:0|0:0,0:0:0:0:
212,176,40300,2,0,L|280:176,1,50,2|0,0:0|0:0,0:0:0:0:
128,176,40687,1,2,0:0:0:0:
396,336,40881,2,0,L|436:256,1,75
196,332,41268,2,0,L|104:200,1,150,0|2,0:0|0:0,0:0:0:0:
336,216,42235,5,2,0:0:0:0:
204,208,42429,1,0,0:0:0:0:
60,208,42623,1,2,0:0:0:0:
164,152,42816,1,0,0:0:0:0:
324,164,43010,1,2,0:0:0:0:
424,220,43203,1,0,0:0:0:0:
292,336,43397,6,0,L|216:280,1,75,2|0,0:0|0:0,0:0:0:0:
420,344,43784,2,0,L|488:288,1,75,2|0,0:0|0:0,0:0:0:0:
316,252,44171,2,0,L|232:208,1,75,2|0,0:0|0:0,0:0:0:0:
80,216,44558,2,0,L|160:268,1,75,2|0,0:0|0:0,0:0:0:0:
376,264,44945,6,0,L|288:264,1,75,2|0,0:0|0:0,0:0:0:0:
80,272,45332,2,0,L|36:272,1,25,2|0,0:0|0:0,0:0:0:0:
304,204,45526,2,0,B|392:200|456:168|468:52,1,250,8|2,0:0|0:0,0:0:0:0:
116,212,46881,5,6,0:0:0:0:
236,212,47268,1,2,0:0:0:0:
128,212,47461,1,0,0:0:0:0:
232,160,47655,1,6,0:0:0:0:
120,88,47848,1,0,0:0:0:0:
380,320,48042,6,0,L|488:284,1,100,2|6,0:0|0:0,0:0:0:0:
136,332,48623,2,0,P|24:300|4:264,1,150,0|6,0:0|0:0,0:0:0:0:
100,248,49397,1,8,0:0:0:0:
488,224,49590,6,0,L|492:108,1,100,2|0,0:0|0:0,0:0:0:0:
440,120,50364,5,0,0:0:0:0:
120,192,50558,2,0,L|92:176,1,25,2|0,0:0|0:0,0:0:0:0:
380,224,50752,2,0,L|424:224,1,25,2|0,0:0|0:0,0:0:0:0:
48,264,50945,2,0,L|24:240,1,25,2|0,0:0|0:0,0:0:0:0:
300,260,51139,5,14,0:1:0:0:
352,244,51235,1,0,0:0:0:0:
404,232,51332,1,8,0:0:0:0:
456,220,51429,1,0,0:0:0:0:
140,260,51526,1,6,0:0:0:0:
96,228,51623,1,0,0:0:0:0:
48,200,51719,1,8,0:0:0:0:
96,228,51816,1,0,0:0:0:0:
356,192,51913,5,2,0:0:0:0:
408,172,52010,1,0,0:0:0:0:
196,240,52106,1,8,0:0:0:0:
148,212,52203,1,0,0:0:0:0:
108,180,52300,1,6,0:0:0:0:
148,212,52397,1,0,0:0:0:0:
384,256,52493,1,8,0:0:0:0:
428,280,52590,1,0,0:0:0:0:
120,316,52687,5,2,0:0:0:0:
80,288,52784,1,0,0:0:0:0:
88,240,52881,1,8,0:0:0:0:
140,220,52977,1,0,0:0:0:0:
368,208,53074,1,6,0:0:0:0:
416,192,53171,1,0,0:0:0:0:
444,152,53268,1,8,0:0:0:0:
424,108,53364,1,0,0:0:0:0:
92,180,53461,5,2,0:0:0:0:
128,144,53558,1,0,0:0:0:0:
368,208,53655,1,8,0:0:0:0:
416,224,53752,1,0,0:0:0:0:
100,248,53848,1,6,0:0:0:0:
68,288,53945,1,0,0:0:0:0:
376,300,54042,1,8,0:0:0:0:
424,304,54139,1,0,0:0:0:0:
204,240,54235,5,2,0:0:0:0:
152,240,54332,1,0,0:0:0:0:
100,240,54429,1,8,0:0:0:0:
104,192,54526,1,0,0:0:0:0:
360,308,54623,1,6,0:0:0:0:
400,276,54719,1,0,0:0:0:0:
444,248,54816,1,8,0:0:0:0:
408,212,54913,1,0,0:0:0:0:
100,288,55010,5,2,0:0:0:0:
64,256,55106,1,0,0:0:0:0:
76,208,55203,1,8,0:0:0:0:
120,184,55300,1,0,0:0:0:0:
400,312,55397,1,6,0:0:0:0:
448,320,55493,1,0,0:0:0:0:
168,320,55590,1,0,0:0:0:0:
96,352,55687,1,0,0:0:0:0:
396,232,55784,5,2,0:0:0:0:
440,208,55881,1,0,0:0:0:0:
444,160,55977,1,8,0:0:0:0:
404,132,56074,1,0,0:0:0:0:
92,196,56171,1,6,0:0:0:0:
56,232,56268,1,0,0:0:0:0:
372,180,56364,1,8,0:0:0:0:
340,144,56461,1,0,0:0:0:0:
80,300,56558,5,0,0:0:0:0:
48,328,56655,1,0,0:0:0:0:
248,324,56752,1,8,0:0:0:0:
292,300,56848,1,0,0:0:0:0:
476,292,56945,1,6,0:0:0:0:
440,324,57042,1,0,0:0:0:0:
88,328,57139,1,8,0:0:0:0:
56,288,57235,1,0,0:0:0:0:
432,332,57332,5,2,0:0:0:0:
472,300,57429,1,0,0:0:0:0:
472,248,57526,1,8,0:0:0:0:
436,212,57623,1,0,0:0:0:0:
272,300,57719,1,6,0:0:0:0:
216,300,57816,1,0,0:0:0:0:
40,276,57913,1,8,0:0:0:0:
28,220,58010,1,0,0:0:0:0:
248,276,58106,5,2,0:0:0:0:
304,284,58203,1,0,0:0:0:0:
348,256,58300,1,8,0:0:0:0:
308,224,58397,1,0,0:0:0:0:
116,236,58493,1,6,0:0:0:0:
68,224,58590,1,0,0:0:0:0:
96,184,58687,1,0,0:0:0:0:
128,144,58784,1,0,0:0:0:0:
388,192,58881,5,2,0:0:0:0:
432,212,58977,1,0,0:0:0:0:
464,252,59074,1,8,0:0:0:0:
452,300,59171,1,0,0:0:0:0:
280,328,59268,1,6,0:0:0:0:
240,300,59364,1,0,0:0:0:0:
424,328,59461,1,8,0:0:0:0:
456,240,59558,1,0,0:0:0:0:
212,336,59655,5,2,0:0:0:0:
160,336,59752,1,0,0:0:0:0:
368,336,59848,1,8,0:0:0:0:
424,328,59945,1,0,0:0:0:0:
96,256,60042,1,6,0:0:0:0:
56,224,60139,1,0,0:0:0:0:
48,176,60235,1,8,0:0:0:0:
80,140,60332,1,0,0:0:0:0:
280,200,60429,5,2,0:0:0:0:
328,192,60526,1,0,0:0:0:0:
376,184,60623,1,8,0:0:0:0:
328,192,60719,1,0,0:0:0:0:
120,264,60816,1,6,0:0:0:0:
100,216,60913,1,0,0:0:0:0:
128,176,61010,1,8,0:0:0:0:
156,136,61106,1,0,0:0:0:0:
428,256,61203,5,2,0:0:0:0:
436,304,61300,1,0,0:0:0:0:
184,336,61397,1,8,0:0:0:0:
144,336,61493,1,0,0:0:0:0:
448,344,61590,1,6,0:0:0:0:
468,308,61687,1,0,0:0:0:0:
308,336,61784,1,8,0:0:0:0:
268,292,61881,1,0,0:0:0:0:
112,240,61977,6,0,P|32:200|4:152,1,100,6|0,0:1|0:0,0:0:0:0:
60,384,62268,1,0,0:0:0:0:
316,204,62364,1,0,0:0:0:0:
364,188,62461,1,0,0:0:0:0:
316,204,62558,1,0,0:0:0:0:
84,0,62655,1,0,0:0:0:0:
44,272,62752,5,2,0:0:0:0:
244,244,62848,1,2,0:0:0:0:
304,236,62945,1,2,0:0:0:0:
244,244,63042,1,2,0:0:0:0:
496,288,63139,2,0,P|443:338|370:341,1,150,2|0,0:0|0:0,0:0:0:0:
208,200,63526,5,14,0:0:0:0:
108,200,63719,1,0,0:0:0:0:
28,200,63913,1,2,0:0:0:0:
160,200,64106,1,0,0:0:0:0:
84,192,64300,1,2,0:0:0:0:
220,192,64493,2,0,L|156:200,1,50,0|2,0:0|0:0,0:0:0:0:
72,196,64881,1,0,0:0:0:0:
224,196,65074,6,0,L|274:196,1,50,2|0,0:0|0:0,0:0:0:0:
444,200,65461,2,0,L|508:200,2,50,2|2|0,0:0|0:0|0:0,0:0:0:0:
176,192,66042,2,0,L|4:192,1,150,0|2,0:0|0:0,0:0:0:0:
248,200,67010,5,0,0:0:0:0:
364,188,67203,1,0,0:0:0:0:
280,196,67397,1,0,0:0:0:0:
156,196,67590,1,0,0:0:0:0:
256,200,67784,1,0,0:0:0:0:
400,188,67977,1,0,0:0:0:0:
232,196,68171,6,0,L|40:196,1,150,2|0,0:0|0:0,0:0:0:0:
244,200,68558,2,0,L|436:200,1,150,2|0,0:0|0:0,0:0:0:0:
184,264,68945,2,0,L|20:264,1,150,2|0,0:0|0:0,0:0:0:0:
296,264,69332,2,0,L|464:260,1,150,2|0,0:0|0:0,0:0:0:0:
184,204,69719,6,0,L|20:216,1,150,2|0,0:0|0:0,0:0:0:0:
328,204,70106,2,0,L|392:208,1,50,2|0,0:0|0:0,0:0:0:0:
192,224,70300,2,0,B|-8:272|-24:112|-16:16|224:20,1,500,8|2,0:0|0:0,0:0:0:0:
448,204,71655,5,6,0:0:0:0:
296,208,72042,1,2,0:0:0:0:
164,208,72235,2,0,L|100:208,2,50,0|6|0,0:0|0:0|0:0,0:0:0:0:
352,220,72816,2,0,L|460:220,1,100,2|6,0:0|0:0,0:0:0:0:
184,196,73397,2,0,P|276:184|392:140,1,200,0|8,0:0|0:0,0:0:0:0:
96,232,74364,6,0,L|72:204,1,25,8|8,0:0|0:0,0:0:0:0:
348,228,74558,2,0,L|380:208,1,25,8|0,0:0|0:0,0:0:0:0:
164,224,74751,2,0,L|140:200,1,25,8|0,0:0|0:0,0:0:0:0:
404,240,74945,2,0,L|432:216,1,25,8|0,0:0|0:0,0:0:0:0:
112,248,75139,2,0,L|80:232,1,25,8|0,0:0|0:0,0:0:0:0:
308,256,75332,2,0,L|348:232,1,34.9999989318848,8|0,0:0|0:0,0:0:0:0:
152,272,75526,2,0,L|108:248,1,44.999998626709,8|0,0:0|0:0,0:0:0:0:
152,272,75719,1,8,0:0:0:0:
488,208,75913,5,14,0:1:0:0:
312,276,76106,1,8,0:0:0:0:
178,196,76300,2,0,L|328:200,1,150.000005722046,6|2,0:0|0:0,0:0:0:0:
252,200,76881,1,0,0:0:0:0:
48,192,77074,2,0,L|8:100,1,75.0000028610231,6|8,0:0|0:0,0:0:0:0:
184,200,77461,6,0,B|280:200|280:200|204:200,1,150.000005722046,2|6,0:0|0:0,0:0:0:0:
424,208,78042,2,0,L|500:144,1,75.0000028610231,8|2,0:0|0:0,0:0:0:0:
228,200,78429,2,0,L|-24:200,1,225.000008583069,8|2,0:0|0:0,0:0:0:0:
216,200,79397,6,0,L|320:212,1,75.0000028610231,6|8,0:0|0:0,0:0:0:0:
388,260,79784,1,2,0:0:0:0:
436,236,79977,2,0,L|496:176,1,75.0000028610231,0|6,0:0|0:0,0:0:0:0:
228,192,80364,2,0,P|60:180|48:160,1,187.500007152558
228,192,80945,2,0,P|336:192|352:184,1,112.500004291535,6|0,0:0|0:0,0:0:0:0:
504,184,81332,2,0,L|436:72,1,112.500004291535,2|0,0:0|0:0,0:0:0:0:
288,104,81719,2,0,L|132:104,1,150.000005722046,6|2,0:0|0:0,0:0:0:0:
328,240,82493,6,0,L|432:112,1,150.000005722046,6|2,0:0|0:0,0:0:0:0:
216,192,83074,1,8,0:0:0:0:
108,200,83268,2,0,L|16:196,1,75.0000028610231,6|0,0:0|0:0,0:0:0:0:
108,200,83655,2,0,P|152:148|256:120,1,150.000005722046,2|6,0:0|0:0,0:0:0:0:
504,124,84235,2,0,P|421:119|336:180,1,187.500007152558
148,260,84816,2,0,L|17:252,1,112.500004291535,6|0,0:0|0:0,0:0:0:0:
496,192,85203,6,0,P|448:172|56:208,1,450.000017166138,2|6,0:0|0:0,0:0:0:0:
328,216,86558,1,8,0:0:0:0:
56,208,86752,2,0,P|144:160|472:240,1,450.000017166138,2|6,0:0|0:0,0:0:0:0:
164,240,88300,5,2,0:0:0:0:
296,220,88687,2,0,L|388:216,1,75.0000028610231,6|8,0:0|0:0,0:0:0:0:
252,220,89074,2,0,B|80:184|232:64,1,225.000008583069,2|0,0:0|0:0,0:0:0:0:
496,60,89848,2,0,B|424:72|332:144|380:112,1,150.000005722046,2|6,0:0|0:0,0:0:0:0:
104,112,90429,2,0,P|116:208|-8:288,1,225.000008583069,0|6,0:0|0:0,0:0:0:0:
92,192,91397,6,0,L|232:188,1,112.500004291535,2|0,0:0|0:0,0:0:0:0:
392,192,91784,2,0,L|248:192,1,112.500004291535,6|0,0:0|0:0,0:0:0:0:
116,192,92171,2,0,P|188:232|232:224,1,112.500004291535,2|0,0:0|0:0,0:0:0:0:
404,192,92558,2,0,P|364:228|308:260,1,112.500004291535,6|0,0:0|0:0,0:0:0:0:
28,196,92945,2,0,B|508:192|508:192|440:196,1,525.000020027161,2|8,0:0|0:0,0:0:0:0:
200,196,94493,5,2,0:0:0:0:
388,256,94881,2,0,L|472:144,1,112.500004291535,6|0,0:0|0:0,0:0:0:0:
236,248,95268,2,0,L|312:140,1,112.500004291535,2|0,0:0|0:0,0:0:0:0:
80,256,95655,2,0,L|140:152,1,112.500004291535,6|0,0:0|0:0,0:0:0:0:
328,200,96042,6,0,B|404:208|520:100|504:36,1,262.500010013581,2|0,0:0|0:0,0:0:0:0:
312,36,96816,2,0,P|228:40|88:172,1,262.500010013581,2|0,0:0|0:0,0:0:0:0:
288,188,97590,2,0,B|384:176|504:248|480:276|440:300|280:340|124:332|72:212|72:188,1,600.000022888185,2|2,0:0|0:0,0:0:0:0:
224,200,99332,5,0,0:0:0:0:
396,200,99526,1,8,0:0:0:0:
408,200,99623,1,0,0:0:0:0:
224,200,99816,1,2,0:0:0:0:
440,200,100010,1,2,0:0:0:0:
448,200,100106,1,2,0:0:0:0:
300,200,100300,1,2,0:0:0:0:
488,200,100493,1,2,0:0:0:0:
148,224,100687,6,0,L|40:216,1,100,14|8,0:1|0:3,0:0:0:0:
160,164,101268,1,2,0:0:0:0:
120,156,101364,1,0,0:0:0:0:
132,120,101461,5,2,0:0:0:0:
156,108,101558,1,2,0:0:0:0:
384,127,101655,2,0,L|500:123,1,100,8|2,0:3|0:0,0:0:0:0:
484,124,102139,1,2,0:0:0:0:
436,184,102235,6,0,B|371:183|371:183|412:184,1,100,2|8,0:0|0:3,0:0:0:0:
304,296,102816,1,2,0:0:0:0:
256,232,102913,1,0,0:0:0:0:
256,176,103010,5,2,0:0:0:0:
264,120,103106,1,2,0:0:0:0:
108,188,103203,2,0,P|56:160|28:112,1,100,8|2,0:3|0:0,0:0:0:0:
64,136,103687,1,2,0:0:0:0:
280,136,103784,6,0,L|380:140,1,100,2|8,0:0|0:3,0:0:0:0:
440,128,104364,1,2,0:0:0:0:
508,180,104461,1,0,0:0:0:0:
508,236,104558,5,2,0:0:0:0:
500,292,104654,1,2,0:0:0:0:
168,192,104752,2,0,L|56:192,1,100,8|2,0:3|0:0,0:0:0:0:
8,192,105235,1,2,0:0:0:0:
64,128,105332,6,0,L|176:128,1,100,2|8,0:0|0:3,0:0:0:0:
432,132,105913,1,2,0:0:0:0:
456,132,105961,1,0,0:0:0:0:
432,132,106010,1,2,0:0:0:0:
188,200,106106,1,2,0:0:0:0:
136,200,106203,1,2,0:0:0:0:
408,252,106300,2,0,L|504:312,1,100,8|0,0:3|0:0,0:0:0:0:
112,228,106881,5,6,0:1:0:0:
68,200,106977,1,2,0:0:0:0:
44,152,107074,1,2,0:0:0:0:
72,108,107171,1,2,0:0:0:0:
312,60,107268,1,10,0:0:0:0:
356,64,107364,1,2,0:0:0:0:
396,84,107461,1,2,0:0:0:0:
432,108,107558,1,2,0:0:0:0:
464,140,107655,1,2,0:0:0:0:
476,184,107752,1,2,0:0:0:0:
160,204,107848,5,10,0:3:0:0:
116,212,107945,1,2,0:0:0:0:
80,236,108042,1,2,0:0:0:0:
48,268,108139,1,2,0:0:0:0:
40,312,108235,1,2,0:0:0:0:
72,344,108332,1,2,0:0:0:0:
316,320,108429,5,6,0:1:0:0:
360,312,108526,1,2,0:0:0:0:
400,292,108623,1,2,0:0:0:0:
428,256,108719,1,2,0:0:0:0:
215,207,108816,1,10,0:3:0:0:
175,207,108913,1,2,0:0:0:0:
132,188,109010,1,2,0:0:0:0:
108,156,109106,1,2,0:0:0:0:
92,108,109203,1,2,0:0:0:0:
96,56,109300,1,2,0:0:0:0:
288,20,109397,5,10,0:3:0:0:
332,28,109493,1,2,0:0:0:0:
376,44,109590,1,2,0:0:0:0:
420,72,109687,1,2,0:0:0:0:
464,112,109784,1,2,0:0:0:0:
472,164,109881,1,2,0:0:0:0:
180,296,109977,5,2,0:0:0:0:
148,280,110026,1,2,0:0:0:0:
120,260,110074,1,2,0:0:0:0:
92,240,110123,1,2,0:0:0:0:
60,224,110171,1,2,0:0:0:0:
36,196,110219,1,2,0:0:0:0:
12,168,110268,1,2,0:0:0:0:
16,132,110316,1,2,0:0:0:0:
308,304,110364,5,2,0:0:0:0:
336,280,110413,1,2,0:0:0:0:
368,264,110461,1,2,0:0:0:0:
404,256,110510,1,2,0:0:0:0:
436,240,110558,1,2,0:0:0:0:
464,220,110606,1,2,0:0:0:0:
480,188,110655,1,2,0:0:0:0:
460,160,110703,1,2,0:0:0:0:
248,308,110752,5,6,0:1:0:0:
224,312,110800,1,2,0:0:0:0:
200,308,110848,1,2,0:0:0:0:
176,308,110897,1,2,0:0:0:0:
148,304,110945,5,10,0:3:0:0:
120,288,110993,1,2,0:0:0:0:
92,268,111042,1,2,0:0:0:0:
68,248,111090,1,2,0:0:0:0:
44,228,111139,5,2,0:0:0:0:
20,184,111235,1,2,0:0:0:0:
32,120,111332,1,2,0:0:0:0:
56,60,111429,1,2,0:0:0:0:
428,324,111526,6,0,L|268:144,1,225.000008583069,6|0,0:1|0:0,0:0:0:0:
68,336,111913,2,0,L|240:148,1,225.000008583069
456,268,112300,2,0,L|228:200,1,225.000008583069
0,200,112687,2,0,P|32:108|180:80,1,225.000008583069
356,268,113074,5,2,0:0:0:0:
396,240,113171,1,0,0:0:0:0:
428,204,113268,1,8,0:0:0:0:
432,156,113364,1,0,0:0:0:0:
264,228,113461,5,6,0:0:0:0:
232,236,113558,1,0,0:0:0:0:
184,232,113655,1,8,0:0:0:0:
136,224,113752,1,0,0:0:0:0:
300,232,113848,5,2,0:0:0:0:
336,196,113945,1,0,0:0:0:0:
372,164,114042,1,8,0:0:0:0:
408,132,114139,1,0,0:0:0:0:
84,144,114235,5,6,0:0:0:0:
96,88,114332,1,0,0:0:0:0:
132,48,114429,1,8,0:0:0:0:
184,36,114526,1,0,0:0:0:0:
400,244,114623,1,2,0:0:0:0:
352,228,114719,1,0,0:0:0:0:
308,204,114816,1,8,0:0:0:0:
272,168,114913,1,0,0:0:0:0:
248,124,115010,1,6,0:0:0:0:
276,200,115203,6,0,L|524:200,1,200,8|2,0:0|0:0,0:0:0:0:
132,200,115590,1,8,0:0:0:0:
16,200,115784,2,0,L|224:200,1,200,6|0,0:0|0:0,0:0:0:0:
340,352,116171,6,0,B|144:320|0:304,1,300,2|0,0:0|0:0,0:0:0:0:
224,296,116558,2,0,P|388:196|472:20,1,300,6|0,0:0|0:0,0:0:0:0:
276,36,116945,2,0,P|156:48|20:188,1,300,2|0,0:0|0:0,0:0:0:0:
264,152,117332,2,0,P|220:285|72:320,1,300,6|0,0:0|0:0,0:0:0:0:
252,280,117719,2,0,P|368:260|452:16,1,400,2|6,0:0|0:0,0:0:0:0:
320,32,118300,5,8,0:0:0:0:
460,32,118493,1,2,0:0:0:0:
320,128,118687,1,8,0:0:0:0:
460,120,118881,1,6,0:0:0:0:
48,52,119074,1,8,0:0:0:0:
316,52,119268,6,0,B|504:48|504:48|480:180|260:224|256:228|168:264|168:264|356:328|356:328|140:344,1,1000,2|8,0:0|0:0,0:0:0:0:
36,256,120429,1,6,0:0:0:0:
176,260,120623,1,8,0:0:0:0:
436,264,120816,6,0,B|512:264|512:264|496:200|328:128|328:128|208:268|208:268|320:296,1,600,2|8,0:0|0:0,0:0:0:0:
48,264,121590,2,0,P|168:200|432:116,1,400,2|6,0:0|0:0,0:0:0:0:
500,200,122171,1,0,0:0:0:0:
300,280,122364,2,0,B|480:208|480:208|340:40|128:32|68:160|236:368|268:376|464:320|464:320|320:248|288:240|136:324|136:324|432:372|468:188|328:64,1,1800,2|8,0:0|0:0,0:0:0:0:
240,88,124300,1,6,0:0:0:0:
120,224,124493,5,0,0:0:0:0:
320,220,124687,1,2,0:0:0:0:
48,288,124881,1,8,0:0:0:0:
384,288,125074,1,6,0:0:0:0:
24,344,125268,1,8,0:0:0:0:
288,344,125461,6,2,P|436:304|384:136,1,300,2|0,0:0|0:0,0:0:0:0:
172,112,125848,2,0,P|60:148|88:320,1,300,6|0,0:0|0:0,0:0:0:0:
292,336,126235,2,0,P|392:276|276:152,1,300,2|0,0:0|0:0,0:0:0:0:
112,136,126623,2,0,P|4:188|124:344,1,300,6|0,0:0|0:0,0:0:0:0:
288,216,127010,2,0,P|352:312|476:140,1,400,2|6,0:0|0:0,0:0:0:0:
280,196,127590,5,8,0:0:0:0:
160,192,127784,1,2,0:0:0:0:
320,192,127977,1,8,0:0:0:0:
220,192,128171,1,6,0:0:0:0:
420,192,128364,1,8,0:0:0:0:
100,160,128558,2,0,B|168:192|344:72|364:68|492:276|492:276|172:336|140:336|40:188|40:184|88:48|128:32|424:28|428:32|464:348|464:348|24:348,1,2000,2|6,0:0|0:0,0:0:0:0:
16,280,130687,5,8,0:0:0:0:
184,276,130881,1,2,0:0:0:0:
100,280,131074,1,8,0:0:0:0:
260,276,131268,1,6,0:0:0:0:
160,280,131461,1,8,0:0:0:0:
340,284,131655,6,0,P|452:164|444:16,1,300,2|0,0:0|0:0,0:0:0:0:
200,288,132042,2,0,P|288:224|260:8,1,300,6|0,0:0|0:0,0:0:0:0:
112,288,132429,2,0,P|220:140|152:-24,1,300,2|0,0:0|0:0,0:0:0:0:
28,100,132816,1,6,0:0:0:0:
108,48,133010,1,8,0:0:0:0:
176,196,133203,6,0,B|280:208|484:196|484:196|272:200|272:200|64:360,1,700,2|0,0:0|0:0,0:0:0:0:
320,128,133977,2,0,B|436:124|436:124|484:40|484:40|324:68,1,300,2|0,0:0|0:0,0:0:0:0:
116,224,134364,2,0,B|12:216|12:216|32:80|76:296,1,300,6|0,0:0|0:0,0:0:0:0:
256,352,134752,6,0,B|124:272|64:96|64:96|392:24|492:168|244:360|240:360|20:224|20:224|212:44|504:64|504:64|208:356|208:356|228:140|228:140|432:160,1,2400,2|2,0:0|0:0,0:0:0:0:
28,200,137268,1,10,0:0:0:0:
188,204,137461,1,6,0:1:0:0:
68,344,137655,1,10,1:2:0:0:
128,344,137752,1,2,0:0:0:0:
320,352,137848,6,0,P|488:244|144:56,1,750.000028610231,6|8,0:0|0:0,0:0:0:0:
28,108,139010,1,6,0:0:0:0:
352,104,139203,1,8,0:0:0:0:
52,168,139397,6,0,L|360:164,1,300.000011444092,2|6,0:0|0:0,0:0:0:0:
48,248,139977,1,8,0:0:0:0:
176,248,140171,2,0,L|368:244,1,150.000005722046,2|8,0:0|0:0,0:0:0:0:
284,272,140558,2,0,L|59:268,1,225.000008583069,6|0,0:0|0:0,0:0:0:0:
492,264,140945,6,0,P|176:140|20:280,1,525.000020027161,2|0,0:0|0:0,0:0:0:0:
40,272,141719,2,0,P|288:112|488:248,1,525.000020027161,2|0,0:0|0:0,0:0:0:0:
228,280,142493,2,0,B|116:276|80:228|80:228|176:148|376:168|448:352|440:352|484:172|404:48,1,750.000028610231,2|0,0:0|0:0,0:0:0:0:
96,344,143655,6,0,L|16:192,1,150.000005722046,6|8,0:0|0:0,0:0:0:0:
328,220,144042,2,0,B|456:220|576:168|520:40|472:24|272:100,1,450.000017166138,2|8,0:0|0:0,0:0:0:0:
36,228,144816,2,0,L|348:228,1,300.000011444092,2|6,0:0|0:0,0:0:0:0:
266,177,145397,1,8,0:0:0:0:
444,308,145590,6,0,P|308:192|204:168,1,225.000008583069,2|0,0:0|0:0,0:0:0:0:
444,308,145977,2,0,L|156:308,1,225.000008583069,6|0,0:0|0:0,0:0:0:0:
56,320,146364,2,0,B|56:224|56:224|188:160|200:176,1,225.000008583069,2|0,0:0|0:0,0:0:0:0:
364,48,146752,2,0,L|132:52,1,225.000008583069,6|0,0:0|0:0,0:0:0:0:
324,304,147139,6,0,B|444:236|440:104|256:40|44:64|40:304|416:340|456:72|344:20|344:20|4:296,1,1125.00004291535,2|0,0:0|0:0,0:0:0:0:
232,296,148687,2,0,B|392:328|488:196|488:196|328:48|328:48|108:152|52:296|368:360|488:284,1,1125.00004291535,2|0,0:0|0:0,0:0:0:0:
16,340,150235,6,0,B|272:356|424:264|476:96|416:36|108:8|108:8|56:168|56:184|448:360|448:360|252:196,1,1600,6|0,0:3|0:0,0:0:0:0:
64,196,156429,6,0,L|220:200,1,150.000005722046,6|4,0:3|0:0,0:0:0:0:
152,172,157010,1,0,0:0:0:0:
88,172,157106,2,0,L|32:168,1,37.5000014305115
36,132,157300,2,0,L|20:84,1,37.5000014305115
52,64,157493,2,0,L|116:64,1,37.5000014305115,0|4,0:0|0:0,0:0:0:0:
148,60,157687,1,0,0:0:0:0:
184,60,157784,1,0,0:0:0:0:
332,72,157977,6,0,P|396:56|496:80,1,150.000005722046,0|4,0:0|0:0,0:0:0:0:
276,212,158558,1,0,0:0:0:0:
216,212,158655,1,0,0:0:0:0:
108,196,158752,2,0,L|24:144,1,75.0000028610231
44,112,159042,1,0,0:0:0:0:
92,136,159139,1,4,0:0:0:0:
140,168,159235,1,0,0:0:0:0:
164,216,159332,1,0,0:0:0:0:
436,224,159526,6,0,P|492:180|456:112,1,150.000005722046,0|4,0:0|0:0,0:0:0:0:
368,168,160106,1,0,0:0:0:0:
304,168,160203,1,0,0:0:0:0:
256,216,160300,2,0,L|200:208,1,37.5000014305115
256,216,160493,2,0,L|312:216,1,37.5000014305115
256,216,160687,1,4,0:0:0:0:
208,180,160784,1,0,0:0:0:0:
176,140,160881,1,0,0:0:0:0:
448,260,161074,6,0,P|484:156|464:112,1,150.000005722046
444,104,161558,1,0,0:0:0:0:
408,72,161655,1,0,0:0:0:0:
372,40,161752,1,0,0:0:0:0:
92,212,161848,1,0,0:0:0:0:
60,176,161945,2,0,L|36:136,2,37.5000014305115
224,204,162235,2,0,L|360:204,1,112.500004291535
128,336,162623,5,2,0:0:0:0:
68,336,162719,1,0,0:0:0:0:
28,92,162816,1,8,0:0:0:0:
72,48,162913,1,0,0:0:0:0:
384,204,163010,1,6,0:0:0:0:
444,204,163106,1,0,0:0:0:0:
488,200,163203,1,8,0:0:0:0:
444,204,163300,1,0,0:0:0:0:
124,328,163397,5,2,0:0:0:0:
64,304,163493,1,0,0:0:0:0:
64,304,163590,1,8,0:0:0:0:
124,260,163687,1,0,0:0:0:0:
308,280,163784,1,6,0:0:0:0:
368,276,163881,1,0,0:0:0:0:
416,220,163977,1,8,0:0:0:0:
464,184,164074,1,0,0:0:0:0:
248,164,164171,5,2,0:0:0:0:
188,148,164268,1,0,0:0:0:0:
88,140,164364,1,8,0:0:0:0:
64,84,164461,1,0,0:0:0:0:
360,64,164558,1,6,0:0:0:0:
416,28,164655,1,0,0:0:0:0:
120,216,164752,1,8,0:0:0:0:
64,184,164848,1,0,0:0:0:0:
380,224,164945,5,2,0:0:0:0:
428,188,165042,1,0,0:0:0:0:
380,164,165139,1,8,0:0:0:0:
336,164,165235,1,0,0:0:0:0:
112,300,165332,1,6,0:0:0:0:
68,268,165429,1,0,0:0:0:0:
20,76,165526,1,8,0:0:0:0:
68,128,165623,1,0,0:0:0:0:
440,192,165719,5,2,0:0:0:0:
444,132,165816,1,0,0:0:0:0:
408,308,165913,1,8,0:0:0:0:
348,300,166010,1,0,0:0:0:0:
60,156,166106,1,6,0:0:0:0:
92,104,166203,1,0,0:0:0:0:
452,128,166300,1,8,0:0:0:0:
396,116,166397,1,0,0:0:0:0:
72,248,166493,5,2,0:0:0:0:
32,292,166590,1,0,0:0:0:0:
380,268,166687,1,8,0:0:0:0:
432,236,166784,1,0,0:0:0:0:
476,196,166881,1,6,0:0:0:0:
432,156,166977,1,0,0:0:0:0:
124,132,167074,1,0,0:0:0:0:
72,160,167171,1,0,0:0:0:0:
308,184,167268,5,2,0:0:0:0:
344,232,167364,1,0,0:0:0:0:
392,348,167461,1,8,0:0:0:0:
344,348,167558,1,0,0:0:0:0:
124,296,167655,1,6,0:0:0:0:
72,264,167752,1,0,0:0:0:0:
316,196,167848,1,8,0:0:0:0:
380,192,167945,1,0,0:0:0:0:
444,192,168042,5,2,0:0:0:0:
380,192,168139,1,0,0:0:0:0:
92,60,168235,1,8,0:0:0:0:
52,104,168332,1,0,0:0:0:0:
272,160,168429,1,6,0:0:0:0:
324,132,168526,1,0,0:0:0:0:
112,208,168623,1,8,0:0:0:0:
56,232,168719,1,0,0:0:0:0:
288,320,168816,5,2,0:0:0:0:
344,344,168913,1,0,0:0:0:0:
392,344,169010,1,8,0:0:0:0:
444,316,169106,1,0,0:0:0:0:
204,236,169203,1,6,0:0:0:0:
176,180,169300,1,0,0:0:0:0:
92,200,169397,1,8,0:0:0:0:
48,164,169493,1,0,0:0:0:0:
388,200,169590,5,0,0:0:0:0:
440,172,169687,1,0,0:0:0:0:
160,232,169784,1,8,0:0:0:0:
108,264,169881,1,0,0:0:0:0:
308,296,169977,1,6,0:0:0:0:
360,328,170074,1,0,0:0:0:0:
408,316,170171,1,8,0:0:0:0:
456,280,170268,1,0,0:0:0:0:
152,176,170364,5,2,0:0:0:0:
100,144,170461,1,0,0:0:0:0:
76,88,170558,1,8,0:0:0:0:
136,80,170655,1,0,0:0:0:0:
392,192,170752,1,6,0:0:0:0:
436,152,170848,1,0,0:0:0:0:
104,232,170945,1,8,0:0:0:0:
56,196,171042,1,0,0:0:0:0:
348,232,171139,5,2,0:0:0:0:
304,192,171235,1,0,0:0:0:0:
120,268,171332,1,8,0:0:0:0:
68,240,171429,1,0,0:0:0:0:
404,224,171526,1,6,0:0:0:0:
440,200,171623,1,0,0:0:0:0:
284,280,171719,1,0,0:0:0:0:
332,276,171816,1,0,0:0:0:0:
128,300,171913,5,2,0:0:0:0:
68,300,172010,1,0,0:0:0:0:
44,240,172106,1,8,0:0:0:0:
116,240,172203,1,0,0:0:0:0:
444,208,172300,1,6,0:0:0:0:
488,160,172397,1,0,0:0:0:0:
304,216,172493,1,8,0:0:0:0:
260,168,172590,1,0,0:0:0:0:
80,220,172687,5,2,0:0:0:0:
40,168,172784,1,0,0:0:0:0:
252,216,172881,1,8,0:0:0:0:
304,216,172977,1,0,0:0:0:0:
92,212,173074,1,6,0:0:0:0:
52,172,173171,1,0,0:0:0:0:
444,144,173268,1,8,0:0:0:0:
480,104,173364,1,0,0:0:0:0:
104,248,173461,6,0,L|20:152,1,100
84,128,173752,1,0,0:0:0:0:
316,200,173848,1,2,0:0:0:0:
372,172,173945,1,0,0:0:0:0:
412,128,174042,1,2,0:0:0:0:
368,132,174139,1,2,0:0:0:0:
84,128,174332,1,0,0:0:0:0:
412,136,174526,1,2,0:0:0:0:
68,204,174623,2,0,P|20:156|68:84,1,150,2|0,0:0|0:0,0:0:0:0:
468,200,175010,5,4,0:3:0:0:
232,204,175397,2,0,L|176:204,1,50,4|8,0:0|0:0,0:0:0:0:
72,200,175784,1,0,0:0:0:0:
182,204,175977,1,8,0:0:0:0:
292,200,176171,1,4,0:0:0:0:
400,196,176364,1,8,0:0:0:0:
292,200,176558,1,0,0:0:0:0:
180,196,176752,1,8,0:0:0:0:
72,200,176945,1,4,0:0:0:0:
344,192,177139,6,0,L|440:192,1,75,8|8,0:0|0:0,0:0:0:0:
134,260,177526,2,0,L|64:128,1,150
388,204,178493,6,0,L|320:204,1,50,4|8,0:0|0:0,0:0:0:0:
236,200,178881,1,0,0:0:0:0:
168,200,179074,1,8,0:0:0:0:
96,200,179268,1,4,0:0:0:0:
24,200,179461,1,0,0:0:0:0:
296,128,179655,6,0,L|454:230,1,150,4|0,0:0|0:0,0:0:0:0:
264,132,180042,2,0,L|448:132,1,150
180,176,180429,2,0,L|44:80,1,150,4|0,0:0|0:0,0:0:0:0:
244,208,180816,2,0,L|84:204,1,150,0|0,0:0|0:0,0:0:0:0:
440,216,181203,6,0,B|290:216,1,150,4|0,0:0|0:0,0:0:0:0:
48,240,181590,2,0,L|76:188,1,50,4|0,0:0|0:0,0:0:0:0:
352,200,181784,2,0,B|500:200|500:200|104:200,1,500,8|0,0:0|0:0,0:0:0:0:
104,204,183139,5,4,0:0:0:0:
196,200,183332,1,0,0:0:0:0:
288,200,183526,1,0,0:0:0:0:
448,196,183719,1,8,0:0:0:0:
352,196,183913,2,0,L|272:196,1,50,4|8,0:0|0:0,0:0:0:0:
40,198,184300,2,0,P|90:200|140:200,1,100,0|4,0:0|0:0,0:0:0:0:
464,200,184881,2,0,P|420:148|292:64,1,200,8|8,0:0|0:0,0:0:0:0:
244,48,185848,5,0,0:0:0:0:
424,204,185945,1,8,0:0:0:0:
480,204,186042,1,4,0:0:0:0:
116,216,186138,1,0,0:0:0:0:
60,212,186235,1,8,0:0:0:0:
360,208,186332,1,0,0:0:0:0:
416,208,186429,1,8,0:0:0:0:
144,216,186526,5,0,0:0:0:0:
88,216,186622,1,8,0:0:0:0:
360,208,186719,1,0,0:0:0:0:
404,208,186816,1,8,0:0:0:0:
132,216,186913,1,0,0:0:0:0:
88,212,187009,1,4,0:0:0:0:
340,208,187106,1,0,0:0:0:0:
400,208,187203,1,0,0:0:0:0:
452,164,187300,1,0,0:0:0:0:
232,208,187397,6,0,L|128:208,1,75.0000028610231,2|8,0:0|0:0,0:0:0:0:
64,152,187784,2,0,L|148:152,1,75.0000028610231,6|8,0:0|0:0,0:0:0:0:
156,144,188171,1,2,0:0:0:0:
64,144,188364,1,8,0:0:0:0:
256,144,188558,2,0,L|356:136,1,75.0000028610231,6|0,0:0|0:0,0:0:0:0:
472,132,188945,6,0,L|304:140,1,150.000005722046,2|6,0:0|0:0,0:0:0:0:
190,139,189526,2,0,L|52:136,1,112.500004291535,8|0,0:0|0:0,0:0:0:0:
264,148,189913,2,0,L|32:148,1,225.000008583069,0|2,0:0|0:0,0:0:0:0:
164,232,190687,5,8,0:0:0:0:
240,308,190881,2,0,L|348:308,1,75.0000028610231,6|8,0:0|0:0,0:0:0:0:
412,232,191268,1,2,0:0:0:0:
48,224,191461,2,0,L|124:224,1,75.0000028610231,8|6,0:0|0:0,0:0:0:0:
304,72,191848,5,0,0:0:0:0:
216,80,192042,2,0,L|100:84,1,112.500004291535,2|0,0:0|0:0,0:0:0:0:
8,152,192429,2,0,L|96:244,1,112.500004291535,6|0,0:0|0:0,0:0:0:0:
276,276,192816,2,0,L|440:260,1,150.000005722046,2|6,0:0|0:0,0:0:0:0:
460,200,193397,1,8,0:0:0:0:
252,196,193590,5,2,0:0:0:0:
40,192,193977,2,0,P|84:160|204:180,1,150.000005722046,6|2,0:0|0:0,0:0:0:0:
108,220,194558,1,8,0:0:0:0:
200,216,194752,1,6,0:0:0:0:
16,272,194945,1,8,0:0:0:0:
280,320,195139,2,0,P|360:300|420:224,1,150.000005722046,2|6,0:0|0:0,0:0:0:0:
140,316,195719,6,0,P|80:276|40:140,1,187.500007152558,8|0,0:0|0:0,0:0:0:0:
140,128,196300,2,0,L|248:56,1,112.500004291535,6|0,0:0|0:0,0:0:0:0:
404,336,196687,2,0,B|524:304|552:156|272:124,1,375.000014305115,2|0,0:0|0:0,0:0:0:0:
16,196,197848,1,6,0:0:0:0:
280,68,198042,2,0,B|281:136|541:156|553:280|505:300|268:340,1,525.000020027161,0|6,0:0|0:0,0:0:0:0:
412,340,199590,1,8,0:0:0:0:
16,276,199784,5,14,0:1:0:0:
120,248,199977,1,8,0:0:0:0:
208,212,200171,6,0,L|284:212,1,75.0000028610231,4|8,0:0|0:0,0:0:0:0:
444,272,200558,2,0,P|488:256|432:128,1,225.000008583069,0|8,0:0|0:0,0:0:0:0:
168,156,201332,6,0,P|64:156|36:104,1,150.000005722046,0|4,0:0|0:0,0:0:0:0:
128,96,201913,1,8,0:0:0:0:
216,56,202106,2,0,B|320:128|280:200|272:204,1,150.000005722046,0|4,0:0|0:0,0:0:0:0:
96,224,202687,1,8,0:0:0:0:
48,196,202881,6,0,L|190:196,1,112.500004291535
352,192,203268,2,0,L|496:196,1,112.500004291535,4|0,0:0|0:0,0:0:0:0:
168,188,203655,2,0,L|44:188,1,112.500004291535
300,192,204042,2,0,L|400:280,1,112.500004291535,4|0,0:0|0:0,0:0:0:0:
116,308,204429,2,0,B|12:300|-124:132|80:36|288:76|292:152,1,525.000020027161,2|8,0:0|0:0,0:0:0:0:
480,208,205977,5,6,0:1:0:0:
508,256,206074,1,2,0:0:0:0:
496,312,206171,1,10,0:0:0:0:
444,336,206268,1,2,0:0:0:0:
216,348,206364,6,0,L|80:352,1,112.500004291535,6|0,0:0|0:0,0:0:0:0:
68,328,206752,2,0,B|128:256,2,75.0000028610231,2|8|6,0:0|0:0|0:0,0:0:0:0:
296,228,207332,1,10,0:0:0:0:
432,292,207526,6,0,P|480:244|384:84,1,262.500010013581,2|0,0:0|0:0,0:0:0:0:
168,92,208300,2,0,P|124:112|160:308,1,262.500010013581,2|2,0:0|0:1,0:0:0:0:
424,332,209074,2,0,B|448:332|416:140|236:64|28:108|64:328,1,600.000022888185,2|6,0:0|0:1,0:0:0:0:
216,216,210816,5,8,0:0:0:0:
16,208,211010,1,0,0:0:0:0:
16,208,211106,1,0,0:0:0:0:
216,216,211300,1,2,0:0:0:0:
16,208,211493,1,2,0:0:0:0:
16,208,211590,1,10,0:0:0:0:
216,216,211784,1,2,0:0:0:0:
84,212,211977,1,10,0:0:0:0:
364,224,212171,6,0,L|472:216,1,100,14|8,0:1|0:3,0:0:0:0:
352,164,212752,1,2,0:0:0:0:
392,156,212848,1,0,0:0:0:0:
380,120,212945,5,2,0:0:0:0:
356,108,213042,1,2,0:0:0:0:
128,127,213139,2,0,L|12:123,1,100,8|2,0:3|0:0,0:0:0:0:
28,124,213623,1,2,0:0:0:0:
76,184,213719,6,0,B|141:183|141:183|100:184,1,100,2|8,0:0|0:3,0:0:0:0:
212,296,214300,1,2,0:0:0:0:
276,384,214397,1,0,0:0:0:0:
276,0,214494,5,2,0:0:0:0:
212,120,214590,1,2,0:0:0:0:
404,188,214687,2,0,P|456:160|484:112,1,100,8|2,0:3|0:0,0:0:0:0:
448,136,215171,1,2,0:0:0:0:
232,136,215268,6,0,L|132:140,1,100,2|8,0:0|0:3,0:0:0:0:
72,128,215848,1,2,0:0:0:0:
8,180,215945,1,0,0:0:0:0:
4,236,216042,1,2,0:0:0:0:
16,292,216138,1,2,0:0:0:0:
344,192,216236,6,0,L|456:192,1,100,8|2,0:3|0:0,0:0:0:0:
504,192,216719,1,2,0:0:0:0:
448,128,216816,2,0,L|336:128,1,100,2|8,0:0|0:3,0:0:0:0:
188,104,217397,5,2,0:0:0:0:
172,112,217445,1,0,0:0:0:0:
164,128,217494,1,0,0:0:0:0:
340,200,217590,1,2,0:0:0:0:
400,200,217687,1,2,0:0:0:0:
84,208,217784,2,0,P|48:260|44:304,1,100,8|0,0:3|0:0,0:0:0:0:
400,228,218365,5,6,0:1:0:0:
444,200,218461,1,2,0:0:0:0:
468,152,218558,1,2,0:0:0:0:
440,108,218655,1,2,0:0:0:0:
256,100,218752,1,10,0:0:0:0:
204,96,218848,1,2,0:0:0:0:
152,96,218945,1,2,0:0:0:0:
100,96,219042,1,2,0:0:0:0:
52,116,219139,1,2,0:0:0:0:
52,168,219236,1,2,0:0:0:0:
352,204,219332,5,10,0:3:0:0:
404,196,219429,1,2,0:0:0:0:
452,212,219526,1,2,0:0:0:0:
488,252,219623,1,2,0:0:0:0:
448,288,219719,1,2,0:0:0:0:
408,324,219816,1,2,0:0:0:0:
196,320,219913,5,6,0:1:0:0:
148,300,220010,1,2,0:0:0:0:
100,284,220107,1,2,0:0:0:0:
72,240,220203,1,2,0:0:0:0:
256,192,220300,1,10,0:3:0:0:
308,196,220397,1,2,0:0:0:0:
356,176,220494,1,2,0:0:0:0:
404,156,220590,1,2,0:0:0:0:
420,108,220687,1,2,0:0:0:0:
416,56,220784,1,2,0:0:0:0:
224,20,220881,1,10,0:3:0:0:
184,48,220977,1,2,0:0:0:0:
132,64,221074,1,2,0:0:0:0:
88,92,221171,1,2,0:0:0:0:
48,128,221268,1,2,0:0:0:0:
60,180,221365,1,2,0:0:0:0:
332,296,221461,5,2,0:0:0:0:
364,280,221510,1,2,0:0:0:0:
392,260,221558,1,2,0:0:0:0:
420,240,221607,1,2,0:0:0:0:
452,224,221655,1,2,0:0:0:0:
476,196,221703,1,2,0:0:0:0:
500,168,221752,1,2,0:0:0:0:
496,132,221800,1,2,0:0:0:0:
204,304,221848,5,2,0:0:0:0:
176,280,221897,1,2,0:0:0:0:
144,264,221945,1,2,0:0:0:0:
108,256,221994,1,2,0:0:0:0:
80,232,222042,1,2,0:0:0:0:
52,216,222090,1,2,0:0:0:0:
48,180,222139,1,2,0:0:0:0:
36,148,222187,1,2,0:0:0:0:
248,316,222236,5,6,0:1:0:0:
276,316,222284,1,2,0:0:0:0:
312,308,222332,1,2,0:0:0:0:
348,308,222381,1,2,0:0:0:0:
364,304,222429,5,10,0:3:0:0:
392,288,222477,1,2,0:0:0:0:
420,268,222526,1,2,0:0:0:0:
444,248,222574,1,2,0:0:0:0:
468,228,222623,5,2,0:0:0:0:
492,184,222719,1,2,0:0:0:0:
480,120,222816,1,2,0:0:0:0:
456,60,222913,1,2,0:0:0:0:
252,200,223010,6,0,L|20:200,1,225.000008583069
228,272,223397,2,0,L|464:100,1,225.000008583069
252,200,223784,2,0,L|39:274,1,225.000008583069
224,108,224171,2,0,L|316:313,1,225.000008583069
116,332,224558,6,0,B|40:280|164:56|292:0|504:348|500:348|52:328|52:328|444:80|488:304|488:304|416:100|248:16|248:16|184:92|52:176|52:176,1,2000,2|6,0:0|0:0,0:0:0:0:
404,220,226687,1,8,0:0:0:0:
216,228,226881,1,2,0:0:0:0:
392,220,227074,1,8,0:0:0:0:
48,224,227268,1,6,0:0:0:0:
496,216,227461,1,8,0:0:0:0:
216,340,227655,6,0,B|104:320|20:156|116:40|116:40|376:52|468:196|428:296|40:332|24:328|116:12|116:12|456:184|456:196|368:348|364:348|76:92,1,2000,2|6,0:0|0:0,0:0:0:0:
16,328,229784,1,8,0:0:0:0:
100,264,229977,1,2,0:0:0:0:
228,264,230171,1,8,0:0:0:0:
32,256,230364,1,6,0:0:0:0:
376,264,230558,1,8,0:0:0:0:
244,276,230752,6,0,B|136:276|24:112|24:112|448:16|500:224,1,800,2|2,0:0|0:0,0:0:0:0:
392,280,231719,1,8,0:0:0:0:
40,272,231913,1,6,0:0:0:0:
376,276,232106,1,8,0:0:0:0:
100,348,232300,6,0,B|24:268|120:92|184:72|248:4|248:4|80:156,1,600,2|8,0:0|0:0,0:0:0:0:
40,196,233074,2,0,B|264:196|264:196|460:196,1,400,2|6,0:0|0:0,0:0:0:0:
272,196,233655,1,8,0:0:0:0:
484,316,233848,6,0,B|260:320|8:124|152:36|152:36|368:72|436:212|436:216|80:344|76:340|264:140|264:140|456:36|500:188|500:192|160:364,1,1800,2|8,0:0|0:0,0:0:0:0:
272,352,235784,5,6,0:0:0:0:
88,348,235977,1,8,0:0:0:0:
44,304,236074,1,0,0:0:0:0:
60,248,236171,2,0,L|272:244,1,200,2|8,0:0|0:0,0:0:0:0:
0,192,236558,2,8,L|216:196,1,200,14|8,0:0|0:0,0:0:0:0:
376,336,236945,6,0,B|472:264|444:156|156:36|100:48|100:48|20:252|460:344|460:344|84:332|88:332|456:328|456:328|40:52,1,2000,2|6,0:0|0:0,0:0:0:0:
240,288,239074,2,0,P|352:328|452:292,2,200,8|2|8,0:0|0:0|0:0,0:0:0:0:
80,304,239655,1,6,0:0:0:0:
476,304,239848,1,8,0:0:0:0:
216,244,240042,6,0,B|-40:276|-16:84|340:32|432:188|432:204|432:204|32:56|32:56|368:332|368:332|-60:244|-8:136|128:20,1,2000,2|6,0:0|0:0,0:0:0:0:
320,144,242171,5,8,0:0:0:0:
180,188,242364,2,0,L|380:300,1,200,2|8,0:0|0:0,0:0:0:0:
72,328,242752,1,6,0:0:0:0:
480,336,242945,1,8,0:0:0:0:
180,344,243139,2,0,B|28:272|44:64|380:40|-52:224|372:256|28:28|28:28|-36:304|372:348,1,1000,2|8,0:0|0:0,0:0:0:0:
476,208,244300,6,0,L|268:120,1,200,6|8,0:0|0:0,0:0:0:0:
128,32,244687,2,0,P|24:120|328:236,1,600,2|8,0:0|0:0,0:0:0:0:
444,304,245461,2,0,B|492:224|492:224|472:112|472:112|400:52,1,300,2|0,0:0|0:0,0:0:0:0:
24,248,245848,2,0,L|124:40,1,200,6|8,0:0|0:0,0:0:0:0:
248,20,246235,6,0,B|428:60|464:296|64:368|48:368|24:40|32:28|372:8|372:12|500:364|496:364|68:336|60:336|64:24|416:8|416:8|392:352|68:192|60:184|504:148|504:148|512:288,1,2200,2|8,0:0|0:0,0:0:0:0:
432,328,248461,1,2,0:0:0:0:
304,324,248655,1,2,0:0:0:0:
304,324,248752,1,8,0:0:0:0:
168,296,248945,1,6,0:1:0:0:
48,312,249139,1,10,1:2:0:0:
136,232,249236,1,2,0:0:0:0:
436,336,249332,6,0,P|440:116|44:312,1,900.000034332277,6|6,0:1|0:0,0:0:0:0:
352,340,250687,1,8,0:0:0:0:
428,324,250881,2,0,L|500:180,1,150.000005722046,2|8,0:0|0:0,0:0:0:0:
344,200,251268,2,0,L|188:200,1,150.000005722046,6|8,0:0|0:0,0:0:0:0:
44,200,251655,1,2,0:0:0:0:
144,312,251848,2,0,L|328:308,2,150.000005722046,8|6|8,0:0|0:0|0:0,0:0:0:0:
444,328,252429,6,0,B|488:264|444:144|104:144|132:84|132:84|264:32,1,525.000020027161,2|0,0:0|0:0,0:0:0:0:
472,52,253203,2,0,P|376:236|68:344,1,525.000020027161,2|0,0:0|0:0,0:0:0:0:
292,356,253977,2,0,B|400:332|416:212|416:212|232:132|-12:308|108:348|108:348|376:348,1,900.000034332277,2|6,0:0|0:0,0:0:0:0:
468,344,255332,5,8,0:0:0:0:
320,224,255526,2,0,B|124:228|0:148|88:64|476:36,1,600.000022888185,2|2,0:0|0:0,0:0:0:0:
384,248,256493,5,8,0:0:0:0:
484,244,256687,2,0,L|168:252,1,300.000011444092,6|2,0:0|0:0,0:0:0:0:
36,248,257268,1,8,0:0:0:0:
132,176,257461,1,6,0:0:0:0:
312,188,257655,1,8,0:0:0:0:
224,260,257848,6,0,P|328:328|476:336,1,225.000008583069,2|0,0:0|0:0,0:0:0:0:
268,320,258235,2,0,P|180:260|220:112,1,225.000008583069,6|0,0:0|0:0,0:0:0:0:
24,348,258623,2,0,B|0:312|0:312|4:204|4:204|124:120|284:196|284:196|216:340|56:324|56:324|64:72|272:320|272:320|220:332,1,1125.00004291535
432,348,260171,2,0,B|464:256|104:68|108:76|360:372|344:372|12:152|64:88|332:32|332:32|488:196|136:364,1,1125.00004291535,2|0,0:0|0:0,0:0:0:0:
16,224,261719,2,0,B|40:164|496:208|496:208|220:276|24:352|-16:136|-16:136|292:68|464:288,1,1600,6|0,3:0|0:0,0:0:0:0:
100,192,267719,5,0,0:0:0:0:
376,192,267913,2,0,L|440:192,1,50
308,268,268300,2,0,L|248:268,1,50
148,260,268687,1,0,0:0:0:0:
40,260,268881,1,0,0:0:0:0:
140,184,269074,1,0,0:0:0:0:
260,192,269268,1,0,1:0:0:0:
424,208,269461,5,0,0:0:0:0:
356,268,269590,1,0,0:0:0:0:
388,272,269719,1,0,0:0:0:0:
428,280,269848,1,0,0:0:0:0:
288,328,270042,1,0,0:0:0:0:
184,260,270235,2,0,L|120:264,1,50
36,224,270623,2,0,L|100:228,1,50
360,256,271010,6,0,L|416:248,1,50
484,324,271397,2,0,L|420:328,1,50
316,340,271784,2,0,L|260:340,1,50
440,292,272171,2,0,L|376:296,1,50
112,200,272558,6,0,L|48:196,1,50,8|0,0:1|0:0,0:0:0:0:
432,204,272752,2,0,L|488:204,1,50,8|0,0:0|0:0,0:0:0:0:
136,200,272945,2,0,L|80:200,1,50
400,200,273139,2,0,L|460:196,1,50,8|0,0:0|0:0,0:0:0:0:
200,200,273332,2,0,L|144:200,1,50
392,200,273526,2,0,L|456:196,1,50,8|0,0:0|0:0,0:0:0:0:
244,276,273719,6,0,L|176:276,1,50
188,240,273913,2,0,L|236:200,1,50
64,200,274106,5,14,0:1:0:0:
32,152,274203,1,0,0:0:0:0:
48,104,274300,1,8,0:0:0:0:
68,48,274397,1,0,0:0:0:0:
344,48,274493,5,6,0:0:0:0:
400,64,274590,1,0,0:0:0:0:
440,92,274687,1,8,0:0:0:0:
480,144,274784,1,0,0:0:0:0:
200,288,274881,5,2,0:0:0:0:
132,288,274977,1,0,0:0:0:0:
56,280,275074,1,8,0:0:0:0:
40,216,275171,1,0,0:0:0:0:
256,292,275268,5,6,0:0:0:0:
320,272,275364,1,0,0:0:0:0:
360,228,275461,1,8,0:0:0:0:
404,200,275558,1,0,0:0:0:0:
132,292,275655,5,2,0:0:0:0:
96,248,275752,1,0,0:0:0:0:
68,196,275848,1,8,0:0:0:0:
80,136,275945,1,0,0:0:0:0:
140,100,276042,5,6,0:0:0:0:
184,60,276139,1,0,0:0:0:0:
212,40,276235,1,8,0:0:0:0:
276,44,276332,1,0,0:0:0:0:
328,72,276429,5,2,0:0:0:0:
376,96,276526,1,0,0:0:0:0:
444,124,276623,1,8,0:0:0:0:
488,168,276719,1,0,0:0:0:0:
188,280,276816,5,6,0:0:0:0:
128,240,276913,1,0,0:0:0:0:
88,200,277010,1,8,0:0:0:0:
68,128,277106,1,0,0:0:0:0:
368,204,277203,5,2,0:0:0:0:
432,204,277300,1,0,0:0:0:0:
476,204,277397,1,8,0:0:0:0:
512,200,277493,1,0,0:0:0:0:
296,200,277590,5,6,0:0:0:0:
228,196,277687,1,0,0:0:0:0:
168,168,277784,1,8,0:0:0:0:
136,128,277881,1,0,0:0:0:0:
372,40,277977,5,2,0:0:0:0:
416,60,278074,1,0,0:0:0:0:
472,92,278171,1,8,0:0:0:0:
496,136,278268,1,0,0:0:0:0:
148,276,278364,5,6,0:0:0:0:
96,244,278461,1,0,0:0:0:0:
60,200,278558,1,8,0:0:0:0:
40,144,278655,1,0,0:0:0:0:
388,212,278752,5,2,0:0:0:0:
440,184,278848,1,0,0:0:0:0:
176,220,278945,1,8,0:0:0:0:
120,192,279042,1,0,0:0:0:0:
388,212,279139,5,6,0:0:0:0:
440,184,279235,1,0,0:0:0:0:
176,220,279332,1,8,0:0:0:0:
120,192,279429,1,0,0:0:0:0:
384,268,279526,5,2,0:0:0:0:
420,236,279623,1,0,0:0:0:0:
460,192,279719,1,8,0:0:0:0:
436,132,279816,1,0,0:0:0:0:
404,80,279913,5,6,0:0:0:0:
368,48,280010,1,0,0:0:0:0:
324,36,280106,1,8,0:0:0:0:
268,36,280203,1,0,0:0:0:0:
88,140,280300,5,2,0:0:0:0:
140,140,280397,1,0,0:0:0:0:
192,140,280493,1,8,0:0:0:0:
0,336,280590,1,0,0:0:0:0:
60,340,280687,1,6,0:0:0:0:
120,344,280784,1,0,0:0:0:0:
408,328,280881,5,8,0:0:0:0:
452,288,280977,1,0,0:0:0:0:
112,216,281074,1,2,0:0:0:0:
52,188,281171,1,0,0:0:0:0:
88,140,281268,1,8,0:0:0:0:
364,172,281364,1,0,0:0:0:0:
424,148,281461,5,6,0:0:0:0:
396,96,281558,1,0,0:0:0:0:
132,48,281655,1,8,0:0:0:0:
56,272,281752,1,0,0:0:0:0:
272,252,281848,1,2,0:0:0:0:
336,232,281945,1,0,0:0:0:0:
400,324,282042,1,8,0:0:0:0:
132,284,282139,1,0,0:0:0:0:
56,248,282235,5,6,0:0:0:0:
8,216,282332,1,0,0:0:0:0:
368,188,282429,1,8,0:0:0:0:
404,140,282526,1,0,0:0:0:0:
156,256,282623,1,2,0:0:0:0:
92,208,282719,1,0,0:0:0:0:
120,156,282816,1,8,0:0:0:0:
496,264,282913,5,0,0:0:0:0:
484,216,283010,1,6,0:0:0:0:
448,168,283106,1,0,0:0:0:0:
128,192,283203,1,8,0:0:0:0:
68,248,283300,1,0,0:0:0:0:
440,128,283397,5,2,0:0:0:0:
488,128,283493,1,2,0:0:0:0:
116,136,283590,1,2,0:0:0:0:
52,132,283687,1,2,0:0:0:0:
440,128,283784,5,2,0:0:0:0:
376,128,283881,1,2,0:0:0:0:
52,132,283977,1,2,0:0:0:0:
116,136,284074,1,2,0:0:0:0:
440,128,284171,5,2,0:0:0:0:
376,128,284268,1,2,0:0:0:0:
52,132,284364,1,2,0:0:0:0:
116,136,284461,1,2,0:0:0:0:
440,128,284558,1,2,0:0:0:0:
376,128,284655,1,2,0:0:0:0:
52,132,284752,1,2,0:0:0:0:
116,136,284848,1,2,0:0:0:0:
376,128,284945,1,6,0:1:0:0:
272,132,285139,5,8,0:0:0:0:
396,136,285332,1,0,0:0:0:0:
396,136,285429,1,0,0:0:0:0:
272,264,285623,1,2,0:0:0:0:
400,264,285816,1,2,0:0:0:0:
400,264,285913,1,10,0:0:0:0:
304,200,286106,1,2,0:0:0:0:
400,196,286300,1,10,0:0:0:0:
148,224,286493,6,0,L|40:216,1,100,14|8,0:1|0:3,0:0:0:0:
408,240,287074,5,2,0:0:0:0:
460,216,287170,1,0,0:0:0:0:
472,160,287267,1,2,0:0:0:0:
456,144,287364,1,2,0:0:0:0:
204,160,287461,6,0,L|104:163,1,100,8|2,0:3|0:0,0:0:0:0:
84,104,287945,1,2,0:0:0:0:
152,100,288041,6,0,L|256:100,1,100,2|8,0:0|0:3,0:0:0:0:
304,296,288622,1,2,0:0:0:0:
280,232,288719,1,0,0:0:0:0:
280,176,288816,1,2,0:0:0:0:
288,120,288912,1,2,0:0:0:0:
120,200,289009,6,0,L|0:188,1,100,8|2,0:3|0:0,0:0:0:0:
64,136,289493,1,2,0:0:0:0:
280,136,289590,2,0,L|380:140,1,100,2|8,0:0|0:3,0:0:0:0:
464,132,290170,5,2,0:0:0:0:
492,152,290267,1,0,0:0:0:0:
472,180,290364,1,2,0:0:0:0:
448,204,290461,1,2,0:0:0:0:
168,192,290558,6,0,L|56:192,1,100,8|2,0:3|0:0,0:0:0:0:
8,192,291041,1,2,0:0:0:0:
64,128,291138,2,0,L|176:128,1,100,2|8,0:0|0:3,0:0:0:0:
264,120,291719,5,2,0:0:0:0:
240,144,291816,1,0,0:0:0:0:
216,168,291912,1,2,0:0:0:0:
188,188,292009,1,2,0:0:0:0:
364,200,292106,6,0,L|476:196,1,100,8|0,0:3|0:0,0:0:0:0:
112,228,292687,5,6,0:1:0:0:
68,200,292783,1,2,0:0:0:0:
44,152,292880,1,2,0:0:0:0:
72,108,292977,1,2,0:0:0:0:
244,96,293074,1,10,0:0:0:0:
296,92,293170,1,2,0:0:0:0:
348,92,293267,1,2,0:0:0:0:
400,92,293364,1,2,0:0:0:0:
448,112,293461,1,2,0:0:0:0:
448,164,293558,1,2,0:0:0:0:
160,204,293654,5,10,0:3:0:0:
108,196,293751,1,2,0:0:0:0:
60,212,293848,1,2,0:0:0:0:
24,252,293945,1,2,0:0:0:0:
64,288,294041,1,2,0:0:0:0:
104,324,294138,1,2,0:0:0:0:
316,320,294235,5,6,0:1:0:0:
364,300,294332,1,2,0:0:0:0:
412,284,294429,1,2,0:0:0:0:
440,240,294525,1,2,0:0:0:0:
256,192,294622,1,10,0:3:0:0:
204,196,294719,1,2,0:0:0:0:
156,176,294816,1,2,0:0:0:0:
108,156,294912,1,2,0:0:0:0:
92,108,295009,1,2,0:0:0:0:
96,56,295106,1,2,0:0:0:0:
288,20,295203,1,10,0:3:0:0:
328,48,295299,1,2,0:0:0:0:
380,64,295396,1,2,0:0:0:0:
424,92,295493,1,2,0:0:0:0:
464,128,295590,1,2,0:0:0:0:
452,180,295687,1,2,0:0:0:0:
180,296,295783,5,2,0:0:0:0:
148,280,295832,1,2,0:0:0:0:
120,260,295880,1,2,0:0:0:0:
92,240,295929,1,2,0:0:0:0:
60,224,295977,1,2,0:0:0:0:
36,196,296025,1,2,0:0:0:0:
12,168,296074,1,2,0:0:0:0:
16,132,296122,1,2,0:0:0:0:
308,304,296170,5,2,0:0:0:0:
336,280,296219,1,2,0:0:0:0:
368,264,296267,1,2,0:0:0:0:
404,256,296316,1,2,0:0:0:0:
432,232,296364,1,2,0:0:0:0:
464,216,296412,1,2,0:0:0:0:
488,188,296461,1,2,0:0:0:0:
492,152,296509,1,2,0:0:0:0:
276,312,296558,5,6,0:1:0:0:
240,316,296606,1,2,0:0:0:0:
208,312,296654,1,2,0:0:0:0:
172,316,296703,1,2,0:0:0:0:
136,312,296751,5,10,0:3:0:0:
104,296,296799,1,2,0:0:0:0:
72,272,296848,1,2,0:0:0:0:
44,248,296896,1,2,0:0:0:0:
40,212,296945,5,2,0:0:0:0:
32,168,297041,1,2,0:0:0:0:
40,124,297138,1,2,0:0:0:0:
56,84,297235,1,2,0:0:0:0:
360,336,297332,6,0,L|372:56,1,225.000008583069
104,344,297719,2,0,L|104:128,1,150.000005722046
180,192,298106,5,0,0:0:0:0:
12,124,298300,1,0,0:0:0:0:
180,128,298493,1,0,0:0:0:0:
456,200,298687,1,0,0:0:0:0:
20,316,298881,6,0,P|104:268|224:8,1,300,12|0,0:1|0:0,0:0:0:0:
440,24,299268,2,0,P|424:160|536:340,1,300,4|0,0:0|0:0,0:0:0:0:
312,340,299655,2,0,P|180:312|28:188,1,300,2|0,0:0|0:0,0:0:0:0:
228,48,300042,2,0,P|375:36|511:96,1,300,4|0,0:0|0:0,0:0:0:0:
300,296,300429,2,0,P|136:268|24:76,1,400,2|4,0:0|0:0,0:0:0:0:
148,128,301010,5,8,0:0:0:0:
280,128,301203,1,2,0:0:0:0:
72,128,301397,1,8,0:0:0:0:
472,136,301590,1,4,0:0:0:0:
76,136,301784,1,8,0:0:0:0:
144,40,301977,6,0,P|68:72|128:304,1,300,2|0,0:0|0:0,0:0:0:0:
332,348,302364,2,0,B|372:312|416:144|472:240|488:60,1,300,4|0,0:0|0:0,0:0:0:0:
320,32,302752,2,0,P|184:60|20:172,1,300,2|0,0:0|0:0,0:0:0:0:
296,28,303139,2,0,B|464:88|368:196|496:284,1,300,4|0,0:0|0:0,0:0:0:0:
132,348,303526,2,0,P|32:248|192:24,1,400,2|6,0:0|0:0,0:0:0:0:
312,304,304106,5,0,0:0:0:0:
424,232,304300,1,2,0:0:0:0:
248,228,304493,1,8,0:0:0:0:
424,232,304687,1,4,0:0:0:0:
160,244,304881,1,8,0:0:0:0:
76,124,305074,6,0,B|228:32|488:56|488:56|452:320|32:356|32:312|36:52|380:344,1,1200,2|4,0:0|0:0,0:0:0:0:
460,304,306429,1,8,0:0:0:0:
408,312,306526,1,0,0:0:0:0:
180,308,306623,6,0,B|80:280|16:152|44:100|44:100|96:28|128:0|128:0|32:156|32:216|40:232|44:240|196:352,1,800,2|2,0:0|0:0,0:0:0:0:
480,324,307590,1,8,0:0:0:0:
360,260,307784,1,6,0:0:0:0:
480,256,307977,1,8,0:0:0:0:
44,344,308171,6,0,B|16:216|76:16|112:8|340:24|504:356|460:360|472:360|472:360|368:360,2,800,2|2|2,0:0|0:0|0:0,0:0:0:0:
8,224,309913,5,8,0:0:0:0:
168,220,310106,1,4,0:0:0:0:
312,220,310300,1,8,0:0:0:0:
424,224,310493,1,2,0:0:0:0:
216,220,310687,1,8,0:0:0:0:
480,220,310881,1,4,0:0:0:0:
48,224,311074,1,8,0:0:0:0:
304,352,311268,6,0,B|408:352|440:160|400:32|28:208|84:288|84:288|448:336|464:44|464:44|84:72|8:240|20:360|536:168,1,2000,6|6,0:1|0:0,0:0:0:0:
496,276,313397,6,0,L|284:268,1,200,8|2,0:0|0:0,0:0:0:0:
76,200,313784,2,0,L|275:210,1,200,8|6,0:0|0:0,0:0:0:0:
16,200,314171,1,8,0:0:0:0:
328,356,314364,2,0,B|436:228|256:152|256:152|32:320|32:320|76:72|128:64|144:56|436:184|444:328|420:356|420:356|76:352|76:64|76:64|188:36,1,1800,2|8,0:0|0:0,0:0:0:0:
308,60,316300,5,6,0:0:0:0:
428,88,316493,1,8,0:0:0:0:
312,148,316687,1,2,0:0:0:0:
472,148,316881,1,8,0:0:0:0:
44,200,317074,1,6,0:0:0:0:
324,204,317268,1,8,0:0:0:0:
224,80,317461,6,0,B|20:100|32:248|32:248|320:368|488:100|456:64|152:140|152:140|332:332,1,1200,2|6,0:0|0:0,0:0:0:0:
272,328,318719,1,0,0:0:0:0:
80,324,318816,1,8,0:0:0:0:
32,288,318913,1,0,0:0:0:0:
240,204,319010,6,0,B|376:208|484:88|484:88|284:56|48:308,1,700,2|0,0:0|0:0,0:0:0:0:
312,320,319784,2,0,B|552:324|616:176|328:36|76:60,1,700,2|0,0:0|0:0,0:0:0:0:
404,28,320558,2,0,B|428:84|472:296|472:296|288:344|0:196|0:196|376:28|464:224|464:224|116:328|140:36|212:8|212:8|432:148|408:248|236:308,1,2200,2|8,0:0|0:0,0:0:0:0:
292,224,322784,5,2,0:0:0:0:
468,228,322978,1,2,0:0:0:0:
424,276,323075,1,10,0:0:0:0:
44,256,323268,1,2,0:0:0:0:
348,224,323462,1,2,1:2:0:0:
408,224,323559,1,2,0:0:0:0:
476,184,323655,6,0,B|408:148|28:184|28:184|116:268|468:316,1,900.000034332277,6|6,0:1|0:0,0:0:0:0:
292,216,325010,1,8,0:0:0:0:
455,268,325203,2,0,L|156:276,1,300.000011444092,2|6,0:0|0:0,0:0:0:0:
104,204,325784,1,8,0:0:0:0:
212,208,325977,1,2,0:0:0:0:
488,212,326171,1,8,0:0:0:0:
16,248,326364,2,0,P|16:112|120:20,1,225.000008583069,6|0,0:0|0:0,0:0:0:0:
280,48,326752,6,0,B|488:304|452:304|452:304|192:340,1,525.000020027161,2|0,0:0|0:0,0:0:0:0:
20,336,327526,2,0,B|56:196|56:196|128:192|128:192|64:132|64:132|8:88|120:360,1,525.000020027161,2|0,0:0|0:0,0:0:0:0:
268,228,328300,2,6,B|92:204|48:92|180:24|456:24|512:180|512:180|264:316,1,900.000034332277,2|6,0:0|0:0,0:0:0:0:
176,320,329655,5,8,0:0:0:0:
24,320,329848,2,0,B|112:184|464:104,1,450.000017166138,6|0,0:1|0:0,0:0:0:0:
36,332,330623,1,2,0:0:0:0:
156,328,330816,1,8,0:0:0:0:
24,248,331010,2,0,L|200:256,1,150.000005722046,6|8,0:0|0:0,0:0:0:0:
348,336,331397,6,0,L|480:80,1,225.000008583069,2|0,0:0|0:0,0:0:0:0:
228,328,331784,2,0,L|36:112,1,225.000008583069,6|0,0:0|0:0,0:0:0:0:
252,168,332171,2,0,L|492:172,1,225.000008583069,2|0,0:0|0:0,0:0:0:0:
316,296,332558,2,0,P|180:224|208:108,1,225.000008583069,6|0,0:0|0:0,0:0:0:0:
16,332,332945,2,0,B|0:108|116:16|416:68|496:352|496:352|88:340,1,1125.00004291535,2|0,0:0|0:0,0:0:0:0:
496,348,334493,2,0,B|400:172|72:80|16:328|16:328|260:360|260:360|496:188,1,1125.00004291535,2|0,0:0|0:0,0:0:0:0:
16,200,336042,6,0,B|44:144|224:80|488:364|488:364|400:184|200:64|32:360|40:364|508:184|508:184|344:24|328:24,1,1600,4|0,0:3|0:0,0:0:0:0:
396,231,342235,6,0,L|344:232,1,50
200,236,342622,2,0,L|268:238,1,50
92,300,343009,2,0,B|29:312,1,50
255,172,343396,2,0,B|200:184,1,50,0|0,0:0|1:0,0:0:0:0:
88,72,343783,5,0,0:0:0:0:
28,104,343913,2,0,L|64:132,1,33.3333333333333
188,128,344170,2,0,B|257:111,1,50
384,188,344558,2,0,B|324:181,1,50
120,220,344945,2,0,B|76:192,1,50
256,232,345332,6,0,L|324:233,1,50
160,328,345719,2,0,L|229:319,1,50
248,256,346106,2,0,B|308:267|335:292,1,50
444,288,346493,2,0,B|409:282|397:271,1,50,0|0,0:0|1:0,0:0:0:0:
120,208,346881,6,0,L|107:345,1,100
168,336,347364,1,0,0:0:0:0:
224,304,347461,1,0,0:0:0:0:
440,208,347655,2,0,B|508:168,1,50,0|0,1:0|0:0,0:0:0:0:
300,256,348042,6,0,B|213:220,1,50
80,40,348429,6,0,B|400:48|400:48|76:152|76:152|344:188|344:188|64:264|64:264|372:272|372:272|376:324|464:328|528:208|528:208|448:168,1,1800.00006866455
256,192,350945,12,0,356171,0:0:0:0:
