osu file format v14

[General]
AudioFilename: audio.mp3
AudioLeadIn: 0
PreviewTime: 223009
Countdown: 0
SampleSet: Normal
StackLeniency: 0.7
Mode: 1
LetterboxInBreaks: 0
WidescreenStoryboard: 0

[Editor]
Bookmarks: 20170,26364,38751,44944,51138,63525,75912,100686,111525,113073,137848,150235,156428,162622,175009,187396,199783,205977,212170,223009,224557,249331,261719,274106,286493,297331,298880,322106,323654,336041
DistanceSpacing: 0.9
BeatDivisor: 4
GridSize: 8
TimelineZoom: 2.7

[Metadata]
Title:Kikoku Doukoku Jigokuraku
TitleUnicode:鬼哭慟哭地獄楽
Artist:Halozy
ArtistUnicode:Halozy
Creator:Kin
Version:Hell Oni
Source:東方地霊殿 ~ Subterranean Animism.
Tags:火焔猫 燐 Kaenbyou Rin Touhou Project 死体旅行 ~ Be of good cheer! ほたる 疒 すみじゅん th11 c78 ZUN Ultimate Synthesis Hotaru Corpse Voyage Stage 5 Boss Theme sumijun Team Shanghai Alice Chireiden eurobeat euro beat
BeatmapID:1319334
BeatmapSetID:625880

[Difficulty]
HPDrainRate:5
CircleSize:2
OverallDifficulty:6.5
ApproachRate:6.9
SliderMultiplier:1.4
SliderTickRate:1

[Events]
//Background and Video events
0,0,"Kaenbyou.Rin.jpg",0,120
//Break Periods
2,1790,11514
//Storyboard Layer 0 (Background)
//Storyboard Layer 1 (Fail)
//Storyboard Layer 2 (Pass)
//Storyboard Layer 3 (Foreground)
//Storyboard Sound Samples

[TimingPoints]
1590,387.096774193548,4,1,0,60,1,0
1686,-111.111111111111,4,1,0,30,0,0
4686,-125,4,1,0,30,0,0
6235,-142.857142857143,4,1,0,30,0,0
7783,-166.666666666667,4,1,0,30,0,0
9331,-200,4,1,0,30,0,0
10880,-250,4,1,0,30,0,0
12428,-50,4,1,0,60,0,0
13977,-125,4,1,0,60,0,0
19493,-123.076923076923,4,1,0,60,0,0
19686,-119.402985074627,4,1,0,60,0,0
19783,-117.647058823529,4,1,0,60,0,0
19977,-114.285714285714,4,1,0,60,0,0
20170,-111.111111111111,4,1,0,70,0,0
26364,-90.9090909090909,4,1,0,80,0,0
39138,-95.2380952380952,4,1,0,70,0,0
39525,-100,4,1,0,70,0,0
39912,-105.263157894737,4,1,0,70,0,0
40299,-111.111111111111,4,1,0,70,0,0
44557,-105.263157894737,4,1,0,70,0,0
44944,-100,4,1,0,70,0,0
50751,-96.774505724212,4,1,0,70,0,0
50944,-93.7505859411621,4,1,0,75,0,0
51138,-90.9090909090909,4,1,0,80,0,0
63525,-100,4,1,0,70,0,0
74944,-99.009900990099,4,1,0,70,0,0
75041,-98.0392156862745,4,1,0,70,0,0
75138,-97.0873786407767,4,1,0,70,0,0
75525,-94.3396226415094,4,1,0,70,0,0
75912,-90.9090909090909,4,1,0,80,0,0
101073,-100,4,1,0,60,0,0
101460,-125,4,1,0,60,0,0
106493,-90.9090909090909,4,1,0,80,0,0
113073,-90.9090909090909,4,1,0,80,0,1
150235,-90.9090909090909,4,1,0,60,0,0
150622,-95.2380952380952,4,1,0,60,0,0
150912,-98.7654320987654,4,1,0,60,0,0
151106,-101.26582278481,4,1,0,60,0,0
151396,-105.263157894737,4,1,0,60,0,0
151589,-108.108108108108,4,1,0,60,0,0
151783,-111.111111111111,4,1,0,60,0,0
155751,-108.695652173913,4,1,0,60,0,0
155944,-106.382978723404,4,1,0,60,0,0
156041,-105.263157894737,4,1,0,60,0,0
156235,-103.092783505155,4,1,0,60,0,0
156428,-100,4,1,0,70,0,0
162622,-90.9090909090909,4,1,0,80,0,0
175009,-100,4,1,0,70,0,0
175396,-111.111111111111,4,1,0,70,0,0
185848,-100,4,1,0,60,0,0
187396,-90.9090909090909,4,1,0,80,0,0
199783,-90.9090909090909,4,1,0,70,0,0
205977,-90.9090909090909,4,1,0,80,0,0
212557,-100,4,1,0,60,0,0
212944,-125,4,1,0,60,0,0
218073,-90.9090909090909,4,1,0,80,0,0
224557,-90.9090909090909,4,1,0,80,0,1
261719,-90.9090909090909,4,1,0,60,0,0
261912,-90.9090909090909,4,1,0,40,0,0
263267,-100,4,1,0,40,0,0
264815,-125,4,1,0,60,0,0
272557,-100,4,1,0,70,0,0
274106,-90.9090909090909,4,1,0,80,0,0
286880,-100,4,1,0,60,0,0
287267,-125,4,1,0,60,0,0
292493,-90.9090909090909,4,1,0,80,0,0
298880,-90.9090909090909,4,1,0,80,0,1
336041,-90.9090909090909,4,1,0,60,0,0
336235,-90.9090909090909,4,1,0,40,0,0
337589,-100,4,1,0,40,0,0
339138,-125,4,1,0,60,0,0
348428,-50,4,1,0,60,0,0

[HitObjects]
256,192,1590,5,4,0:0:0:0:
176,192,12428,6,0,L|504:152,1,280
260,196,13977,1,4,0:0:0:0:
260,196,14364,1,8,0:0:0:0:
260,196,14654,1,8,0:0:0:0:
260,196,14848,1,8,0:0:0:0:
260,196,15138,1,8,0:0:0:0:
260,196,15331,1,8,0:0:0:0:
260,196,15525,1,0,0:0:0:0:
260,196,15912,1,8,0:0:0:0:
260,196,16202,1,8,0:0:0:0:
260,196,16396,1,8,0:0:0:0:
260,196,16686,1,8,0:0:0:0:
260,196,16880,1,8,0:0:0:0:
260,196,17073,1,0,0:0:0:0:
260,196,17460,1,8,0:0:0:0:
260,196,17751,1,8,0:0:0:0:
260,196,17944,1,8,0:0:0:0:
260,196,18235,1,8,0:0:0:0:
260,196,18428,1,0,0:0:0:0:
260,196,18622,1,8,0:0:0:0:
260,196,19009,1,8,0:0:0:0:
260,196,19106,1,8,0:0:0:0:
260,196,19299,1,8,0:0:0:0:
260,196,19493,1,8,0:0:0:0:
260,196,19686,1,8,0:0:0:0:
260,196,19783,1,8,0:0:0:0:
260,196,19977,1,8,0:0:0:0:
260,196,20170,1,4,0:0:0:0:
260,196,20557,1,8,0:0:0:0:
260,196,20848,1,8,0:0:0:0:
260,196,21041,1,0,0:0:0:0:
260,196,21331,1,8,0:0:0:0:
260,196,21525,1,8,0:0:0:0:
260,196,21719,1,0,0:0:0:0:
260,196,22106,1,8,0:0:0:0:
260,196,22299,1,0,0:0:0:0:
260,196,22396,1,8,0:0:0:0:
260,196,22589,1,0,0:0:0:0:
260,196,22686,1,0,0:0:0:0:
260,196,22880,1,8,0:0:0:0:
260,196,23073,1,8,0:0:0:0:
260,196,23267,1,0,0:0:0:0:
260,196,23654,1,8,0:0:0:0:
260,196,23848,1,0,0:0:0:0:
260,196,23944,1,8,0:0:0:0:
260,196,24138,1,0,0:0:0:0:
260,196,24235,1,0,0:0:0:0:
260,196,24428,1,8,0:0:0:0:
260,196,24622,1,0,0:0:0:0:
260,196,24815,1,14,0:0:0:0:
260,196,25202,1,8,0:0:0:0:
260,196,25396,1,0,0:0:0:0:
260,196,25493,1,8,0:0:0:0:
260,196,25686,1,8,0:0:0:0:
260,196,25880,1,0,0:0:0:0:
260,196,25977,1,8,0:0:0:0:
256,0,26364,1,4,0:0:0:0:
240,196,26557,1,0,0:0:0:0:
240,196,26654,1,0,0:0:0:0:
240,196,26751,1,8,0:0:0:0:
240,196,26944,1,0,0:0:0:0:
240,196,27041,1,8,0:0:0:0:
240,196,27138,1,0,0:0:0:0:
240,196,27235,1,8,0:0:0:0:
240,196,27331,1,0,0:0:0:0:
240,196,27428,1,0,0:0:0:0:
240,196,27525,1,8,0:0:0:0:
240,196,27719,1,8,0:0:0:0:
240,196,27912,1,0,0:0:0:0:
240,196,28106,1,0,0:0:0:0:
240,196,28202,1,0,0:0:0:0:
240,196,28299,1,8,0:0:0:0:
240,196,28493,1,8,0:0:0:0:
240,196,28589,1,0,0:0:0:0:
240,196,28686,1,8,0:0:0:0:
240,196,28783,1,8,0:0:0:0:
240,196,28880,1,0,0:0:0:0:
240,196,28977,1,0,0:0:0:0:
240,196,29073,1,8,0:0:0:0:
240,196,29267,1,8,0:0:0:0:
240,196,29460,1,0,0:0:0:0:
240,196,29654,1,0,0:0:0:0:
240,196,29751,1,0,0:0:0:0:
240,196,29848,1,8,0:0:0:0:
240,196,30041,1,0,0:0:0:0:
240,196,30138,1,8,0:0:0:0:
240,196,30235,1,0,0:0:0:0:
240,196,30331,1,8,0:0:0:0:
240,196,30428,1,0,0:0:0:0:
240,196,30525,1,0,0:0:0:0:
240,196,30622,1,8,0:0:0:0:
240,196,30815,1,0,0:0:0:0:
240,196,31009,1,8,0:0:0:0:
240,196,31202,1,0,0:0:0:0:
240,196,31299,1,0,0:0:0:0:
240,196,31396,1,8,0:0:0:0:
240,196,31493,1,8,0:0:0:0:
240,196,31589,1,0,0:0:0:0:
240,196,31686,1,8,0:0:0:0:
240,196,31783,1,0,0:0:0:0:
240,196,31880,1,0,0:0:0:0:
240,196,31977,1,8,0:0:0:0:
240,196,32073,1,0,0:0:0:0:
240,196,32170,1,8,0:0:0:0:
240,196,32364,1,8,0:0:0:0:
240,196,32557,1,0,0:0:0:0:
240,196,32751,1,0,0:0:0:0:
240,196,32848,1,0,0:0:0:0:
240,196,32944,1,8,0:0:0:0:
240,196,33138,1,8,0:0:0:0:
240,196,33235,1,8,0:0:0:0:
240,196,33331,1,0,0:0:0:0:
240,196,33428,1,8,0:0:0:0:
240,196,33525,1,0,0:0:0:0:
240,196,33622,1,0,0:0:0:0:
240,196,33719,1,8,0:0:0:0:
240,196,33912,1,8,0:0:0:0:
240,196,34106,1,0,0:0:0:0:
240,196,34299,1,0,0:0:0:0:
240,196,34396,1,0,0:0:0:0:
240,196,34493,1,8,0:0:0:0:
240,196,34686,1,0,0:0:0:0:
240,196,34783,1,8,0:0:0:0:
240,196,34880,1,0,0:0:0:0:
240,196,34977,1,8,0:0:0:0:
240,196,35073,1,8,0:0:0:0:
240,196,35170,1,0,0:0:0:0:
240,196,35267,1,8,0:0:0:0:
240,196,35460,1,8,0:0:0:0:
240,196,35654,1,0,0:0:0:0:
240,196,35848,1,0,0:0:0:0:
240,196,35944,1,0,0:0:0:0:
240,196,36041,1,8,0:0:0:0:
240,196,36235,1,8,0:0:0:0:
240,196,36331,1,8,0:0:0:0:
240,196,36428,1,0,0:0:0:0:
240,196,36525,1,8,0:0:0:0:
240,196,36622,1,0,0:0:0:0:
240,196,36719,1,0,0:0:0:0:
240,196,36815,1,8,0:0:0:0:
240,196,37009,1,8,0:0:0:0:
240,196,37202,1,4,0:0:0:0:
240,196,37493,1,0,0:0:0:0:
240,196,37589,1,8,0:0:0:0:
240,196,37783,1,0,0:0:0:0:
240,196,37880,1,8,0:0:0:0:
240,196,37977,1,0,0:0:0:0:
240,196,38073,1,8,0:0:0:0:
240,196,38170,1,0,0:0:0:0:
240,196,38235,1,0,0:0:0:0:
240,196,38299,1,0,0:0:0:0:
240,196,38364,1,8,0:0:0:0:
240,196,38460,1,0,0:0:0:0:
240,196,38557,1,8,0:0:0:0:
240,196,38654,1,8,0:0:0:0:
240,196,38751,1,0,0:0:0:0:
240,196,39138,1,0,0:0:0:0:
240,196,39525,1,0,0:0:0:0:
240,196,39912,1,0,0:0:0:0:
240,196,40299,1,0,0:0:0:0:
240,196,40686,1,0,0:0:0:0:
240,196,40880,1,0,0:0:0:0:
240,196,41073,1,0,0:0:0:0:
240,196,41460,1,0,0:0:0:0:
240,196,41848,1,0,0:0:0:0:
240,196,42235,1,0,0:0:0:0:
240,196,42428,1,0,0:0:0:0:
240,196,42622,1,0,0:0:0:0:
240,196,42815,1,0,0:0:0:0:
240,196,43009,1,0,0:0:0:0:
240,196,43396,1,0,0:0:0:0:
240,196,43783,1,0,0:0:0:0:
240,196,43977,1,0,0:0:0:0:
240,196,44170,1,0,0:0:0:0:
240,196,44557,1,0,0:0:0:0:
240,196,44944,1,4,0:0:0:0:
240,196,45331,1,8,0:0:0:0:
240,196,45525,1,8,0:0:0:0:
240,196,45622,1,0,0:0:0:0:
240,196,45719,1,0,0:0:0:0:
240,196,45912,1,0,0:0:0:0:
240,196,46106,1,8,0:0:0:0:
240,196,46299,1,8,0:0:0:0:
240,196,46493,1,0,0:0:0:0:
240,196,46880,1,8,0:0:0:0:
240,196,47073,1,0,0:0:0:0:
240,196,47170,1,0,0:0:0:0:
240,196,47267,1,0,0:0:0:0:
240,196,47460,1,8,0:0:0:0:
240,196,47654,1,8,0:0:0:0:
240,196,47848,1,0,0:0:0:0:
240,196,48041,1,8,0:0:0:0:
240,196,48428,1,8,0:0:0:0:
240,196,48622,1,0,0:0:0:0:
240,196,48815,1,8,0:0:0:0:
240,196,49009,1,0,0:0:0:0:
240,196,49106,1,0,0:0:0:0:
240,196,49202,1,8,0:0:0:0:
240,196,49396,1,8,0:0:0:0:
240,196,49589,1,4,0:0:0:0:
240,196,50557,1,4,0:0:0:0:
240,196,50751,1,4,0:0:0:0:
240,196,50944,1,4,0:0:0:0:
240,196,51138,1,4,0:0:0:0:
240,196,51331,1,0,0:0:0:0:
240,196,51428,1,0,0:0:0:0:
240,196,51525,1,8,0:0:0:0:
240,196,51719,1,0,0:0:0:0:
240,196,51815,1,8,0:0:0:0:
240,196,51912,1,0,0:0:0:0:
240,196,52009,1,8,0:0:0:0:
240,196,52106,1,8,0:0:0:0:
240,196,52202,1,0,0:0:0:0:
240,196,52299,1,8,0:0:0:0:
240,196,52493,1,8,0:0:0:0:
240,196,52686,1,0,0:0:0:0:
240,196,52880,1,0,0:0:0:0:
240,196,52977,1,0,0:0:0:0:
240,196,53073,1,8,0:0:0:0:
240,196,53267,1,8,0:0:0:0:
240,196,53364,1,8,0:0:0:0:
240,196,53460,1,0,0:0:0:0:
240,196,53557,1,8,0:0:0:0:
240,196,53654,1,0,0:0:0:0:
240,196,53751,1,0,0:0:0:0:
240,196,53848,1,8,0:0:0:0:
240,196,54041,1,8,0:0:0:0:
240,196,54235,1,0,0:0:0:0:
240,196,54428,1,0,0:0:0:0:
240,196,54525,1,0,0:0:0:0:
240,196,54622,1,8,0:0:0:0:
240,196,54815,1,0,0:0:0:0:
240,196,54912,1,8,0:0:0:0:
240,196,55009,1,0,0:0:0:0:
240,196,55106,1,8,0:0:0:0:
240,196,55202,1,0,0:0:0:0:
240,196,55299,1,0,0:0:0:0:
240,196,55396,1,8,0:0:0:0:
240,196,55589,1,0,0:0:0:0:
240,196,55783,1,8,0:0:0:0:
240,196,55977,1,0,0:0:0:0:
240,196,56073,1,0,0:0:0:0:
240,196,56170,1,8,0:0:0:0:
240,196,56267,1,0,0:0:0:0:
240,196,56364,1,8,0:0:0:0:
240,196,56460,1,8,0:0:0:0:
240,196,56557,1,0,0:0:0:0:
240,196,56654,1,8,0:0:0:0:
240,196,56751,1,0,0:0:0:0:
240,196,56848,1,0,0:0:0:0:
240,196,56944,1,8,0:0:0:0:
240,196,57138,1,8,0:0:0:0:
240,196,57331,1,0,0:0:0:0:
240,196,57525,1,0,0:0:0:0:
240,196,57622,1,0,0:0:0:0:
240,196,57719,1,8,0:0:0:0:
240,196,57912,1,8,0:0:0:0:
240,196,58009,1,0,0:0:0:0:
240,196,58106,1,0,0:0:0:0:
240,196,58202,1,8,0:0:0:0:
240,196,58299,1,0,0:0:0:0:
240,196,58396,1,0,0:0:0:0:
240,196,58493,1,8,0:0:0:0:
240,196,58686,1,8,0:0:0:0:
240,196,58880,1,0,0:0:0:0:
240,196,59073,1,0,0:0:0:0:
240,196,59170,1,0,0:0:0:0:
240,196,59267,1,8,0:0:0:0:
240,196,59460,1,8,0:0:0:0:
240,196,59557,1,8,0:0:0:0:
240,196,59654,1,0,0:0:0:0:
240,196,59751,1,8,0:0:0:0:
240,196,59848,1,0,0:0:0:0:
240,196,59944,1,0,0:0:0:0:
240,196,60041,1,8,0:0:0:0:
240,196,60235,1,8,0:0:0:0:
240,196,60428,1,0,0:0:0:0:
240,196,60622,1,0,0:0:0:0:
240,196,60719,1,0,0:0:0:0:
240,196,60815,1,8,0:0:0:0:
240,196,61009,1,0,0:0:0:0:
240,196,61106,1,8,0:0:0:0:
240,196,61202,1,0,0:0:0:0:
240,196,61299,1,8,0:0:0:0:
240,196,61396,1,0,0:0:0:0:
240,196,61493,1,0,0:0:0:0:
240,196,61589,1,8,0:0:0:0:
240,196,61783,1,0,0:0:0:0:
240,196,61977,1,14,0:0:0:0:
240,196,62170,1,0,0:0:0:0:
240,196,62267,1,0,0:0:0:0:
240,196,62364,1,0,0:0:0:0:
240,196,62460,1,8,0:0:0:0:
240,196,62654,1,14,0:0:0:0:
240,196,62848,1,14,0:0:0:0:
240,196,63041,1,0,0:0:0:0:
240,196,63138,1,8,0:0:0:0:
240,196,63525,1,4,0:0:0:0:
240,196,63912,1,8,0:0:0:0:
240,196,64106,1,0,0:0:0:0:
240,196,64202,1,0,0:0:0:0:
240,196,64299,1,0,0:0:0:0:
240,196,64493,1,8,0:0:0:0:
240,196,64686,1,8,0:0:0:0:
240,196,64880,1,0,0:0:0:0:
240,196,65073,1,0,0:0:0:0:
240,196,65267,1,8,0:0:0:0:
240,196,65460,1,8,0:0:0:0:
240,196,65654,1,0,0:0:0:0:
240,196,66041,1,0,0:0:0:0:
240,196,66235,1,8,0:0:0:0:
240,196,66428,1,8,0:0:0:0:
240,196,66622,1,0,0:0:0:0:
240,196,67009,1,8,0:0:0:0:
240,196,67202,1,0,0:0:0:0:
240,196,67299,1,0,0:0:0:0:
240,196,67396,1,0,0:0:0:0:
240,196,67589,1,8,0:0:0:0:
240,196,67783,1,8,0:0:0:0:
240,196,67977,1,0,0:0:0:0:
240,196,68170,1,8,0:0:0:0:
240,196,68557,1,8,0:0:0:0:
240,196,68751,1,8,0:0:0:0:
240,196,68944,1,0,0:0:0:0:
240,196,69138,1,0,0:0:0:0:
240,196,69235,1,0,0:0:0:0:
240,196,69331,1,8,0:0:0:0:
240,196,69525,1,8,0:0:0:0:
240,196,69719,1,0,0:0:0:0:
240,196,70106,1,8,0:0:0:0:
240,196,70299,1,8,0:0:0:0:
240,196,70493,1,0,0:0:0:0:
240,196,70686,1,0,0:0:0:0:
240,196,70880,1,8,0:0:0:0:
240,196,71267,1,0,0:0:0:0:
240,196,71654,1,8,0:0:0:0:
240,196,71848,1,0,0:0:0:0:
240,196,71944,1,0,0:0:0:0:
240,196,72041,1,0,0:0:0:0:
240,196,72235,1,8,0:0:0:0:
240,196,72428,1,8,0:0:0:0:
240,196,72622,1,0,0:0:0:0:
240,196,72815,1,8,0:0:0:0:
240,196,73202,1,8,0:0:0:0:
240,196,73396,1,0,0:0:0:0:
240,196,73493,1,0,0:0:0:0:
240,196,73589,1,0,0:0:0:0:
240,196,73783,1,0,0:0:0:0:
240,196,73977,1,8,0:0:0:0:
240,196,74170,1,8,0:0:0:0:
240,196,74364,1,4,0:0:0:0:
240,196,74751,1,8,0:0:0:0:
240,196,74944,1,0,0:0:0:0:
240,196,75041,1,0,0:0:0:0:
240,196,75138,1,8,0:0:0:0:
240,196,75331,1,0,0:0:0:0:
240,196,75525,1,8,0:0:0:0:
240,196,75719,1,8,0:0:0:0:
240,196,75912,1,4,0:0:0:0:
240,196,76106,1,8,0:0:0:0:
240,196,76299,1,0,0:0:0:0:
240,196,76396,1,8,0:0:0:0:
240,196,76589,1,8,0:0:0:0:
240,196,76783,1,8,0:0:0:0:
240,196,76880,1,0,0:0:0:0:
240,196,77073,1,8,0:0:0:0:
240,196,77267,1,0,0:0:0:0:
240,196,77460,1,8,0:0:0:0:
240,196,77654,1,8,0:0:0:0:
240,196,77751,1,8,0:0:0:0:
240,196,77848,1,0,0:0:0:0:
240,196,77944,1,8,0:0:0:0:
240,196,78138,1,8,0:0:0:0:
240,196,78235,1,0,0:0:0:0:
240,196,78331,1,8,0:0:0:0:
240,196,78428,1,8,0:0:0:0:
240,196,78622,1,0,0:0:0:0:
240,196,78815,1,8,0:0:0:0:
240,196,79009,1,0,0:0:0:0:
240,196,79202,1,8,0:0:0:0:
240,196,79299,1,8,0:0:0:0:
240,196,79396,1,0,0:0:0:0:
240,196,79493,1,8,0:0:0:0:
240,196,79686,1,8,0:0:0:0:
240,196,79880,1,8,0:0:0:0:
240,196,79977,1,0,0:0:0:0:
240,196,80073,1,0,0:0:0:0:
240,196,80170,1,8,0:0:0:0:
240,196,80364,1,0,0:0:0:0:
240,196,80557,1,8,0:0:0:0:
240,196,80751,1,0,0:0:0:0:
240,196,80944,1,8,0:0:0:0:
240,196,81041,1,8,0:0:0:0:
240,196,81235,1,8,0:0:0:0:
240,196,81331,1,0,0:0:0:0:
240,196,81428,1,8,0:0:0:0:
240,196,81525,1,8,0:0:0:0:
240,196,81719,1,0,0:0:0:0:
240,196,81815,1,0,0:0:0:0:
240,196,81912,1,8,0:0:0:0:
240,196,82009,1,8,0:0:0:0:
240,196,82106,1,0,0:0:0:0:
240,196,82299,1,8,0:0:0:0:
240,196,82493,1,0,0:0:0:0:
240,196,82589,1,0,0:0:0:0:
240,196,82783,1,8,0:0:0:0:
240,196,82977,1,8,0:0:0:0:
240,196,83073,1,0,0:0:0:0:
240,196,83170,1,0,0:0:0:0:
240,196,83267,1,8,0:0:0:0:
240,196,83460,1,8,0:0:0:0:
240,196,83654,1,0,0:0:0:0:
240,196,83848,1,8,0:0:0:0:
240,196,83944,1,8,0:0:0:0:
240,196,84041,1,0,0:0:0:0:
240,196,84138,1,8,0:0:0:0:
240,196,84331,1,8,0:0:0:0:
240,196,84525,1,0,0:0:0:0:
240,196,84622,1,8,0:0:0:0:
240,196,84719,1,8,0:0:0:0:
240,196,84815,1,0,0:0:0:0:
240,196,85009,1,8,0:0:0:0:
240,196,85202,1,0,0:0:0:0:
240,196,85396,1,8,0:0:0:0:
240,196,85589,1,0,0:0:0:0:
240,196,85686,1,0,0:0:0:0:
240,196,85880,1,8,0:0:0:0:
240,196,86073,1,8,0:0:0:0:
240,196,86170,1,0,0:0:0:0:
240,196,86267,1,0,0:0:0:0:
240,196,86364,1,8,0:0:0:0:
240,196,86557,1,0,0:0:0:0:
240,196,86751,1,8,0:0:0:0:
240,196,86944,1,0,0:0:0:0:
240,196,87138,1,8,0:0:0:0:
240,196,87235,1,8,0:0:0:0:
240,196,87331,1,0,0:0:0:0:
240,196,87428,1,8,0:0:0:0:
240,196,87622,1,8,0:0:0:0:
240,196,87719,1,0,0:0:0:0:
240,196,87815,1,0,0:0:0:0:
240,196,87912,1,8,0:0:0:0:
240,196,88106,1,8,0:0:0:0:
240,196,88299,1,4,0:0:0:0:
240,196,88493,1,8,0:0:0:0:
240,196,88686,1,0,0:0:0:0:
240,196,88783,1,8,0:0:0:0:
240,196,88977,1,8,0:0:0:0:
240,196,89170,1,8,0:0:0:0:
240,196,89267,1,8,0:0:0:0:
240,196,89364,1,8,0:0:0:0:
240,196,89460,1,0,0:0:0:0:
240,196,89654,1,8,0:0:0:0:
240,196,89848,1,8,0:0:0:0:
240,196,90041,1,0,0:0:0:0:
240,196,90235,1,8,0:0:0:0:
240,196,90428,1,0,0:0:0:0:
240,196,90525,1,8,0:0:0:0:
240,196,90719,1,8,0:0:0:0:
240,196,90815,1,8,0:0:0:0:
240,196,90912,1,0,0:0:0:0:
240,196,91009,1,8,0:0:0:0:
240,196,91202,1,0,0:0:0:0:
240,196,91396,1,8,0:0:0:0:
240,196,91589,1,0,0:0:0:0:
240,196,91783,1,8,0:0:0:0:
240,196,91977,1,0,0:0:0:0:
240,196,92073,1,8,0:0:0:0:
240,196,92170,1,0,0:0:0:0:
240,196,92267,1,8,0:0:0:0:
240,196,92364,1,8,0:0:0:0:
240,196,92557,1,0,0:0:0:0:
240,196,92751,1,8,0:0:0:0:
240,196,92944,1,0,0:0:0:0:
240,196,93138,1,0,0:0:0:0:
240,196,93331,1,8,0:0:0:0:
240,196,93428,1,0,0:0:0:0:
240,196,93525,1,0,0:0:0:0:
240,196,93622,1,8,0:0:0:0:
240,196,93815,1,8,0:0:0:0:
240,196,93912,1,8,0:0:0:0:
240,196,94106,1,0,0:0:0:0:
240,196,94299,1,0,0:0:0:0:
240,196,94493,1,14,0:0:0:0:
240,196,94686,1,8,0:0:0:0:
240,196,94880,1,0,0:0:0:0:
240,196,95073,1,0,0:0:0:0:
240,196,95170,1,8,0:0:0:0:
240,196,95267,1,0,0:0:0:0:
240,196,95364,1,8,0:0:0:0:
240,196,95460,1,8,0:0:0:0:
240,196,95654,1,0,0:0:0:0:
240,196,95848,1,0,0:0:0:0:
240,196,96041,1,14,0:0:0:0:
240,196,96235,1,0,0:0:0:0:
240,196,96331,1,0,0:0:0:0:
240,196,96428,1,0,0:0:0:0:
240,196,96622,1,0,0:0:0:0:
240,196,96719,1,8,0:0:0:0:
240,196,96912,1,8,0:0:0:0:
240,196,97009,1,0,0:0:0:0:
240,196,97106,1,0,0:0:0:0:
240,196,97202,1,8,0:0:0:0:
240,196,97396,1,0,0:0:0:0:
240,196,97589,1,8,0:0:0:0:
240,196,97686,1,8,0:0:0:0:
240,196,97783,1,0,0:0:0:0:
240,196,97880,1,0,0:0:0:0:
240,196,97977,1,8,0:0:0:0:
240,196,98073,1,0,0:0:0:0:
240,196,98170,1,0,0:0:0:0:
240,196,98267,1,8,0:0:0:0:
240,196,98364,1,0,0:0:0:0:
240,196,98460,1,8,0:0:0:0:
240,196,98557,1,8,0:0:0:0:
240,196,98654,1,0,0:0:0:0:
240,196,98751,1,8,0:0:0:0:
240,196,98848,1,8,0:0:0:0:
240,196,98944,1,0,0:0:0:0:
240,196,99009,1,0,0:0:0:0:
240,196,99073,1,0,0:0:0:0:
240,196,99138,1,8,0:0:0:0:
240,196,99331,1,0,0:0:0:0:
240,196,99525,1,8,0:0:0:0:
240,196,99622,1,8,0:0:0:0:
240,196,99815,1,8,0:0:0:0:
240,196,100009,1,0,0:0:0:0:
240,196,100106,1,8,0:0:0:0:
240,196,100299,1,8,0:0:0:0:
240,196,100396,1,8,0:0:0:0:
240,196,100493,1,0,0:0:0:0:
240,196,100686,1,4,0:0:0:0:
240,196,101073,1,8,0:0:0:0:
240,196,101654,1,8,0:0:0:0:
296,232,102235,1,0,0:0:0:0:
208,136,102622,1,8,0:0:0:0:
208,232,103202,1,8,0:0:0:0:
328,216,103589,1,0,0:0:0:0:
384,208,103783,1,0,0:0:0:0:
384,208,104170,1,8,0:0:0:0:
384,208,104751,1,8,0:0:0:0:
256,224,105138,1,0,0:0:0:0:
304,216,105331,1,0,0:0:0:0:
304,216,105719,1,8,0:0:0:0:
304,216,105912,1,0,0:0:0:0:
304,216,106106,1,0,0:0:0:0:
304,216,106299,1,8,0:0:0:0:
304,216,106686,1,0,0:0:0:0:
296,184,106880,1,8,0:0:0:0:
296,184,106977,1,8,0:0:0:0:
288,152,107073,1,0,0:0:0:0:
296,184,107170,1,0,0:0:0:0:
296,184,107267,1,8,0:0:0:0:
296,184,107364,1,0,0:0:0:0:
296,184,107460,1,0,0:0:0:0:
296,184,107557,1,0,0:0:0:0:
296,184,107654,1,0,0:0:0:0:
296,184,107751,1,0,0:0:0:0:
296,184,107848,1,8,0:0:0:0:
296,184,107944,1,0,0:0:0:0:
296,184,108041,1,8,0:0:0:0:
296,184,108138,1,8,0:0:0:0:
296,184,108235,1,0,0:0:0:0:
312,192,108299,1,0,0:0:0:0:
336,200,108364,1,0,0:0:0:0:
360,208,108428,1,8,0:0:0:0:
328,200,108525,1,0,0:0:0:0:
296,184,108622,1,0,0:0:0:0:
296,184,108719,1,0,0:0:0:0:
296,184,108815,1,8,0:0:0:0:
296,184,108912,1,0,0:0:0:0:
296,184,109009,1,0,0:0:0:0:
296,184,109106,1,0,0:0:0:0:
296,184,109202,1,0,0:0:0:0:
296,184,109299,1,0,0:0:0:0:
296,184,109396,1,8,0:0:0:0:
328,184,109493,1,0,0:0:0:0:
360,184,109589,1,8,0:0:0:0:
328,184,109686,1,8,0:0:0:0:
344,160,109783,1,0,0:0:0:0:
352,152,109848,1,0,0:0:0:0:
360,136,109912,1,0,0:0:0:0:
352,152,109977,1,8,0:0:0:0:
352,152,110041,1,8,0:0:0:0:
360,184,110106,1,8,0:0:0:0:
384,152,110170,1,0,0:0:0:0:
408,160,110235,1,0,0:0:0:0:
408,160,110299,1,0,0:0:0:0:
352,152,110364,1,8,0:0:0:0:
328,184,110428,1,8,0:0:0:0:
328,184,110493,1,8,0:0:0:0:
328,184,110557,1,0,0:0:0:0:
328,184,110622,1,0,0:0:0:0:
328,184,110686,1,0,0:0:0:0:
328,184,110751,1,8,0:0:0:0:
344,176,110815,1,0,0:0:0:0:
344,176,110880,1,0,0:0:0:0:
328,184,110944,1,8,0:0:0:0:
344,176,111009,1,0,0:0:0:0:
344,176,111073,1,0,0:0:0:0:
120,248,111138,1,8,0:0:0:0:
152,240,111235,1,0,0:0:0:0:
176,240,111331,1,0,0:0:0:0:
208,232,111428,1,0,0:0:0:0:
232,232,111525,1,8,0:0:0:0:
256,192,113073,1,4,0:0:0:0:
256,192,113267,1,8,0:0:0:0:
256,192,113460,1,8,0:0:0:0:
256,192,113557,1,8,0:0:0:0:
256,192,113654,1,0,0:0:0:0:
256,192,113751,1,8,0:0:0:0:
256,192,113848,1,0,0:0:0:0:
256,192,113944,1,0,0:0:0:0:
256,192,114041,1,8,0:0:0:0:
256,192,114138,1,0,0:0:0:0:
256,192,114235,1,8,0:0:0:0:
256,192,114331,1,8,0:0:0:0:
256,192,114428,1,0,0:0:0:0:
256,192,114525,1,0,0:0:0:0:
256,192,114622,1,8,0:0:0:0:
256,192,114815,1,8,0:0:0:0:
256,192,115009,1,0,0:0:0:0:
256,192,115106,1,8,0:0:0:0:
256,192,115202,1,0,0:0:0:0:
256,192,115299,1,8,0:0:0:0:
256,192,115396,1,0,0:0:0:0:
256,192,115493,1,0,0:0:0:0:
256,192,115589,1,8,0:0:0:0:
256,192,115686,1,8,0:0:0:0:
256,192,115783,1,0,0:0:0:0:
256,192,115880,1,8,0:0:0:0:
256,192,115977,1,0,0:0:0:0:
256,192,116073,1,0,0:0:0:0:
256,192,116170,1,8,0:0:0:0:
256,192,116364,1,8,0:0:0:0:
256,192,116557,1,8,0:0:0:0:
256,192,116654,1,8,0:0:0:0:
256,192,116751,1,0,0:0:0:0:
256,192,116848,1,8,0:0:0:0:
256,192,116944,1,0,0:0:0:0:
256,192,117041,1,8,0:0:0:0:
256,192,117138,1,8,0:0:0:0:
256,192,117235,1,0,0:0:0:0:
256,192,117331,1,0,0:0:0:0:
256,192,117428,1,8,0:0:0:0:
256,192,117525,1,0,0:0:0:0:
256,192,117622,1,0,0:0:0:0:
256,192,117719,1,8,0:0:0:0:
256,192,117912,1,8,0:0:0:0:
256,192,118106,1,0,0:0:0:0:
256,192,118202,1,8,0:0:0:0:
256,192,118299,1,0,0:0:0:0:
256,192,118396,1,8,0:0:0:0:
256,192,118493,1,0,0:0:0:0:
256,192,118589,1,0,0:0:0:0:
256,192,118686,1,8,0:0:0:0:
256,192,118783,1,0,0:0:0:0:
256,192,118880,1,8,0:0:0:0:
256,192,118977,1,8,0:0:0:0:
256,192,119073,1,0,0:0:0:0:
256,192,119170,1,0,0:0:0:0:
256,192,119267,1,0,0:0:0:0:
256,192,119460,1,0,0:0:0:0:
256,192,119654,1,8,0:0:0:0:
256,192,119751,1,0,0:0:0:0:
256,192,119848,1,0,0:0:0:0:
256,192,119944,1,8,0:0:0:0:
256,192,120041,1,8,0:0:0:0:
256,192,120138,1,0,0:0:0:0:
256,192,120235,1,8,0:0:0:0:
256,192,120331,1,0,0:0:0:0:
256,192,120428,1,8,0:0:0:0:
256,192,120525,1,0,0:0:0:0:
256,192,120622,1,0,0:0:0:0:
256,192,120719,1,0,0:0:0:0:
256,192,120815,1,8,0:0:0:0:
256,192,121009,1,8,0:0:0:0:
256,192,121202,1,8,0:0:0:0:
256,192,121299,1,0,0:0:0:0:
256,192,121396,1,8,0:0:0:0:
256,192,121493,1,8,0:0:0:0:
256,192,121589,1,0,0:0:0:0:
256,192,121686,1,0,0:0:0:0:
256,192,121783,1,8,0:0:0:0:
256,192,121880,1,0,0:0:0:0:
256,192,121977,1,8,0:0:0:0:
256,192,122073,1,8,0:0:0:0:
256,192,122170,1,0,0:0:0:0:
256,192,122267,1,0,0:0:0:0:
256,192,122364,1,8,0:0:0:0:
256,192,122557,1,8,0:0:0:0:
256,192,122751,1,8,0:0:0:0:
256,192,122848,1,0,0:0:0:0:
256,192,122944,1,0,0:0:0:0:
256,192,123041,1,8,0:0:0:0:
256,192,123138,1,0,0:0:0:0:
256,192,123235,1,8,0:0:0:0:
256,192,123331,1,8,0:0:0:0:
256,192,123428,1,0,0:0:0:0:
256,192,123525,1,8,0:0:0:0:
256,192,123622,1,8,0:0:0:0:
256,192,123719,1,0,0:0:0:0:
256,192,123815,1,0,0:0:0:0:
256,192,123912,1,8,0:0:0:0:
256,192,124106,1,8,0:0:0:0:
256,192,124299,1,0,0:0:0:0:
256,192,124396,1,8,0:0:0:0:
256,192,124493,1,8,0:0:0:0:
256,192,124589,1,0,0:0:0:0:
256,192,124686,1,0,0:0:0:0:
256,192,124783,1,8,0:0:0:0:
256,192,124880,1,8,0:0:0:0:
256,192,124977,1,0,0:0:0:0:
256,192,125073,1,8,0:0:0:0:
256,192,125170,1,0,0:0:0:0:
256,192,125267,1,0,0:0:0:0:
256,192,125460,1,14,0:0:0:0:
256,192,125654,1,8,0:0:0:0:
256,192,125848,1,0,0:0:0:0:
256,192,125944,1,8,0:0:0:0:
256,192,126041,1,0,0:0:0:0:
256,192,126138,1,8,0:0:0:0:
256,192,126235,1,8,0:0:0:0:
256,192,126331,1,0,0:0:0:0:
256,192,126428,1,0,0:0:0:0:
256,192,126525,1,8,0:0:0:0:
256,192,126622,1,0,0:0:0:0:
256,192,126719,1,8,0:0:0:0:
256,192,126815,1,0,0:0:0:0:
256,192,126912,1,0,0:0:0:0:
256,192,127009,1,8,0:0:0:0:
256,192,127202,1,8,0:0:0:0:
256,192,127396,1,8,0:0:0:0:
256,192,127493,1,8,0:0:0:0:
256,192,127589,1,0,0:0:0:0:
256,192,127686,1,8,0:0:0:0:
256,192,127783,1,0,0:0:0:0:
256,192,127880,1,8,0:0:0:0:
256,192,127977,1,8,0:0:0:0:
256,192,128073,1,0,0:0:0:0:
256,192,128170,1,8,0:0:0:0:
256,192,128267,1,0,0:0:0:0:
256,192,128364,1,0,0:0:0:0:
256,192,128460,1,0,0:0:0:0:
256,192,128557,1,8,0:0:0:0:
256,192,128751,1,8,0:0:0:0:
256,192,128944,1,0,0:0:0:0:
256,192,129041,1,8,0:0:0:0:
256,192,129138,1,0,0:0:0:0:
256,192,129235,1,8,0:0:0:0:
256,192,129331,1,8,0:0:0:0:
256,192,129428,1,0,0:0:0:0:
256,192,129525,1,0,0:0:0:0:
256,192,129622,1,8,0:0:0:0:
256,192,129719,1,0,0:0:0:0:
256,192,129815,1,0,0:0:0:0:
256,192,129912,1,0,0:0:0:0:
256,192,130009,1,0,0:0:0:0:
256,192,130106,1,8,0:0:0:0:
256,192,130299,1,8,0:0:0:0:
256,192,130493,1,8,0:0:0:0:
256,192,130589,1,8,0:0:0:0:
256,192,130686,1,0,0:0:0:0:
256,192,130783,1,8,0:0:0:0:
256,192,130880,1,0,0:0:0:0:
256,192,130977,1,8,0:0:0:0:
256,192,131073,1,8,0:0:0:0:
256,192,131170,1,0,0:0:0:0:
256,192,131267,1,8,0:0:0:0:
256,192,131364,1,8,0:0:0:0:
256,192,131460,1,0,0:0:0:0:
256,192,131557,1,0,0:0:0:0:
256,192,131654,1,0,0:0:0:0:
256,192,131848,1,0,0:0:0:0:
256,192,132041,1,8,0:0:0:0:
256,192,132138,1,0,0:0:0:0:
256,192,132235,1,0,0:0:0:0:
256,192,132331,1,8,0:0:0:0:
256,192,132428,1,8,0:0:0:0:
256,192,132525,1,0,0:0:0:0:
256,192,132622,1,8,0:0:0:0:
256,192,132719,1,0,0:0:0:0:
256,192,132815,1,8,0:0:0:0:
256,192,132912,1,0,0:0:0:0:
256,192,133009,1,0,0:0:0:0:
256,192,133106,1,0,0:0:0:0:
256,192,133202,1,8,0:0:0:0:
256,192,133396,1,0,0:0:0:0:
256,192,133589,1,8,0:0:0:0:
256,192,133686,1,0,0:0:0:0:
256,192,133783,1,0,0:0:0:0:
256,192,133880,1,8,0:0:0:0:
256,192,133977,1,8,0:0:0:0:
256,192,134073,1,0,0:0:0:0:
256,192,134170,1,8,0:0:0:0:
256,192,134267,1,0,0:0:0:0:
256,192,134364,1,8,0:0:0:0:
256,192,134460,1,8,0:0:0:0:
256,192,134557,1,0,0:0:0:0:
256,192,134654,1,0,0:0:0:0:
256,192,134751,1,8,0:0:0:0:
256,192,134944,1,8,0:0:0:0:
256,192,135138,1,8,0:0:0:0:
256,192,135235,1,8,0:0:0:0:
256,192,135331,1,0,0:0:0:0:
256,192,135428,1,8,0:0:0:0:
256,192,135525,1,0,0:0:0:0:
256,192,135622,1,0,0:0:0:0:
256,192,135719,1,8,0:0:0:0:
256,192,135815,1,8,0:0:0:0:
256,192,135912,1,0,0:0:0:0:
256,192,136009,1,0,0:0:0:0:
256,192,136106,1,8,0:0:0:0:
256,192,136299,1,4,0:0:0:0:
256,192,136493,1,8,0:0:0:0:
256,192,136686,1,0,0:0:0:0:
256,192,136783,1,8,0:0:0:0:
256,192,136977,1,0,0:0:0:0:
256,192,137170,1,8,0:0:0:0:
256,192,137267,1,8,0:0:0:0:
256,192,137364,1,0,0:0:0:0:
256,192,137460,1,8,0:0:0:0:
256,192,137557,1,0,0:0:0:0:
256,192,137654,1,0,0:0:0:0:
256,192,137848,1,14,0:0:0:0:
256,192,138041,1,8,0:0:0:0:
256,192,138235,1,0,0:0:0:0:
256,192,138331,1,0,0:0:0:0:
256,192,138428,1,0,0:0:0:0:
256,192,138525,1,8,0:0:0:0:
256,192,138622,1,0,0:0:0:0:
256,192,138719,1,8,0:0:0:0:
256,192,138815,1,8,0:0:0:0:
256,192,138912,1,0,0:0:0:0:
256,192,139009,1,8,0:0:0:0:
256,192,139106,1,8,0:0:0:0:
256,192,139202,1,0,0:0:0:0:
256,192,139299,1,0,0:0:0:0:
256,192,139396,1,8,0:0:0:0:
256,192,139589,1,8,0:0:0:0:
256,192,139783,1,8,0:0:0:0:
256,192,139880,1,8,0:0:0:0:
256,192,139977,1,0,0:0:0:0:
256,192,140073,1,8,0:0:0:0:
256,192,140170,1,0,0:0:0:0:
256,192,140267,1,0,0:0:0:0:
256,192,140364,1,8,0:0:0:0:
256,192,140460,1,0,0:0:0:0:
256,192,140557,1,8,0:0:0:0:
256,192,140654,1,8,0:0:0:0:
256,192,140751,1,0,0:0:0:0:
256,192,140848,1,0,0:0:0:0:
256,192,140944,1,8,0:0:0:0:
256,192,141138,1,8,0:0:0:0:
256,192,141331,1,8,0:0:0:0:
256,192,141428,1,0,0:0:0:0:
256,192,141525,1,0,0:0:0:0:
256,192,141622,1,8,0:0:0:0:
256,192,141719,1,0,0:0:0:0:
256,192,141815,1,8,0:0:0:0:
256,192,141912,1,8,0:0:0:0:
256,192,142009,1,0,0:0:0:0:
256,192,142106,1,0,0:0:0:0:
256,192,142202,1,8,0:0:0:0:
256,192,142299,1,0,0:0:0:0:
256,192,142396,1,8,0:0:0:0:
256,192,142493,1,8,0:0:0:0:
256,192,142686,1,8,0:0:0:0:
256,192,142880,1,8,0:0:0:0:
256,192,142977,1,8,0:0:0:0:
256,192,143073,1,0,0:0:0:0:
256,192,143170,1,8,0:0:0:0:
256,192,143267,1,0,0:0:0:0:
256,192,143364,1,8,0:0:0:0:
256,192,143460,1,8,0:0:0:0:
256,192,143557,1,0,0:0:0:0:
256,192,143654,1,8,0:0:0:0:
256,192,143751,1,0,0:0:0:0:
256,192,143848,1,0,0:0:0:0:
256,192,144041,1,14,0:0:0:0:
256,192,144235,1,8,0:0:0:0:
256,192,144428,1,0,0:0:0:0:
256,192,144525,1,8,0:0:0:0:
256,192,144622,1,0,0:0:0:0:
256,192,144719,1,0,0:0:0:0:
256,192,144815,1,0,0:0:0:0:
256,192,144912,1,8,0:0:0:0:
256,192,145009,1,8,0:0:0:0:
256,192,145106,1,0,0:0:0:0:
256,192,145202,1,8,0:0:0:0:
256,192,145299,1,8,0:0:0:0:
256,192,145396,1,0,0:0:0:0:
256,192,145589,1,14,0:0:0:0:
256,192,145783,1,8,0:0:0:0:
256,192,145977,1,0,0:0:0:0:
256,192,146073,1,8,0:0:0:0:
256,192,146170,1,0,0:0:0:0:
256,192,146267,1,0,0:0:0:0:
256,192,146364,1,8,0:0:0:0:
256,192,146460,1,8,0:0:0:0:
256,192,146557,1,0,0:0:0:0:
256,192,146654,1,0,0:0:0:0:
256,192,146751,1,8,0:0:0:0:
256,192,146848,1,0,0:0:0:0:
256,192,146944,1,8,0:0:0:0:
256,192,147041,1,8,0:0:0:0:
256,192,147138,1,0,0:0:0:0:
256,192,147235,1,0,0:0:0:0:
256,192,147331,1,8,0:0:0:0:
256,192,147428,1,0,0:0:0:0:
256,192,147525,1,8,0:0:0:0:
256,192,147622,1,8,0:0:0:0:
256,192,147719,1,0,0:0:0:0:
256,192,147815,1,8,0:0:0:0:
256,192,147912,1,0,0:0:0:0:
256,192,148009,1,8,0:0:0:0:
256,192,148106,1,8,0:0:0:0:
256,192,148202,1,0,0:0:0:0:
256,192,148299,1,8,0:0:0:0:
256,192,148396,1,0,0:0:0:0:
256,192,148493,1,0,0:0:0:0:
256,192,148589,1,0,0:0:0:0:
256,192,148686,1,8,0:0:0:0:
256,192,148751,1,8,0:0:0:0:
256,192,148815,1,8,0:0:0:0:
256,192,148880,1,0,0:0:0:0:
256,192,148977,1,0,0:0:0:0:
256,192,149073,1,8,0:0:0:0:
256,192,149138,1,8,0:0:0:0:
256,192,149202,1,8,0:0:0:0:
256,192,149267,1,0,0:0:0:0:
256,192,149364,1,0,0:0:0:0:
256,192,149460,1,8,0:0:0:0:
256,192,149525,1,8,0:0:0:0:
256,192,149589,1,8,0:0:0:0:
256,192,149654,1,0,0:0:0:0:
256,192,149751,1,0,0:0:0:0:
256,192,149848,1,8,0:0:0:0:
256,192,149944,1,8,0:0:0:0:
256,192,150041,1,0,0:0:0:0:
256,192,150138,1,0,0:0:0:0:
256,192,150235,1,8,0:0:0:0:
256,192,150622,1,0,0:0:0:0:
256,192,150912,1,0,0:0:0:0:
256,192,151106,1,0,0:0:0:0:
224,152,151396,1,0,0:0:0:0:
280,224,151589,1,8,0:0:0:0:
240,176,151783,1,0,0:0:0:0:
240,176,152170,1,8,0:0:0:0:
240,176,152460,1,8,0:0:0:0:
232,192,152654,1,0,0:0:0:0:
232,192,152944,1,8,0:0:0:0:
232,192,153138,1,8,0:0:0:0:
232,192,153331,1,0,0:0:0:0:
232,192,153719,1,8,0:0:0:0:
232,192,154009,1,0,0:0:0:0:
232,192,154202,1,0,0:0:0:0:
232,192,154493,1,8,0:0:0:0:
232,192,154686,1,0,0:0:0:0:
232,192,154880,1,8,0:0:0:0:
232,192,155170,1,0,0:0:0:0:
232,192,155267,1,8,0:0:0:0:
232,192,155364,1,0,0:0:0:0:
232,192,155460,1,0,0:0:0:0:
232,192,155557,1,8,0:0:0:0:
232,192,155751,1,8,0:0:0:0:
232,192,155944,1,8,0:0:0:0:
232,192,156041,1,0,0:0:0:0:
232,192,156235,1,8,0:0:0:0:
232,192,156428,1,4,0:0:0:0:
232,192,156815,1,8,0:0:0:0:
232,192,157106,1,8,0:0:0:0:
232,192,157299,1,8,0:0:0:0:
232,192,157493,1,8,0:0:0:0:
232,192,157589,1,8,0:0:0:0:
232,192,157783,1,8,0:0:0:0:
232,192,157977,1,0,0:0:0:0:
232,192,158364,1,8,0:0:0:0:
232,192,158557,1,0,0:0:0:0:
232,192,158654,1,0,0:0:0:0:
232,192,158848,1,8,0:0:0:0:
232,192,159041,1,0,0:0:0:0:
232,192,159138,1,8,0:0:0:0:
232,192,159331,1,8,0:0:0:0:
232,192,159525,1,0,0:0:0:0:
232,192,159912,1,8,0:0:0:0:
256,192,160106,1,0,0:0:0:0:
256,192,160202,1,8,0:0:0:0:
256,192,160396,1,8,0:0:0:0:
256,192,160589,1,0,0:0:0:0:
256,192,160686,1,8,0:0:0:0:
256,192,160880,1,8,0:0:0:0:
256,192,161073,1,4,0:0:0:0:
256,192,161364,1,0,0:0:0:0:
256,192,161460,1,8,0:0:0:0:
256,192,161654,1,0,0:0:0:0:
256,192,161751,1,8,0:0:0:0:
256,192,161944,1,8,0:0:0:0:
256,192,162138,1,8,0:0:0:0:
256,192,162235,1,0,0:0:0:0:
256,192,162622,1,4,0:0:0:0:
256,192,162815,1,0,0:0:0:0:
256,192,162912,1,0,0:0:0:0:
256,192,163009,1,8,0:0:0:0:
256,192,163202,1,0,0:0:0:0:
256,192,163299,1,8,0:0:0:0:
256,192,163493,1,8,0:0:0:0:
256,192,163589,1,0,0:0:0:0:
256,192,163686,1,0,0:0:0:0:
256,192,163783,1,8,0:0:0:0:
256,192,163977,1,8,0:0:0:0:
256,192,164170,1,0,0:0:0:0:
256,192,164364,1,0,0:0:0:0:
256,192,164460,1,0,0:0:0:0:
256,192,164557,1,8,0:0:0:0:
256,192,164751,1,8,0:0:0:0:
256,192,164848,1,8,0:0:0:0:
256,192,164944,1,0,0:0:0:0:
256,192,165041,1,8,0:0:0:0:
256,192,165138,1,0,0:0:0:0:
256,192,165235,1,0,0:0:0:0:
256,192,165331,1,8,0:0:0:0:
256,192,165525,1,8,0:0:0:0:
256,192,165719,1,0,0:0:0:0:
256,192,165912,1,0,0:0:0:0:
256,192,166009,1,0,0:0:0:0:
256,192,166106,1,8,0:0:0:0:
256,192,166299,1,0,0:0:0:0:
256,192,166396,1,8,0:0:0:0:
256,192,166493,1,0,0:0:0:0:
256,192,166589,1,8,0:0:0:0:
256,192,166686,1,0,0:0:0:0:
256,192,166783,1,0,0:0:0:0:
256,192,166880,1,8,0:0:0:0:
256,192,167073,1,0,0:0:0:0:
256,192,167267,1,8,0:0:0:0:
256,192,167364,1,8,0:0:0:0:
256,192,167460,1,0,0:0:0:0:
256,192,167557,1,0,0:0:0:0:
256,192,167654,1,8,0:0:0:0:
256,192,167751,1,8,0:0:0:0:
256,192,167848,1,0,0:0:0:0:
256,192,167944,1,8,0:0:0:0:
256,192,168041,1,0,0:0:0:0:
256,192,168138,1,0,0:0:0:0:
256,192,168235,1,0,0:0:0:0:
256,192,168331,1,0,0:0:0:0:
256,192,168428,1,8,0:0:0:0:
256,192,168622,1,8,0:0:0:0:
256,192,168815,1,0,0:0:0:0:
256,192,169009,1,0,0:0:0:0:
256,192,169106,1,0,0:0:0:0:
256,192,169202,1,8,0:0:0:0:
256,192,169396,1,0,0:0:0:0:
256,192,169493,1,8,0:0:0:0:
256,192,169589,1,0,0:0:0:0:
256,192,169686,1,8,0:0:0:0:
256,192,169783,1,8,0:0:0:0:
256,192,169880,1,0,0:0:0:0:
256,192,169977,1,8,0:0:0:0:
256,192,170170,1,8,0:0:0:0:
256,192,170364,1,0,0:0:0:0:
256,192,170557,1,0,0:0:0:0:
256,192,170654,1,0,0:0:0:0:
256,192,170751,1,8,0:0:0:0:
256,192,170944,1,8,0:0:0:0:
256,192,171041,1,8,0:0:0:0:
256,192,171138,1,0,0:0:0:0:
256,192,171235,1,8,0:0:0:0:
256,192,171331,1,0,0:0:0:0:
256,192,171428,1,0,0:0:0:0:
256,192,171525,1,8,0:0:0:0:
256,192,171719,1,8,0:0:0:0:
256,192,171912,1,0,0:0:0:0:
256,192,172106,1,0,0:0:0:0:
256,192,172202,1,0,0:0:0:0:
256,192,172299,1,8,0:0:0:0:
256,192,172493,1,0,0:0:0:0:
256,192,172589,1,8,0:0:0:0:
256,192,172686,1,0,0:0:0:0:
256,192,172783,1,8,0:0:0:0:
256,192,172880,1,0,0:0:0:0:
256,192,172977,1,0,0:0:0:0:
256,192,173073,1,8,0:0:0:0:
256,192,173267,1,8,0:0:0:0:
256,192,173460,1,4,0:0:0:0:
256,192,173654,1,8,0:0:0:0:
256,192,173751,1,8,0:0:0:0:
256,192,173848,1,0,0:0:0:0:
256,192,173944,1,0,0:0:0:0:
256,192,174041,1,8,0:0:0:0:
256,192,174138,1,0,0:0:0:0:
256,192,174235,1,8,0:0:0:0:
256,192,174299,1,8,0:0:0:0:
256,192,174364,1,8,0:0:0:0:
256,192,174428,1,0,0:0:0:0:
256,192,174525,1,0,0:0:0:0:
256,192,174622,1,0,0:0:0:0:
256,192,175009,1,4,0:0:0:0:
256,192,175396,1,8,0:0:0:0:
256,192,175589,1,8,0:0:0:0:
256,192,175783,1,0,0:0:0:0:
256,192,175977,1,0,0:0:0:0:
256,192,176170,1,8,0:0:0:0:
256,192,176364,1,0,0:0:0:0:
256,192,176557,1,8,0:0:0:0:
256,192,176751,1,8,0:0:0:0:
256,192,177138,1,8,0:0:0:0:
256,192,177525,1,0,0:0:0:0:
256,192,177719,1,8,0:0:0:0:
256,192,177912,1,8,0:0:0:0:
256,192,178106,1,0,0:0:0:0:
256,192,178493,1,8,0:0:0:0:
256,192,178686,1,8,0:0:0:0:
256,192,178880,1,0,0:0:0:0:
256,192,179073,1,0,0:0:0:0:
256,192,179267,1,8,0:0:0:0:
256,192,179460,1,0,0:0:0:0:
256,192,179654,1,8,0:0:0:0:
256,192,180041,1,8,0:0:0:0:
256,192,180235,1,8,0:0:0:0:
256,192,180428,1,0,0:0:0:0:
256,192,180622,1,0,0:0:0:0:
256,192,180815,1,8,0:0:0:0:
256,192,181202,1,8,0:0:0:0:
256,192,181589,1,8,0:0:0:0:
256,192,181783,1,0,0:0:0:0:
256,192,182170,1,0,0:0:0:0:
256,192,182364,1,8,0:0:0:0:
256,192,182557,1,8,0:0:0:0:
256,192,182751,1,0,0:0:0:0:
256,192,183138,1,8,0:0:0:0:
256,192,183719,1,0,0:0:0:0:
256,192,183912,1,8,0:0:0:0:
256,192,184106,1,8,0:0:0:0:
256,192,184299,1,0,0:0:0:0:
256,192,184686,1,8,0:0:0:0:
256,192,184880,1,8,0:0:0:0:
256,192,185073,1,0,0:0:0:0:
256,192,185267,1,0,0:0:0:0:
256,192,185460,1,8,0:0:0:0:
256,192,185848,1,4,0:0:0:0:
256,192,186041,1,8,0:0:0:0:
256,192,186138,1,8,0:0:0:0:
256,192,186235,1,8,0:0:0:0:
256,192,186428,1,8,0:0:0:0:
256,192,186622,1,8,0:0:0:0:
256,192,186815,1,0,0:0:0:0:
256,192,186912,1,0,0:0:0:0:
256,192,187009,1,8,0:0:0:0:
256,192,187396,1,4,0:0:0:0:
256,192,187589,1,8,0:0:0:0:
256,192,187783,1,0,0:0:0:0:
256,192,187880,1,8,0:0:0:0:
256,192,188073,1,8,0:0:0:0:
256,192,188267,1,8,0:0:0:0:
256,192,188364,1,0,0:0:0:0:
256,192,188557,1,8,0:0:0:0:
256,192,188751,1,8,0:0:0:0:
256,192,188944,1,0,0:0:0:0:
256,192,189138,1,8,0:0:0:0:
256,192,189331,1,8,0:0:0:0:
256,192,189428,1,0,0:0:0:0:
256,192,189622,1,8,0:0:0:0:
256,192,189815,1,8,0:0:0:0:
256,192,189912,1,0,0:0:0:0:
256,192,190009,1,0,0:0:0:0:
256,192,190106,1,8,0:0:0:0:
256,192,190299,1,8,0:0:0:0:
256,192,190493,1,0,0:0:0:0:
256,192,190686,1,8,0:0:0:0:
256,192,190880,1,0,0:0:0:0:
256,192,190977,1,0,0:0:0:0:
256,192,191073,1,0,0:0:0:0:
256,192,191170,1,8,0:0:0:0:
256,192,191364,1,8,0:0:0:0:
256,192,191460,1,8,0:0:0:0:
256,192,191557,1,8,0:0:0:0:
256,192,191654,1,0,0:0:0:0:
256,192,191848,1,8,0:0:0:0:
256,192,192041,1,0,0:0:0:0:
256,192,192235,1,8,0:0:0:0:
256,192,192428,1,0,0:0:0:0:
256,192,192525,1,8,0:0:0:0:
256,192,192719,1,8,0:0:0:0:
256,192,192912,1,8,0:0:0:0:
256,192,193009,1,8,0:0:0:0:
256,192,193106,1,0,0:0:0:0:
256,192,193202,1,8,0:0:0:0:
256,192,193396,1,0,0:0:0:0:
256,192,193589,1,8,0:0:0:0:
264,192,193783,1,0,0:0:0:0:
256,192,193977,1,8,0:0:0:0:
256,192,194073,1,8,0:0:0:0:
256,192,194267,1,8,0:0:0:0:
256,192,194460,1,8,0:0:0:0:
256,192,194557,1,0,0:0:0:0:
264,192,194654,1,0,0:0:0:0:
264,192,194751,1,8,0:0:0:0:
256,192,194944,1,0,0:0:0:0:
256,192,195138,1,8,0:0:0:0:
256,192,195331,1,0,0:0:0:0:
256,192,195525,1,8,0:0:0:0:
264,192,195622,1,0,0:0:0:0:
256,192,195815,1,8,0:0:0:0:
256,192,196009,1,8,0:0:0:0:
256,192,196106,1,8,0:0:0:0:
256,192,196202,1,8,0:0:0:0:
256,192,196299,1,0,0:0:0:0:
256,192,196493,1,0,0:0:0:0:
256,192,196686,1,8,0:0:0:0:
256,192,196880,1,0,0:0:0:0:
256,192,197073,1,0,0:0:0:0:
256,192,197170,1,8,0:0:0:0:
256,192,197364,1,8,0:0:0:0:
256,192,197557,1,0,0:0:0:0:
256,192,197654,1,0,0:0:0:0:
256,192,197751,1,0,0:0:0:0:
256,192,197848,1,8,0:0:0:0:
256,192,198041,1,0,0:0:0:0:
256,192,198235,1,8,0:0:0:0:
256,192,198331,1,8,0:0:0:0:
256,192,198428,1,0,0:0:0:0:
256,192,198525,1,0,0:0:0:0:
256,192,198622,1,8,0:0:0:0:
256,192,198719,1,0,0:0:0:0:
256,192,198815,1,0,0:0:0:0:
256,192,198912,1,8,0:0:0:0:
256,192,199009,1,0,0:0:0:0:
256,192,199106,1,8,0:0:0:0:
256,192,199202,1,8,0:0:0:0:
256,192,199299,1,0,0:0:0:0:
256,192,199396,1,8,0:0:0:0:
256,192,199589,1,8,0:0:0:0:
256,192,199783,1,4,0:0:0:0:
256,192,199977,1,8,0:0:0:0:
256,192,200170,1,8,0:0:0:0:
256,192,200267,1,8,0:0:0:0:
256,192,200460,1,8,0:0:0:0:
256,192,200654,1,8,0:0:0:0:
256,192,200751,1,0,0:0:0:0:
256,192,200944,1,8,0:0:0:0:
256,192,201138,1,0,0:0:0:0:
256,192,201331,1,8,0:0:0:0:
256,192,201525,1,0,0:0:0:0:
256,192,201719,1,0,0:0:0:0:
256,192,201815,1,8,0:0:0:0:
256,192,202009,1,8,0:0:0:0:
256,192,202202,1,8,0:0:0:0:
256,192,202299,1,0,0:0:0:0:
256,192,202493,1,8,0:0:0:0:
256,192,202686,1,0,0:0:0:0:
256,192,202880,1,8,0:0:0:0:
256,192,203073,1,8,0:0:0:0:
256,192,203267,1,0,0:0:0:0:
256,192,203364,1,0,0:0:0:0:
256,192,203557,1,8,0:0:0:0:
256,192,203751,1,0,0:0:0:0:
256,192,203848,1,8,0:0:0:0:
256,192,204041,1,0,0:0:0:0:
256,192,204235,1,8,0:0:0:0:
256,192,204428,1,0,0:0:0:0:
192,152,204622,1,8,0:0:0:0:
248,192,204815,1,0,0:0:0:0:
280,208,204912,1,8,0:0:0:0:
256,192,205106,1,8,0:0:0:0:
256,192,205299,1,8,0:0:0:0:
256,192,205396,1,0,0:0:0:0:
248,192,205589,1,8,0:0:0:0:
248,192,205783,1,0,0:0:0:0:
248,192,205977,1,8,0:0:0:0:
248,192,206073,1,8,0:0:0:0:
248,192,206170,1,0,0:0:0:0:
248,192,206267,1,0,0:0:0:0:
248,192,206364,1,8,0:0:0:0:
248,192,206460,1,0,0:0:0:0:
248,192,206557,1,8,0:0:0:0:
248,192,206654,1,8,0:0:0:0:
248,192,206751,1,0,0:0:0:0:
248,192,206848,1,0,0:0:0:0:
248,192,206944,1,8,0:0:0:0:
248,192,207041,1,0,0:0:0:0:
248,192,207138,1,8,0:0:0:0:
248,192,207235,1,0,0:0:0:0:
248,192,207331,1,8,0:0:0:0:
248,192,207428,1,8,0:0:0:0:
248,192,207525,1,0,0:0:0:0:
248,192,207622,1,0,0:0:0:0:
248,192,207719,1,8,0:0:0:0:
248,192,207815,1,0,0:0:0:0:
248,192,207912,1,0,0:0:0:0:
248,192,208009,1,8,0:0:0:0:
248,192,208106,1,0,0:0:0:0:
248,192,208202,1,8,0:0:0:0:
248,192,208299,1,0,0:0:0:0:
248,192,208396,1,8,0:0:0:0:
248,192,208493,1,8,0:0:0:0:
248,192,208589,1,0,0:0:0:0:
248,192,208686,1,0,0:0:0:0:
248,192,208783,1,0,0:0:0:0:
248,192,208880,1,8,0:0:0:0:
248,192,208977,1,0,0:0:0:0:
248,192,209073,1,8,0:0:0:0:
272,168,209170,1,8,0:0:0:0:
272,168,209267,1,0,0:0:0:0:
272,168,209364,1,0,0:0:0:0:
272,168,209460,1,8,0:0:0:0:
272,168,209557,1,8,0:0:0:0:
272,168,209654,1,0,0:0:0:0:
272,168,209751,1,8,0:0:0:0:
272,168,209848,1,0,0:0:0:0:
272,168,209944,1,8,0:0:0:0:
272,168,210041,1,0,0:0:0:0:
272,168,210138,1,0,0:0:0:0:
272,168,210235,1,8,0:0:0:0:
272,168,210331,1,8,0:0:0:0:
256,168,210428,1,0,0:0:0:0:
256,168,210493,1,0,0:0:0:0:
256,168,210557,1,0,0:0:0:0:
256,168,210622,1,8,0:0:0:0:
272,168,210815,1,8,0:0:0:0:
272,168,211009,1,8,0:0:0:0:
272,168,211106,1,8,0:0:0:0:
272,168,211299,1,0,0:0:0:0:
272,168,211493,1,8,0:0:0:0:
272,168,211589,1,0,0:0:0:0:
272,168,211783,1,8,0:0:0:0:
272,168,211977,1,8,0:0:0:0:
272,168,212170,1,4,0:0:0:0:
240,196,212557,1,8,0:0:0:0:
240,196,213138,1,8,0:0:0:0:
296,232,213719,1,0,0:0:0:0:
208,136,214106,1,8,0:0:0:0:
208,232,214686,1,8,0:0:0:0:
328,216,215073,1,0,0:0:0:0:
384,208,215267,1,0,0:0:0:0:
384,208,215654,1,8,0:0:0:0:
384,208,216235,1,8,0:0:0:0:
256,224,216622,1,0,0:0:0:0:
304,216,216815,1,0,0:0:0:0:
304,216,217203,1,8,0:0:0:0:
304,216,217396,1,0,0:0:0:0:
304,216,217590,1,0,0:0:0:0:
304,216,217783,1,8,0:0:0:0:
304,216,218170,1,0,0:0:0:0:
304,216,218364,1,8,0:0:0:0:
304,216,218557,1,0,0:0:0:0:
304,216,218654,1,0,0:0:0:0:
304,216,218751,1,8,0:0:0:0:
304,216,218848,1,0,0:0:0:0:
304,216,218944,1,0,0:0:0:0:
304,216,219041,1,0,0:0:0:0:
304,216,219138,1,0,0:0:0:0:
304,216,219235,1,0,0:0:0:0:
304,216,219331,1,8,0:0:0:0:
304,216,219428,1,8,0:0:0:0:
304,216,219525,1,8,0:0:0:0:
304,216,219622,1,8,0:0:0:0:
304,216,219719,1,0,0:0:0:0:
304,216,219783,1,0,0:0:0:0:
304,216,219848,1,0,0:0:0:0:
304,216,219912,1,8,0:0:0:0:
304,216,220009,1,0,0:0:0:0:
304,216,220106,1,0,0:0:0:0:
304,216,220202,1,0,0:0:0:0:
304,216,220299,1,8,0:0:0:0:
304,216,220396,1,0,0:0:0:0:
304,216,220493,1,0,0:0:0:0:
304,216,220589,1,0,0:0:0:0:
304,216,220686,1,8,0:0:0:0:
304,216,220783,1,0,0:0:0:0:
304,216,220880,1,8,0:0:0:0:
304,216,220977,1,0,0:0:0:0:
304,216,221073,1,8,0:0:0:0:
304,216,221170,1,8,0:0:0:0:
304,216,221267,1,0,0:0:0:0:
304,216,221331,1,0,0:0:0:0:
304,216,221396,1,0,0:0:0:0:
304,216,221460,1,8,0:0:0:0:
336,224,221525,1,8,0:0:0:0:
336,224,221589,1,8,0:0:0:0:
304,216,221654,1,0,0:0:0:0:
304,216,221719,1,0,0:0:0:0:
304,216,221783,1,0,0:0:0:0:
304,216,221848,1,8,0:0:0:0:
304,216,221912,1,8,0:0:0:0:
304,216,221977,1,8,0:0:0:0:
304,216,222041,1,0,0:0:0:0:
304,216,222106,1,0,0:0:0:0:
304,216,222170,1,0,0:0:0:0:
304,216,222235,1,8,0:0:0:0:
304,216,222299,1,0,0:0:0:0:
304,216,222364,1,0,0:0:0:0:
304,216,222428,1,8,0:0:0:0:
304,216,222493,1,0,0:0:0:0:
304,216,222557,1,0,0:0:0:0:
256,192,222622,1,8,0:0:0:0:
256,192,222719,1,0,0:0:0:0:
256,192,222815,1,0,0:0:0:0:
256,192,222912,1,0,0:0:0:0:
256,192,223009,1,8,0:0:0:0:
256,192,224557,1,4,0:0:0:0:
256,192,224751,1,8,0:0:0:0:
256,192,224944,1,8,0:0:0:0:
256,192,225041,1,8,0:0:0:0:
256,192,225138,1,0,0:0:0:0:
256,192,225235,1,8,0:0:0:0:
256,192,225331,1,0,0:0:0:0:
256,192,225428,1,0,0:0:0:0:
256,192,225525,1,8,0:0:0:0:
256,192,225622,1,0,0:0:0:0:
256,192,225719,1,8,0:0:0:0:
256,192,225815,1,8,0:0:0:0:
256,192,225912,1,0,0:0:0:0:
256,192,226009,1,0,0:0:0:0:
256,192,226106,1,8,0:0:0:0:
256,192,226299,1,8,0:0:0:0:
256,192,226493,1,0,0:0:0:0:
256,192,226589,1,8,0:0:0:0:
256,192,226686,1,8,0:0:0:0:
256,192,226783,1,0,0:0:0:0:
256,192,226880,1,0,0:0:0:0:
256,192,226977,1,8,0:0:0:0:
256,192,227073,1,8,0:0:0:0:
256,192,227170,1,0,0:0:0:0:
256,192,227267,1,8,0:0:0:0:
256,192,227364,1,8,0:0:0:0:
256,192,227460,1,0,0:0:0:0:
256,192,227557,1,0,0:0:0:0:
256,192,227654,1,8,0:0:0:0:
256,192,227848,1,8,0:0:0:0:
256,192,228041,1,8,0:0:0:0:
256,192,228138,1,8,0:0:0:0:
256,192,228235,1,0,0:0:0:0:
256,192,228331,1,8,0:0:0:0:
256,192,228428,1,0,0:0:0:0:
256,192,228525,1,8,0:0:0:0:
256,192,228622,1,8,0:0:0:0:
256,192,228719,1,0,0:0:0:0:
256,192,228815,1,0,0:0:0:0:
256,192,228912,1,8,0:0:0:0:
256,192,229009,1,0,0:0:0:0:
256,192,229106,1,0,0:0:0:0:
256,192,229202,1,8,0:0:0:0:
256,192,229396,1,8,0:0:0:0:
256,192,229589,1,8,0:0:0:0:
256,192,229686,1,8,0:0:0:0:
256,192,229783,1,0,0:0:0:0:
256,192,229880,1,8,0:0:0:0:
256,192,229977,1,0,0:0:0:0:
256,192,230073,1,0,0:0:0:0:
256,192,230170,1,8,0:0:0:0:
256,192,230267,1,0,0:0:0:0:
256,192,230364,1,8,0:0:0:0:
256,192,230460,1,8,0:0:0:0:
256,192,230557,1,0,0:0:0:0:
256,192,230654,1,0,0:0:0:0:
256,192,230751,1,0,0:0:0:0:
256,192,230944,1,0,0:0:0:0:
256,192,231138,1,8,0:0:0:0:
256,192,231235,1,0,0:0:0:0:
256,192,231331,1,0,0:0:0:0:
256,192,231428,1,8,0:0:0:0:
256,192,231525,1,0,0:0:0:0:
256,192,231622,1,0,0:0:0:0:
256,192,231719,1,8,0:0:0:0:
256,192,231815,1,0,0:0:0:0:
256,192,231912,1,8,0:0:0:0:
256,192,232009,1,0,0:0:0:0:
256,192,232106,1,0,0:0:0:0:
256,192,232202,1,0,0:0:0:0:
256,192,232299,1,8,0:0:0:0:
256,192,232493,1,8,0:0:0:0:
256,192,232686,1,8,0:0:0:0:
256,192,232783,1,0,0:0:0:0:
256,192,232880,1,0,0:0:0:0:
256,192,232977,1,8,0:0:0:0:
256,192,233073,1,0,0:0:0:0:
256,192,233170,1,0,0:0:0:0:
256,192,233267,1,8,0:0:0:0:
256,192,233364,1,0,0:0:0:0:
256,192,233460,1,8,0:0:0:0:
256,192,233557,1,8,0:0:0:0:
256,192,233654,1,0,0:0:0:0:
256,192,233751,1,0,0:0:0:0:
256,192,233848,1,8,0:0:0:0:
256,192,234041,1,8,0:0:0:0:
256,192,234235,1,8,0:0:0:0:
256,192,234331,1,0,0:0:0:0:
256,192,234428,1,0,0:0:0:0:
256,192,234525,1,8,0:0:0:0:
256,192,234622,1,0,0:0:0:0:
256,192,234719,1,8,0:0:0:0:
256,192,234815,1,8,0:0:0:0:
256,192,234912,1,0,0:0:0:0:
256,192,235009,1,8,0:0:0:0:
256,192,235106,1,0,0:0:0:0:
256,192,235202,1,0,0:0:0:0:
256,192,235299,1,0,0:0:0:0:
256,192,235396,1,8,0:0:0:0:
256,192,235589,1,8,0:0:0:0:
256,192,235783,1,0,0:0:0:0:
256,192,235880,1,8,0:0:0:0:
256,192,235977,1,8,0:0:0:0:
256,192,236073,1,0,0:0:0:0:
256,192,236170,1,0,0:0:0:0:
256,192,236267,1,8,0:0:0:0:
256,192,236364,1,8,0:0:0:0:
256,192,236460,1,0,0:0:0:0:
256,192,236557,1,8,0:0:0:0:
256,192,236654,1,0,0:0:0:0:
256,192,236751,1,0,0:0:0:0:
256,192,236944,1,14,0:0:0:0:
256,192,237138,1,8,0:0:0:0:
256,192,237331,1,0,0:0:0:0:
256,192,237428,1,8,0:0:0:0:
256,192,237525,1,0,0:0:0:0:
256,192,237622,1,8,0:0:0:0:
256,192,237719,1,8,0:0:0:0:
256,192,237815,1,0,0:0:0:0:
256,192,237912,1,0,0:0:0:0:
256,192,238009,1,8,0:0:0:0:
256,192,238106,1,0,0:0:0:0:
256,192,238202,1,8,0:0:0:0:
256,192,238299,1,0,0:0:0:0:
256,192,238396,1,0,0:0:0:0:
256,192,238493,1,8,0:0:0:0:
256,192,238686,1,8,0:0:0:0:
256,192,238880,1,8,0:0:0:0:
256,192,238977,1,8,0:0:0:0:
256,192,239073,1,0,0:0:0:0:
256,192,239170,1,8,0:0:0:0:
256,192,239267,1,0,0:0:0:0:
256,192,239364,1,8,0:0:0:0:
256,192,239460,1,8,0:0:0:0:
256,192,239557,1,0,0:0:0:0:
256,192,239654,1,8,0:0:0:0:
256,192,239751,1,8,0:0:0:0:
256,192,239848,1,0,0:0:0:0:
256,192,239944,1,0,0:0:0:0:
256,192,240041,1,8,0:0:0:0:
256,192,240235,1,8,0:0:0:0:
256,192,240428,1,0,0:0:0:0:
256,192,240525,1,8,0:0:0:0:
256,192,240622,1,0,0:0:0:0:
256,192,240719,1,8,0:0:0:0:
256,192,240815,1,8,0:0:0:0:
256,192,240912,1,0,0:0:0:0:
256,192,241009,1,8,0:0:0:0:
256,192,241106,1,8,0:0:0:0:
256,192,241202,1,0,0:0:0:0:
256,192,241299,1,8,0:0:0:0:
256,192,241396,1,0,0:0:0:0:
256,192,241493,1,0,0:0:0:0:
256,192,241589,1,8,0:0:0:0:
256,192,241783,1,8,0:0:0:0:
256,192,241977,1,8,0:0:0:0:
256,192,242073,1,8,0:0:0:0:
256,192,242170,1,0,0:0:0:0:
256,192,242267,1,8,0:0:0:0:
256,192,242364,1,0,0:0:0:0:
256,192,242460,1,0,0:0:0:0:
256,192,242557,1,8,0:0:0:0:
256,192,242654,1,0,0:0:0:0:
256,192,242751,1,8,0:0:0:0:
256,192,242848,1,8,0:0:0:0:
256,192,242944,1,0,0:0:0:0:
256,192,243041,1,0,0:0:0:0:
256,192,243138,1,0,0:0:0:0:
256,192,243331,1,0,0:0:0:0:
256,192,243525,1,8,0:0:0:0:
256,192,243622,1,0,0:0:0:0:
256,192,243719,1,0,0:0:0:0:
256,192,243815,1,8,0:0:0:0:
256,192,243912,1,8,0:0:0:0:
256,192,244009,1,0,0:0:0:0:
256,192,244106,1,8,0:0:0:0:
256,192,244202,1,0,0:0:0:0:
256,192,244299,1,8,0:0:0:0:
256,192,244396,1,0,0:0:0:0:
256,192,244493,1,0,0:0:0:0:
256,192,244589,1,0,0:0:0:0:
256,192,244686,1,8,0:0:0:0:
256,192,244880,1,8,0:0:0:0:
256,192,245073,1,8,0:0:0:0:
256,192,245170,1,0,0:0:0:0:
256,192,245267,1,0,0:0:0:0:
256,192,245364,1,8,0:0:0:0:
256,192,245460,1,8,0:0:0:0:
256,192,245557,1,0,0:0:0:0:
256,192,245654,1,8,0:0:0:0:
256,192,245751,1,0,0:0:0:0:
256,192,245848,1,8,0:0:0:0:
256,192,245944,1,8,0:0:0:0:
256,192,246041,1,0,0:0:0:0:
256,192,246138,1,0,0:0:0:0:
256,192,246235,1,8,0:0:0:0:
256,192,246428,1,8,0:0:0:0:
256,192,246622,1,8,0:0:0:0:
256,192,246719,1,8,0:0:0:0:
256,192,246815,1,0,0:0:0:0:
256,192,246912,1,8,0:0:0:0:
256,192,247009,1,0,0:0:0:0:
256,192,247106,1,8,0:0:0:0:
256,192,247202,1,8,0:0:0:0:
256,192,247299,1,8,0:0:0:0:
256,192,247396,1,0,0:0:0:0:
256,192,247493,1,0,0:0:0:0:
256,192,247589,1,8,0:0:0:0:
256,192,247783,1,4,0:0:0:0:
256,192,247977,1,8,0:0:0:0:
256,192,248170,1,0,0:0:0:0:
256,192,248267,1,8,0:0:0:0:
256,192,248460,1,0,0:0:0:0:
256,192,248654,1,8,0:0:0:0:
256,192,248751,1,8,0:0:0:0:
256,192,248848,1,0,0:0:0:0:
256,192,248944,1,8,0:0:0:0:
256,192,249041,1,0,0:0:0:0:
256,192,249138,1,0,0:0:0:0:
256,192,249331,1,14,0:0:0:0:
256,192,249525,1,8,0:0:0:0:
256,192,249719,1,0,0:0:0:0:
256,192,249815,1,0,0:0:0:0:
256,192,249912,1,0,0:0:0:0:
256,192,250009,1,8,0:0:0:0:
256,192,250106,1,0,0:0:0:0:
256,192,250202,1,8,0:0:0:0:
256,192,250299,1,0,0:0:0:0:
256,192,250396,1,0,0:0:0:0:
256,192,250493,1,8,0:0:0:0:
256,192,250589,1,8,0:0:0:0:
256,192,250686,1,0,0:0:0:0:
256,192,250783,1,0,0:0:0:0:
256,192,250880,1,8,0:0:0:0:
256,192,251073,1,8,0:0:0:0:
256,192,251267,1,8,0:0:0:0:
256,192,251364,1,8,0:0:0:0:
256,192,251460,1,0,0:0:0:0:
256,192,251557,1,8,0:0:0:0:
256,192,251654,1,0,0:0:0:0:
256,192,251751,1,0,0:0:0:0:
256,192,251848,1,8,0:0:0:0:
256,192,251944,1,0,0:0:0:0:
256,192,252041,1,8,0:0:0:0:
256,192,252138,1,8,0:0:0:0:
256,192,252235,1,0,0:0:0:0:
256,192,252331,1,0,0:0:0:0:
256,192,252428,1,8,0:0:0:0:
256,192,252622,1,8,0:0:0:0:
256,192,252815,1,8,0:0:0:0:
256,192,252912,1,0,0:0:0:0:
256,192,253009,1,0,0:0:0:0:
256,192,253106,1,8,0:0:0:0:
256,192,253202,1,0,0:0:0:0:
256,192,253299,1,8,0:0:0:0:
256,192,253396,1,8,0:0:0:0:
256,192,253493,1,0,0:0:0:0:
256,192,253589,1,8,0:0:0:0:
256,192,253686,1,8,0:0:0:0:
256,192,253783,1,0,0:0:0:0:
256,192,253880,1,0,0:0:0:0:
256,192,253977,1,8,0:0:0:0:
256,192,254170,1,8,0:0:0:0:
256,192,254364,1,8,0:0:0:0:
256,192,254460,1,8,0:0:0:0:
256,192,254557,1,0,0:0:0:0:
256,192,254654,1,8,0:0:0:0:
256,192,254751,1,0,0:0:0:0:
256,192,254848,1,0,0:0:0:0:
256,192,254944,1,8,0:0:0:0:
256,192,255041,1,0,0:0:0:0:
256,192,255138,1,8,0:0:0:0:
256,192,255235,1,8,0:0:0:0:
256,192,255331,1,0,0:0:0:0:
256,192,255525,1,14,0:0:0:0:
256,192,255719,1,8,0:0:0:0:
256,192,255912,1,0,0:0:0:0:
256,192,256009,1,8,0:0:0:0:
256,192,256106,1,0,0:0:0:0:
256,192,256202,1,0,0:0:0:0:
256,192,256299,1,0,0:0:0:0:
256,192,256396,1,8,0:0:0:0:
256,192,256493,1,8,0:0:0:0:
256,192,256589,1,0,0:0:0:0:
256,192,256686,1,8,0:0:0:0:
256,192,256783,1,8,0:0:0:0:
256,192,256880,1,0,0:0:0:0:
256,192,257073,1,14,0:0:0:0:
256,192,257267,1,8,0:0:0:0:
256,192,257460,1,0,0:0:0:0:
256,192,257557,1,8,0:0:0:0:
256,192,257654,1,0,0:0:0:0:
256,192,257751,1,0,0:0:0:0:
256,192,257848,1,8,0:0:0:0:
256,192,257944,1,8,0:0:0:0:
256,192,258041,1,0,0:0:0:0:
256,192,258138,1,0,0:0:0:0:
256,192,258235,1,8,0:0:0:0:
256,192,258331,1,0,0:0:0:0:
256,192,258428,1,8,0:0:0:0:
256,192,258525,1,8,0:0:0:0:
256,192,258622,1,0,0:0:0:0:
256,192,258719,1,0,0:0:0:0:
256,192,258815,1,8,0:0:0:0:
256,192,258912,1,0,0:0:0:0:
256,192,259009,1,8,0:0:0:0:
256,192,259106,1,8,0:0:0:0:
256,192,259202,1,0,0:0:0:0:
256,192,259299,1,8,0:0:0:0:
256,192,259396,1,0,0:0:0:0:
256,192,259493,1,8,0:0:0:0:
256,192,259589,1,8,0:0:0:0:
256,192,259686,1,0,0:0:0:0:
256,192,259783,1,8,0:0:0:0:
256,192,259880,1,0,0:0:0:0:
256,192,259977,1,0,0:0:0:0:
256,192,260073,1,0,0:0:0:0:
256,192,260170,1,8,0:0:0:0:
256,192,260235,1,8,0:0:0:0:
256,192,260299,1,8,0:0:0:0:
256,192,260364,1,0,0:0:0:0:
256,192,260460,1,0,0:0:0:0:
256,192,260557,1,8,0:0:0:0:
256,192,260622,1,8,0:0:0:0:
256,192,260686,1,8,0:0:0:0:
256,192,260751,1,0,0:0:0:0:
256,192,260848,1,0,0:0:0:0:
256,192,260944,1,8,0:0:0:0:
256,192,261009,1,8,0:0:0:0:
256,192,261073,1,8,0:0:0:0:
256,192,261138,1,0,0:0:0:0:
256,192,261235,1,0,0:0:0:0:
256,192,261331,1,8,0:0:0:0:
256,192,261428,1,8,0:0:0:0:
256,192,261525,1,0,0:0:0:0:
256,192,261622,1,0,0:0:0:0:
256,192,261719,1,8,0:0:0:0:
256,192,261912,12,0,264428,0:0:0:0:
256,192,264815,5,0,0:0:0:0:
256,192,265009,1,0,0:0:0:0:
256,192,265202,1,8,0:0:0:0:
256,192,265589,1,0,0:0:0:0:
256,192,265977,1,0,0:0:0:0:
256,192,266364,1,8,0:0:0:0:
256,192,266751,1,8,0:0:0:0:
256,192,266848,1,8,0:0:0:0:
256,192,266944,1,0,0:0:0:0:
256,192,267138,1,8,0:0:0:0:
256,192,267525,1,8,0:0:0:0:
256,192,267719,1,4,0:0:0:0:
256,192,267912,1,4,0:0:0:0:
256,192,268299,1,8,0:0:0:0:
256,192,268686,1,8,0:0:0:0:
256,192,269073,1,8,0:0:0:0:
256,192,269460,1,8,0:0:0:0:
256,192,269589,1,0,0:0:0:0:
256,192,269719,1,0,0:0:0:0:
256,192,269848,1,8,0:0:0:0:
256,192,270235,1,8,0:0:0:0:
256,192,270622,1,8,0:0:0:0:
256,192,270815,1,4,0:0:0:0:
256,192,271009,1,4,0:0:0:0:
256,192,271396,1,8,0:0:0:0:
256,192,271783,1,8,0:0:0:0:
256,192,272170,1,8,0:0:0:0:
256,192,272557,1,14,0:0:0:0:
256,192,272751,1,0,0:0:0:0:
256,192,272848,1,0,0:0:0:0:
256,192,272944,1,8,0:0:0:0:
256,192,273138,1,8,0:0:0:0:
256,192,273331,1,0,0:0:0:0:
256,192,273525,1,0,0:0:0:0:
256,192,273622,1,0,0:0:0:0:
256,192,273719,1,8,0:0:0:0:
256,192,273815,1,0,0:0:0:0:
256,192,273912,1,8,0:0:0:0:
256,192,274106,1,4,0:0:0:0:
256,192,274299,1,0,0:0:0:0:
256,192,274396,1,8,0:0:0:0:
256,192,274589,1,8,0:0:0:0:
256,192,274686,1,0,0:0:0:0:
256,192,274880,1,8,0:0:0:0:
256,192,275073,1,8,0:0:0:0:
256,192,275170,1,8,0:0:0:0:
256,192,275267,1,0,0:0:0:0:
256,192,275364,1,8,0:0:0:0:
256,192,275460,1,0,0:0:0:0:
256,192,275654,1,0,0:0:0:0:
256,192,275848,1,0,0:0:0:0:
256,192,275944,1,8,0:0:0:0:
256,192,276138,1,8,0:0:0:0:
256,192,276235,1,0,0:0:0:0:
256,192,276428,1,8,0:0:0:0:
256,192,276525,1,0,0:0:0:0:
256,192,276622,1,0,0:0:0:0:
256,192,276719,1,8,0:0:0:0:
256,192,276815,1,0,0:0:0:0:
256,192,277009,1,0,0:0:0:0:
256,192,277202,1,8,0:0:0:0:
256,192,277396,1,8,0:0:0:0:
256,192,277493,1,0,0:0:0:0:
256,192,277589,1,0,0:0:0:0:
256,192,277686,1,0,0:0:0:0:
256,192,277783,1,8,0:0:0:0:
256,192,277977,1,8,0:0:0:0:
256,192,278170,1,0,0:0:0:0:
256,192,278267,1,8,0:0:0:0:
256,192,278460,1,0,0:0:0:0:
256,192,278557,1,8,0:0:0:0:
256,192,278751,1,8,0:0:0:0:
256,192,278848,1,8,0:0:0:0:
256,192,278944,1,0,0:0:0:0:
256,192,279041,1,8,0:0:0:0:
256,192,279138,1,0,0:0:0:0:
256,192,279235,1,0,0:0:0:0:
256,192,279331,1,8,0:0:0:0:
256,192,279428,1,8,0:0:0:0:
256,192,279525,1,0,0:0:0:0:
256,192,279719,1,0,0:0:0:0:
256,192,279815,1,8,0:0:0:0:
256,192,280009,1,8,0:0:0:0:
256,192,280106,1,0,0:0:0:0:
256,192,280299,1,4,0:0:0:0:
256,192,280493,1,0,0:0:0:0:
256,192,280589,1,8,0:0:0:0:
256,192,280783,1,8,0:0:0:0:
256,192,280880,1,0,0:0:0:0:
256,192,281073,1,8,0:0:0:0:
256,192,281267,1,0,0:0:0:0:
256,192,281364,1,8,0:0:0:0:
256,192,281460,1,0,0:0:0:0:
256,192,281557,1,0,0:0:0:0:
256,192,281654,1,8,0:0:0:0:
256,192,281848,1,4,0:0:0:0:
256,192,282041,1,0,0:0:0:0:
256,192,282138,1,8,0:0:0:0:
256,192,282331,1,0,0:0:0:0:
256,192,282428,1,8,0:0:0:0:
256,192,282622,1,8,0:0:0:0:
256,192,282719,1,0,0:0:0:0:
256,192,282815,1,0,0:0:0:0:
256,192,282912,1,8,0:0:0:0:
256,192,283106,1,0,0:0:0:0:
256,192,283202,1,8,0:0:0:0:
256,192,283396,1,8,0:0:0:0:
256,192,283493,1,0,0:0:0:0:
256,192,283589,1,0,0:0:0:0:
256,192,283686,1,0,0:0:0:0:
256,192,283783,1,8,0:0:0:0:
256,192,283880,1,0,0:0:0:0:
256,192,283977,1,0,0:0:0:0:
256,192,284073,1,0,0:0:0:0:
256,192,284170,1,8,0:0:0:0:
256,192,284267,1,8,0:0:0:0:
256,192,284364,1,0,0:0:0:0:
256,192,284460,1,0,0:0:0:0:
256,192,284557,1,8,0:0:0:0:
256,192,284751,1,8,0:0:0:0:
256,192,284944,1,0,0:0:0:0:
256,192,285041,1,0,0:0:0:0:
256,192,285138,1,0,0:0:0:0:
256,192,285331,1,8,0:0:0:0:
256,192,285525,1,0,0:0:0:0:
256,192,285622,1,8,0:0:0:0:
256,192,285815,1,8,0:0:0:0:
256,192,285912,1,8,0:0:0:0:
256,192,286009,1,8,0:0:0:0:
256,192,286106,1,0,0:0:0:0:
256,192,286299,1,8,0:0:0:0:
256,192,286493,1,4,0:0:0:0:
240,196,286880,1,8,0:0:0:0:
240,196,287461,1,8,0:0:0:0:
296,232,288042,1,0,0:0:0:0:
208,136,288429,1,8,0:0:0:0:
208,232,289009,1,8,0:0:0:0:
328,216,289396,1,0,0:0:0:0:
384,208,289590,1,0,0:0:0:0:
384,208,289977,1,8,0:0:0:0:
384,208,290558,1,8,0:0:0:0:
256,224,290945,1,0,0:0:0:0:
304,216,291138,1,0,0:0:0:0:
304,216,291526,1,8,0:0:0:0:
304,216,291719,1,0,0:0:0:0:
304,216,291913,1,0,0:0:0:0:
304,216,292106,1,8,0:0:0:0:
304,216,292493,1,0,0:0:0:0:
304,216,292686,1,8,0:0:0:0:
304,216,292783,1,8,0:0:0:0:
304,216,292880,1,0,0:0:0:0:
304,216,292977,1,0,0:0:0:0:
304,216,293073,1,8,0:0:0:0:
256,192,293170,1,0,0:0:0:0:
256,192,293267,1,0,0:0:0:0:
256,192,293364,1,0,0:0:0:0:
256,192,293460,1,0,0:0:0:0:
256,192,293557,1,0,0:0:0:0:
256,192,293654,1,8,0:0:0:0:
256,192,293751,1,0,0:0:0:0:
256,192,293848,1,8,0:0:0:0:
256,192,293944,1,8,0:0:0:0:
40,72,294041,1,0,0:0:0:0:
64,88,294106,1,0,0:0:0:0:
88,96,294170,1,0,0:0:0:0:
112,112,294235,1,8,0:0:0:0:
256,192,294331,1,0,0:0:0:0:
256,192,294428,1,0,0:0:0:0:
256,192,294525,1,0,0:0:0:0:
256,192,294622,1,8,0:0:0:0:
256,192,294719,1,8,0:0:0:0:
256,192,294815,1,0,0:0:0:0:
256,192,294912,1,0,0:0:0:0:
256,192,295009,1,0,0:0:0:0:
256,192,295106,1,0,0:0:0:0:
256,192,295202,1,8,0:0:0:0:
256,192,295299,1,0,0:0:0:0:
256,192,295396,1,8,0:0:0:0:
256,192,295493,1,8,0:0:0:0:
256,192,295589,1,0,0:0:0:0:
256,192,295654,1,0,0:0:0:0:
256,192,295719,1,0,0:0:0:0:
256,192,295783,1,8,0:0:0:0:
256,192,295848,1,8,0:0:0:0:
256,192,295912,1,8,0:0:0:0:
256,192,295977,1,0,0:0:0:0:
256,192,296041,1,0,0:0:0:0:
256,192,296106,1,0,0:0:0:0:
256,192,296170,1,8,0:0:0:0:
256,192,296235,1,8,0:0:0:0:
256,192,296299,1,8,0:0:0:0:
256,192,296364,1,0,0:0:0:0:
256,192,296428,1,0,0:0:0:0:
256,192,296493,1,0,0:0:0:0:
256,192,296557,1,8,0:0:0:0:
256,192,296622,1,0,0:0:0:0:
256,192,296686,1,0,0:0:0:0:
256,192,296751,1,8,0:0:0:0:
256,192,296815,1,0,0:0:0:0:
256,192,296880,1,0,0:0:0:0:
256,192,296944,1,8,0:0:0:0:
256,192,297041,1,0,0:0:0:0:
256,192,297138,1,0,0:0:0:0:
256,192,297235,1,0,0:0:0:0:
256,192,297331,1,8,0:0:0:0:
256,192,298880,1,4,0:0:0:0:
256,192,299073,1,8,0:0:0:0:
256,192,299267,1,8,0:0:0:0:
256,192,299364,1,0,0:0:0:0:
256,192,299460,1,0,0:0:0:0:
256,192,299557,1,8,0:0:0:0:
256,192,299654,1,0,0:0:0:0:
256,192,299751,1,8,0:0:0:0:
256,192,299848,1,8,0:0:0:0:
256,192,299944,1,0,0:0:0:0:
256,192,300041,1,8,0:0:0:0:
256,192,300138,1,8,0:0:0:0:
256,192,300235,1,0,0:0:0:0:
256,192,300331,1,0,0:0:0:0:
256,192,300428,1,8,0:0:0:0:
256,192,300622,1,8,0:0:0:0:
256,192,300815,1,8,0:0:0:0:
256,192,300912,1,8,0:0:0:0:
256,192,301009,1,0,0:0:0:0:
256,192,301106,1,8,0:0:0:0:
256,192,301202,1,8,0:0:0:0:
256,192,301299,1,0,0:0:0:0:
256,192,301396,1,8,0:0:0:0:
256,192,301493,1,0,0:0:0:0:
256,192,301589,1,0,0:0:0:0:
256,192,301686,1,8,0:0:0:0:
256,192,301783,1,0,0:0:0:0:
256,192,301880,1,0,0:0:0:0:
256,192,301977,1,8,0:0:0:0:
256,192,302170,1,8,0:0:0:0:
256,192,302364,1,8,0:0:0:0:
256,192,302460,1,8,0:0:0:0:
256,192,302557,1,0,0:0:0:0:
256,192,302654,1,8,0:0:0:0:
256,192,302751,1,0,0:0:0:0:
256,192,302848,1,8,0:0:0:0:
256,192,302944,1,8,0:0:0:0:
256,192,303041,1,0,0:0:0:0:
256,192,303138,1,0,0:0:0:0:
256,192,303235,1,8,0:0:0:0:
256,192,303331,1,0,0:0:0:0:
256,192,303428,1,0,0:0:0:0:
256,192,303525,1,8,0:0:0:0:
256,192,303719,1,8,0:0:0:0:
256,192,303912,1,8,0:0:0:0:
256,192,304009,1,8,0:0:0:0:
256,192,304106,1,0,0:0:0:0:
256,192,304202,1,8,0:0:0:0:
256,192,304299,1,0,0:0:0:0:
256,192,304396,1,0,0:0:0:0:
256,192,304493,1,8,0:0:0:0:
256,192,304589,1,0,0:0:0:0:
256,192,304686,1,8,0:0:0:0:
256,192,304783,1,8,0:0:0:0:
256,192,304880,1,0,0:0:0:0:
256,192,304977,1,0,0:0:0:0:
256,192,305073,1,0,0:0:0:0:
256,192,305267,1,0,0:0:0:0:
256,192,305460,1,8,0:0:0:0:
256,192,305557,1,0,0:0:0:0:
256,192,305654,1,0,0:0:0:0:
256,192,305751,1,8,0:0:0:0:
256,192,305848,1,0,0:0:0:0:
256,192,305944,1,0,0:0:0:0:
256,192,306041,1,8,0:0:0:0:
256,192,306138,1,8,0:0:0:0:
256,192,306235,1,0,0:0:0:0:
256,192,306331,1,0,0:0:0:0:
256,192,306428,1,8,0:0:0:0:
256,192,306525,1,0,0:0:0:0:
256,192,306622,1,8,0:0:0:0:
256,192,306815,1,8,0:0:0:0:
256,192,307009,1,8,0:0:0:0:
256,192,307106,1,8,0:0:0:0:
256,192,307202,1,0,0:0:0:0:
256,192,307299,1,8,0:0:0:0:
256,192,307396,1,0,0:0:0:0:
256,192,307493,1,0,0:0:0:0:
256,192,307589,1,8,0:0:0:0:
256,192,307686,1,0,0:0:0:0:
256,192,307783,1,8,0:0:0:0:
256,192,307880,1,8,0:0:0:0:
256,192,307977,1,0,0:0:0:0:
256,192,308073,1,0,0:0:0:0:
256,192,308170,1,8,0:0:0:0:
256,192,308364,1,8,0:0:0:0:
256,192,308557,1,8,0:0:0:0:
256,192,308654,1,0,0:0:0:0:
256,192,308751,1,0,0:0:0:0:
256,192,308848,1,8,0:0:0:0:
256,192,308944,1,0,0:0:0:0:
256,192,309041,1,8,0:0:0:0:
256,192,309138,1,0,0:0:0:0:
256,192,309235,1,0,0:0:0:0:
256,192,309331,1,8,0:0:0:0:
256,192,309428,1,8,0:0:0:0:
256,192,309525,1,0,0:0:0:0:
256,192,309622,1,0,0:0:0:0:
256,192,309719,1,8,0:0:0:0:
256,192,309912,1,8,0:0:0:0:
256,192,310106,1,0,0:0:0:0:
256,192,310202,1,8,0:0:0:0:
256,192,310299,1,8,0:0:0:0:
256,192,310396,1,0,0:0:0:0:
256,192,310493,1,0,0:0:0:0:
256,192,310589,1,8,0:0:0:0:
256,192,310686,1,8,0:0:0:0:
256,192,310783,1,0,0:0:0:0:
256,192,310880,1,8,0:0:0:0:
256,192,310977,1,0,0:0:0:0:
256,192,311073,1,0,0:0:0:0:
256,192,311267,1,14,0:0:0:0:
256,192,311460,1,8,0:0:0:0:
256,192,311654,1,0,0:0:0:0:
256,192,311751,1,8,0:0:0:0:
256,192,311848,1,0,0:0:0:0:
256,192,311944,1,8,0:0:0:0:
256,192,312041,1,0,0:0:0:0:
256,192,312138,1,8,0:0:0:0:
256,192,312235,1,8,0:0:0:0:
256,192,312331,1,0,0:0:0:0:
256,192,312428,1,0,0:0:0:0:
256,192,312525,1,8,0:0:0:0:
256,192,312622,1,0,0:0:0:0:
256,192,312719,1,0,0:0:0:0:
256,192,312815,1,8,0:0:0:0:
256,192,313009,1,8,0:0:0:0:
256,192,313202,1,8,0:0:0:0:
256,192,313299,1,8,0:0:0:0:
256,192,313396,1,0,0:0:0:0:
256,192,313493,1,8,0:0:0:0:
256,192,313589,1,0,0:0:0:0:
256,192,313686,1,0,0:0:0:0:
256,192,313783,1,8,0:0:0:0:
256,192,313880,1,0,0:0:0:0:
256,192,313977,1,8,0:0:0:0:
256,192,314073,1,8,0:0:0:0:
256,192,314170,1,0,0:0:0:0:
256,192,314267,1,0,0:0:0:0:
256,192,314364,1,8,0:0:0:0:
256,192,314557,1,8,0:0:0:0:
256,192,314751,1,0,0:0:0:0:
256,192,314848,1,8,0:0:0:0:
256,192,314944,1,0,0:0:0:0:
256,192,315041,1,8,0:0:0:0:
256,192,315138,1,8,0:0:0:0:
256,192,315235,1,0,0:0:0:0:
256,192,315331,1,8,0:0:0:0:
256,192,315428,1,8,0:0:0:0:
256,192,315525,1,0,0:0:0:0:
256,192,315622,1,8,0:0:0:0:
256,192,315719,1,0,0:0:0:0:
256,192,315815,1,0,0:0:0:0:
256,192,315912,1,8,0:0:0:0:
256,192,316106,1,8,0:0:0:0:
256,192,316299,1,8,0:0:0:0:
256,192,316396,1,8,0:0:0:0:
256,192,316493,1,0,0:0:0:0:
256,192,316589,1,8,0:0:0:0:
256,192,316686,1,0,0:0:0:0:
256,192,316783,1,0,0:0:0:0:
256,192,316880,1,8,0:0:0:0:
256,192,316977,1,0,0:0:0:0:
256,192,317073,1,8,0:0:0:0:
256,192,317170,1,8,0:0:0:0:
256,192,317267,1,0,0:0:0:0:
256,192,317364,1,0,0:0:0:0:
256,192,317460,1,0,0:0:0:0:
256,192,317654,1,0,0:0:0:0:
256,192,317848,1,8,0:0:0:0:
256,192,317944,1,0,0:0:0:0:
256,192,318041,1,0,0:0:0:0:
256,192,318138,1,0,0:0:0:0:
256,192,318235,1,8,0:0:0:0:
256,192,318331,1,8,0:0:0:0:
256,192,318428,1,0,0:0:0:0:
256,192,318525,1,0,0:0:0:0:
256,192,318622,1,8,0:0:0:0:
256,192,318719,1,0,0:0:0:0:
256,192,318815,1,0,0:0:0:0:
256,192,318912,1,0,0:0:0:0:
256,192,319009,1,8,0:0:0:0:
256,192,319202,1,8,0:0:0:0:
256,192,319396,1,8,0:0:0:0:
256,192,319493,1,0,0:0:0:0:
256,192,319589,1,0,0:0:0:0:
256,192,319686,1,8,0:0:0:0:
256,192,319783,1,8,0:0:0:0:
256,192,319880,1,0,0:0:0:0:
256,192,319977,1,8,0:0:0:0:
256,192,320073,1,0,0:0:0:0:
256,192,320170,1,8,0:0:0:0:
256,192,320267,1,8,0:0:0:0:
256,192,320364,1,0,0:0:0:0:
256,192,320460,1,0,0:0:0:0:
256,192,320557,1,8,0:0:0:0:
256,192,320751,1,8,0:0:0:0:
256,192,320944,1,8,0:0:0:0:
256,192,321041,1,8,0:0:0:0:
256,192,321138,1,0,0:0:0:0:
256,192,321235,1,8,0:0:0:0:
256,192,321331,1,0,0:0:0:0:
256,192,321428,1,8,0:0:0:0:
256,192,321525,1,8,0:0:0:0:
256,192,321622,1,8,0:0:0:0:
256,192,321719,1,0,0:0:0:0:
256,192,321815,1,0,0:0:0:0:
256,192,321912,1,8,0:0:0:0:
256,192,322106,1,4,0:0:0:0:
256,192,322299,1,8,0:0:0:0:
256,192,322493,1,0,0:0:0:0:
256,192,322589,1,8,0:0:0:0:
256,192,322686,1,8,0:0:0:0:
256,192,322783,1,0,0:0:0:0:
256,192,322977,1,8,0:0:0:0:
256,192,323073,1,8,0:0:0:0:
256,192,323170,1,0,0:0:0:0:
256,192,323267,1,8,0:0:0:0:
256,192,323364,1,0,0:0:0:0:
256,192,323460,1,0,0:0:0:0:
256,192,323557,1,0,0:0:0:0:
256,192,323654,1,8,0:0:0:0:
256,192,323848,1,8,0:0:0:0:
256,192,324041,1,8,0:0:0:0:
256,192,324138,1,8,0:0:0:0:
256,192,324235,1,0,0:0:0:0:
256,192,324331,1,0,0:0:0:0:
256,192,324428,1,0,0:0:0:0:
256,192,324525,1,8,0:0:0:0:
256,192,324622,1,0,0:0:0:0:
256,192,324719,1,0,0:0:0:0:
256,192,324815,1,8,0:0:0:0:
256,192,324912,1,8,0:0:0:0:
256,192,325009,1,0,0:0:0:0:
256,192,325106,1,0,0:0:0:0:
256,192,325202,1,8,0:0:0:0:
256,192,325396,1,8,0:0:0:0:
256,192,325589,1,8,0:0:0:0:
256,192,325686,1,8,0:0:0:0:
256,192,325783,1,0,0:0:0:0:
256,192,325880,1,8,0:0:0:0:
256,192,325977,1,0,0:0:0:0:
256,192,326073,1,0,0:0:0:0:
256,192,326170,1,8,0:0:0:0:
256,192,326267,1,0,0:0:0:0:
256,192,326364,1,8,0:0:0:0:
256,192,326460,1,8,0:0:0:0:
256,192,326557,1,0,0:0:0:0:
256,192,326654,1,0,0:0:0:0:
256,192,326751,1,8,0:0:0:0:
256,192,326944,1,8,0:0:0:0:
256,192,327138,1,8,0:0:0:0:
256,192,327235,1,0,0:0:0:0:
256,192,327331,1,0,0:0:0:0:
256,192,327428,1,8,0:0:0:0:
256,192,327525,1,0,0:0:0:0:
256,192,327622,1,0,0:0:0:0:
256,192,327719,1,8,0:0:0:0:
256,192,327815,1,0,0:0:0:0:
256,192,327912,1,8,0:0:0:0:
256,192,328009,1,8,0:0:0:0:
256,192,328106,1,0,0:0:0:0:
256,192,328202,1,0,0:0:0:0:
256,192,328299,1,8,0:0:0:0:
256,192,328493,1,8,0:0:0:0:
256,192,328686,1,8,0:0:0:0:
256,192,328783,1,8,0:0:0:0:
256,192,328880,1,0,0:0:0:0:
256,192,328977,1,8,0:0:0:0:
256,192,329073,1,0,0:0:0:0:
256,192,329170,1,0,0:0:0:0:
256,192,329267,1,8,0:0:0:0:
256,192,329364,1,0,0:0:0:0:
256,192,329460,1,8,0:0:0:0:
256,192,329557,1,8,0:0:0:0:
256,192,329654,1,0,0:0:0:0:
256,192,329848,1,14,0:0:0:0:
256,192,330041,1,8,0:0:0:0:
256,192,330235,1,0,0:0:0:0:
256,192,330331,1,8,0:0:0:0:
256,192,330428,1,0,0:0:0:0:
256,192,330525,1,8,0:0:0:0:
256,192,330622,1,8,0:0:0:0:
256,192,330719,1,0,0:0:0:0:
256,192,330815,1,0,0:0:0:0:
256,192,330912,1,0,0:0:0:0:
256,192,331009,1,8,0:0:0:0:
256,192,331106,1,8,0:0:0:0:
256,192,331202,1,0,0:0:0:0:
256,192,331396,1,14,0:0:0:0:
256,192,331589,1,8,0:0:0:0:
256,192,331783,1,0,0:0:0:0:
256,192,331880,1,8,0:0:0:0:
256,192,331977,1,0,0:0:0:0:
256,192,332073,1,0,0:0:0:0:
256,192,332170,1,8,0:0:0:0:
256,192,332267,1,8,0:0:0:0:
256,192,332364,1,0,0:0:0:0:
256,192,332460,1,0,0:0:0:0:
256,192,332557,1,8,0:0:0:0:
256,192,332654,1,0,0:0:0:0:
256,192,332751,1,8,0:0:0:0:
256,192,332848,1,8,0:0:0:0:
256,192,332944,1,0,0:0:0:0:
256,192,333041,1,0,0:0:0:0:
256,192,333138,1,8,0:0:0:0:
256,192,333235,1,0,0:0:0:0:
256,192,333331,1,8,0:0:0:0:
256,192,333428,1,8,0:0:0:0:
256,192,333525,1,0,0:0:0:0:
256,192,333622,1,8,0:0:0:0:
256,192,333719,1,0,0:0:0:0:
256,192,333815,1,8,0:0:0:0:
256,192,333912,1,8,0:0:0:0:
256,192,334009,1,0,0:0:0:0:
256,192,334106,1,8,0:0:0:0:
256,192,334202,1,0,0:0:0:0:
256,192,334299,1,0,0:0:0:0:
256,192,334396,1,0,0:0:0:0:
256,192,334493,1,8,0:0:0:0:
256,192,334557,1,8,0:0:0:0:
256,192,334622,1,8,0:0:0:0:
256,192,334686,1,0,0:0:0:0:
256,192,334783,1,0,0:0:0:0:
256,192,334880,1,8,0:0:0:0:
256,192,334944,1,8,0:0:0:0:
256,192,335009,1,8,0:0:0:0:
256,192,335073,1,0,0:0:0:0:
256,192,335170,1,0,0:0:0:0:
256,192,335267,1,8,0:0:0:0:
256,192,335331,1,8,0:0:0:0:
256,192,335396,1,8,0:0:0:0:
256,192,335460,1,0,0:0:0:0:
256,192,335557,1,0,0:0:0:0:
256,192,335654,1,8,0:0:0:0:
256,192,335751,1,8,0:0:0:0:
256,192,335848,1,0,0:0:0:0:
256,192,335944,1,0,0:0:0:0:
256,192,336041,1,8,0:0:0:0:
256,192,336235,12,0,338751,0:0:0:0:
248,192,339138,5,8,0:0:0:0:
248,192,339525,1,0,0:0:0:0:
248,192,339719,1,0,0:0:0:0:
248,192,339912,1,8,0:0:0:0:
248,192,340299,1,0,0:0:0:0:
248,192,340686,1,8,0:0:0:0:
248,192,341073,1,8,0:0:0:0:
248,192,341170,1,8,0:0:0:0:
248,192,341267,1,0,0:0:0:0:
248,192,341460,1,8,0:0:0:0:
248,192,341848,1,0,0:0:0:0:
248,192,342041,1,0,0:0:0:0:
248,192,342235,1,8,0:0:0:0:
248,192,342622,1,0,0:0:0:0:
248,192,343009,1,0,0:0:0:0:
248,192,343396,1,8,0:0:0:0:
248,192,343783,1,8,0:0:0:0:
248,192,343912,1,0,0:0:0:0:
248,192,344041,1,0,0:0:0:0:
248,192,344170,1,8,0:0:0:0:
248,192,344557,1,8,0:0:0:0:
248,192,344944,1,8,0:0:0:0:
248,192,345331,1,0,0:0:0:0:
248,192,345525,1,0,0:0:0:0:
248,192,345719,1,8,0:0:0:0:
248,192,346106,1,0,0:0:0:0:
248,192,346493,1,8,0:0:0:0:
248,192,346880,1,4,0:0:0:0:
248,192,347267,1,8,0:0:0:0:
248,192,347364,1,8,0:0:0:0:
248,192,347460,1,0,0:0:0:0:
248,192,347654,1,8,0:0:0:0:
248,192,348041,1,8,0:0:0:0:
152,192,348428,6,0,L|432:192,1,280
