osu file format v14

[General]
AudioFilename: audio.mp3
AudioLeadIn: 0
PreviewTime: 111561
Countdown: 0
SampleSet: Normal
StackLeniency: 0.3
Mode: 0
LetterboxInBreaks: 0
WidescreenStoryboard: 1

[Editor]
Bookmarks: 76335,187818
DistanceSpacing: 2.5
BeatDivisor: 4
GridSize: 4
TimelineZoom: 2.1

[Metadata]
Title:Kikoku Doukoku Jigokuraku
TitleUnicode:Kikoku Doukoku Jigokuraku
Artist:Halozy
ArtistUnicode:Halozy
Creator:Artikash
Version:Nirvana
Source:東方Project
Tags:hotaru touhou subterranean animism ultimate synthesis kaenbyou boss theme すみじゅん sumijun 疒 ほたる 东方地霊殿 ~ とうほうちれいでん chireiden 火焔猫 燐 火焔猫燐 かえんびょう りん
BeatmapID:1228387
BeatmapSetID:488597

[Difficulty]
HPDrainRate:5
CircleSize:5.5
OverallDifficulty:9.5
ApproachRate:9.5
SliderMultiplier:1.8
SliderTickRate:2

[Events]
//Background and Video events
0,0,"kaenbyou.jpg",0,0
//Break Periods
2,100921,110961
2,212405,222445
2,264954,273155
2,286341,296768
//Storyboard Layer 0 (Background)
//Storyboard Layer 1 (Fail)
//Storyboard Layer 2 (Pass)
//Storyboard Layer 3 (Foreground)
//Storyboard Sound Samples

[TimingPoints]
12077,387.096899224807,4,1,0,70,1,0
12270,-133.333333333333,4,1,0,70,0,0
14399,-100,4,1,0,70,0,0
90754,-90.9090909090909,4,1,0,70,0,0
111367,-100,4,1,0,70,0,0
113109,-83.3333333333333,4,1,0,70,0,1
125594,-83.3333333333333,4,1,0,70,0,1
150270,-100,4,1,0,70,0,0
224593,-80,4,1,0,70,0,1
264754,-100,4,1,0,70,0,0
298915,-90.9090909090909,4,1,0,70,0,1
323690,-76.9230769230769,4,1,0,100,0,1
336077,-100,4,1,0,50,0,0
348464,-200,4,1,0,50,0,0

[HitObjects]
256,192,1625,5,4,3:3:0:0:
256,192,1722,12,0,12076,2:0:0:0:
184,36,12465,6,2,B|340:116|340:116|200:192|200:192|308:264|308:264|240:308|240:308,1,540.000020599366,0|0,0:0|0:0,0:0:0:0:
380,72,14399,6,0,L|324:72,2,45,0|0|0,2:0|2:0|2:0,2:0:0:0:
289,103,14689,2,0,L|240:103,1,45,0|0,2:0|2:0,2:0:0:0:
196,136,14883,2,0,L|143:136,1,45,0|0,2:0|2:0,2:0:0:0:
40,200,15077,1,0,2:0:0:0:
40,200,15174,1,0,2:0:0:0:
0,339,15367,1,0,2:0:0:0:
143,358,15560,2,0,L|176:321,2,45,4|0|4,0:0|0:0|0:0,0:0:0:0:
186,188,15948,5,0,0:0:0:0:
253,306,16141,1,0,0:0:0:0:
253,306,16238,1,0,2:0:0:0:
229,172,16431,1,0,2:0:0:0:
372,217,16625,1,0,0:0:0:0:
372,217,16722,1,0,2:0:0:0:
289,84,16915,1,0,2:0:0:0:
193,142,17109,5,0,0:0:0:0:
167,148,17205,1,0,0:0:0:0:
141,140,17302,1,0,0:0:0:0:
124,120,17399,1,0,0:0:0:0:
120,94,17496,5,0,0:0:0:0:
128,0,17689,1,0,0:0:0:0:
128,0,17787,1,0,2:0:0:0:
241,206,17981,1,0,2:0:0:0:
350,0,18173,5,0,0:0:0:0:
350,0,18271,1,0,2:0:0:0:
477,155,18465,1,0,2:0:0:0:
362,281,18657,6,0,L|311:281,3,45,0|0|0|0,0:0|2:0|2:0|2:0,0:0:0:0:
227,260,19045,1,0,0:0:0:0:
201,247,19142,1,0,0:0:0:0:
94,112,19335,1,0,0:0:0:0:
253,40,19528,1,0,0:0:0:0:
411,116,19722,1,0,0:0:0:0:
412,150,19818,1,0,0:0:0:0:
512,264,20012,1,0,0:0:0:0:
414,33,20206,5,0,0:0:0:0:
391,33,20302,1,0,0:0:0:0:
369,33,20399,1,0,0:0:0:0:
346,33,20496,1,0,0:0:0:0:
324,33,20593,5,0,0:0:0:0:
301,33,20689,1,0,0:0:0:0:
279,33,20786,1,0,0:0:0:0:
256,34,20883,2,0,B|247:84,1,45
229,150,21077,2,0,L|192:107,1,45
153,59,21270,1,0,0:0:0:0:
122,50,21366,1,0,0:0:0:0:
90,51,21463,1,0,0:0:0:0:
59,61,21560,1,0,0:0:0:0:
33,80,21657,1,0,0:0:0:0:
14,106,21753,1,0,0:0:0:0:
4,136,21850,1,0,0:0:0:0:
2,168,21947,1,0,0:0:0:0:
58,291,22141,6,0,L|89:252,1,45
165,155,22335,1,0,0:0:0:0:
183,168,22431,2,0,L|222:199,1,45
308,233,22625,2,0,L|270:261,1,45
186,310,22818,1,0,0:0:0:0:
208,314,22915,2,0,L|307:326,1,90
385,302,23302,1,0,0:0:0:0:
395,189,23496,5,0,0:0:0:0:
362,180,23592,1,0,0:0:0:0:
329,172,23689,1,0,0:0:0:0:
296,163,23786,1,0,0:0:0:0:
264,155,23883,1,0,0:0:0:0:
231,148,23980,2,0,L|210:103,1,45
153,14,24173,2,0,L|116:47,1,45
113,94,24367,1,0,0:0:0:0:
83,108,24464,1,0,0:0:0:0:
53,129,24560,1,0,0:0:0:0:
34,166,24657,1,0,0:0:0:0:
34,209,24754,1,0,0:0:0:0:
45,253,24851,5,4,0:0:0:0:
152,305,25044,5,0,0:0:0:0:
160,313,25142,1,0,0:0:0:0:
160,313,25239,1,0,0:0:0:0:
160,313,25336,1,0,0:0:0:0:
276,201,25529,1,0,0:0:0:0:
137,225,25723,1,0,0:0:0:0:
295,273,25916,1,0,0:0:0:0:
295,273,26013,2,2,P|350:310|422:328,1,135,0|4,0:0|0:0,0:0:0:0:
464,325,26399,5,0,0:0:0:0:
496,295,26495,1,0,0:0:0:0:
505,250,26592,1,0,0:0:0:0:
493,206,26689,1,0,0:0:0:0:
463,173,26786,1,0,0:0:0:0:
426,149,26882,1,0,0:0:0:0:
382,140,26979,1,0,0:0:0:0:
337,141,27076,1,0,0:0:0:0:
293,148,27173,1,0,0:0:0:0:
249,159,27269,1,0,0:0:0:0:
205,167,27366,1,0,0:0:0:0:
160,169,27463,1,0,0:0:0:0:
117,156,27560,1,0,0:0:0:0:
85,125,27657,1,0,0:0:0:0:
65,85,27753,1,0,0:0:0:0:
53,42,27850,1,0,0:0:0:0:
45,0,27947,2,0,L|92:13,3,45
226,23,28335,5,0,0:0:0:0:
270,24,28431,1,0,0:0:0:0:
315,30,28528,1,0,0:0:0:0:
358,44,28625,1,0,0:0:0:0:
386,80,28722,1,0,0:0:0:0:
395,123,28818,1,0,0:0:0:0:
389,167,28915,1,0,0:0:0:0:
401,211,29012,1,0,0:0:0:0:
420,252,29109,1,0,0:0:0:0:
433,293,29205,1,0,0:0:0:0:
425,338,29302,1,0,0:0:0:0:
393,370,29399,1,0,0:0:0:0:
350,384,29496,2,0,L|295:384,3,45
106,380,29883,5,0,0:0:0:0:
61,376,29979,1,0,0:0:0:0:
23,352,30076,1,0,0:0:0:0:
2,312,30173,1,0,0:0:0:0:
3,267,30270,1,0,0:0:0:0:
23,227,30366,1,0,0:0:0:0:
58,199,30463,1,0,0:0:0:0:
96,176,30560,1,0,0:0:0:0:
138,161,30656,1,0,0:0:0:0:
185,150,30754,1,0,0:0:0:0:
234,146,30850,1,0,0:0:0:0:
291,145,30947,1,0,0:0:0:0:
355,147,31044,5,2,0:0:0:0:
464,113,31431,5,0,0:0:0:0:
492,148,31527,1,0,0:0:0:0:
506,190,31624,1,0,0:0:0:0:
505,235,31721,1,0,0:0:0:0:
488,276,31818,1,0,0:0:0:0:
457,309,31914,1,0,0:0:0:0:
419,334,32011,1,0,0:0:0:0:
377,352,32109,1,0,0:0:0:0:
333,363,32205,1,0,0:0:0:0:
288,369,32302,1,0,0:0:0:0:
243,370,32399,1,0,0:0:0:0:
198,368,32496,1,0,0:0:0:0:
155,356,32593,2,0,L|112:336,3,45,8|0|0|0,0:0|0:0|0:0|0:0,0:0:0:0:
17,289,32979,5,0,0:0:0:0:
25,245,33076,1,0,0:0:0:0:
53,209,33173,1,0,0:0:0:0:
91,188,33270,1,0,0:0:0:0:
136,184,33367,1,0,0:0:0:0:
178,199,33463,1,0,0:0:0:0:
214,225,33560,1,0,0:0:0:0:
253,248,33657,1,0,0:0:0:0:
296,260,33754,1,0,0:0:0:0:
341,258,33850,1,0,0:0:0:0:
378,234,33947,1,0,0:0:0:0:
403,196,34044,1,0,0:0:0:0:
443,175,34141,2,0,L|486:161,3,45
504,120,34527,5,0,0:0:0:0:
475,84,34624,1,0,0:0:0:0:
438,57,34721,1,0,0:0:0:0:
394,50,34818,1,0,0:0:0:0:
349,55,34914,1,0,0:0:0:0:
305,61,35011,1,0,0:0:0:0:
261,73,35108,1,0,0:0:0:0:
227,101,35205,1,0,0:0:0:0:
205,140,35301,1,0,0:0:0:0:
196,184,35398,1,0,0:0:0:0:
197,229,35495,1,0,0:0:0:0:
208,272,35592,1,0,0:0:0:0:
241,302,35689,2,0,L|293:302,3,45
326,277,36076,5,0,0:0:0:0:
353,242,36172,1,0,0:0:0:0:
363,198,36269,1,0,0:0:0:0:
354,155,36366,1,0,0:0:0:0:
329,117,36463,1,0,0:0:0:0:
295,89,36560,1,0,0:0:0:0:
254,70,36656,1,0,0:0:0:0:
210,62,36753,1,0,0:0:0:0:
165,64,36850,1,0,0:0:0:0:
121,86,36947,1,0,0:0:0:0:
86,125,37043,1,0,0:0:0:0:
60,177,37140,1,0,0:0:0:0:
52,241,37238,5,4,0:0:0:0:
184,330,37431,5,0,0:0:0:0:
222,306,37527,1,0,0:0:0:0:
261,283,37624,1,0,0:0:0:0:
299,260,37721,1,0,0:0:0:0:
243,147,37915,6,0,L|314:77,1,90
405,31,38302,5,0,0:0:0:0:
439,59,38398,1,0,0:0:0:0:
460,98,38495,1,0,0:0:0:0:
463,143,38592,1,0,0:0:0:0:
449,185,38689,1,0,0:0:0:0:
419,218,38785,1,4,0:0:0:0:
132,224,39173,5,0,0:0:0:0:
228,64,39367,1,0,0:0:0:0:
320,224,39560,1,0,0:0:0:0:
132,224,39754,1,0,0:0:0:0:
228,64,39948,1,0,0:0:0:0:
320,224,40141,1,0,0:0:0:0:
130,161,40335,5,0,0:0:0:0:
301,50,40528,2,0,P|267:16|219:14,1,90
114,22,40915,6,0,B|53:55|32:129|32:129,1,135
32,228,41302,6,0,P|51:287|158:265,1,180
177,239,41786,1,0,0:0:0:0:
187,195,41883,1,0,0:0:0:0:
128,120,42270,5,0,0:0:0:0:
212,280,42464,1,0,0:0:0:0:
308,128,42657,1,0,0:0:0:0:
128,120,42851,1,0,0:0:0:0:
212,280,43045,1,0,0:0:0:0:
308,128,43238,1,0,0:0:0:0:
408,224,43431,6,0,B|400:288|308:328|284:192,3,180
241,218,44689,1,0,2:0:0:0:
196,210,44786,1,0,2:0:0:0:
151,200,44883,1,0,2:0:0:0:
106,188,44980,6,0,P|170:108|236:68,1,180
315,84,45560,2,0,B|284:248|419:131|564:28|420:304,1,405
373,309,46528,5,0,0:0:0:0:
346,272,46624,1,0,2:0:0:0:
320,235,46721,1,0,2:0:0:0:
294,199,46818,1,0,2:0:0:0:
239,200,46915,5,0,0:0:0:0:
212,236,47011,1,0,2:0:0:0:
186,273,47108,1,0,2:0:0:0:
160,309,47205,1,0,2:0:0:0:
102,333,47302,5,4,0:0:0:0:
91,70,47496,5,0,0:0:0:0:
155,234,47689,1,0,0:0:0:0:
255,82,47883,1,0,0:0:0:0:
91,70,48077,6,0,B|79:146|227:118|195:218,1,180
256,324,48657,2,0,B|448:364|471:103,1,360,0|0,0:0|2:0,0:0:0:0:
348,88,49625,5,0,2:0:0:0:
348,88,49722,1,0,2:0:0:0:
348,88,49818,2,0,L|292:88,1,45,0|0,2:0|2:0,2:0:0:0:
356,224,50110,6,0,L|416:224,2,45,0|0|0,2:0|2:0|2:0,2:0:0:0:
152,96,50594,2,0,L|205:12,2,90
10,184,51173,5,0,0:0:0:0:
23,226,51269,1,0,0:0:0:0:
46,265,51366,1,0,0:0:0:0:
76,299,51463,1,0,0:0:0:0:
112,325,51560,1,0,0:0:0:0:
153,343,51656,1,0,0:0:0:0:
197,351,51753,1,0,0:0:0:0:
242,351,51850,1,0,0:0:0:0:
286,340,51947,1,0,0:0:0:0:
327,321,52043,1,0,0:0:0:0:
363,293,52141,1,0,0:0:0:0:
387,255,52238,1,0,0:0:0:0:
401,213,52334,1,0,0:0:0:0:
407,168,52431,1,0,0:0:0:0:
400,123,52528,1,0,0:0:0:0:
382,82,52625,1,0,0:0:0:0:
352,48,52722,2,0,L|296:58,3,45
168,85,53108,5,0,0:0:0:0:
132,111,53205,1,0,0:0:0:0:
106,147,53302,1,0,0:0:0:0:
92,190,53399,1,0,0:0:0:0:
93,234,53495,1,0,0:0:0:0:
109,276,53592,1,0,0:0:0:0:
135,313,53689,1,0,0:0:0:0:
177,329,53786,1,0,0:0:0:0:
221,327,53882,1,0,0:0:0:0:
254,298,53979,1,0,0:0:0:0:
261,255,54076,1,0,0:0:0:0:
250,211,54173,1,0,0:0:0:0:
229,171,54270,2,0,L|186:208,3,45
168,308,54657,5,0,0:0:0:0:
210,324,54753,1,0,0:0:0:0:
253,337,54850,1,0,0:0:0:0:
297,345,54947,1,0,0:0:0:0:
342,346,55044,1,0,0:0:0:0:
387,340,55141,1,0,0:0:0:0:
429,324,55237,1,0,0:0:0:0:
466,299,55334,1,0,0:0:0:0:
485,259,55431,1,0,0:0:0:0:
493,211,55527,1,0,0:0:0:0:
476,159,55624,1,0,0:0:0:0:
429,128,55721,1,0,0:0:0:0:
366,122,55818,5,2,0:0:0:0:
22,292,56206,5,0,0:0:0:0:
16,336,56302,1,0,0:0:0:0:
35,375,56399,1,0,0:0:0:0:
78,384,56496,1,0,0:0:0:0:
122,376,56593,1,0,0:0:0:0:
164,359,56689,1,0,0:0:0:0:
202,336,56786,1,0,0:0:0:0:
244,319,56883,1,0,0:0:0:0:
288,314,56980,1,0,0:0:0:0:
333,321,57076,1,0,0:0:0:0:
374,339,57173,1,0,0:0:0:0:
417,349,57270,1,0,0:0:0:0:
463,351,57367,2,0,L|455:299,3,45,8|0|0|0,0:0|0:0|0:0|0:0,0:0:0:0:
388,172,57754,5,0,0:0:0:0:
429,156,57850,1,0,0:0:0:0:
449,117,57947,1,0,0:0:0:0:
437,74,58044,1,0,0:0:0:0:
400,50,58141,1,0,0:0:0:0:
357,57,58237,1,0,0:0:0:0:
329,91,58334,1,0,0:0:0:0:
300,125,58431,1,0,0:0:0:0:
259,141,58527,1,0,0:0:0:0:
214,140,58624,1,0,0:0:0:0:
170,129,58721,1,0,0:0:0:0:
127,116,58818,1,0,0:0:0:0:
88,94,58915,2,0,P|99:43|99:43,3,45
141,39,59301,5,0,0:0:0:0:
186,30,59398,1,0,0:0:0:0:
230,24,59495,1,0,0:0:0:0:
275,18,59592,1,0,0:0:0:0:
319,22,59689,1,0,0:0:0:0:
361,37,59785,1,0,0:0:0:0:
395,67,59882,1,0,0:0:0:0:
413,107,59979,1,0,0:0:0:0:
407,151,60076,1,0,0:0:0:0:
373,179,60172,1,0,0:0:0:0:
331,163,60269,1,0,0:0:0:0:
314,120,60366,1,0,0:0:0:0:
333,77,60464,2,0,L|386:77,3,45
419,107,60851,5,0,0:0:0:0:
380,130,60948,1,0,0:0:0:0:
335,132,61044,1,0,0:0:0:0:
290,124,61141,1,0,0:0:0:0:
246,115,61238,1,0,0:0:0:0:
201,115,61335,1,0,0:0:0:0:
157,122,61432,1,0,0:0:0:0:
114,136,61528,1,0,0:0:0:0:
74,156,61625,1,0,0:0:0:0:
45,191,61722,1,0,0:0:0:0:
36,240,61819,1,0,0:0:0:0:
33,298,61915,1,0,0:0:0:0:
35,363,62012,5,4,0:0:0:0:
176,344,62207,6,0,L|176:292,3,45
176,190,62690,1,0,0:0:0:0:
300,190,62884,1,0,0:0:0:0:
303,312,63077,1,0,0:0:0:0:
303,312,63173,2,2,L|440:312,1,135,0|4,0:0|0:0,0:0:0:0:
512,312,63561,5,0,0:0:0:0:
320,128,63947,5,0,0:0:0:0:
160,212,64141,1,0,0:0:0:0:
312,308,64334,1,0,0:0:0:0:
320,128,64528,1,0,0:0:0:0:
160,212,64722,1,0,0:0:0:0:
312,308,64915,1,0,0:0:0:0:
491,214,65109,5,0,0:0:0:0:
271,227,65302,2,0,P|246:173|255:138,1,90
331,31,65689,6,0,B|407:-38|407:105|487:33,2,180
300,64,66560,1,0,0:0:0:0:
267,95,66657,1,0,0:0:0:0:
131,103,67044,5,0,0:0:0:0:
284,192,67238,1,0,0:0:0:0:
131,281,67431,1,0,0:0:0:0:
131,103,67625,1,0,0:0:0:0:
284,192,67819,1,0,0:0:0:0:
131,281,68012,1,0,0:0:0:0:
149,94,68206,5,0,0:0:0:0:
160,94,68302,1,0,0:0:0:0:
171,94,68399,1,0,0:0:0:0:
182,94,68496,1,0,0:0:0:0:
194,148,68593,5,0,0:0:0:0:
205,148,68689,1,0,0:0:0:0:
216,148,68786,1,0,0:0:0:0:
227,148,68883,1,0,0:0:0:0:
238,94,68980,5,0,0:0:0:0:
249,93,69076,1,0,0:0:0:0:
260,93,69173,1,0,0:0:0:0:
271,93,69270,1,0,0:0:0:0:
281,149,69367,5,0,0:0:0:0:
292,149,69463,1,0,0:0:0:0:
303,149,69560,1,0,0:0:0:0:
314,149,69657,1,0,0:0:0:0:
354,180,69754,6,0,P|331:264|280:275,1,135
292,208,70141,5,0,0:0:0:0:
310,77,70335,2,0,P|364:94|293:339,1,405,0|0,0:0|2:0,0:0:0:0:
243,336,71302,5,0,0:0:0:0:
220,297,71399,1,0,2:0:0:0:
197,258,71496,1,0,2:0:0:0:
174,219,71593,1,0,2:0:0:0:
171,167,71689,5,0,0:0:0:0:
194,128,71786,1,0,2:0:0:0:
217,89,71883,1,0,2:0:0:0:
240,50,71980,1,0,2:0:0:0:
185,31,72077,5,0,0:0:0:0:
103,211,72271,6,0,P|61:212|11:172,2,90
286,271,72851,2,0,P|343:265|405:213,1,135,0|0,0:0|2:0,0:0:0:0:
392,153,73238,2,0,L|340:153,1,45,0|0,0:0|2:0,0:0:0:0:
333,209,73431,2,0,B|-65:-1|104:202,1,405,0|0,0:0|2:0,0:0:0:0:
144,242,74399,5,0,0:0:0:0:
196,206,74496,1,0,0:0:0:0:
309,285,74786,5,0,0:0:0:0:
201,98,74980,1,0,0:0:0:0:
363,192,75173,5,0,0:0:0:0:
148,191,75367,1,0,0:0:0:0:
309,98,75560,5,0,0:0:0:0:
201,285,75754,1,0,0:0:0:0:
30,192,75947,1,0,0:0:0:0:
30,192,76044,1,0,0:0:0:0:
30,192,76141,1,0,0:0:0:0:
141,192,76335,6,0,L|197:192,3,45,0|0|0|0,0:0|2:0|2:0|2:0,2:0:0:0:
333,129,76722,2,0,L|280:110,1,45
333,255,76915,2,0,L|287:268,1,45
259,134,77109,2,0,L|206:115,1,45
259,260,77302,2,0,L|213:273,1,45
205,192,77496,2,0,L|100:192,1,90
0,192,77883,5,0,0:0:0:0:
35,104,78077,2,0,P|80:98|117:130,1,90
128,217,78464,1,0,0:0:0:0:
173,217,78560,1,0,0:0:0:0:
218,217,78657,1,0,0:0:0:0:
263,217,78754,1,0,0:0:0:0:
308,217,78851,1,0,0:0:0:0:
353,217,78947,1,0,0:0:0:0:
401,217,79044,1,0,0:0:0:0:
456,175,79431,6,0,L|456:128,1,45
420,266,79625,2,0,L|420:320,1,45
389,175,79818,2,0,L|389:128,1,45
353,266,80012,2,0,L|353:320,1,45
317,175,80206,2,0,L|317:128,1,45
291,268,80399,5,0,0:0:0:0:
250,284,80495,1,0,0:0:0:0:
205,291,80593,1,0,0:0:0:0:
160,288,80689,1,0,0:0:0:0:
115,281,80786,1,0,0:0:0:0:
73,263,80883,1,0,0:0:0:0:
60,219,80980,5,0,0:0:0:0:
105,215,81077,1,0,0:0:0:0:
148,203,81173,1,0,0:0:0:0:
186,179,81270,1,0,0:0:0:0:
205,138,81367,5,0,0:0:0:0:
160,131,81464,1,0,0:0:0:0:
117,118,81560,1,0,0:0:0:0:
79,94,81657,1,0,0:0:0:0:
48,60,81754,5,0,0:0:0:0:
93,61,81851,1,0,0:0:0:0:
134,45,81947,1,0,0:0:0:0:
161,9,82044,2,0,L|210:9,1,45,0|2,0:0|0:0,0:0:0:0:
72,348,82528,6,0,P|143:343|192:292,1,135
208,257,82915,2,0,L|260:236,1,45
332,200,83109,2,0,L|384:179,1,45
374,81,83302,2,0,L|322:60,1,45
250,24,83496,2,0,L|198:3,1,45
93,13,83689,6,0,B|22:79|183:157|65:192,1,180
76,298,84270,2,0,B|210:356|297:167|292:250,1,225
341,206,84851,2,0,B|389:181|401:321|467:230,1,135
489,213,85238,5,0,0:0:0:0:
485,168,85334,1,0,0:0:0:0:
468,126,85431,1,0,0:0:0:0:
437,95,85528,1,0,0:0:0:0:
395,77,85625,1,0,0:0:0:0:
351,74,85721,1,0,0:0:0:0:
306,82,85818,1,0,0:0:0:0:
264,97,85915,1,0,0:0:0:0:
224,118,86012,1,0,0:0:0:0:
187,143,86108,1,0,0:0:0:0:
152,171,86205,1,0,0:0:0:0:
119,202,86302,1,0,0:0:0:0:
88,235,86399,1,0,0:0:0:0:
59,269,86496,1,0,0:0:0:0:
42,311,86593,5,0,0:0:0:0:
86,315,86689,1,0,0:0:0:0:
131,316,86786,1,0,0:0:0:0:
176,314,86883,1,0,0:0:0:0:
221,308,86980,1,0,0:0:0:0:
264,297,87076,1,0,0:0:0:0:
306,280,87173,1,0,0:0:0:0:
344,256,87270,1,0,0:0:0:0:
375,224,87367,1,0,0:0:0:0:
391,182,87463,5,0,0:0:0:0:
380,140,87560,1,0,0:0:0:0:
344,115,87657,1,0,0:0:0:0:
299,108,87754,1,0,0:0:0:0:
255,113,87851,1,0,0:0:0:0:
212,125,87947,1,0,0:0:0:0:
170,142,88044,1,0,0:0:0:0:
130,163,88141,1,0,0:0:0:0:
91,186,88238,1,0,0:0:0:0:
68,225,88335,6,0,L|94:263,1,45,2|0,0:0|0:0,0:0:0:0:
157,260,88528,2,0,L|131:222,1,45
62,311,88722,6,0,L|88:349,1,45
151,346,88915,2,0,L|125:308,1,45
213,288,89109,1,0,0:0:0:0:
254,260,89206,1,0,0:0:0:0:
281,219,89302,1,0,0:0:0:0:
286,170,89399,1,0,0:0:0:0:
270,123,89496,1,0,0:0:0:0:
252,78,89593,1,0,0:0:0:0:
198,89,89689,6,0,L|142:89,1,45
153,205,89883,2,0,L|198:205,1,45
153,147,90270,6,0,L|209:147,1,45
198,31,90464,2,0,L|153:31,5,45
101,33,91044,5,0,0:0:0:0:
100,82,91140,1,0,0:0:0:0:
99,131,91237,1,0,0:0:0:0:
98,181,91334,1,0,0:0:0:0:
98,230,91431,5,0,0:0:0:0:
141,210,91527,1,0,0:0:0:0:
185,187,91624,1,0,0:0:0:0:
229,165,91721,1,0,0:0:0:0:
273,143,91818,5,0,0:0:0:0:
272,192,91914,1,0,0:0:0:0:
269,241,92011,1,0,0:0:0:0:
267,291,92108,1,0,0:0:0:0:
265,339,92205,5,0,0:0:0:0:
223,312,92302,1,0,0:0:0:0:
182,286,92398,1,0,0:0:0:0:
140,259,92495,1,0,0:0:0:0:
98,232,92592,5,0,0:0:0:0:
141,210,92689,1,0,0:0:0:0:
185,188,92785,1,0,0:0:0:0:
229,166,92882,1,0,0:0:0:0:
273,145,92980,5,0,0:0:0:0:
273,194,93077,1,0,0:0:0:0:
253,239,93173,1,0,0:0:0:0:
206,256,93270,1,0,0:0:0:0:
161,235,93367,1,0,0:0:0:0:
140,190,93464,1,0,0:0:0:0:
143,141,93560,1,0,0:0:0:0:
174,102,93657,1,0,0:0:0:0:
219,81,93754,1,0,0:0:0:0:
265,64,93850,1,0,0:0:0:0:
313,53,93947,1,0,0:0:0:0:
363,52,94044,1,0,0:0:0:0:
407,73,94141,1,0,0:0:0:0:
431,116,94238,1,0,0:0:0:0:
435,165,94334,1,0,0:0:0:0:
431,214,94431,1,0,0:0:0:0:
421,265,94528,5,0,0:0:0:0:
379,291,94625,1,0,0:0:0:0:
336,315,94721,1,0,0:0:0:0:
292,338,94818,1,0,0:0:0:0:
244,353,94916,6,0,L|245:297,3,49.5000015106202,4|0|0|0,0:0|0:0|0:0|0:0,0:0:0:0:
174,297,95303,2,0,L|174:237,3,49.5000015106202
104,237,95690,2,0,L|104:182,3,49.5000015106202
63,140,96077,5,0,0:0:0:0:
95,104,96173,1,0,0:0:0:0:
135,73,96270,1,0,0:0:0:0:
179,51,96367,1,0,0:0:0:0:
226,36,96464,1,0,0:0:0:0:
275,28,96560,1,0,0:0:0:0:
324,26,96657,1,0,0:0:0:0:
373,28,96754,1,0,0:0:0:0:
421,35,96851,5,0,0:0:0:0:
399,80,96947,1,0,0:0:0:0:
368,118,97044,1,0,0:0:0:0:
332,152,97141,1,0,0:0:0:0:
292,181,97238,1,0,0:0:0:0:
250,207,97335,1,0,0:0:0:0:
206,230,97431,1,0,0:0:0:0:
161,251,97528,1,0,0:0:0:0:
110,265,97625,5,0,0:0:0:0:
141,306,97721,1,0,0:0:0:0:
179,340,97818,1,0,0:0:0:0:
223,368,97915,1,0,0:0:0:0:
272,382,98012,1,0,0:0:0:0:
323,381,98108,1,0,0:0:0:0:
374,372,98205,1,0,0:0:0:0:
420,348,98302,1,0,0:0:0:0:
457,311,98399,1,0,0:0:0:0:
486,269,98495,1,0,0:0:0:0:
502,220,98592,1,0,0:0:0:0:
512,169,98689,1,0,0:0:0:0:
509,117,98786,1,0,0:0:0:0:
483,73,98883,1,0,0:0:0:0:
440,45,98979,1,0,0:0:0:0:
390,32,99076,1,0,0:0:0:0:
339,27,99173,5,2,0:0:0:0:
199,92,99367,1,0,0:0:0:0:
291,219,99561,1,0,0:0:0:0:
262,254,99658,1,0,0:0:0:0:
144,162,99851,1,0,0:0:0:0:
37,221,100044,5,0,0:0:0:0:
25,197,100140,1,0,0:0:0:0:
19,170,100237,1,0,0:0:0:0:
19,143,100334,1,0,0:0:0:0:
26,117,100431,1,0,0:0:0:0:
38,93,100527,1,0,0:0:0:0:
56,72,100624,1,0,0:0:0:0:
78,56,100721,5,4,0:0:0:0:
96,224,111561,6,2,B|189:41|189:41|270:212|270:212|347:105|347:105|393:184|393:184|433:126|433:126,1,675,0|0,0:0|0:0,0:0:0:0:
449,76,113109,5,0,0:0:0:0:
398,58,113205,1,0,0:0:0:0:
344,53,113302,1,0,0:0:0:0:
290,54,113399,1,0,0:0:0:0:
236,57,113496,1,0,0:0:0:0:
183,65,113592,1,0,0:0:0:0:
131,80,113689,1,0,0:0:0:0:
84,106,113786,1,0,0:0:0:0:
48,146,113883,1,0,0:0:0:0:
31,197,113979,1,0,0:0:0:0:
36,248,114076,1,0,0:0:0:0:
72,288,114172,1,0,0:0:0:0:
115,320,114269,1,0,0:0:0:0:
163,344,114366,1,0,0:0:0:0:
215,357,114463,1,0,0:0:0:0:
269,361,114559,1,0,0:0:0:0:
323,354,114656,5,0,0:0:0:0:
374,337,114753,1,0,0:0:0:0:
421,310,114850,1,0,0:0:0:0:
461,275,114948,1,0,0:0:0:0:
495,233,115043,1,0,0:0:0:0:
504,180,115141,1,0,0:0:0:0:
448,176,115238,6,0,L|397:202,1,53.9999983520508
345,201,115431,2,0,L|294:175,1,53.9999983520508
241,178,115625,2,0,L|190:204,1,53.9999983520508
149,255,115818,2,0,P|134:277|111:291,1,53.9999983520508
58,259,116012,2,0,P|36:244|22:221,1,53.9999983520508
46,164,116206,5,0,0:0:0:0:
66,113,116303,1,0,0:0:0:0:
105,76,116399,1,0,0:0:0:0:
152,49,116496,1,0,0:0:0:0:
203,32,116593,1,0,0:0:0:0:
257,27,116690,1,0,0:0:0:0:
310,34,116786,1,0,0:0:0:0:
361,52,116883,1,0,0:0:0:0:
407,81,116980,1,0,0:0:0:0:
445,118,117077,1,0,0:0:0:0:
475,164,117173,1,0,0:0:0:0:
494,214,117270,1,0,0:0:0:0:
497,268,117367,1,0,0:0:0:0:
473,316,117465,1,0,0:0:0:0:
426,341,117561,1,0,0:0:0:0:
373,353,117658,1,0,0:0:0:0:
319,356,117755,5,0,0:0:0:0:
266,350,117852,1,0,0:0:0:0:
214,335,117948,1,0,0:0:0:0:
166,311,118045,1,0,0:0:0:0:
122,280,118142,1,0,0:0:0:0:
84,241,118239,1,0,0:0:0:0:
75,188,118335,5,0,0:0:0:0:
106,144,118431,1,0,0:0:0:0:
138,101,118528,5,0,0:0:0:0:
176,139,118625,1,0,0:0:0:0:
215,176,118722,5,0,0:0:0:0:
244,131,118818,1,0,0:0:0:0:
273,86,118915,5,0,0:0:0:0:
314,122,119012,1,0,0:0:0:0:
354,158,119109,5,0,0:0:0:0:
393,119,119206,1,0,0:0:0:0:
435,85,119302,5,0,0:0:0:0:
453,138,119400,1,0,0:0:0:0:
447,192,119496,1,0,0:0:0:0:
435,245,119593,1,0,0:0:0:0:
411,293,119690,1,0,0:0:0:0:
373,331,119787,1,0,0:0:0:0:
325,355,119883,1,0,0:0:0:0:
273,364,119980,1,0,0:0:0:0:
221,373,120077,1,0,0:0:0:0:
167,372,120174,1,0,0:0:0:0:
114,368,120270,1,0,0:0:0:0:
59,362,120367,1,0,0:0:0:0:
7,349,120464,6,0,P|-8:326|5:298,1,53.9999983520508
69,177,120657,2,0,P|83:200|70:228,1,53.9999983520508
33,261,120851,5,0,0:0:0:0:
68,304,120948,1,0,0:0:0:0:
111,336,121044,1,0,0:0:0:0:
160,356,121141,1,0,0:0:0:0:
214,363,121238,1,0,0:0:0:0:
267,356,121335,1,0,0:0:0:0:
317,336,121431,1,0,0:0:0:0:
360,303,121528,1,0,0:0:0:0:
394,261,121625,1,0,0:0:0:0:
415,212,121722,1,0,0:0:0:0:
424,159,121818,1,0,0:0:0:0:
418,105,121915,1,0,0:0:0:0:
399,55,122012,1,0,0:0:0:0:
351,29,122110,1,0,0:0:0:0:
300,20,122206,1,0,0:0:0:0:
247,23,122303,1,0,0:0:0:0:
196,36,122400,5,0,0:0:0:0:
244,60,122496,1,0,0:0:0:0:
298,64,122593,1,0,0:0:0:0:
352,60,122690,1,0,0:0:0:0:
406,66,122787,1,0,0:0:0:0:
453,92,122883,1,0,0:0:0:0:
471,143,122980,1,0,0:0:0:0:
467,198,123077,1,0,0:0:0:0:
454,251,123174,1,0,0:0:0:0:
435,301,123270,1,0,0:0:0:0:
392,333,123367,1,0,0:0:0:0:
338,342,123464,1,0,0:0:0:0:
284,346,123561,1,0,0:0:0:0:
230,343,123658,1,0,0:0:0:0:
178,330,123754,1,0,0:0:0:0:
129,306,123851,1,0,0:0:0:0:
88,272,123948,5,0,0:0:0:0:
55,229,124045,1,0,0:0:0:0:
31,181,124141,1,0,0:0:0:0:
24,126,124239,1,0,0:0:0:0:
36,72,124336,1,0,0:0:0:0:
72,32,124432,1,0,0:0:0:0:
126,37,124528,6,0,L|180:29,1,53.9999983520508
237,75,124722,2,0,L|183:83,1,53.9999983520508
132,146,124915,2,0,L|189:138,1,53.9999983520508
286,173,125109,2,0,L|232:180,1,53.9999983520508
75,98,125302,2,0,L|130:90,1,53.9999983520508
271,37,125496,5,0,0:0:0:0:
325,32,125594,1,0,0:0:0:0:
376,39,125690,1,0,0:0:0:0:
423,65,125787,1,0,0:0:0:0:
453,109,125884,1,0,0:0:0:0:
461,161,125981,1,0,0:0:0:0:
435,208,126077,1,0,0:0:0:0:
388,235,126174,1,0,0:0:0:0:
337,250,126270,1,0,0:0:0:0:
284,263,126367,1,0,0:0:0:0:
230,268,126463,1,0,0:0:0:0:
176,269,126560,1,0,0:0:0:0:
128,247,126657,1,0,0:0:0:0:
119,195,126754,1,0,0:0:0:0:
157,159,126850,1,0,0:0:0:0:
209,166,126947,1,0,0:0:0:0:
263,170,127044,5,0,0:0:0:0:
318,175,127142,1,0,0:0:0:0:
371,170,127239,1,0,0:0:0:0:
420,148,127335,1,0,0:0:0:0:
463,114,127432,1,0,0:0:0:0:
496,72,127529,1,0,0:0:0:0:
483,20,127625,6,0,L|431:4,1,53.9999983520508
390,50,127818,2,0,L|441:65,1,53.9999983520508
483,20,128012,2,0,L|431:4,1,53.9999983520508
390,50,128206,2,0,L|441:65,1,53.9999983520508
483,20,128399,2,0,L|431:4,1,53.9999983520508
350,12,128593,5,0,0:0:0:0:
327,61,128690,1,0,0:0:0:0:
279,85,128786,1,0,0:0:0:0:
225,83,128883,1,0,0:0:0:0:
171,82,128980,1,0,0:0:0:0:
117,84,129076,1,0,0:0:0:0:
71,112,129173,1,0,0:0:0:0:
44,158,129270,1,0,0:0:0:0:
42,212,129367,1,0,0:0:0:0:
65,260,129463,1,0,0:0:0:0:
108,291,129560,1,0,0:0:0:0:
161,299,129657,1,0,0:0:0:0:
212,279,129755,1,0,0:0:0:0:
259,252,129852,1,0,0:0:0:0:
311,238,129948,1,0,0:0:0:0:
365,233,130045,1,0,0:0:0:0:
418,219,130142,5,0,0:0:0:0:
458,182,130239,1,0,0:0:0:0:
480,134,130335,1,0,0:0:0:0:
473,81,130432,1,0,0:0:0:0:
434,43,130529,1,0,0:0:0:0:
380,36,130626,1,0,0:0:0:0:
326,38,130722,6,0,P|289:56|290:87,1,53.9999983520508
230,38,130915,2,0,P|199:71|198:83,1,53.9999983520508
137,62,131109,2,0,P|113:103|118:122,1,53.9999983520508
130,197,131302,2,0,P|148:229|182:231,1,53.9999983520508
307,243,131496,2,0,P|337:237|351:195,1,53.9999983520508
319,136,131689,5,0,0:0:0:0:
274,168,131787,1,0,0:0:0:0:
252,217,131883,1,0,0:0:0:0:
244,270,131980,1,0,0:0:0:0:
259,321,132077,1,0,0:0:0:0:
308,345,132174,1,0,0:0:0:0:
360,335,132270,1,0,0:0:0:0:
398,297,132367,1,0,0:0:0:0:
419,247,132464,1,0,0:0:0:0:
438,196,132561,1,0,0:0:0:0:
448,143,132657,1,0,0:0:0:0:
451,89,132754,1,0,0:0:0:0:
458,35,132851,6,0,P|440:12|416:13,1,53.9999983520508
235,2,133044,2,0,P|253:25|277:24,1,53.9999983520508
352,46,133239,1,0,0:0:0:0:
361,99,133335,1,0,0:0:0:0:
360,153,133432,1,0,0:0:0:0:
356,207,133529,1,0,0:0:0:0:
344,260,133626,1,0,0:0:0:0:
311,302,133722,1,0,0:0:0:0:
264,330,133819,1,0,0:0:0:0:
210,339,133916,1,0,0:0:0:0:
153,342,134013,5,0,0:0:0:0:
108,312,134110,1,0,0:0:0:0:
81,265,134206,1,0,0:0:0:0:
80,211,134303,1,0,0:0:0:0:
100,160,134400,5,0,0:0:0:0:
154,160,134497,1,0,0:0:0:0:
208,160,134593,1,0,0:0:0:0:
262,163,134690,1,0,0:0:0:0:
314,147,134787,5,0,0:0:0:0:
269,117,134883,1,0,0:0:0:0:
245,68,134980,1,0,0:0:0:0:
270,20,135077,1,0,0:0:0:0:
324,14,135174,1,0,0:0:0:0:
366,47,135270,1,0,0:0:0:0:
393,94,135367,1,0,0:0:0:0:
420,141,135464,1,0,0:0:0:0:
435,193,135561,1,0,0:0:0:0:
441,246,135657,1,0,0:0:0:0:
432,300,135754,1,0,0:0:0:0:
389,332,135851,1,0,0:0:0:0:
336,341,135948,1,0,0:0:0:0:
286,324,136044,1,0,0:0:0:0:
249,285,136141,1,0,0:0:0:0:
233,234,136238,1,0,0:0:0:0:
216,182,136336,5,0,0:0:0:0:
236,131,136432,1,0,0:0:0:0:
275,94,136529,1,0,0:0:0:0:
320,65,136626,1,0,0:0:0:0:
373,55,136723,1,0,0:0:0:0:
425,66,136819,1,0,0:0:0:0:
464,104,136916,1,0,0:0:0:0:
480,155,137012,1,0,0:0:0:0:
483,208,137109,1,0,0:0:0:0:
475,262,137206,1,0,0:0:0:0:
457,313,137303,1,0,0:0:0:0:
417,349,137399,1,0,0:0:0:0:
364,360,137497,1,0,0:0:0:0:
311,363,137593,1,0,0:0:0:0:
258,358,137690,1,0,0:0:0:0:
211,331,137787,1,0,0:0:0:0:
176,292,137884,5,0,0:0:0:0:
229,291,137980,1,0,0:0:0:0:
283,286,138077,1,0,0:0:0:0:
335,272,138174,1,0,0:0:0:0:
384,248,138271,1,0,0:0:0:0:
423,212,138367,1,0,0:0:0:0:
448,164,138464,1,0,0:0:0:0:
451,110,138561,1,0,0:0:0:0:
434,58,138658,1,0,0:0:0:0:
389,28,138754,1,0,0:0:0:0:
335,24,138851,1,0,0:0:0:0:
283,41,138948,1,0,0:0:0:0:
235,67,139044,6,0,L|259:121,1,53.9999983520508
350,174,139238,2,0,L|375:227,1,53.9999983520508
468,231,139431,1,0,0:0:0:0:
454,283,139528,1,0,0:0:0:0:
424,328,139625,1,0,0:0:0:0:
375,352,139722,1,0,0:0:0:0:
335,329,139819,5,0,0:0:0:0:
368,287,139916,1,0,0:0:0:0:
395,240,140013,1,0,0:0:0:0:
417,191,140109,1,0,0:0:0:0:
432,139,140206,6,0,L|373:138,1,53.9999983520508
358,84,140399,2,0,L|301:84,1,53.9999983520508
278,29,140593,2,0,L|218:30,3,53.9999983520508
172,32,140981,5,0,0:0:0:0:
128,64,141077,1,0,0:0:0:0:
97,108,141174,1,0,0:0:0:0:
81,159,141271,1,0,0:0:0:0:
82,213,141368,1,0,0:0:0:0:
99,264,141464,1,0,0:0:0:0:
132,307,141561,1,0,0:0:0:0:
175,338,141658,1,0,0:0:0:0:
192,300,141755,5,0,0:0:0:0:
157,258,141851,1,0,0:0:0:0:
142,207,141948,1,0,0:0:0:0:
149,154,142045,1,0,0:0:0:0:
177,108,142142,1,0,0:0:0:0:
221,77,142238,1,0,0:0:0:0:
276,72,142335,1,0,0:0:0:0:
324,98,142432,1,0,0:0:0:0:
336,150,142529,5,0,0:0:0:0:
388,152,142625,1,0,0:0:0:0:
441,164,142722,1,0,0:0:0:0:
478,204,142819,1,0,0:0:0:0:
487,258,142916,1,0,0:0:0:0:
464,307,143012,1,0,0:0:0:0:
413,326,143109,1,0,0:0:0:0:
359,327,143206,1,0,0:0:0:0:
308,307,143303,1,0,0:0:0:0:
271,268,143399,1,0,0:0:0:0:
226,237,143496,1,0,0:0:0:0:
176,215,143593,1,0,0:0:0:0:
129,187,143690,6,0,L|108:120,1,53.9999983520508
100,48,143884,2,0,L|151:75,1,53.9999983520508
223,102,144077,1,0,0:0:0:0:
268,72,144174,1,0,0:0:0:0:
321,65,144270,1,0,0:0:0:0:
375,66,144367,1,0,0:0:0:0:
426,82,144464,1,0,0:0:0:0:
465,119,144561,1,0,0:0:0:0:
479,170,144657,1,0,0:0:0:0:
487,224,144754,1,0,0:0:0:0:
462,272,144852,5,0,0:0:0:0:
432,226,144948,1,0,0:0:0:0:
402,181,145045,1,0,0:0:0:0:
373,136,145142,1,0,0:0:0:0:
343,91,145239,5,0,0:0:0:0:
337,144,145335,1,0,0:0:0:0:
331,197,145432,1,0,0:0:0:0:
325,251,145529,1,0,0:0:0:0:
318,301,145626,5,0,0:0:0:0:
289,255,145722,1,0,0:0:0:0:
260,210,145819,1,0,0:0:0:0:
231,164,145916,1,0,0:0:0:0:
201,119,146013,5,0,0:0:0:0:
193,172,146110,1,0,0:0:0:0:
186,225,146206,1,0,0:0:0:0:
182,278,146303,1,0,0:0:0:0:
173,330,146400,5,0,0:0:0:0:
147,282,146497,1,0,0:0:0:0:
124,233,146593,1,0,0:0:0:0:
102,183,146690,1,0,0:0:0:0:
75,136,146787,5,0,0:0:0:0:
61,187,146884,1,0,0:0:0:0:
55,240,146981,1,0,0:0:0:0:
47,292,147077,1,0,0:0:0:0:
31,343,147174,5,0,0:0:0:0:
12,293,147270,1,0,0:0:0:0:
20,241,147367,1,0,0:0:0:0:
49,198,147464,1,0,0:0:0:0:
101,184,147561,1,0,0:0:0:0:
155,183,147657,1,0,0:0:0:0:
209,187,147754,1,0,0:0:0:0:
263,192,147851,1,0,0:0:0:0:
316,198,147948,1,0,0:0:0:0:
370,201,148044,1,0,0:0:0:0:
424,197,148141,1,0,0:0:0:0:
473,176,148238,1,0,0:0:0:0:
489,126,148335,1,0,0:0:0:0:
475,74,148432,1,0,0:0:0:0:
432,40,148529,1,0,0:0:0:0:
380,24,148626,1,0,0:0:0:0:
328,24,148723,5,0,0:0:0:0:
380,52,148819,1,0,0:0:0:0:
421,96,148916,1,0,0:0:0:0:
442,153,149013,1,0,0:0:0:0:
427,211,149110,1,0,0:0:0:0:
385,253,149206,1,0,0:0:0:0:
327,267,149303,1,0,0:0:0:0:
272,290,149400,1,0,0:0:0:0:
230,333,149497,1,0,0:0:0:0:
179,364,149594,1,0,0:0:0:0:
121,357,149690,1,0,0:0:0:0:
77,318,149787,1,0,0:0:0:0:
46,268,149884,1,0,0:0:0:0:
47,209,149981,1,0,0:0:0:0:
66,152,150077,1,0,0:0:0:0:
101,103,150174,1,0,0:0:0:0:
167,82,150270,6,0,L|213:82,27,45,0|0|0|0|0|0|0|0|0|0|0|0|0|0|0|0|0|0|0|0|0|0|0|0|0|0|0|0,1:0|2:0|2:0|2:0|2:0|2:0|2:0|2:0|2:0|2:0|2:0|2:0|2:0|2:0|2:0|2:0|2:0|2:0|2:0|2:0|2:0|2:0|2:0|2:0|2:0|2:0|2:0|2:0,2:0:0:0:
261,93,152979,5,0,0:0:0:0:
287,119,153077,1,0,0:0:0:0:
283,155,153173,1,0,0:0:0:0:
257,180,153270,1,0,0:0:0:0:
221,204,153367,6,0,L|184:230,2,45,4|0|4,0:0|0:0|0:0,0:0:0:0:
221,136,153754,5,0,0:0:0:0:
177,129,153851,1,0,0:0:0:0:
138,152,153948,1,0,0:0:0:0:
127,195,154044,2,2,L|162:228,1,45,0|0,0:0|2:0,0:0:0:0:
282,225,154238,2,2,L|317:192,1,45,0|0,0:0|2:0,0:0:0:0:
438,201,154431,1,0,0:0:0:0:
438,201,154528,2,0,L|438:299,2,90
332,126,155109,1,0,0:0:0:0:
200,170,155302,6,0,L|155:170,2,45
278,123,155593,2,2,L|277:66,1,45,0|0,0:0|2:0,0:0:0:0:
278,221,155786,2,2,L|278:271,1,45,0|0,0:0|2:0,0:0:0:0:
323,176,155980,5,0,0:0:0:0:
323,176,156077,1,0,0:0:0:0:
323,176,156174,1,0,0:0:0:0:
323,176,156271,1,0,0:0:0:0:
323,176,156367,1,0,0:0:0:0:
352,213,156464,5,4,0:0:0:0:
361,291,156657,5,0,0:0:0:0:
388,327,156754,1,0,0:0:0:0:
430,342,156851,1,0,0:0:0:0:
471,322,156948,1,0,0:0:0:0:
488,280,157045,1,0,0:0:0:0:
482,235,157141,1,0,0:0:0:0:
476,190,157238,1,0,0:0:0:0:
468,146,157335,1,0,0:0:0:0:
458,102,157432,1,0,0:0:0:0:
443,60,157528,1,0,0:0:0:0:
407,34,157625,1,0,0:0:0:0:
362,30,157722,1,0,0:0:0:0:
318,38,157819,1,0,0:0:0:0:
278,60,157915,1,0,0:0:0:0:
242,88,158012,2,0,L|204:116,3,45
112,186,158399,5,0,0:0:0:0:
114,231,158495,1,0,0:0:0:0:
148,260,158592,1,0,0:0:0:0:
193,259,158689,1,0,0:0:0:0:
236,245,158786,1,0,0:0:0:0:
279,232,158882,1,0,0:0:0:0:
323,222,158979,1,0,0:0:0:0:
367,227,159076,1,0,0:0:0:0:
392,264,159173,1,0,0:0:0:0:
389,309,159269,1,0,0:0:0:0:
359,343,159366,1,0,0:0:0:0:
320,366,159463,1,0,0:0:0:0:
275,364,159560,2,0,L|278:312,3,45
309,195,159948,5,0,0:0:0:0:
326,153,160045,1,0,0:0:0:0:
364,130,160141,1,0,0:0:0:0:
409,128,160238,1,0,0:0:0:0:
439,161,160335,1,0,0:0:0:0:
443,207,160432,1,0,0:0:0:0:
413,242,160529,1,0,0:0:0:0:
373,263,160625,1,0,0:0:0:0:
327,276,160723,1,0,0:0:0:0:
275,268,160819,1,0,0:0:0:0:
221,245,160916,1,0,0:0:0:0:
178,199,161013,1,0,0:0:0:0:
147,141,161110,5,4,0:0:0:0:
19,37,161303,6,0,L|95:37,3,45
207,147,161787,1,0,0:0:0:0:
58,248,161981,1,0,0:0:0:0:
214,345,162174,1,0,0:0:0:0:
214,345,162271,2,2,L|356:345,1,135,0|4,0:0|0:0,0:0:0:0:
394,343,162657,5,0,0:0:0:0:
437,333,162753,1,0,0:0:0:0:
472,305,162850,1,0,0:0:0:0:
491,265,162947,1,0,0:0:0:0:
491,221,163044,1,0,0:0:0:0:
491,176,163141,1,0,0:0:0:0:
479,134,163237,1,0,0:0:0:0:
439,114,163334,1,0,0:0:0:0:
399,132,163431,1,0,0:0:0:0:
365,162,163528,1,0,0:0:0:0:
325,183,163625,1,0,0:0:0:0:
282,199,163722,1,0,0:0:0:0:
236,200,163818,1,0,0:0:0:0:
202,171,163915,1,0,0:0:0:0:
190,128,164011,1,0,0:0:0:0:
204,86,164108,1,0,0:0:0:0:
237,54,164206,2,0,L|282:63,3,45
404,91,164592,5,0,0:0:0:0:
425,130,164689,1,0,0:0:0:0:
433,174,164785,1,0,0:0:0:0:
436,219,164882,1,0,0:0:0:0:
426,263,164979,1,0,0:0:0:0:
404,303,165076,1,0,0:0:0:0:
373,336,165173,1,0,0:0:0:0:
334,358,165269,1,0,0:0:0:0:
289,357,165366,1,0,0:0:0:0:
252,331,165463,1,0,0:0:0:0:
238,288,165560,1,0,0:0:0:0:
252,245,165656,1,0,0:0:0:0:
282,210,165754,2,0,L|240:177,3,45
99,136,166142,5,0,0:0:0:0:
55,146,166239,1,0,0:0:0:0:
22,176,166335,1,0,0:0:0:0:
6,219,166432,1,0,0:0:0:0:
9,264,166529,1,0,0:0:0:0:
34,301,166626,1,0,0:0:0:0:
75,320,166722,1,0,0:0:0:0:
119,331,166819,1,0,0:0:0:0:
164,333,166916,1,0,0:0:0:0:
216,331,167013,1,0,0:0:0:0:
272,326,167109,1,0,0:0:0:0:
335,316,167207,1,0,0:0:0:0:
398,294,167302,5,2,0:0:0:0:
472,184,167689,5,0,0:0:0:0:
469,138,167786,1,0,0:0:0:0:
459,94,167884,1,0,0:0:0:0:
428,61,167980,1,0,0:0:0:0:
382,57,168077,1,0,0:0:0:0:
341,73,168174,1,0,0:0:0:0:
300,93,168271,1,0,0:0:0:0:
258,108,168367,1,0,0:0:0:0:
214,120,168464,1,0,0:0:0:0:
170,125,168560,1,0,0:0:0:0:
126,131,168657,1,0,0:0:0:0:
82,132,168754,1,0,0:0:0:0:
37,132,168851,2,0,L|36:181,3,45,8|0|0|0,0:0|0:0|0:0|0:0,0:0:0:0:
41,334,169238,5,0,0:0:0:0:
86,326,169335,1,0,0:0:0:0:
124,304,169431,1,0,0:0:0:0:
159,276,169528,1,0,0:0:0:0:
187,242,169625,1,0,0:0:0:0:
209,202,169722,1,0,0:0:0:0:
219,158,169818,1,0,0:0:0:0:
217,113,169915,1,0,0:0:0:0:
206,69,170012,1,0,0:0:0:0:
181,32,170108,1,0,0:0:0:0:
142,9,170205,1,0,0:0:0:0:
97,6,170302,1,0,0:0:0:0:
52,11,170399,2,0,L|51:61,3,45
92,73,170785,5,0,0:0:0:0:
122,107,170882,1,0,0:0:0:0:
146,145,170979,1,0,0:0:0:0:
151,190,171076,1,0,0:0:0:0:
133,231,171172,1,0,0:0:0:0:
100,262,171269,1,0,0:0:0:0:
54,264,171367,1,0,0:0:0:0:
20,234,171464,1,0,0:0:0:0:
6,191,171560,1,0,0:0:0:0:
7,146,171657,1,0,0:0:0:0:
38,114,171754,1,0,0:0:0:0:
83,106,171851,1,0,0:0:0:0:
128,110,171948,2,0,L|178:118,3,45
218,123,172335,5,0,0:0:0:0:
261,133,172431,1,0,0:0:0:0:
299,157,172528,1,0,0:0:0:0:
326,193,172625,1,0,0:0:0:0:
335,237,172722,1,0,0:0:0:0:
330,282,172819,1,0,0:0:0:0:
309,322,172916,1,0,0:0:0:0:
268,340,173013,1,0,0:0:0:0:
223,336,173109,1,0,0:0:0:0:
176,320,173206,1,0,0:0:0:0:
132,288,173302,1,0,0:0:0:0:
93,241,173399,1,0,0:0:0:0:
61,181,173496,5,4,0:0:0:0:
73,40,173690,5,0,0:0:0:0:
118,42,173787,1,0,0:0:0:0:
149,75,173884,1,0,0:0:0:0:
153,121,173981,1,0,0:0:0:0:
228,117,174174,2,0,L|336:117,1,90
432,184,174560,1,0,0:0:0:0:
432,184,174657,2,0,L|333:186,1,90
140,191,175044,5,4,0:0:0:0:
117,110,175431,5,0,0:0:0:0:
41,224,175625,1,0,0:0:0:0:
199,110,175818,1,0,0:0:0:0:
180,245,176012,1,0,0:0:0:0:
313,110,176206,1,0,0:0:0:0:
332,245,176400,1,0,0:0:0:0:
395,110,176593,1,0,0:0:0:0:
471,224,176786,2,0,B|420:167|329:213|302:130,3,180
285,115,178044,1,0,0:0:0:0:
264,75,178141,1,0,0:0:0:0:
267,181,178528,5,0,0:0:0:0:
114,181,178722,1,0,0:0:0:0:
81,283,178915,1,0,0:0:0:0:
234,283,179109,1,0,0:0:0:0:
268,384,179302,1,0,0:0:0:0:
115,384,179496,1,0,0:0:0:0:
0,382,179689,5,0,0:0:0:0:
1,353,179786,1,0,2:0:0:0:
2,324,179883,1,0,2:0:0:0:
3,295,179980,1,0,2:0:0:0:
54,287,180077,5,0,0:0:0:0:
55,258,180174,1,0,2:0:0:0:
56,229,180271,1,0,2:0:0:0:
57,200,180368,1,0,2:0:0:0:
109,196,180464,5,0,0:0:0:0:
110,167,180561,1,0,2:0:0:0:
111,138,180658,1,0,2:0:0:0:
112,109,180755,1,0,2:0:0:0:
163,106,180851,5,0,0:0:0:0:
164,77,180948,1,0,2:0:0:0:
165,48,181045,1,0,2:0:0:0:
166,19,181142,1,0,2:0:0:0:
216,21,181238,2,0,B|247:24|247:24|276:126,1,135,0|0,0:0|2:0,0:0:0:0:
297,216,181625,5,0,0:0:0:0:
420,199,181818,2,0,P|308:341|171:212,1,405
166,164,182786,6,0,L|218:157,1,45,0|0,0:0|2:0,0:0:0:0:
401,93,182980,2,0,L|336:84,1,45,0|0,0:0|2:0,0:0:0:0:
206,32,183173,2,0,L|261:10,1,45,0|0,0:0|2:0,0:0:0:0:
456,8,183367,2,0,L|432:51,1,45,0|0,0:0|2:0,0:0:0:0:
327,183,183560,2,0,L|349:231,1,45,0|0,0:0|2:0,0:0:0:0:
507,239,183754,5,0,0:0:0:0:
496,80,183948,1,0,0:0:0:0:
379,176,184141,1,0,0:0:0:0:
188,16,184335,2,0,P|124:54|98:151,1,180
107,214,184915,2,0,B|384:239|411:81,1,360,0|0,0:0|2:0,0:0:0:0:
414,2,185883,5,0,0:0:0:0:
365,47,185980,1,0,0:0:0:0:
175,99,186270,5,0,0:0:0:0:
119,284,186464,1,0,0:0:0:0:
258,95,186657,5,0,0:0:0:0:
258,289,186851,1,0,0:0:0:0:
357,93,187044,5,0,0:0:0:0:
401,285,187238,1,0,0:0:0:0:
192,191,187431,1,0,0:0:0:0:
192,191,187528,1,0,0:0:0:0:
192,191,187625,1,0,0:0:0:0:
376,190,187818,6,0,P|336:109|296:95,1,135
232,77,188206,2,0,L|174:46,1,45
87,95,188399,2,0,L|56:152,1,45
108,239,188593,2,0,L|165:269,1,45
253,221,188786,2,0,L|283:163,1,45
249,113,188980,6,0,P|169:123|153:173,1,135,0|0,0:0|2:0,0:0:0:0:
202,261,189367,2,0,P|242:288|282:290,1,90
374,274,189754,1,0,0:0:0:0:
417,192,189947,1,0,0:0:0:0:
390,157,190044,1,0,0:0:0:0:
355,129,190141,1,0,0:0:0:0:
314,110,190237,1,0,0:0:0:0:
270,100,190334,1,0,0:0:0:0:
225,101,190431,1,0,0:0:0:0:
182,113,190528,1,0,0:0:0:0:
77,320,190915,6,0,L|110:279,1,45
77,201,191109,2,0,L|110:242,1,45
126,319,191302,2,0,L|159:278,1,45
126,200,191496,2,0,L|159:241,1,45
218,262,191689,2,0,L|268:261,1,45
318,262,191883,5,0,0:0:0:0:
344,225,191980,1,0,0:0:0:0:
360,183,192077,1,0,0:0:0:0:
364,138,192173,1,0,0:0:0:0:
359,93,192270,1,0,0:0:0:0:
352,49,192367,1,0,0:0:0:0:
339,6,192464,5,0,0:0:0:0:
302,31,192560,1,0,0:0:0:0:
276,68,192657,1,0,0:0:0:0:
269,112,192754,1,0,0:0:0:0:
258,156,192851,5,0,0:0:0:0:
217,136,192948,1,0,0:0:0:0:
191,100,193044,1,0,0:0:0:0:
174,58,193141,1,0,0:0:0:0:
155,17,193238,5,0,0:0:0:0:
120,46,193335,1,0,0:0:0:0:
101,87,193431,1,0,0:0:0:0:
92,131,193528,2,0,L|84:182,1,45,0|2,0:0|0:0,0:0:0:0:
27,384,194012,6,0,L|141:312,1,135
106,267,194399,2,0,L|151:238,1,45,0|0,0:0|0:0,0:0:0:0:
210,304,194592,2,0,L|255:275,1,45,0|0,0:0|0:0,0:0:0:0:
244,190,194786,2,0,L|289:161,1,45,0|0,0:0|0:0,0:0:0:0:
347,230,194980,2,0,L|394:197,1,45,0|0,0:0|0:0,0:0:0:0:
362,113,195173,2,0,L|407:84,3,45
478,97,195560,1,0,0:0:0:0:
462,25,195754,2,0,B|262:32|309:172,1,225
363,223,196335,2,0,P|422:206|464:147,1,135
495,90,196722,5,0,0:0:0:0:
459,62,196819,1,0,0:0:0:0:
419,41,196916,1,0,0:0:0:0:
377,26,197013,1,0,0:0:0:0:
332,19,197110,1,0,0:0:0:0:
287,18,197206,1,0,0:0:0:0:
243,25,197303,1,0,0:0:0:0:
200,38,197400,1,0,0:0:0:0:
160,59,197497,1,0,0:0:0:0:
124,85,197593,1,0,0:0:0:0:
92,117,197690,1,0,0:0:0:0:
66,154,197787,1,0,0:0:0:0:
53,198,197884,1,0,0:0:0:0:
50,243,197980,1,0,0:0:0:0:
65,285,198077,5,0,0:0:0:0:
107,267,198174,1,0,0:0:0:0:
150,256,198271,1,0,0:0:0:0:
195,250,198367,1,0,0:0:0:0:
240,251,198464,1,0,0:0:0:0:
284,241,198561,1,0,0:0:0:0:
326,225,198658,1,0,0:0:0:0:
367,207,198754,1,0,0:0:0:0:
409,191,198851,1,0,0:0:0:0:
453,201,198948,5,0,0:0:0:0:
481,236,199044,1,0,0:0:0:0:
483,281,199141,1,0,0:0:0:0:
467,323,199238,1,0,0:0:0:0:
428,345,199335,1,0,0:0:0:0:
383,353,199432,1,0,0:0:0:0:
338,347,199529,1,0,0:0:0:0:
300,322,199625,1,0,0:0:0:0:
271,288,199722,1,0,0:0:0:0:
252,247,199818,6,0,L|302:229,1,45,2|0,0:0|0:0,0:0:0:0:
394,247,200012,2,0,L|336:226,1,45
252,190,200206,6,0,L|302:172,1,45
394,190,200400,2,0,L|336:169,1,45
339,122,200593,1,0,0:0:0:0:
296,108,200690,1,0,0:0:0:0:
251,100,200786,1,0,0:0:0:0:
206,103,200883,1,0,0:0:0:0:
163,115,200980,1,0,0:0:0:0:
124,138,201077,1,0,0:0:0:0:
119,184,201173,6,0,L|119:242,1,45
223,184,201367,2,0,L|223:240,1,45
502,259,201754,2,0,L|502:201,1,45
398,259,201948,2,0,L|398:203,5,45
484,214,202528,5,0,0:0:0:0:
459,173,202624,1,0,0:0:0:0:
435,133,202721,1,0,0:0:0:0:
410,92,202818,1,0,0:0:0:0:
387,51,202915,5,0,0:0:0:0:
362,91,203011,1,0,0:0:0:0:
338,131,203108,1,0,0:0:0:0:
313,172,203205,1,0,0:0:0:0:
285,210,203302,5,0,0:0:0:0:
260,169,203398,1,0,0:0:0:0:
236,129,203495,1,0,0:0:0:0:
211,88,203592,1,0,0:0:0:0:
187,47,203689,5,0,0:0:0:0:
162,87,203785,1,0,0:0:0:0:
138,127,203882,1,0,0:0:0:0:
113,168,203979,1,0,0:0:0:0:
82,204,204077,5,0,0:0:0:0:
57,163,204173,1,0,0:0:0:0:
33,123,204270,1,0,0:0:0:0:
8,82,204367,1,0,0:0:0:0:
7,34,204464,5,0,0:0:0:0:
41,66,204560,1,0,0:0:0:0:
83,89,204657,1,0,0:0:0:0:
124,113,204754,1,0,0:0:0:0:
170,124,204851,1,0,0:0:0:0:
217,118,204947,1,0,0:0:0:0:
254,90,205043,1,0,0:0:0:0:
295,67,205140,5,0,0:0:0:0:
327,32,205237,1,0,0:0:0:0:
368,10,205334,1,0,0:0:0:0:
415,13,205431,1,0,0:0:0:0:
456,36,205528,1,0,0:0:0:0:
485,74,205625,1,0,0:0:0:0:
501,118,205722,1,0,0:0:0:0:
504,165,205818,1,0,0:0:0:0:
500,212,205915,1,0,0:0:0:0:
485,257,206012,1,0,0:0:0:0:
464,300,206109,1,0,0:0:0:0:
431,333,206205,1,0,0:0:0:0:
386,349,206303,1,0,0:0:0:0:
331,362,206400,5,4,0:0:0:0:
322,314,206497,1,0,0:0:0:0:
314,267,206594,1,0,0:0:0:0:
309,221,206690,1,0,0:0:0:0:
295,176,206786,5,0,0:0:0:0:
267,215,206883,1,0,0:0:0:0:
240,254,206980,1,0,0:0:0:0:
211,291,207077,1,0,0:0:0:0:
170,314,207173,5,0,0:0:0:0:
168,265,207270,1,0,0:0:0:0:
168,217,207367,1,0,0:0:0:0:
166,170,207464,1,0,0:0:0:0:
157,124,207560,5,0,0:0:0:0:
181,84,207656,1,0,0:0:0:0:
220,57,207753,1,0,0:0:0:0:
263,37,207850,1,0,0:0:0:0:
310,29,207947,1,0,0:0:0:0:
357,31,208043,1,0,0:0:0:0:
396,58,208140,1,0,0:0:0:0:
405,105,208237,1,0,0:0:0:0:
382,149,208334,5,0,0:0:0:0:
338,166,208430,1,0,0:0:0:0:
296,189,208527,1,0,0:0:0:0:
253,208,208624,1,0,0:0:0:0:
209,224,208721,1,0,0:0:0:0:
164,238,208818,1,0,0:0:0:0:
124,264,208914,1,0,0:0:0:0:
96,304,209011,1,0,0:0:0:0:
53,342,209109,5,0,0:0:0:0:
18,301,209205,1,0,0:0:0:0:
4,249,209302,1,0,0:0:0:0:
4,195,209399,1,0,0:0:0:0:
28,147,209496,1,0,0:0:0:0:
78,130,209592,1,0,0:0:0:0:
132,133,209689,1,0,0:0:0:0:
185,141,209786,1,0,0:0:0:0:
238,153,209883,1,0,0:0:0:0:
291,165,209979,1,0,0:0:0:0:
344,176,210076,1,0,0:0:0:0:
397,183,210173,1,0,0:0:0:0:
451,179,210270,1,0,0:0:0:0:
495,149,210367,1,0,0:0:0:0:
508,97,210463,1,0,0:0:0:0:
504,43,210560,1,0,0:0:0:0:
480,0,210657,6,0,L|378:1,1,90,2|0,0:0|0:0,0:0:0:0:
287,14,211044,2,0,L|239:14,1,45
138,21,211335,1,0,0:0:0:0:
146,112,211528,5,0,0:0:0:0:
159,136,211625,1,0,0:0:0:0:
172,160,211722,1,0,0:0:0:0:
185,184,211818,1,0,0:0:0:0:
198,208,211915,1,0,0:0:0:0:
211,231,212012,1,0,0:0:0:0:
223,255,212109,1,0,0:0:0:0:
236,279,212205,5,4,0:0:0:0:
434,54,223045,6,2,B|314:246|314:246|224:95|224:95|134:218|134:218|77:149|77:149|43:201,1,675,0|0,0:0|0:0,0:0:0:0:
17,209,224593,5,0,0:0:0:0:
48,258,224690,1,0,0:0:0:0:
97,286,224786,1,0,0:0:0:0:
149,307,224883,1,0,0:0:0:0:
204,320,224980,1,0,0:0:0:0:
260,324,225077,1,0,0:0:0:0:
317,321,225173,1,0,0:0:0:0:
374,308,225270,1,0,0:0:0:0:
424,282,225367,1,0,0:0:0:0:
455,235,225464,1,0,0:0:0:0:
462,180,225560,1,0,0:0:0:0:
462,124,225657,1,0,0:0:0:0:
451,68,225754,1,0,0:0:0:0:
418,23,225851,1,0,0:0:0:0:
363,17,225947,1,0,0:0:0:0:
316,46,226044,1,0,0:0:0:0:
310,101,226142,5,0,0:0:0:0:
303,157,226239,1,0,0:0:0:0:
266,199,226336,1,0,0:0:0:0:
217,227,226432,1,0,0:0:0:0:
161,237,226529,1,0,0:0:0:0:
105,245,226626,1,0,0:0:0:0:
69,287,226722,5,0,0:0:0:0:
110,324,226818,1,0,0:0:0:0:
151,362,226915,5,0,0:0:0:0:
182,316,227012,1,0,0:0:0:0:
213,269,227109,5,0,0:0:0:0:
252,309,227205,1,0,0:0:0:0:
290,350,227302,5,0,0:0:0:0:
322,304,227399,1,0,0:0:0:0:
354,258,227496,5,0,0:0:0:0:
391,300,227592,1,0,0:0:0:0:
445,318,227690,5,0,0:0:0:0:
440,261,227786,1,0,0:0:0:0:
423,207,227883,1,0,0:0:0:0:
393,159,227980,1,0,0:0:0:0:
347,126,228077,1,0,0:0:0:0:
293,111,228173,1,0,0:0:0:0:
237,102,228270,1,0,0:0:0:0:
181,96,228367,1,0,0:0:0:0:
124,95,228464,1,0,0:0:0:0:
71,114,228561,1,0,0:0:0:0:
34,157,228657,1,0,0:0:0:0:
22,212,228754,1,0,0:0:0:0:
28,268,228851,1,0,0:0:0:0:
50,319,228948,1,0,0:0:0:0:
92,357,229045,1,0,0:0:0:0:
147,370,229141,1,0,0:0:0:0:
203,363,229238,5,0,0:0:0:0:
256,344,229335,1,0,0:0:0:0:
298,306,229432,1,0,0:0:0:0:
328,259,229528,1,0,0:0:0:0:
354,210,229625,1,0,0:0:0:0:
377,160,229722,1,0,0:0:0:0:
356,110,229819,6,0,L|313:157,1,56.25
249,137,230012,2,0,L|290:95,1,56.25
306,3,230206,2,0,L|263:50,1,56.25
173,116,230399,2,0,L|214:74,1,56.25
365,22,230593,2,0,L|320:69,1,56.25
273,195,230786,5,0,0:0:0:0:
216,192,230884,1,0,0:0:0:0:
168,164,230980,1,0,0:0:0:0:
168,108,231077,1,0,0:0:0:0:
202,64,231174,1,0,0:0:0:0:
252,45,231271,1,0,0:0:0:0:
308,52,231367,1,0,0:0:0:0:
361,68,231464,1,0,0:0:0:0:
409,97,231561,1,0,0:0:0:0:
441,143,231658,1,0,0:0:0:0:
466,193,231754,6,0,L|405:193,1,56.25
308,193,231948,2,0,L|339:147,1,56.25
444,0,232141,2,0,L|444:61,1,56.25
417,107,232335,1,0,0:0:0:0:
362,99,232432,1,0,0:0:0:0:
306,90,232529,1,0,0:0:0:0:
252,73,232626,1,0,0:0:0:0:
200,52,232722,1,0,0:0:0:0:
148,32,232819,1,0,0:0:0:0:
97,9,232915,6,0,L|64:57,1,56.25
37,109,233109,1,0,0:0:0:0:
30,164,233206,1,0,0:0:0:0:
61,211,233302,1,0,0:0:0:0:
111,235,233399,1,0,0:0:0:0:
168,234,233497,5,0,0:0:0:0:
196,186,233593,1,0,0:0:0:0:
209,131,233690,1,0,0:0:0:0:
212,75,233787,1,0,0:0:0:0:
195,22,233884,5,0,0:0:0:0:
168,71,233980,1,0,0:0:0:0:
156,125,234077,1,0,0:0:0:0:
158,181,234174,1,0,0:0:0:0:
176,234,234271,1,0,0:0:0:0:
207,281,234367,1,0,0:0:0:0:
250,317,234464,1,0,0:0:0:0:
301,340,234561,1,0,0:0:0:0:
357,348,234658,1,0,0:0:0:0:
413,341,234754,1,0,0:0:0:0:
461,312,234852,1,0,0:0:0:0:
480,261,234948,1,0,0:0:0:0:
467,208,235045,1,0,0:0:0:0:
437,160,235142,1,0,0:0:0:0:
395,123,235239,1,0,0:0:0:0:
345,98,235335,1,0,0:0:0:0:
290,87,235432,5,0,0:0:0:0:
234,92,235529,1,0,0:0:0:0:
181,112,235626,1,0,0:0:0:0:
135,142,235722,1,0,0:0:0:0:
91,178,235819,1,0,0:0:0:0:
51,218,235916,1,0,0:0:0:0:
15,263,236012,5,0,0:0:0:0:
66,284,236108,1,0,0:0:0:0:
119,302,236205,5,0,0:0:0:0:
163,267,236302,1,0,0:0:0:0:
208,233,236399,5,0,0:0:0:0:
260,253,236495,1,0,0:0:0:0:
312,273,236592,5,0,0:0:0:0:
357,238,236689,1,0,0:0:0:0:
401,205,236786,5,0,0:0:0:0:
450,232,236882,1,0,0:0:0:0:
505,237,236979,5,0,0:0:0:0:
490,182,237078,1,0,0:0:0:0:
464,132,237174,1,0,0:0:0:0:
416,104,237271,1,0,0:0:0:0:
360,112,237368,1,0,0:0:0:0:
324,156,237465,1,0,0:0:0:0:
281,194,237561,1,0,0:0:0:0:
225,205,237658,1,0,0:0:0:0:
171,190,237755,1,0,0:0:0:0:
119,169,237852,1,0,0:0:0:0:
75,134,237948,1,0,0:0:0:0:
53,82,238045,1,0,0:0:0:0:
62,27,238141,1,0,0:0:0:0:
113,2,238238,1,0,0:0:0:0:
163,30,238336,1,0,0:0:0:0:
168,86,238432,1,0,0:0:0:0:
188,139,238529,5,0,0:0:0:0:
215,189,238626,1,0,0:0:0:0:
248,234,238723,1,0,0:0:0:0:
288,274,238819,1,0,0:0:0:0:
333,307,238916,1,0,0:0:0:0:
382,335,239013,1,0,0:0:0:0:
437,339,239109,6,0,L|447:283,1,56.25
457,235,239302,2,0,L|461:175,1,56.25
464,128,239496,2,0,L|461:71,1,56.25
402,39,239689,1,0,0:0:0:0:
364,82,239786,1,0,0:0:0:0:
354,138,239883,1,0,0:0:0:0:
367,193,239980,1,0,0:0:0:0:
389,246,240077,5,0,0:0:0:0:
352,288,240174,1,0,0:0:0:0:
305,317,240270,1,0,0:0:0:0:
250,331,240367,1,0,0:0:0:0:
194,328,240464,1,0,0:0:0:0:
142,310,240561,1,0,0:0:0:0:
96,277,240657,1,0,0:0:0:0:
63,232,240754,1,0,0:0:0:0:
44,179,240851,1,0,0:0:0:0:
41,123,240948,1,0,0:0:0:0:
59,72,241044,1,0,0:0:0:0:
100,36,241142,1,0,0:0:0:0:
154,21,241238,1,0,0:0:0:0:
209,9,241335,1,0,0:0:0:0:
266,9,241432,1,0,0:0:0:0:
322,17,241529,1,0,0:0:0:0:
378,28,241625,5,0,0:0:0:0:
426,56,241722,1,0,0:0:0:0:
461,99,241819,1,0,0:0:0:0:
480,151,241915,1,0,0:0:0:0:
486,207,242012,1,0,0:0:0:0:
478,263,242109,1,0,0:0:0:0:
443,307,242206,6,0,L|381:292,1,56.25
321,291,242399,2,0,L|256:290,1,56.25
186,300,242593,2,0,L|186:360,1,56.25
263,371,242786,2,0,L|334:371,1,56.25
398,366,242980,2,0,L|460:351,1,56.25
468,244,243173,5,0,0:0:0:0:
432,200,243271,1,0,0:0:0:0:
389,165,243367,1,0,0:0:0:0:
339,138,243464,1,0,0:0:0:0:
286,120,243561,1,0,0:0:0:0:
230,110,243658,1,0,0:0:0:0:
174,105,243754,1,0,0:0:0:0:
118,106,243851,1,0,0:0:0:0:
64,124,243948,1,0,0:0:0:0:
26,167,244045,1,0,0:0:0:0:
18,223,244141,1,0,0:0:0:0:
23,280,244238,1,0,0:0:0:0:
47,331,244335,5,0,0:0:0:0:
103,322,244432,1,0,0:0:0:0:
159,319,244529,1,0,0:0:0:0:
214,325,244625,1,0,0:0:0:0:
271,326,244722,5,0,0:0:0:0:
279,270,244819,1,0,0:0:0:0:
283,214,244916,1,0,0:0:0:0:
280,157,245012,1,0,0:0:0:0:
299,103,245109,1,0,0:0:0:0:
347,75,245206,1,0,0:0:0:0:
403,81,245303,1,0,0:0:0:0:
448,114,245399,1,0,0:0:0:0:
487,160,245496,5,0,0:0:0:0:
470,214,245593,1,0,0:0:0:0:
445,264,245689,1,0,0:0:0:0:
419,314,245786,1,0,0:0:0:0:
393,359,245883,5,0,0:0:0:0:
366,311,245980,1,0,0:0:0:0:
338,262,246076,1,0,0:0:0:0:
310,213,246173,1,0,0:0:0:0:
276,168,246270,5,0,0:0:0:0:
242,212,246366,1,0,0:0:0:0:
237,268,246463,1,0,0:0:0:0:
267,315,246560,1,0,0:0:0:0:
315,344,246657,1,0,0:0:0:0:
370,334,246753,1,0,0:0:0:0:
412,296,246850,1,0,0:0:0:0:
429,242,246947,1,0,0:0:0:0:
425,186,247044,1,0,0:0:0:0:
405,135,247140,1,0,0:0:0:0:
357,107,247237,1,0,0:0:0:0:
301,98,247334,1,0,0:0:0:0:
247,115,247431,1,0,0:0:0:0:
194,135,247528,1,0,0:0:0:0:
139,147,247624,1,0,0:0:0:0:
82,146,247722,1,0,0:0:0:0:
26,168,247819,5,0,0:0:0:0:
26,225,247916,1,0,0:0:0:0:
36,280,248013,1,0,0:0:0:0:
72,321,248109,1,0,0:0:0:0:
123,342,248206,1,0,0:0:0:0:
179,348,248303,1,0,0:0:0:0:
235,346,248400,1,0,0:0:0:0:
289,331,248496,1,0,0:0:0:0:
338,304,248593,1,0,0:0:0:0:
381,267,248690,1,0,0:0:0:0:
425,232,248787,1,0,0:0:0:0:
454,185,248884,1,0,0:0:0:0:
465,132,248980,1,0,0:0:0:0:
453,77,249077,1,0,0:0:0:0:
408,43,249174,1,0,0:0:0:0:
353,30,249271,1,0,0:0:0:0:
296,36,249368,5,0,0:0:0:0:
345,64,249464,1,0,0:0:0:0:
388,100,249561,1,0,0:0:0:0:
421,145,249658,1,0,0:0:0:0:
426,200,249755,1,0,0:0:0:0:
401,250,249851,1,0,0:0:0:0:
361,290,249948,1,0,0:0:0:0:
316,323,250045,1,0,0:0:0:0:
261,338,250142,1,0,0:0:0:0:
205,338,250238,1,0,0:0:0:0:
151,323,250335,1,0,0:0:0:0:
102,295,250432,1,0,0:0:0:0:
64,254,250528,6,0,L|40:194,1,56.25
2,94,250722,2,0,L|64:95,1,56.25
131,88,250915,5,0,0:0:0:0:
175,53,251011,1,0,0:0:0:0:
230,44,251108,1,0,0:0:0:0:
285,58,251206,1,0,0:0:0:0:
334,83,251302,5,0,0:0:0:0:
290,117,251398,1,0,0:0:0:0:
238,138,251495,1,0,0:0:0:0:
183,131,251592,1,0,0:0:0:0:
138,98,251689,5,0,0:0:0:0:
99,138,251785,1,0,0:0:0:0:
84,193,251882,1,0,0:0:0:0:
91,248,251979,1,0,0:0:0:0:
135,285,252076,5,0,0:0:0:0:
175,245,252173,1,0,0:0:0:0:
193,192,252269,1,0,0:0:0:0:
195,136,252366,1,0,0:0:0:0:
184,81,252464,5,0,0:0:0:0:
217,36,252560,1,0,0:0:0:0:
265,7,252657,1,0,0:0:0:0:
321,0,252754,1,0,0:0:0:0:
374,12,252851,1,0,0:0:0:0:
419,45,252947,1,0,0:0:0:0:
448,93,253044,1,0,0:0:0:0:
457,148,253141,1,0,0:0:0:0:
431,199,253239,5,0,0:0:0:0:
386,165,253335,1,0,0:0:0:0:
337,138,253432,1,0,0:0:0:0:
284,117,253529,1,0,0:0:0:0:
231,101,253626,1,0,0:0:0:0:
176,88,253723,1,0,0:0:0:0:
121,77,253819,1,0,0:0:0:0:
65,69,253916,1,0,0:0:0:0:
12,56,254013,5,0,0:0:0:0:
68,44,254109,1,0,0:0:0:0:
123,39,254206,1,0,0:0:0:0:
180,40,254303,1,0,0:0:0:0:
235,48,254400,1,0,0:0:0:0:
290,63,254496,1,0,0:0:0:0:
342,84,254593,1,0,0:0:0:0:
391,111,254690,1,0,0:0:0:0:
437,144,254787,1,0,0:0:0:0:
472,188,254883,1,0,0:0:0:0:
485,244,254981,1,0,0:0:0:0:
480,300,255078,1,0,0:0:0:0:
447,344,255173,6,0,L|416:294,1,56.25
347,193,255367,2,0,L|317:240,1,56.25
260,330,255560,1,0,0:0:0:0:
210,303,255657,1,0,0:0:0:0:
168,265,255754,1,0,0:0:0:0:
128,224,255852,1,0,0:0:0:0:
103,174,255948,1,0,0:0:0:0:
100,117,256045,1,0,0:0:0:0:
128,68,256142,1,0,0:0:0:0:
180,44,256239,1,0,0:0:0:0:
231,63,256335,5,0,0:0:0:0:
203,111,256431,1,0,0:0:0:0:
175,160,256528,1,0,0:0:0:0:
147,209,256625,1,0,0:0:0:0:
119,258,256722,5,0,0:0:0:0:
174,259,256818,1,0,0:0:0:0:
230,260,256915,1,0,0:0:0:0:
287,261,257012,1,0,0:0:0:0:
342,261,257109,5,0,0:0:0:0:
297,228,257205,1,0,0:0:0:0:
252,194,257302,1,0,0:0:0:0:
207,160,257399,1,0,0:0:0:0:
163,127,257496,5,0,0:0:0:0:
165,183,257593,1,0,0:0:0:0:
167,239,257689,1,0,0:0:0:0:
169,296,257786,1,0,0:0:0:0:
170,352,257883,5,0,0:0:0:0:
221,329,257980,1,0,0:0:0:0:
268,301,258076,1,0,0:0:0:0:
317,274,258173,1,0,0:0:0:0:
366,247,258270,5,0,0:0:0:0:
319,215,258367,1,0,0:0:0:0:
268,192,258464,1,0,0:0:0:0:
217,171,258560,1,0,0:0:0:0:
165,147,258658,5,0,0:0:0:0:
192,99,258754,1,0,0:0:0:0:
186,45,258851,1,0,0:0:0:0:
134,24,258948,1,0,0:0:0:0:
80,40,259045,1,0,0:0:0:0:
54,89,259141,1,0,0:0:0:0:
40,143,259238,1,0,0:0:0:0:
37,200,259335,1,0,0:0:0:0:
55,254,259432,1,0,0:0:0:0:
96,293,259528,1,0,0:0:0:0:
150,309,259625,1,0,0:0:0:0:
206,316,259722,1,0,0:0:0:0:
263,316,259819,1,0,0:0:0:0:
319,313,259915,1,0,0:0:0:0:
375,307,260012,1,0,0:0:0:0:
429,291,260109,1,0,0:0:0:0:
469,244,260206,5,0,0:0:0:0:
464,182,260302,1,0,0:0:0:0:
441,125,260398,1,0,0:0:0:0:
399,79,260495,1,0,0:0:0:0:
341,58,260592,1,0,0:0:0:0:
279,53,260689,1,0,0:0:0:0:
218,56,260785,1,0,0:0:0:0:
161,79,260882,1,0,0:0:0:0:
118,123,260979,1,0,0:0:0:0:
90,177,261076,1,0,0:0:0:0:
91,239,261172,1,0,0:0:0:0:
117,294,261269,1,0,0:0:0:0:
171,324,261366,1,0,0:0:0:0:
232,332,261463,1,0,0:0:0:0:
293,322,261560,1,0,0:0:0:0:
351,300,261656,1,0,0:0:0:0:
408,276,261754,6,0,L|408:242,62,28.125,0|0|0|0|0|0|0|0|0|0|0|0|0|0|0|0|0|0|0|0|0|0|0|0|0|0|0|0|0|0|0|0|0|0|0|0|0|0|0|0|0|0|0|0|0|0|0|0|0|0|0|0|0|0|0|0|0|0|0|0|0|0|0,0:0|2:0|2:0|2:0|2:0|2:0|2:0|2:0|2:0|2:0|2:0|2:0|2:0|2:0|2:0|2:0|2:0|2:0|2:0|2:0|2:0|2:0|2:0|2:0|2:0|2:0|2:0|2:0|2:0|2:0|2:0|2:0|2:0|2:0|2:0|2:0|2:0|2:0|2:0|2:0|2:0|2:0|2:0|2:0|2:0|2:0|2:0|2:0|2:0|2:0|2:0|2:0|2:0|2:0|2:0|2:0|2:0|2:0|2:0|2:0|2:0|2:0|2:0,2:0:0:0:
256,116,273755,5,0,2:0:0:0:
256,164,273852,1,0,2:0:0:0:
256,212,273949,1,0,2:0:0:0:
256,256,274045,1,0,2:0:0:0:
208,256,274142,6,0,P|140:224|80:236,2,135
304,256,274916,2,0,P|372:224|432:236,2,135
208,320,275690,2,0,P|140:352|80:340,2,135
304,320,276464,2,0,P|372:352|432:340,2,135
196,284,277238,5,0,0:0:0:0:
196,89,277528,1,0,0:0:0:0:
365,186,277818,1,0,0:0:0:0:
309,89,278012,5,0,0:0:0:0:
309,284,278302,1,0,0:0:0:0:
140,187,278592,1,0,0:0:0:0:
204,232,278787,5,0,0:0:0:0:
244,212,278884,1,0,0:0:0:0:
284,192,278981,1,0,0:0:0:0:
320,168,279078,1,0,0:0:0:0:
320,116,279174,5,0,0:0:0:0:
280,96,279271,1,0,0:0:0:0:
240,76,279368,1,0,0:0:0:0:
200,56,279465,1,0,0:0:0:0:
156,48,279561,6,0,L|16:48,2,135
361,49,280335,5,0,0:0:0:0:
461,302,280625,1,0,0:0:0:0:
361,49,280915,1,0,0:0:0:0:
211,49,281109,1,0,0:0:0:0:
111,302,281399,1,0,0:0:0:0:
211,49,281689,1,0,0:0:0:0:
64,44,281884,5,0,0:0:0:0:
329,143,282174,1,0,0:0:0:0:
103,316,282465,1,0,0:0:0:0:
300,318,282658,1,0,0:0:0:0:
0,160,282949,1,0,0:0:0:0:
304,15,283239,1,0,0:0:0:0:
256,192,283431,1,0,0:0:0:0:
256,192,283528,12,0,286141,0:0:0:0:
156,352,297368,6,2,B|349:243|349:243|182:168|182:168|290:111|290:111|207:65|207:65|253:35|253:35,1,675,0|0,0:0|0:0,0:0:0:0:
296,11,298915,5,0,0:0:0:0:
345,27,299013,1,0,0:0:0:0:
378,65,299109,1,0,0:0:0:0:
395,112,299206,1,0,0:0:0:0:
402,161,299303,1,0,0:0:0:0:
401,210,299400,1,0,0:0:0:0:
395,259,299496,1,0,0:0:0:0:
384,307,299593,1,0,0:0:0:0:
348,341,299690,1,0,0:0:0:0:
300,352,299787,1,0,0:0:0:0:
251,356,299883,1,0,0:0:0:0:
204,341,299980,1,0,0:0:0:0:
166,310,300077,1,0,0:0:0:0:
134,272,300174,1,0,0:0:0:0:
109,229,300271,1,0,0:0:0:0:
87,184,300367,1,0,0:0:0:0:
103,137,300464,5,0,0:0:0:0:
152,132,300561,1,0,0:0:0:0:
196,156,300658,1,0,0:0:0:0:
236,184,300754,1,0,0:0:0:0:
276,212,300851,1,0,0:0:0:0:
324,208,300948,1,0,0:0:0:0:
363,178,301044,6,0,L|415:154,1,49.5000015106202
443,199,301238,2,0,L|390:222,1,49.5000015106202
363,178,301431,2,0,L|415:154,1,49.5000015106202
443,199,301625,2,0,L|390:222,1,49.5000015106202
363,178,301819,2,0,L|415:154,1,49.5000015106202
503,155,302012,5,0,0:0:0:0:
503,204,302108,1,0,0:0:0:0:
480,247,302205,1,0,0:0:0:0:
442,278,302302,1,0,0:0:0:0:
397,298,302399,1,0,0:0:0:0:
349,311,302495,1,0,0:0:0:0:
300,319,302592,1,0,0:0:0:0:
250,317,302690,1,0,0:0:0:0:
209,291,302787,1,0,0:0:0:0:
181,250,302884,1,0,0:0:0:0:
180,201,302980,1,0,0:0:0:0:
199,156,303077,1,0,0:0:0:0:
230,117,303174,1,0,0:0:0:0:
237,68,303271,1,0,0:0:0:0:
201,34,303368,1,0,0:0:0:0:
151,38,303464,1,0,0:0:0:0:
109,66,303561,5,0,0:0:0:0:
72,98,303658,1,0,0:0:0:0:
43,139,303755,1,0,0:0:0:0:
32,188,303852,1,0,0:0:0:0:
32,236,303949,1,0,0:0:0:0:
32,284,304045,1,0,0:0:0:0:
48,331,304141,6,0,L|97:339,1,49.5000015106202
154,350,304335,2,0,L|203:355,1,49.5000015106202
260,358,304528,2,0,L|313:356,1,49.5000015106202
359,308,304722,2,0,L|309:283,1,49.5000015106202
210,284,304915,2,0,L|164:261,1,49.5000015106202
76,224,305109,5,0,0:0:0:0:
98,179,305205,1,0,0:0:0:0:
125,138,305302,1,0,0:0:0:0:
158,101,305399,1,0,0:0:0:0:
198,72,305496,1,0,0:0:0:0:
244,74,305592,1,0,0:0:0:0:
274,111,305689,1,0,0:0:0:0:
281,160,305786,1,0,0:0:0:0:
300,205,305883,1,0,0:0:0:0:
334,241,305979,1,0,0:0:0:0:
375,269,306076,1,0,0:0:0:0:
425,279,306173,1,0,0:0:0:0:
476,281,306270,6,0,P|490:264|496:238,1,49.5000015106202
512,146,306464,2,0,P|500:127|474:118,1,49.5000015106202
395,142,306658,1,0,0:0:0:0:
346,149,306755,1,0,0:0:0:0:
300,166,306852,1,0,0:0:0:0:
256,189,306948,1,0,0:0:0:0:
215,217,307045,1,0,0:0:0:0:
179,251,307142,1,0,0:0:0:0:
147,295,307238,6,0,L|148:350,1,49.5000015106202
216,362,307431,2,0,L|216:310,3,49.5000015106202
228,272,307819,5,0,0:0:0:0:
268,240,307916,1,0,0:0:0:0:
304,204,308013,1,0,0:0:0:0:
336,164,308110,1,0,0:0:0:0:
337,115,308206,5,0,0:0:0:0:
289,100,308302,1,0,0:0:0:0:
241,90,308399,1,0,0:0:0:0:
191,86,308496,1,0,0:0:0:0:
143,93,308593,1,0,0:0:0:0:
102,120,308689,1,0,0:0:0:0:
81,164,308786,1,0,0:0:0:0:
79,213,308883,1,0,0:0:0:0:
88,262,308980,1,0,0:0:0:0:
117,303,309077,1,0,0:0:0:0:
157,331,309173,1,0,0:0:0:0:
206,339,309270,1,0,0:0:0:0:
256,337,309368,1,0,0:0:0:0:
304,325,309465,1,0,0:0:0:0:
346,300,309561,1,0,0:0:0:0:
383,268,309657,1,0,0:0:0:0:
394,219,309754,5,0,0:0:0:0:
356,188,309851,1,0,0:0:0:0:
306,183,309948,1,0,0:0:0:0:
258,196,310044,1,0,0:0:0:0:
211,215,310141,1,0,0:0:0:0:
163,227,310238,1,0,0:0:0:0:
120,200,310336,5,0,0:0:0:0:
140,156,310432,1,0,0:0:0:0:
172,116,310529,5,0,0:0:0:0:
196,160,310626,1,0,0:0:0:0:
224,202,310723,5,0,0:0:0:0:
252,162,310819,1,0,0:0:0:0:
286,125,310916,5,0,0:0:0:0:
306,169,311013,1,0,0:0:0:0:
332,211,311110,5,0,0:0:0:0:
361,171,311206,1,0,0:0:0:0:
385,127,311303,5,0,0:0:0:0:
412,169,311400,1,0,0:0:0:0:
406,220,311496,1,0,0:0:0:0:
370,257,311593,1,0,0:0:0:0:
323,275,311690,1,0,0:0:0:0:
274,281,311787,1,0,0:0:0:0:
225,277,311883,1,0,0:0:0:0:
175,271,311980,1,0,0:0:0:0:
130,251,312077,1,0,0:0:0:0:
92,219,312174,1,0,0:0:0:0:
79,172,312270,1,0,0:0:0:0:
108,132,312367,1,0,0:0:0:0:
155,117,312464,1,0,0:0:0:0:
204,108,312561,1,0,0:0:0:0:
252,104,312657,1,0,0:0:0:0:
300,104,312754,1,0,0:0:0:0:
350,105,312851,5,0,0:0:0:0:
397,115,312947,1,0,0:0:0:0:
432,149,313044,1,0,0:0:0:0:
444,197,313141,1,0,0:0:0:0:
430,243,313238,1,0,0:0:0:0:
394,276,313334,1,0,0:0:0:0:
346,288,313431,5,0,0:0:0:0:
320,330,313527,1,0,0:0:0:0:
295,372,313624,5,0,0:0:0:0:
268,331,313721,1,0,0:0:0:0:
241,290,313818,5,0,0:0:0:0:
214,331,313914,1,0,0:0:0:0:
187,372,314011,5,0,0:0:0:0:
159,331,314108,1,0,0:0:0:0:
132,290,314205,5,0,0:0:0:0:
107,332,314301,1,0,0:0:0:0:
85,377,314399,5,0,0:0:0:0:
56,336,314495,1,0,0:0:0:0:
50,287,314592,1,0,0:0:0:0:
80,247,314689,1,0,0:0:0:0:
127,231,314786,1,0,0:0:0:0:
173,246,314882,1,0,0:0:0:0:
219,263,314979,1,0,0:0:0:0:
267,275,315076,1,0,0:0:0:0:
316,279,315173,1,0,0:0:0:0:
364,270,315269,1,0,0:0:0:0:
404,241,315366,1,0,0:0:0:0:
414,194,315463,1,0,0:0:0:0:
387,154,315560,1,0,0:0:0:0:
340,138,315657,1,0,0:0:0:0:
291,140,315753,1,0,0:0:0:0:
243,153,315850,1,0,0:0:0:0:
196,168,315948,5,0,0:0:0:0:
147,174,316045,1,0,0:0:0:0:
102,155,316142,1,0,0:0:0:0:
69,118,316238,1,0,0:0:0:0:
45,75,316335,1,0,0:0:0:0:
38,26,316432,1,0,0:0:0:0:
85,11,316528,6,0,L|137:2,1,49.5000015106202
227,52,316722,2,0,L|175:61,1,49.5000015106202
102,155,316915,2,0,L|154:146,1,49.5000015106202
270,127,317109,2,0,L|218:136,1,49.5000015106202
53,85,317302,2,0,L|105:76,1,49.5000015106202
266,17,317496,5,0,0:0:0:0:
315,12,317593,1,0,0:0:0:0:
365,17,317690,1,0,0:0:0:0:
414,28,317787,1,0,0:0:0:0:
457,52,317883,1,0,0:0:0:0:
492,87,317980,1,0,0:0:0:0:
511,132,318077,1,0,0:0:0:0:
512,181,318174,1,0,0:0:0:0:
494,227,318270,1,0,0:0:0:0:
461,263,318367,1,0,0:0:0:0:
416,284,318464,1,0,0:0:0:0:
367,292,318561,1,0,0:0:0:0:
318,294,318657,6,0,P|317:264|295:243,1,49.5000015106202
244,200,318851,2,0,P|230:220|231:244,1,49.5000015106202
237,337,319044,1,0,0:0:0:0:
188,326,319142,1,0,0:0:0:0:
152,293,319238,1,0,0:0:0:0:
129,249,319335,1,0,0:0:0:0:
120,200,319432,1,0,0:0:0:0:
128,152,319529,1,0,0:0:0:0:
160,116,319625,1,0,0:0:0:0:
200,88,319722,1,0,0:0:0:0:
248,80,319820,5,0,0:0:0:0:
256,128,319916,1,0,0:0:0:0:
268,176,320013,1,0,0:0:0:0:
280,224,320110,1,0,0:0:0:0:
304,268,320207,5,0,0:0:0:0:
331,227,320303,1,0,0:0:0:0:
353,183,320400,1,0,0:0:0:0:
378,140,320497,1,0,0:0:0:0:
416,108,320594,5,0,0:0:0:0:
431,154,320690,1,0,0:0:0:0:
431,204,320787,1,0,0:0:0:0:
419,252,320884,1,0,0:0:0:0:
399,297,320981,1,0,0:0:0:0:
370,336,321077,1,0,0:0:0:0:
326,357,321174,1,0,0:0:0:0:
277,365,321271,1,0,0:0:0:0:
227,366,321368,1,0,0:0:0:0:
178,365,321464,1,0,0:0:0:0:
129,358,321561,1,0,0:0:0:0:
83,340,321658,1,0,0:0:0:0:
45,307,321755,1,0,0:0:0:0:
25,261,321852,1,0,0:0:0:0:
22,212,321948,1,0,0:0:0:0:
34,165,322045,1,0,0:0:0:0:
73,135,322142,5,0,0:0:0:0:
121,146,322239,1,0,0:0:0:0:
167,165,322335,1,0,0:0:0:0:
215,174,322432,1,0,0:0:0:0:
263,164,322529,1,0,0:0:0:0:
301,132,322626,1,0,0:0:0:0:
324,89,322723,1,0,0:0:0:0:
345,46,322819,1,0,0:0:0:0:
391,29,322916,1,0,0:0:0:0:
438,45,323013,1,0,0:0:0:0:
455,91,323110,1,0,0:0:0:0:
450,140,323206,1,0,0:0:0:0:
426,183,323303,1,0,0:0:0:0:
404,228,323400,1,0,0:0:0:0:
409,278,323497,1,0,0:0:0:0:
438,319,323594,1,0,0:0:0:0:
488,320,323690,5,2,0:0:0:0:
481,262,323786,1,0,0:0:0:0:
458,208,323883,1,0,0:0:0:0:
423,162,323980,1,0,0:0:0:0:
376,127,324077,1,0,0:0:0:0:
321,106,324173,1,0,0:0:0:0:
263,101,324270,1,0,0:0:0:0:
206,111,324367,1,0,0:0:0:0:
153,136,324464,1,0,0:0:0:0:
110,175,324560,1,0,0:0:0:0:
78,224,324657,1,0,0:0:0:0:
60,279,324754,1,0,0:0:0:0:
56,336,324852,6,0,L|176:336,2,116.999994644165
80,283,325335,1,0,0:0:0:0:
131,255,325431,1,0,0:0:0:0:
190,250,325528,1,0,0:0:0:0:
241,281,325626,5,0,0:0:0:0:
288,247,325722,1,0,0:0:0:0:
311,194,325819,1,0,0:0:0:0:
288,140,325915,1,0,0:0:0:0:
241,103,326013,2,0,L|105:103,2,116.999994644165
299,136,326497,5,0,0:0:0:0:
347,172,326594,1,0,0:0:0:0:
399,199,326690,1,0,0:0:0:0:
456,216,326787,5,0,0:0:0:0:
419,170,326883,1,0,0:0:0:0:
374,133,326980,1,0,0:0:0:0:
323,105,327077,1,0,0:0:0:0:
267,87,327174,1,0,0:0:0:0:
209,80,327270,1,0,0:0:0:0:
151,85,327367,1,0,0:0:0:0:
94,101,327464,1,0,0:0:0:0:
43,131,327561,5,0,0:0:0:0:
72,80,327658,1,0,0:0:0:0:
123,51,327754,1,0,0:0:0:0:
180,40,327851,1,0,0:0:0:0:
238,46,327948,1,0,0:0:0:0:
291,69,328045,1,0,0:0:0:0:
335,107,328141,1,0,0:0:0:0:
366,156,328238,1,0,0:0:0:0:
401,204,328336,5,0,0:0:0:0:
349,232,328432,1,0,0:0:0:0:
294,252,328529,1,0,0:0:0:0:
237,261,328626,1,0,0:0:0:0:
179,254,328723,1,0,0:0:0:0:
128,226,328819,1,0,0:0:0:0:
108,170,328916,1,0,0:0:0:0:
134,117,329013,1,0,0:0:0:0:
185,87,329110,1,0,0:0:0:0:
243,84,329206,1,0,0:0:0:0:
299,102,329303,1,0,0:0:0:0:
353,126,329400,1,0,0:0:0:0:
404,153,329496,6,0,L|424:207,1,58.4999973220826
478,269,329690,2,0,L|498:215,1,58.4999973220826
512,122,329883,1,0,0:0:0:0:
469,83,329979,1,0,0:0:0:0:
411,76,330076,1,0,0:0:0:0:
363,110,330173,1,0,0:0:0:0:
328,156,330270,1,0,0:0:0:0:
280,189,330366,1,0,0:0:0:0:
222,194,330463,1,0,0:0:0:0:
165,186,330560,1,0,0:0:0:0:
110,206,330658,5,0,0:0:0:0:
155,242,330754,1,0,0:0:0:0:
199,281,330851,1,0,0:0:0:0:
243,320,330948,1,0,0:0:0:0:
287,359,331045,5,0,0:0:0:0:
264,307,331141,1,0,0:0:0:0:
240,254,331238,1,0,0:0:0:0:
216,201,331335,1,0,0:0:0:0:
192,148,331432,5,0,0:0:0:0:
238,184,331528,1,0,0:0:0:0:
284,220,331625,1,0,0:0:0:0:
330,256,331722,1,0,0:0:0:0:
375,291,331819,5,0,0:0:0:0:
351,238,331916,1,0,0:0:0:0:
327,185,332012,1,0,0:0:0:0:
303,131,332109,1,0,0:0:0:0:
281,80,332206,5,0,0:0:0:0:
331,112,332303,1,0,0:0:0:0:
380,143,332399,1,0,0:0:0:0:
430,174,332496,1,0,0:0:0:0:
479,205,332593,5,0,0:0:0:0:
472,148,332690,1,0,0:0:0:0:
452,92,332787,1,0,0:0:0:0:
416,48,332884,1,0,0:0:0:0:
368,28,332981,5,0,0:0:0:0:
399,77,333077,1,0,0:0:0:0:
425,129,333174,1,0,0:0:0:0:
443,185,333271,1,0,0:0:0:0:
443,243,333368,1,0,0:0:0:0:
411,290,333464,1,0,0:0:0:0:
358,316,333561,1,0,0:0:0:0:
301,326,333658,1,0,0:0:0:0:
242,329,333755,1,0,0:0:0:0:
184,327,333851,1,0,0:0:0:0:
128,311,333948,1,0,0:0:0:0:
82,275,334045,1,0,0:0:0:0:
52,225,334142,1,0,0:0:0:0:
49,167,334239,1,0,0:0:0:0:
39,110,334335,1,0,0:0:0:0:
9,60,334432,1,0,0:0:0:0:
13,2,334528,5,0,0:0:0:0:
57,44,334624,1,0,0:0:0:0:
113,70,334721,1,0,0:0:0:0:
173,77,334818,1,0,0:0:0:0:
234,67,334915,1,0,0:0:0:0:
290,44,335011,1,0,0:0:0:0:
349,28,335108,1,0,0:0:0:0:
405,52,335205,1,0,0:0:0:0:
431,109,335302,1,0,0:0:0:0:
423,169,335398,1,0,0:0:0:0:
377,210,335495,1,0,0:0:0:0:
316,216,335592,1,0,0:0:0:0:
256,201,335689,1,0,0:0:0:0:
195,209,335786,1,0,0:0:0:0:
149,250,335882,1,0,0:0:0:0:
120,304,335979,1,0,0:0:0:0:
56,313,336077,5,4,0:0:0:0:
256,192,336173,12,0,339173,0:0:0:0:
211,332,339560,6,0,L|301:332,1,90
396,237,339948,2,0,L|396:147,1,90
301,52,340335,2,0,L|211:52,1,90
116,147,340722,2,0,L|116:237,1,90
256,124,341110,6,0,L|256:64,2,45
172,156,341497,2,0,L|172:248,1,90
340,156,341883,2,0,L|340:248,1,90
104,152,342271,5,0,0:0:0:0:
104,152,342465,1,0,0:0:0:0:
198,248,342658,5,0,0:0:0:0:
198,248,342852,1,0,0:0:0:0:
264,117,343045,5,0,0:0:0:0:
264,117,343239,1,0,0:0:0:0:
358,245,343432,5,0,0:0:0:0:
358,245,343626,1,0,0:0:0:0:
488,306,343820,5,0,0:0:0:0:
422,199,344013,1,0,0:0:0:0:
357,306,344207,1,0,0:0:0:0:
291,199,344400,1,0,0:0:0:0:
439,143,344593,5,0,0:0:0:0:
356,8,344786,1,0,0:0:0:0:
274,143,344980,1,0,0:0:0:0:
191,8,345173,1,0,0:0:0:0:
50,92,345368,5,0,0:0:0:0:
187,224,345561,1,0,0:0:0:0:
95,224,345755,5,0,0:0:0:0:
258,122,345948,1,0,0:0:0:0:
164,90,346142,5,0,0:0:0:0:
264,287,346335,1,0,0:0:0:0:
338,220,346529,5,0,0:0:0:0:
140,367,346722,1,0,0:0:0:0:
172,192,346916,5,0,0:0:0:0:
256,192,347303,1,0,0:0:0:0:
284,192,347400,1,0,0:0:0:0:
312,192,347497,1,0,0:0:0:0:
256,88,347690,1,0,0:0:0:0:
257,297,348078,1,0,0:0:0:0:
162,357,348464,6,2,B|336:247|336:247|177:178|177:178|286:114|286:114|200:69|200:69|244:36|244:36,1,652.5,0|0,0:0|2:0,0:0:0:0:
