osu file format v14

[General]
AudioFilename: kanshou.mp3
AudioLeadIn: 0
PreviewTime: 261697
Countdown: 0
SampleSet: Soft
StackLeniency: 0.2
Mode: 0
LetterboxInBreaks: 0
EpilepsyWarning: 1
WidescreenStoryboard: 1

[Editor]
DistanceSpacing: 0.5
BeatDivisor: 4
GridSize: 32
TimelineZoom: 3.299999

[Metadata]
Title:Kanshou no Matenrou
TitleUnicode:感傷の摩天楼
Artist:Halozy
ArtistUnicode:Halozy
Creator:Lasse
Version:Timeless
Source:東方星蓮船 ~ Undefined Fantastic Object.
Tags:Touhou Project Hotaru ほたる Sumijun すみじゅん Aqua Trytone c80 Hijiri Byakuren 聖 白蓮 sentimental emotional skyscraper 感情の摩天楼 Cosmic Mind
BeatmapID:985004
BeatmapSetID:436799

[Difficulty]
HPDrainRate:5
CircleSize:4
OverallDifficulty:9
ApproachRate:9.3
SliderMultiplier:2.2
SliderTickRate:1

[Events]
//Background and Video events
0,0,"notbg.png",0,0
//Break Periods
//Storyboard Layer 0 (Background)
//Storyboard Layer 1 (Fail)
//Storyboard Layer 2 (Pass)
//Storyboard Layer 3 (Foreground)
Sprite,Foreground,Centre,"sb\r1.png",320,240 M,0,62373,62454,480,171,454,184 S,1,62373,62537,0.4,0.2 C,0,62373,63110,218,218,211,255,51,51 R,2,62373,63111,0,6.3 M,0,62455,62536,454,184,428,188 M,0,62537,62618,428,188,401,184 S,2,62538,63111,0.21,0.625 M,0,62619,62700,401,184,374,176 M,0,62701,62782,374,176,348,172 M,0,62783,62864,348,172,322,182 M,0,62865,62946,322,182,318,207 M,0,62947,63028,318,207,337,224 M,0,63029,63110,337,224,361,213 F,2,63111,63193,1,0
Sprite,Foreground,Centre,"sb\r1.png",320,240 M,0,136471,136553,155,204,130,175 S,1,136471,136635,0.4,0.2 R,2,136471,136963,0,6.3 C,0,136471,136963,152,149,143,211,158,254 M,0,136553,136635,130,175,133,138 M,0,136636,136717,133,138,161,113 S,2,136636,136963,0.21,0.625 M,0,136718,136798,161,113,198,114 M,0,136799,136881,198,114,224,141 M,0,136882,136963,224,141,224,178 F,2,136963,137045,1,0
Sprite,Foreground,Centre,"sb\r1.png",320,240 M,0,220406,220488,220,250,179,249 S,1,220406,220570,0.4,0.2 R,2,220406,220897,0,6.3 C,0,220406,220897,152,149,143,211,158,254 M,0,220488,220570,179,249,151,220 M,0,220570,220652,151,220,150,180 S,2,220571,220897,0.21,0.625 M,0,220652,220733,150,180,177,151 M,0,220733,220815,177,151,216,147 M,0,220815,220897,216,147,248,172 F,2,220898,220979,1,0
Sprite,Foreground,Centre,"sb\hlY.png",320,240 S,0,0,60897,1.6 P,0,0,60897,A F,0,60897,60997,0,1 M,0,60897,61097,320,379 F,0,60997,61047,1,0
Sprite,Foreground,Centre,"sb\hlY.png",320,240 S,0,0,60897,1.6 P,0,0,60897,A F,0,60897,60997,0,1 M,0,60897,61097,320,379 F,0,60997,61047,1,0
Sprite,Foreground,Centre,"sb\hlY.png",320,240 S,0,0,61061,1.6 P,0,0,61061,A F,0,61061,61161,0,1 M,0,61061,61261,480,171 F,0,61161,61211,1,0
Sprite,Foreground,Centre,"sb\hlY.png",320,240 S,0,0,61061,1.6 P,0,0,61061,A F,0,61061,61161,0,1 M,0,61061,61261,480,171 F,0,61161,61211,1,0
Sprite,Foreground,Centre,"sb\hlY.png",320,240 S,0,0,61225,1.6 P,0,0,61225,A F,0,61225,61325,0,1 M,0,61225,61425,219,147 F,0,61325,61375,1,0
Sprite,Foreground,Centre,"sb\hlY.png",320,240 S,0,0,61225,1.6 P,0,0,61225,A F,0,61225,61325,0,1 M,0,61225,61425,219,147 F,0,61325,61375,1,0
Sprite,Foreground,Centre,"sb\hlY.png",320,240 S,0,0,61389,1.6 P,0,0,61389,A F,0,61389,61489,0,1 M,0,61389,61589,499,300 F,0,61489,61539,1,0
Sprite,Foreground,Centre,"sb\hlY.png",320,240 S,0,0,61389,1.6 P,0,0,61389,A F,0,61389,61489,0,1 M,0,61389,61589,499,300 F,0,61489,61539,1,0
Sprite,Foreground,Centre,"sb\hlY.png",320,240 S,0,0,61553,1.6 P,0,0,61553,A F,0,61553,61653,0,1 M,0,61553,61753,295,68 F,0,61653,61703,1,0
Sprite,Foreground,Centre,"sb\hlY.png",320,240 S,0,0,61553,1.6 P,0,0,61553,A F,0,61553,61653,0,1 M,0,61553,61753,295,68 F,0,61653,61703,1,0
Sprite,Foreground,Centre,"sb\hlR.png",320,240 S,0,0,63193,1.6 P,0,0,63193,A F,0,63193,63293,0,1 M,0,63193,63393,332,94 F,0,63293,63343,1,0
Sprite,Foreground,Centre,"sb\hlR.png",320,240 S,0,0,63193,1.6 P,0,0,63193,A F,0,63193,63293,0,1 M,0,63193,63393,332,94 F,0,63293,63343,1,0
Sprite,Foreground,Centre,"sb\hlR.png",320,240 S,0,0,63356,1.6 P,0,0,63356,A F,0,63356,63456,0,1 M,0,63356,63556,173,282 F,0,63456,63506,1,0
Sprite,Foreground,Centre,"sb\hlR.png",320,240 S,0,0,63356,1.6 P,0,0,63356,A F,0,63356,63456,0,1 M,0,63356,63556,173,282 F,0,63456,63506,1,0
Sprite,Foreground,Centre,"sb\hlR.png",320,240 S,0,0,63520,1.6 P,0,0,63520,A F,0,63520,63620,0,1 M,0,63520,63720,415,325 F,0,63620,63670,1,0
Sprite,Foreground,Centre,"sb\hlR.png",320,240 S,0,0,63520,1.6 P,0,0,63520,A F,0,63520,63620,0,1 M,0,63520,63720,415,325 F,0,63620,63670,1,0
Sprite,Foreground,Centre,"sb\hlY.png",320,240 S,0,0,146799,1.6 P,0,0,146799,A F,0,146799,146899,0,1 M,0,146799,146999,318,360 F,0,146899,146949,1,0
Sprite,Foreground,Centre,"sb\hlY.png",320,240 S,0,0,146799,1.6 P,0,0,146799,A F,0,146799,146899,0,1 M,0,146799,146999,318,360 F,0,146899,146949,1,0
Sprite,Foreground,Centre,"sb\hlO.png",320,240 S,0,0,146963,1.6 P,0,0,146963,A F,0,146963,147063,0,1 M,0,146963,147163,319,222 F,0,147063,147113,1,0
Sprite,Foreground,Centre,"sb\hlO.png",320,240 S,0,0,146963,1.6 P,0,0,146963,A F,0,146963,147063,0,1 M,0,146963,147163,319,222 F,0,147063,147113,1,0
Sprite,Foreground,Centre,"sb\hlO.png",320,240 S,0,0,147127,1.6 P,0,0,147127,A F,0,147127,147227,0,1 M,0,147127,147327,241,356 F,0,147227,147277,1,0
Sprite,Foreground,Centre,"sb\hlO.png",320,240 S,0,0,147127,1.6 P,0,0,147127,A F,0,147127,147227,0,1 M,0,147127,147327,241,356 F,0,147227,147277,1,0
Sprite,Foreground,Centre,"sb\hlY.png",320,240 S,0,0,147291,1.6 P,0,0,147291,A F,0,147291,147391,0,1 M,0,147291,147491,240,207 F,0,147391,147441,1,0
Sprite,Foreground,Centre,"sb\hlY.png",320,240 S,0,0,147291,1.6 P,0,0,147291,A F,0,147291,147391,0,1 M,0,147291,147491,240,207 F,0,147391,147441,1,0
Sprite,Foreground,Centre,"sb\hlY.png",320,240 S,0,0,147455,1.6 P,0,0,147455,A F,0,147455,147555,0,1 M,0,147455,147655,163,341 F,0,147555,147605,1,0
Sprite,Foreground,Centre,"sb\hlY.png",320,240 S,0,0,147455,1.6 P,0,0,147455,A F,0,147455,147555,0,1 M,0,147455,147655,163,341 F,0,147555,147605,1,0
Sprite,Foreground,Centre,"sb\hlR.png",320,240 S,0,0,187947,1.6 P,0,0,187947,A F,0,187947,188047,0,1 M,0,187947,188147,205,402 F,0,188047,188097,1,0
Sprite,Foreground,Centre,"sb\hlR.png",320,240 S,0,0,187947,1.6 P,0,0,187947,A F,0,187947,188047,0,1 M,0,187947,188147,205,402 F,0,188047,188097,1,0
Sprite,Foreground,Centre,"sb\hlR.png",320,240 S,0,0,188029,1.6 P,0,0,188029,A F,0,188029,188129,0,1 M,0,188029,188229,156,341 F,0,188129,188179,1,0
Sprite,Foreground,Centre,"sb\hlR.png",320,240 S,0,0,188029,1.6 P,0,0,188029,A F,0,188029,188129,0,1 M,0,188029,188229,156,341 F,0,188129,188179,1,0
Sprite,Foreground,Centre,"sb\hlR.png",320,240 S,0,0,188111,1.6 P,0,0,188111,A F,0,188111,188211,0,1 M,0,188111,188311,156,263 F,0,188211,188261,1,0
Sprite,Foreground,Centre,"sb\hlR.png",320,240 S,0,0,188111,1.6 P,0,0,188111,A F,0,188111,188211,0,1 M,0,188111,188311,156,263 F,0,188211,188261,1,0
Sprite,Foreground,Centre,"sb\hlR.png",320,240 S,0,0,188193,1.6 P,0,0,188193,A F,0,188193,188293,0,1 M,0,188193,188393,187,192 F,0,188293,188343,1,0
Sprite,Foreground,Centre,"sb\hlR.png",320,240 S,0,0,188193,1.6 P,0,0,188193,A F,0,188193,188293,0,1 M,0,188193,188393,187,192 F,0,188293,188343,1,0
Sprite,Foreground,Centre,"sb\hlO.png",320,240 S,0,0,188274,1.6 P,0,0,188274,A F,0,188274,188374,0,1 M,0,188274,188474,231,253 F,0,188374,188424,1,0
Sprite,Foreground,Centre,"sb\hlO.png",320,240 S,0,0,188274,1.6 P,0,0,188274,A F,0,188274,188374,0,1 M,0,188274,188474,231,253 F,0,188374,188424,1,0
Sprite,Foreground,Centre,"sb\hlO.png",320,240 S,0,0,188438,1.6 P,0,0,188438,A F,0,188438,188538,0,1 M,0,188438,188638,95,390 F,0,188538,188588,1,0
Sprite,Foreground,Centre,"sb\hlO.png",320,240 S,0,0,188438,1.6 P,0,0,188438,A F,0,188438,188538,0,1 M,0,188438,188638,95,390 F,0,188538,188588,1,0
Sprite,Foreground,Centre,"sb\hlY.png",320,240 S,0,0,188602,1.6 P,0,0,188602,A F,0,188602,188702,0,1 M,0,188602,188802,134,83 F,0,188702,188752,1,0
Sprite,Foreground,Centre,"sb\hlY.png",320,240 S,0,0,188602,1.6 P,0,0,188602,A F,0,188602,188702,0,1 M,0,188602,188802,134,83 F,0,188702,188752,1,0
Sprite,Foreground,Centre,"sb\hlY.png",320,240 S,0,0,188766,1.6 P,0,0,188766,A F,0,188766,188866,0,1 M,0,188766,188966,232,329 F,0,188866,188916,1,0
Sprite,Foreground,Centre,"sb\hlY.png",320,240 S,0,0,188766,1.6 P,0,0,188766,A F,0,188766,188866,0,1 M,0,188766,188966,232,329 F,0,188866,188916,1,0
Sprite,Foreground,Centre,"sb\hlY.png",320,240 S,0,0,230733,1.6 P,0,0,230733,A F,0,230733,230833,0,1 M,0,230733,230933,419,224 F,0,230833,230883,1,0
Sprite,Foreground,Centre,"sb\hlY.png",320,240 S,0,0,230733,1.6 P,0,0,230733,A F,0,230733,230833,0,1 M,0,230733,230933,419,224 F,0,230833,230883,1,0
Sprite,Foreground,Centre,"sb\hlO.png",320,240 S,0,0,230897,1.6 P,0,0,230897,A F,0,230897,230997,0,1 M,0,230897,231097,301,321 F,0,230997,231047,1,0
Sprite,Foreground,Centre,"sb\hlO.png",320,240 S,0,0,230897,1.6 P,0,0,230897,A F,0,230897,230997,0,1 M,0,230897,231097,301,321 F,0,230997,231047,1,0
Sprite,Foreground,Centre,"sb\hlO.png",320,240 S,0,0,231061,1.6 P,0,0,231061,A F,0,231061,231161,0,1 M,0,231061,231261,456,323 F,0,231161,231211,1,0
Sprite,Foreground,Centre,"sb\hlO.png",320,240 S,0,0,231061,1.6 P,0,0,231061,A F,0,231061,231161,0,1 M,0,231061,231261,456,323 F,0,231161,231211,1,0
Sprite,Foreground,Centre,"sb\hlY.png",320,240 S,0,0,231225,1.6 P,0,0,231225,A F,0,231225,231325,0,1 M,0,231225,231425,274,396 F,0,231325,231375,1,0
Sprite,Foreground,Centre,"sb\hlY.png",320,240 S,0,0,231225,1.6 P,0,0,231225,A F,0,231225,231325,0,1 M,0,231225,231425,274,396 F,0,231325,231375,1,0
Sprite,Foreground,Centre,"sb\hlY.png",320,240 S,0,0,231389,1.6 P,0,0,231389,A F,0,231389,231489,0,1 M,0,231389,231589,430,399 F,0,231489,231539,1,0
Sprite,Foreground,Centre,"sb\hlY.png",320,240 S,0,0,231389,1.6 P,0,0,231389,A F,0,231389,231489,0,1 M,0,231389,231589,430,399 F,0,231489,231539,1,0
Sprite,Foreground,Centre,"sb\hlY.png",320,240 S,0,0,283684,1.6 P,0,0,283684,A F,0,283684,283784,0,1 M,0,283684,283884,228,329 F,0,283784,283834,1,0
Sprite,Foreground,Centre,"sb\hlY.png",320,240 S,0,0,283684,1.6 P,0,0,283684,A F,0,283684,283784,0,1 M,0,283684,283884,228,329 F,0,283784,283834,1,0
Sprite,Foreground,Centre,"sb\hlY.png",320,240 S,0,0,283766,1.6 P,0,0,283766,A F,0,283766,283866,0,1 M,0,283766,283966,164,282 F,0,283866,283916,1,0
Sprite,Foreground,Centre,"sb\hlY.png",320,240 S,0,0,283766,1.6 P,0,0,283766,A F,0,283766,283866,0,1 M,0,283766,283966,164,282 F,0,283866,283916,1,0
Sprite,Foreground,Centre,"sb\hlY.png",320,240 S,0,0,283848,1.6 P,0,0,283848,A F,0,283848,283948,0,1 M,0,283848,284048,161,202 F,0,283948,283998,1,0
Sprite,Foreground,Centre,"sb\hlY.png",320,240 S,0,0,283848,1.6 P,0,0,283848,A F,0,283848,283948,0,1 M,0,283848,284048,161,202 F,0,283948,283998,1,0
Sprite,Foreground,Centre,"sb\hlY.png",320,240 S,0,0,283930,1.6 P,0,0,283930,A F,0,283930,284030,0,1 M,0,283930,284130,222,150 F,0,284030,284080,1,0
Sprite,Foreground,Centre,"sb\hlY.png",320,240 S,0,0,283930,1.6 P,0,0,283930,A F,0,283930,284030,0,1 M,0,283930,284130,222,150 F,0,284030,284080,1,0
//Storyboard Sound Samples

[TimingPoints]
734,327.868852459016,4,2,20,10,1,0
734,-333.333333333333,4,2,20,10,0,0
21553,-333.333333333333,4,2,99,10,0,0
21717,-333.333333333333,4,2,1,55,0,0
21799,-333.333333333333,4,2,20,40,0,0
26963,-333.333333333333,4,2,21,50,0,0
27045,-333.333333333333,4,2,20,45,0,0
32209,-250,4,2,20,60,0,0
32373,-250,4,2,20,45,0,0
34832,-250,4,2,1,45,0,0
36143,-250,4,2,1,50,0,0
37455,-250,4,2,1,52,0,0
38766,-222.222222222222,4,2,1,55,0,0
40078,-200,4,2,1,60,0,0
40733,-181.818181818182,4,2,1,50,0,0
41389,-166.666666666667,4,2,1,40,0,0
42045,-200,4,2,1,45,0,0
42373,-200,4,2,1,50,0,0
42537,-200,4,2,99,5,0,0
42701,-166.666666666667,4,2,1,60,0,1
42865,-166.666666666667,4,2,1,40,0,0
47947,-142.857142857143,4,2,1,45,0,0
49258,-142.857142857143,4,2,1,50,0,0
50570,-142.857142857143,4,2,1,55,0,0
51881,-142.857142857143,4,2,1,60,0,0
53193,-142.857142857143,4,2,1,80,0,1
53274,-142.857142857143,4,2,1,65,0,0
58438,-142.857142857143,4,2,1,70,0,0
60406,-100,4,2,1,70,0,0
61061,-100,4,3,1,75,0,0
61717,-100,4,2,20,60,0,0
62373,-200,4,2,20,50,0,0
63111,-200,4,2,20,5,0,0
63193,-200,4,3,1,56,0,0
63356,-200,4,3,1,70,0,0
63520,-200,4,3,1,65,0,0
63684,-71.4285714285714,4,1,1,80,0,1
63848,-71.4285714285714,4,1,1,70,0,0
68766,-71.4285714285714,4,1,1,70,0,0
68930,-71.4285714285714,4,1,1,70,0,1
69094,-71.4285714285714,4,1,1,70,0,0
72947,-71.4285714285714,4,2,20,5,0,0
73029,-71.4285714285714,4,1,1,70,0,0
73602,-71.4285714285714,4,2,20,5,0,0
73684,-71.4285714285714,4,1,1,70,0,0
74176,-100,4,2,1,80,0,0
74340,-100,4,2,1,70,0,0
79422,-100,4,2,1,80,0,0
79504,-100,4,2,1,70,0,0
79586,-100,4,2,1,75,0,0
79668,-100,4,2,1,70,0,0
81717,-90.9090909090909,4,2,1,70,0,0
82045,-83.3333333333333,4,2,1,70,0,0
82373,-76.9230769230769,4,2,1,70,0,0
82701,-71.4285714285714,4,2,1,70,0,0
83029,-66.6666666666667,4,2,1,70,0,0
83356,-166.666666666667,4,2,42,70,0,0
83438,-166.666666666667,4,2,42,30,0,0
83930,-166.666666666667,4,2,20,5,0,0
84012,-111.111111111111,4,2,43,70,0,0
84094,-111.111111111111,4,2,43,30,0,0
84586,-166.666666666667,4,2,20,5,0,0
84668,-83.3333333333333,4,2,44,85,0,1
84832,-83.3333333333333,4,1,3,75,0,1
84914,-83.3333333333333,4,2,20,5,0,1
84996,-83.3333333333333,4,1,3,75,0,1
86225,-83.3333333333333,4,2,20,5,0,1
86307,-83.3333333333333,4,1,3,75,0,1
87537,-83.3333333333333,4,2,20,5,0,1
87618,-83.3333333333333,4,1,3,75,0,1
88602,-83.3333333333333,4,1,3,30,0,1
88766,-83.3333333333333,4,1,3,75,0,1
90160,-83.3333333333333,4,2,20,5,0,1
90242,-83.3333333333333,4,1,3,75,0,1
92373,-83.3333333333333,4,1,3,80,0,1
92619,-83.3333333333333,4,2,20,5,0,1
92701,-83.3333333333333,4,1,3,75,0,1
94996,-83.3333333333333,4,1,3,75,0,0
95160,-83.3333333333333,4,1,3,80,0,1
95406,-83.3333333333333,4,2,20,5,0,1
95488,-83.3333333333333,4,1,3,75,0,1
96717,-83.3333333333333,4,2,20,5,0,1
96799,-83.3333333333333,4,1,3,75,0,1
97783,-83.3333333333333,4,1,3,80,0,1
97947,-83.3333333333333,4,1,3,75,0,1
98930,-83.3333333333333,4,1,3,80,0,1
99176,-83.3333333333333,4,2,20,5,0,1
99258,-83.3333333333333,4,1,3,75,0,1
100242,-83.3333333333333,4,1,3,80,0,1
100488,-83.3333333333333,4,2,20,5,0,1
100570,-83.3333333333333,4,1,3,75,0,1
101717,-83.3333333333333,4,1,3,80,0,1
101963,-83.3333333333333,4,2,20,5,0,1
102045,-83.3333333333333,4,1,3,75,0,1
103029,-83.3333333333333,4,1,3,60,0,0
103111,-83.3333333333333,4,2,20,60,0,0
103438,-83.3333333333333,4,2,20,5,0,0
103520,-83.3333333333333,4,1,3,60,0,0
103684,-83.3333333333333,4,1,3,60,0,0
104258,-83.3333333333333,4,2,20,5,0,0
104340,-83.3333333333333,4,1,3,60,0,0
104504,-83.3333333333333,4,1,3,60,0,0
105324,-142.857142857143,4,2,1,60,0,0
105652,-200,4,2,60,50,0,0
105815,-200,4,2,20,30,0,0
106307,-200,4,2,20,30,0,0
108274,-200,4,2,60,30,0,0
108930,-200,4,2,20,30,0,0
110897,-200,4,2,60,30,0,0
111553,-200,4,2,20,30,0,0
113520,-200,4,2,60,30,0,0
114176,-200,4,2,20,30,0,0
114668,-200,4,2,3,30,0,0
114750,-200,4,2,20,10,0,0
115324,-200,4,2,20,20,0,0
115488,-200,4,2,20,30,0,0
115652,-200,4,2,20,40,0,0
115815,-200,4,2,20,50,0,0
115979,-200,4,2,20,60,0,0
116061,-200,4,2,99,5,0,0
116143,-166.666666666667,4,2,60,60,0,0
116307,-166.666666666667,4,2,1,25,0,0
116799,-166.666666666667,4,2,1,45,0,0
117291,-166.666666666667,4,2,51,45,0,0
117619,-166.666666666667,4,2,1,45,0,0
118766,-166.666666666667,4,2,60,45,0,0
119094,-166.666666666667,4,2,1,45,0,0
121389,-166.666666666667,4,2,60,45,0,0
121717,-166.666666666667,4,2,1,45,0,0
124012,-166.666666666667,4,2,60,45,0,0
124340,-166.666666666667,4,2,1,45,0,0
126635,-142.857142857143,4,2,1,60,0,0
126799,-142.857142857143,4,2,1,50,0,0
129258,-142.857142857143,4,2,51,50,0,0
129422,-142.857142857143,4,2,1,50,0,0
134504,-142.857142857143,4,2,51,50,0,0
134668,-142.857142857143,4,2,1,50,0,0
136799,-142.857142857143,4,2,1,15,0,0
136963,-142.857142857143,4,2,1,50,0,0
137126,-125,4,2,1,65,0,0
137291,-125,4,2,1,60,0,0
142373,-117.647058823529,4,2,1,68,0,0
142537,-117.647058823529,4,2,1,63,0,0
144996,-111.111111111111,4,2,1,70,0,0
145161,-111.111111111111,4,2,1,65,0,0
146143,-111.111111111111,4,2,1,70,0,0
146308,-111.111111111111,4,2,1,65,0,0
146963,-111.111111111111,4,2,1,65,0,0
147045,-111.111111111111,4,2,1,40,0,0
147127,-111.111111111111,4,2,1,65,0,0
147209,-111.111111111111,4,2,1,40,0,0
147291,-111.111111111111,4,2,1,65,0,0
147373,-111.111111111111,4,2,1,40,0,0
147455,-111.111111111111,4,2,1,65,0,0
147537,-111.111111111111,4,2,1,40,0,0
147619,-86.9565217391304,4,3,44,75,0,1
147865,-86.9565217391304,4,2,20,5,0,1
147947,-86.9565217391304,4,1,3,70,0,1
148111,-86.9565217391304,4,1,3,45,0,1
148274,-86.9565217391304,4,1,3,70,0,1
149176,-86.9565217391304,4,2,20,5,0,1
149258,-86.9565217391304,4,1,3,70,0,1
150078,-86.9565217391304,4,1,3,45,0,1
150242,-86.9565217391304,4,1,3,70,0,1
150406,-86.9565217391304,4,1,3,45,0,1
150570,-86.9565217391304,4,1,3,70,0,1
151389,-86.9565217391304,4,1,3,45,0,1
151553,-86.9565217391304,4,1,3,70,0,1
151717,-86.9565217391304,4,1,3,45,0,1
151881,-86.9565217391304,4,1,3,70,0,1
153111,-86.9565217391304,4,2,20,5,0,1
153193,-86.9565217391304,4,1,3,70,0,1
153356,-86.9565217391304,4,1,3,45,0,1
153520,-86.9565217391304,4,1,3,70,0,1
154422,-86.9565217391304,4,2,20,5,0,1
154504,-86.9565217391304,4,1,3,70,0,1
155324,-86.9565217391304,4,1,3,45,0,1
155488,-86.9565217391304,4,1,3,70,0,1
155652,-86.9565217391304,4,1,3,45,0,1
155815,-86.9565217391304,4,1,3,70,0,1
156471,-86.9565217391304,4,1,3,70,0,1
156799,-86.9565217391304,4,1,3,70,0,1
157045,-86.9565217391304,4,2,20,5,0,1
157127,-86.9565217391304,4,1,3,70,0,1
157783,-86.9565217391304,4,1,3,70,0,0
158111,-133.333333333333,4,2,1,75,0,0
158274,-133.333333333333,4,2,1,70,0,0
158766,-133.333333333333,4,2,20,30,0,0
158930,-133.333333333333,4,2,1,70,0,0
159422,-133.333333333333,4,1,3,70,0,0
159750,-133.333333333333,4,1,2,70,0,0
160733,-133.333333333333,4,2,1,72,0,0
160897,-133.333333333333,4,2,1,70,0,0
161389,-133.333333333333,4,2,20,30,0,0
161553,-133.333333333333,4,2,1,70,0,0
162045,-133.333333333333,4,1,3,70,0,0
162372,-133.333333333333,4,1,2,70,0,0
163193,-133.333333333333,4,1,2,25,0,0
163356,-86.9565217391304,4,3,2,75,0,1
163520,-86.9565217391304,4,3,2,70,0,0
163848,-86.9565217391304,4,3,2,75,0,0
164012,-86.9565217391304,4,3,2,70,0,0
164340,-86.9565217391304,4,3,2,75,0,0
164504,-86.9565217391304,4,3,2,70,0,0
164832,-86.9565217391304,4,3,2,75,0,0
164996,-86.9565217391304,4,3,2,70,0,0
165324,-86.9565217391304,4,3,2,75,0,0
165488,-86.9565217391304,4,3,2,70,0,0
165652,-86.9565217391304,4,3,2,75,0,0
165815,-86.9565217391304,4,3,2,70,0,0
165979,-86.9565217391304,4,3,2,75,0,0
166143,-86.9565217391304,4,3,2,70,0,0
166471,-86.9565217391304,4,3,2,75,0,0
166635,-86.9565217391304,4,3,2,70,0,0
166963,-86.9565217391304,4,3,2,75,0,0
167127,-86.9565217391304,4,3,2,70,0,0
167455,-86.9565217391304,4,3,2,75,0,0
167619,-86.9565217391304,4,3,2,70,0,0
167947,-86.9565217391304,4,3,2,75,0,0
168193,-86.9565217391304,4,2,20,5,0,0
168274,-86.9565217391304,4,3,2,70,0,0
168520,-86.9565217391304,4,2,20,5,0,0
168602,-100,4,1,3,75,0,0
168766,-100,4,1,3,70,0,0
171389,-100,4,1,3,55,0,0
171553,-100,4,1,3,70,0,0
176553,-100,4,2,20,5,0,0
176635,-100,4,1,3,70,0,0
179094,-100,4,1,3,75,0,0
179340,-100,4,2,20,5,0,0
179422,-100,4,1,3,65,0,0
179996,-100,4,1,3,5,0,0
180078,-100,4,1,3,65,0,0
183111,-100,4,2,20,5,0,0
183193,-100,4,1,3,65,0,0
184422,-100,4,2,20,5,0,0
184504,-100,4,1,3,65,0,0
187291,-100,4,1,3,60,0,0
187701,-100,4,2,20,5,0,0
187783,-100,4,1,3,60,0,0
187865,-100,4,2,20,5,0,0
187947,-100,4,2,21,60,0,0
188274,-100,4,1,3,65,0,1
188438,-100,4,1,3,70,0,0
188602,-100,4,1,3,75,0,0
188766,-100,4,1,3,80,0,0
188930,-166.666666666667,4,2,42,70,0,0
189176,-166.666666666667,4,2,20,5,0,0
189258,-111.111111111111,4,2,43,70,0,0
189504,-166.666666666667,4,2,20,5,0,0
189586,-83.3333333333333,4,2,44,85,0,1
189750,-83.3333333333333,4,1,3,75,0,1
189832,-83.3333333333333,4,2,20,5,0,1
189914,-83.3333333333333,4,1,3,75,0,1
191143,-83.3333333333333,4,2,20,5,0,1
191225,-83.3333333333333,4,1,3,75,0,1
192455,-83.3333333333333,4,2,20,5,0,1
192537,-83.3333333333333,4,1,3,75,0,1
193520,-83.3333333333333,4,1,3,30,0,1
193684,-83.3333333333333,4,1,3,75,0,1
195078,-83.3333333333333,4,2,20,5,0,1
195160,-83.3333333333333,4,1,3,75,0,1
197537,-83.3333333333333,4,2,20,5,0,1
197619,-83.3333333333333,4,1,3,75,0,1
199914,-83.3333333333333,4,1,3,75,0,0
200078,-83.3333333333333,4,1,3,80,0,1
200324,-83.3333333333333,4,2,20,5,0,1
200406,-83.3333333333333,4,1,3,75,0,1
201635,-83.3333333333333,4,2,20,5,0,1
201717,-83.3333333333333,4,1,3,75,0,1
202701,-83.3333333333333,4,1,3,80,0,1
202865,-83.3333333333333,4,1,3,75,0,1
203848,-83.3333333333333,4,1,3,80,0,1
204094,-83.3333333333333,4,2,20,5,0,1
204176,-83.3333333333333,4,1,3,75,0,1
205160,-83.3333333333333,4,1,3,80,0,1
205406,-83.3333333333333,4,2,20,5,0,1
205488,-83.3333333333333,4,1,3,75,0,1
206635,-83.3333333333333,4,1,3,80,0,1
206881,-83.3333333333333,4,2,20,5,0,1
206963,-83.3333333333333,4,1,3,75,0,1
207947,-83.3333333333333,4,1,3,60,0,0
208029,-83.3333333333333,4,2,20,60,0,0
208356,-83.3333333333333,4,2,20,5,0,0
208438,-83.3333333333333,4,1,3,60,0,0
208602,-83.3333333333333,4,1,3,60,0,0
209176,-83.3333333333333,4,2,20,5,0,0
209258,-83.3333333333333,4,2,1,60,0,0
209422,-83.3333333333333,4,2,1,60,0,0
210570,-142.857142857143,4,2,1,60,0,0
210733,-142.857142857143,4,2,1,50,0,0
213193,-133.333333333333,4,2,51,50,0,0
213356,-133.333333333333,4,2,1,50,0,0
218438,-133.333333333333,4,2,51,50,0,0
218602,-133.333333333333,4,2,1,50,0,0
221061,-125,4,2,1,65,0,0
221225,-125,4,2,1,60,0,0
226307,-117.647058823529,4,2,1,68,0,0
226471,-117.647058823529,4,2,1,63,0,0
228930,-111.111111111111,4,2,1,70,0,0
229094,-111.111111111111,4,2,1,65,0,0
230078,-111.111111111111,4,2,1,70,0,0
230242,-111.111111111111,4,2,1,65,0,0
230897,-111.111111111111,4,2,1,65,0,0
230979,-111.111111111111,4,2,1,40,0,0
231061,-111.111111111111,4,2,1,65,0,0
231143,-111.111111111111,4,2,1,40,0,0
231225,-111.111111111111,4,2,1,65,0,0
231307,-111.111111111111,4,2,1,40,0,0
231389,-111.111111111111,4,2,1,65,0,0
231471,-111.111111111111,4,2,1,40,0,0
231553,-86.9565217391304,4,3,44,75,0,1
231799,-86.9565217391304,4,2,20,5,0,1
231881,-86.9565217391304,4,1,3,70,0,1
232045,-86.9565217391304,4,1,3,45,0,1
232209,-86.9565217391304,4,1,3,70,0,1
233111,-86.9565217391304,4,2,20,5,0,1
233193,-86.9565217391304,4,1,3,70,0,1
234012,-86.9565217391304,4,1,3,45,0,1
234176,-86.9565217391304,4,1,3,70,0,1
234340,-86.9565217391304,4,1,3,45,0,1
234504,-86.9565217391304,4,1,3,70,0,1
235324,-86.9565217391304,4,1,3,45,0,1
235488,-86.9565217391304,4,1,3,70,0,1
235652,-86.9565217391304,4,1,3,45,0,1
235815,-86.9565217391304,4,1,3,70,0,1
237045,-86.9565217391304,4,2,20,5,0,1
237127,-86.9565217391304,4,1,3,70,0,1
237291,-86.9565217391304,4,1,3,45,0,1
237455,-86.9565217391304,4,1,3,70,0,1
238356,-86.9565217391304,4,2,20,5,0,1
238438,-86.9565217391304,4,1,3,70,0,1
239258,-86.9565217391304,4,1,3,45,0,1
239422,-86.9565217391304,4,1,3,70,0,1
239586,-86.9565217391304,4,1,3,45,0,1
239750,-86.9565217391304,4,1,3,70,0,1
240406,-86.9565217391304,4,1,3,70,0,1
240733,-86.9565217391304,4,1,3,70,0,1
240979,-86.9565217391304,4,2,20,5,0,1
241061,-86.9565217391304,4,1,3,70,0,1
241717,-86.9565217391304,4,1,3,70,0,0
242045,-133.333333333333,4,2,1,75,0,0
242209,-133.333333333333,4,2,1,70,0,0
242701,-133.333333333333,4,2,20,30,0,0
242865,-133.333333333333,4,2,1,70,0,0
243356,-133.333333333333,4,1,3,70,0,0
243684,-133.333333333333,4,1,2,70,0,0
244668,-133.333333333333,4,2,1,72,0,0
244832,-133.333333333333,4,2,1,70,0,0
245324,-133.333333333333,4,2,20,30,0,0
245488,-133.333333333333,4,2,1,70,0,0
245979,-133.333333333333,4,1,3,70,0,0
246307,-133.333333333333,4,1,2,70,0,0
246799,-133.333333333333,4,1,2,70,0,0
247127,-133.333333333333,4,1,3,25,0,0
247291,-86.9565217391304,4,3,2,75,0,1
247455,-86.9565217391304,4,3,2,70,0,0
247783,-86.9565217391304,4,3,2,75,0,0
247947,-86.9565217391304,4,3,2,70,0,0
248274,-86.9565217391304,4,3,2,75,0,0
248438,-86.9565217391304,4,3,2,70,0,0
248766,-86.9565217391304,4,3,2,75,0,0
248930,-86.9565217391304,4,3,2,70,0,0
249258,-86.9565217391304,4,3,2,75,0,0
249422,-86.9565217391304,4,3,2,70,0,0
249586,-86.9565217391304,4,3,2,75,0,0
249750,-86.9565217391304,4,3,2,70,0,0
249914,-86.9565217391304,4,3,2,75,0,0
250078,-86.9565217391304,4,3,2,70,0,0
250406,-86.9565217391304,4,3,2,75,0,0
250570,-86.9565217391304,4,3,2,70,0,0
250897,-86.9565217391304,4,3,2,75,0,0
251061,-86.9565217391304,4,3,2,70,0,0
251389,-86.9565217391304,4,3,2,75,0,0
251553,-86.9565217391304,4,3,2,70,0,0
251881,-86.9565217391304,4,3,2,75,0,0
252127,-86.9565217391304,4,2,20,5,0,0
252209,-86.9565217391304,4,3,2,70,0,0
252455,-86.9565217391304,4,2,20,5,0,0
252537,-125,4,3,1,75,0,0
252865,-125,4,2,51,75,0,0
257783,-103.092783505155,4,2,51,75,0,0
259094,-93.4579439252336,4,2,1,75,0,0
260078,-85.4700854700855,4,2,1,75,0,0
260406,-78.7401574803149,4,2,1,75,0,0
260733,-68.0272108843537,4,2,1,75,0,0
261061,-59.8802395209581,4,2,1,75,0,0
261389,-53.475935828877,4,2,1,75,0,0
261717,-200,4,2,42,35,0,0
262291,-200,4,2,20,5,0,0
262373,-200,4,2,43,35,0,0
262619,-200,4,2,99,5,0,0
262701,-200,4,2,21,35,0,0
263029,-166.666666666667,4,2,44,39,0,0
263111,-166.666666666667,4,2,1,39,0,0
264340,-166.666666666667,4,2,1,43,0,0
265651,-142.857142857143,4,2,1,47,0,0
266963,-142.857142857143,4,2,1,51,0,0
268274,-125,4,2,1,55,0,0
269586,-125,4,2,1,59,0,0
270897,-111.111111111111,4,2,1,63,0,0
272209,-111.111111111111,4,2,1,67,0,0
273520,-100,4,1,3,75,0,1
273684,-100,4,1,3,65,0,0
273766,-100,4,2,20,5,0,0
273848,-100,4,1,3,65,0,0
275078,-100,4,2,20,5,0,0
275160,-100,4,1,3,65,0,0
276143,-100,4,1,3,75,0,0
276307,-100,4,1,3,65,0,0
277291,-100,4,1,3,75,0,0
277537,-100,4,2,20,5,0,0
277619,-100,4,1,3,65,0,0
278602,-100,4,1,3,75,0,0
278848,-100,4,2,20,5,0,0
278930,-100,4,1,3,65,0,0
280078,-100,4,1,3,75,0,0
280324,-100,4,2,20,5,0,0
280406,-100,4,1,3,65,0,0
281389,-100,4,2,1,75,0,0
281553,-100,4,2,1,65,0,0
282045,-100,4,2,21,65,0,0
282373,-100,4,2,21,65,0,0
282701,-90.9090909090909,4,2,42,70,0,0
282783,-90.9090909090909,4,2,1,65,0,0
282865,-90.9090909090909,4,2,1,66,0,0
282947,-90.9090909090909,4,2,1,67,0,0
283029,-90.9090909090909,4,2,1,68,0,0
283111,-90.9090909090909,4,2,1,69,0,0
283193,-90.9090909090909,4,2,1,70,0,0
283274,-90.9090909090909,4,2,1,71,0,0
283356,-90.9090909090909,4,2,43,75,0,0
283438,-90.9090909090909,4,2,1,72,0,0
283520,-90.9090909090909,4,2,1,73,0,0
283602,-90.9090909090909,4,2,1,74,0,0
283684,-90.9090909090909,4,2,21,80,0,0
283766,-90.9090909090909,4,2,21,81,0,0
283848,-90.9090909090909,4,2,21,82,0,0
283930,-90.9090909090909,4,2,21,83,0,0
284012,-83.3333333333333,4,2,44,85,0,1
284176,-83.3333333333333,4,1,3,75,0,1
284258,-83.3333333333333,4,2,20,5,0,1
284340,-83.3333333333333,4,1,3,75,0,1
285570,-83.3333333333333,4,2,20,5,0,1
285652,-83.3333333333333,4,1,3,75,0,1
286881,-83.3333333333333,4,2,20,5,0,1
286963,-83.3333333333333,4,1,3,75,0,1
287947,-83.3333333333333,4,1,3,30,0,1
288111,-83.3333333333333,4,1,3,75,0,1
289504,-83.3333333333333,4,2,20,5,0,1
289586,-83.3333333333333,4,1,3,75,0,1
291717,-83.3333333333333,4,1,3,80,0,1
291963,-83.3333333333333,4,2,20,5,0,1
292045,-83.3333333333333,4,1,3,75,0,1
294340,-83.3333333333333,4,1,3,75,0,0
294504,-83.3333333333333,4,1,3,80,0,1
294750,-83.3333333333333,4,2,20,5,0,1
294832,-83.3333333333333,4,1,3,75,0,1
296061,-83.3333333333333,4,2,20,5,0,1
296143,-83.3333333333333,4,1,3,75,0,1
297127,-83.3333333333333,4,1,3,80,0,1
297291,-83.3333333333333,4,1,3,75,0,1
298274,-83.3333333333333,4,1,3,80,0,1
298520,-83.3333333333333,4,2,20,5,0,1
298602,-83.3333333333333,4,1,3,75,0,1
299586,-83.3333333333333,4,1,3,80,0,1
299832,-83.3333333333333,4,2,20,5,0,1
299914,-83.3333333333333,4,1,3,75,0,1
301061,-83.3333333333333,4,1,3,80,0,1
301307,-83.3333333333333,4,2,20,5,0,1
301389,-83.3333333333333,4,1,3,75,0,1
302373,-83.3333333333333,4,1,3,60,0,0
302455,-83.3333333333333,4,2,20,60,0,0
302783,-83.3333333333333,4,2,20,5,0,0
302865,-83.3333333333333,4,1,3,60,0,0
303029,-83.3333333333333,4,1,3,60,0,0
303602,-83.3333333333333,4,2,20,5,0,0
303684,-83.3333333333333,4,2,1,60,0,1
303848,-83.3333333333333,4,2,1,60,0,0
304504,-200,4,2,1,56,0,0
304667,-200,4,2,1,70,0,0
304832,-200,4,2,1,65,0,0
304996,-71.4285714285714,4,1,1,80,0,1
305160,-71.4285714285714,4,1,1,70,0,0
310078,-71.4285714285714,4,1,1,70,0,0
310242,-71.4285714285714,4,1,1,70,0,1
310406,-71.4285714285714,4,1,1,70,0,0
314258,-83.3333333333333,4,2,20,5,0,0
314340,-71.4285714285714,4,1,1,70,0,0
314914,-71.4285714285714,4,2,20,5,0,0
314996,-71.4285714285714,4,1,1,70,0,0
315488,-62.5,4,1,1,85,0,1
315652,-62.5,4,1,1,75,0,1
320570,-62.5,4,1,1,75,0,0
320733,-58.8235294117647,4,1,1,75,0,1
320897,-58.8235294117647,4,1,1,75,0,1
324504,-55.5555555555556,4,1,1,75,0,1
324750,-55.5555555555556,4,2,20,20,0,1
324832,-52.6315789473684,4,1,1,75,0,1
325160,-52.6315789473684,4,1,1,75,0,1
325406,-52.6315789473684,4,2,20,5,0,1
325487,-52.6315789473684,4,1,1,75,0,1
325979,-689.655172413793,4,2,1,80,0,0
326061,-666.666666666667,4,2,70,75,0,0
326307,-666.666666666667,4,2,71,70,0,0
326635,-666.666666666667,4,2,70,65,0,0
327291,-1000,4,2,71,60,0,0
327947,-1000,4,2,70,55,0,0
328602,-1000,4,2,71,50,0,0
329258,-1000,4,2,70,45,0,0
329914,-1000,4,2,71,40,0,0
330570,-1000,4,2,70,35,0,0
331225,-1000,4,2,71,30,0,0
331881,-1000,4,2,70,25,0,0
332537,-1000,4,2,71,20,0,0
333193,-1000,4,2,70,15,0,0
333848,-1000,4,2,71,10,0,0
334996,-1000,4,2,99,5,0,0
335652,-1000,4,2,99,15,0,0
335733,-1000,4,2,99,25,0,0
335815,-1000,4,1,1,50,0,0
336143,-1000,4,1,1,60,0,0
336307,-1000,4,1,1,70,0,0
336471,-1000,4,2,99,25,0,0

[Colours]
Combo1 : 255,136,202
Combo2 : 147,73,228
Combo3 : 252,85,29
Combo4 : 218,218,211
Combo5 : 221,158,254
Combo6 : 255,51,51
Combo7 : 250,255,36
Combo8 : 152,149,143

[HitObjects]
256,192,19094,12,0,21553,0:0:0:0:
150,60,21717,38,0,L|154:108,1,32.99999899292,2|0,0:3|0:0,0:0:0:0:
201,151,22045,2,0,L|205:199,1,32.99999899292
252,242,22373,2,0,L|256:290,1,32.99999899292,0|0,0:0|0:0,0:0:0:0:
303,333,22701,1,0,0:0:0:0:
182,319,22865,54,0,L|176:254,1,65.9999979858399,2|0,0:1|0:0,0:0:0:0:
204,183,23356,2,0,L|201:151,1,32.99999899292,0|0,0:0|0:0,0:0:0:0:
153,92,23684,2,0,L|150:60,1,32.99999899292
102,1,24012,1,0,0:0:0:0:
75,73,24176,1,0,0:0:0:0:
149,59,24340,54,0,L|181:55,1,32.99999899292,2|0,0:0|0:0,0:0:0:0:
253,81,24668,2,0,L|285:77,1,32.99999899292,0|0,0:0|0:0,0:0:0:0:
357,103,24996,2,0,L|389:99,2,32.99999899292,0|0|0,0:0|0:0|0:0,0:0:0:0:
269,176,25488,54,0,L|204:182,1,65.9999979858399,2|0,0:1|0:0,0:0:0:0:
178,253,25979,2,0,L|210:257,1,32.99999899292,0|0,0:0|0:0,0:0:0:0:
240,327,26307,2,0,L|208:331,1,32.99999899292,0|0,0:0|0:0,0:0:0:0:
124,317,26635,1,0,0:0:0:0:
95,239,26799,1,0,0:0:0:0:
148,174,26963,54,0,L|180:170,1,32.99999899292,2|0,0:3|0:0,0:0:0:0:
256,156,27291,1,0,0:0:0:0:
328,182,27455,1,0,0:0:0:0:
377,240,27619,2,0,L|409:244,1,32.99999899292,0|0,0:0|0:0,0:0:0:0:
466,295,27947,1,0,0:0:0:0:
461,187,28111,54,0,L|455:122,1,65.9999979858399,2|0,0:1|0:0,0:0:0:0:
424,52,28602,1,0,0:0:0:0:
349,44,28766,1,0,0:0:0:0:
297,102,28930,2,0,L|294:134,1,32.99999899292,0|0,0:0|0:0,0:0:0:0:
263,203,29258,1,0,0:0:0:0:
188,211,29422,1,0,0:0:0:0:
233,271,29586,54,0,L|236:303,1,32.99999899292,2|0,0:0|0:0,0:0:0:0:
308,328,29914,2,0,L|311:296,1,32.99999899292,0|0,0:0|0:0,0:0:0:0:
384,272,30242,2,0,L|387:304,1,32.99999899292
444,355,30570,1,0,0:0:0:0:
441,221,30733,54,0,L|435:156,1,65.9999979858399,2|0,0:1|0:0,0:0:0:0:
427,79,31225,1,0,0:0:0:0:
421,3,31389,1,0,0:0:0:0:
345,9,31553,2,0,L|313:12,1,32.99999899292
236,18,31881,1,0,0:0:0:0:
160,24,32045,1,0,0:0:0:0:
205,114,32209,53,6,0:0:0:0:
282,148,32373,1,0,0:0:0:0:
214,197,32537,2,0,P|189:195|158:185,1,44,0|0,0:0|0:0,0:0:0:0:
121,121,32865,1,0,0:0:0:0:
156,44,33029,1,0,0:0:0:0:
205,114,33193,1,0,0:0:0:0:
72,53,33356,54,0,B|42:47|23:57|23:57|47:69|62:96,1,88,2|0,0:1|0:1,0:0:0:0:
50,161,33848,2,0,L|52:223,1,44,0|0,0:0|0:0,0:0:0:0:
116,257,34176,2,0,L|117:300,1,44,0|0,0:0|0:0,0:0:0:0:
182,353,34504,1,0,0:0:0:0:
264,340,34668,1,0,0:0:0:0:
320,278,34832,70,0,L|319:235,1,44,2|0,0:0|0:0,0:0:0:0:
305,150,35160,1,0,0:0:0:0:
239,204,35324,1,0,0:0:0:0:
197,94,35488,1,0,0:0:0:0:
263,40,35652,1,0,0:0:0:0:
284,38,35733,1,0,0:0:0:0:
305,40,35815,1,0,0:0:0:0:
305,150,35979,54,0,B|275:188|275:188|235:206,1,88,2|0,0:1|0:0,0:0:0:0:
217,208,36389,1,0,0:0:0:0:
195,210,36471,1,0,0:0:0:0:
268,272,36635,1,0,0:0:0:0:
249,281,36717,1,0,0:0:0:0:
228,288,36799,1,0,0:0:0:0:
314,329,36963,1,0,0:0:0:0:
298,343,37045,1,0,0:0:0:0:
278,353,37127,2,0,L|220:374,1,44,0|0,0:0|0:0,0:0:0:0:
416,352,37455,53,2,0:0:0:0:
420,261,37619,1,0,0:0:0:0:
318,238,37783,1,0,0:0:0:0:
314,329,37947,1,0,0:0:0:0:
383,186,38111,5,0,0:0:0:0:
366,170,38193,1,0,0:0:0:0:
347,160,38274,1,0,0:0:0:0:
326,153,38356,1,0,0:0:0:0:
304,152,38438,53,0,0:0:0:0:
273,153,38520,1,0,0:0:0:0:
242,149,38602,2,0,P|224:143|214:135,1,22,2|0,0:1|0:0,0:0:0:0:
242,4,38766,54,0,P|260:10|270:18,1,24.74999924469
346,106,38930,1,0,0:0:0:0:
350,132,39012,1,0,0:0:0:0:
347,160,39094,2,0,P|343:182|337:203,1,24.74999924469,0|0,0:0|0:0,0:0:0:0:
191,128,39258,1,0,0:0:0:0:
155,108,39340,1,0,0:0:0:0:
127,79,39422,53,0,0:0:0:0:
97,112,39504,1,0,0:0:0:0:
80,154,39586,1,0,0:0:0:0:
76,198,39668,1,0,0:0:0:0:
97,238,39750,54,0,P|111:242|135:246,1,24.74999924469,0|0,0:3|0:0,0:0:0:0:
229,200,39914,2,0,P|241:202|252:206,1,24.74999924469,0|0,0:3|0:0,0:0:0:0:
347,315,40078,53,2,0:3:0:0:
380,282,40160,1,0,0:0:0:0:
393,237,40242,1,0,0:0:0:0:
381,192,40324,1,0,0:0:0:0:
342,139,40406,53,0,0:0:0:0:
347,84,40488,1,0,0:0:0:0:
387,49,40570,1,0,0:0:0:0:
445,51,40652,1,0,0:0:0:0:
483,94,40733,53,0,0:0:0:0:
481,154,40815,1,0,0:0:0:0:
438,194,40897,1,0,0:0:0:0:
381,192,40979,1,0,0:0:0:0:
342,139,41061,53,0,0:0:0:0:
278,148,41143,1,0,0:0:0:0:
252,206,41225,1,0,0:0:0:0:
290,259,41307,1,0,0:0:0:0:
355,251,41389,53,0,0:0:0:0:
256,192,41471,12,0,42537,0:0:0:0:
205,253,42701,22,0,P|192:216|186:169,1,65.9999979858399,6|0,0:3|0:0,0:0:0:0:
218,53,43029,1,8,0:3:0:0:
275,137,43193,1,0,0:0:0:0:
139,106,43356,2,0,P|115:137|94:180,1,65.9999979858399,0|0,0:0|0:0,0:0:0:0:
120,249,43684,1,8,0:3:0:0:
277,240,43848,54,0,L|368:224,1,65.9999979858399,0|0,0:1|0:3,0:0:0:0:
413,124,44176,1,0,0:0:0:0:
416,282,44340,1,8,0:3:0:0:
341,151,44504,1,0,0:3:0:0:
337,134,44586,1,0,0:0:0:0:
336,117,44668,2,0,P|351:79|378:51,1,65.9999979858399,0|0,0:0|0:0,0:0:0:0:
400,203,44996,2,0,P|364:222|325:226,1,65.9999979858399,8|0,0:3|0:0,0:0:0:0:
255,175,45242,1,0,0:0:0:0:
258,178,45324,54,0,P|236:211|205:235,1,65.9999979858399,0|0,0:3|0:0,0:0:0:0:
186,85,45652,1,8,0:3:0:0:
295,10,45815,1,0,0:0:0:0:
307,29,45897,1,0,0:0:0:0:
314,50,45979,1,0,0:0:0:0:
211,3,46143,1,0,0:0:0:0:
309,125,46307,2,0,P|340:121|371:100,1,65.9999979858399,8|0,0:3|0:0,0:0:0:0:
128,23,46635,53,0,0:3:0:0:
105,149,46799,1,0,0:0:0:0:
211,3,46963,1,8,0:3:0:0:
221,130,47127,1,0,0:0:0:0:
213,162,47209,1,0,0:0:0:0:
220,194,47291,1,0,0:0:0:0:
227,226,47373,1,0,0:0:0:0:
221,258,47455,1,0,0:0:0:0:
105,149,47619,2,0,L|169:78,1,65.9999979858399,8|0,0:3|0:0,0:0:0:0:
227,290,47947,53,4,0:3:0:0:
81,239,48111,1,0,0:0:0:0:
252,204,48274,1,8,0:3:0:0:
159,338,48438,2,0,L|137:307,1,38.4999988250733,0|0,0:0|0:0,0:0:0:0:
256,194,48602,2,0,L|278:225,1,38.4999988250733,0|0,0:0|0:0,0:0:0:0:
284,356,48766,1,0,0:0:0:0:
168,221,48930,1,8,0:3:0:0:
350,263,49094,54,0,L|408:263,2,38.4999988250733,0|0|0,0:0|0:0|0:3,0:0:0:0:
225,289,49422,1,0,0:0:0:0:
337,184,49586,1,8,0:3:0:0:
360,343,49751,1,0,0:0:0:0:
335,354,49832,1,0,0:0:0:0:
309,359,49914,1,0,0:0:0:0:
281,361,49996,1,0,0:0:0:0:
256,369,50078,1,0,0:0:0:0:
261,179,50242,2,0,P|314:178|354:191,1,76.9999976501466,8|0,0:3|0:0,0:0:0:0:
294,261,50488,1,0,0:0:0:0:
291,264,50570,54,0,P|237:264|197:251,1,76.9999976501466,0|0,0:3|0:0,0:0:0:0:
215,98,50897,1,8,0:3:0:0:
336,183,51061,1,0,0:0:0:0:
333,186,51143,1,0,0:0:0:0:
330,189,51225,2,0,L|283:186,1,38.4999988250733,0|0,0:0|0:0,0:0:0:0:
162,178,51389,1,0,0:0:0:0:
312,99,51553,2,0,L|388:103,1,76.9999976501466,8|0,0:3|0:0,0:0:0:0:
120,93,51881,53,0,0:3:0:0:
183,181,52045,1,0,0:0:0:0:
33,155,52209,1,8,0:3:0:0:
95,243,52373,1,0,0:0:0:0:
92,269,52455,1,0,0:0:0:0:
86,295,52537,2,0,P|62:304|36:304,1,38.4999988250733,0|0,0:0|0:0,0:0:0:0:
43,139,52701,1,0,0:0:0:0:
193,165,52865,2,0,P|230:175|266:187,1,76.9999976501466,8|0,0:3|0:0,0:0:0:0:
350,125,53111,1,0,0:0:0:0:
353,128,53193,6,0,P|317:112|281:99,1,76.9999976501466,6|0,0:3|0:0,0:0:0:0:
272,292,53520,1,8,0:3:0:0:
193,165,53684,1,0,0:0:0:0:
339,209,53848,2,0,L|415:204,1,76.9999976501466
272,292,54176,1,8,0:3:0:0:
193,165,54340,1,0,0:0:0:0:
154,161,54421,1,0,0:0:0:0:
117,168,54504,53,0,0:3:0:0:
15,250,54668,1,0,0:3:0:0:
35,66,54832,1,8,0:3:0:0:
117,168,54996,1,0,0:0:0:0:
156,172,55077,1,0,0:0:0:0:
193,165,55160,2,0,P|224:164|258:166,1,38.4999988250733
329,247,55324,1,0,0:0:0:0:
394,108,55488,2,0,P|435:104|499:111,1,76.9999976501466,8|0,0:3|0:0,0:0:0:0:
296,25,55815,53,0,0:3:0:0:
231,164,55979,1,0,0:0:0:0:
104,19,56143,1,8,0:3:0:0:
39,158,56307,1,0,0:3:0:0:
32,195,56388,1,0,0:0:0:0:
32,234,56470,1,0,0:0:0:0:
38,272,56552,1,0,0:0:0:0:
50,308,56634,1,0,0:3:0:0:
204,354,56799,1,8,0:3:0:0:
340,269,56963,53,0,0:0:0:0:
376,256,57045,1,0,0:0:0:0:
414,252,57127,2,0,B|447:250|447:250|465:261|512:266,1,76.9999976501466,0|0,0:3|0:0,0:0:0:0:
512,110,57455,1,8,0:3:0:0:
373,125,57619,1,0,0:0:0:0:
338,139,57701,1,0,0:0:0:0:
299,141,57783,2,0,B|266:143|266:143|248:132|201:127,1,76.9999976501466
222,358,58111,1,8,0:3:0:0:
32,234,58274,53,0,0:0:0:0:
24,188,58355,1,0,0:0:0:0:
28,142,58438,1,4,0:3:0:0:
120,39,58602,1,0,0:0:0:0:
180,219,58765,1,8,0:3:0:0:
299,141,58930,1,0,0:0:0:0:
338,139,59012,1,0,0:0:0:0:
376,139,59094,2,0,L|434:151,1,38.4999988250733,0|0,0:0|2:0,0:0:0:0:
495,253,59258,1,0,0:0:0:0:
510,84,59422,1,8,0:3:0:0:
344,237,59586,53,0,0:0:0:0:
298,236,59668,1,0,0:0:0:0:
256,218,59750,2,0,B|215:215|215:215|179:219,1,76.9999976501466,0|0,0:3|0:0,0:0:0:0:
4,287,60078,1,8,0:3:0:0:
177,246,60242,5,0,0:0:0:0:
174,275,60324,1,0,0:0:0:0:
171,304,60406,2,0,L|169:346,10,27.5,0|0|0|0|0|0|0|0|0|0|0,0:0|0:0|0:0|0:0|0:0|0:0|0:0|0:0|0:3|0:0|0:0,0:0:0:0:
256,324,60897,5,0,0:0:0:0:
416,116,61061,1,4,0:0:0:0:
155,92,61225,1,0,0:0:0:0:
435,245,61389,1,0,0:0:0:0:
231,13,61553,1,0,0:0:0:0:
231,13,61881,85,0,0:0:0:0:
416,116,62045,1,0,0:0:0:0:
416,116,62373,102,0,B|378:141|349:141|322:131|308:108|258:90|238:111|235:145|247:172|266:180|293:174|300:152,1,247.5,0|0,0:0|0:0,0:0:0:0:
268,39,63193,21,4,0:0:0:0:
109,227,63356,1,0,0:0:0:0:
351,270,63520,1,0,0:0:0:0:
125,78,63684,6,0,B|57:90|38:137|38:137|66:116|101:114,1,153.999995300293,6|0,0:3|2:0,0:0:0:0:
306,157,64012,1,0,0:3:0:0:
146,344,64176,53,0,2:0:0:0:
92,346,64258,1,0,2:0:0:0:
39,331,64340,1,0,0:3:0:0:
38,137,64504,1,0,2:0:0:0:
228,291,64668,1,0,0:3:0:0:
291,10,64832,54,0,B|337:-17|337:-17|318:81,1,153.999995300293,2|0,2:1|0:0,0:0:0:0:
228,291,65160,1,0,2:0:0:0:
225,59,65324,1,0,0:3:0:0:
357,177,65488,1,0,2:0:0:0:
114,155,65652,1,0,0:3:0:0:
328,276,65815,53,0,2:0:0:0:
381,276,65897,1,0,2:0:0:0:
433,263,65979,2,0,B|452:233|456:200|431:160|431:160|434:189|429:214|412:221,1,153.999995300293,0|0,0:3|2:0,0:0:0:0:
153,361,66307,53,4,0:3:0:0:
152,85,66471,1,0,2:0:0:0:
381,276,66635,1,0,0:3:0:0:
108,234,66799,1,0,2:0:0:0:
414,299,66963,53,0,0:3:0:0:
368,88,67127,1,0,2:0:0:0:
173,281,67291,1,0,0:3:0:0:
476,170,67455,54,0,B|495:220|483:272|483:272|473:245|450:235,1,153.999995300293,2|0,2:1|0:0,0:0:0:0:
182,202,67783,1,0,2:0:0:0:
322,376,67947,1,0,0:0:0:0:
99,313,68111,1,0,2:0:0:0:
390,199,68274,53,4,0:2:0:0:
224,70,68438,1,0,2:0:0:0:
163,60,68520,1,0,2:0:0:0:
107,87,68602,1,4,0:2:0:0:
173,281,68766,1,2,2:0:0:0:
395,49,68930,54,0,B|422:127|356:124|396:216,1,153.999995300293,6|0,0:3|2:0,0:0:0:0:
500,356,69258,1,0,0:3:0:0:
474,164,69422,1,0,2:0:0:0:
310,372,69586,53,0,0:3:0:0:
284,180,69750,1,0,2:0:0:0:
512,257,69914,1,0,0:3:0:0:
229,285,70078,54,0,B|202:281|178:290|178:290|140:274|140:274|104:292|52:275,1,153.999995300293,2|0,2:1|0:0,0:0:0:0:
1,81,70406,1,0,2:0:0:0:
0,329,70570,1,0,0:3:0:0:
87,132,70733,1,0,2:0:0:0:
215,360,70897,1,0,0:3:0:0:
392,187,71061,53,0,2:0:0:0:
444,172,71143,1,0,2:0:0:0:
495,190,71225,2,0,B|515:229|515:229|519:292|491:341,1,153.999995300293,0|0,0:3|2:0,0:0:0:0:
215,360,71553,53,4,0:3:0:0:
192,136,71717,1,0,2:0:0:0:
416,370,71881,1,0,0:3:0:0:
165,278,72045,1,0,2:0:0:0:
495,190,72209,53,0,0:3:0:0:
201,150,72373,1,0,2:0:0:0:
425,384,72537,1,0,0:3:0:0:
97,338,72701,54,2,B|56:338|28:367|28:367|17:292|48:216,1,230.99999295044,2|0,2:1|2:1,0:0:0:0:
96,122,73029,1,0,2:0:0:0:
227,259,73193,1,0,0:3:0:0:
228,35,73356,54,2,B|240:141|240:141|219:173|219:173|227:259,1,230.99999295044,2|0,2:0|0:0,0:0:0:0:
179,344,73684,2,0,L|53:361,1,76.9999976501466,0|0,2:0|2:0,0:0:0:0:
134,212,73848,1,2,0:1:0:0:
309,265,74012,1,2,2:0:0:0:
237,117,74176,21,4,1:3:0:0:
226,258,74340,1,0,0:0:0:0:
339,345,74504,2,0,B|378:349|378:349|412:338|412:338|446:340,1,110,8|0,0:0|0:0,0:0:0:0:
455,313,74750,1,0,0:0:0:0:
465,287,74832,2,0,L|487:225,2,55,0|0|0,0:0|0:0|0:0,0:0:0:0:
323,322,75160,1,8,0:0:0:0:
361,216,75324,1,0,0:0:0:0:
370,189,75406,1,0,0:0:0:0:
380,163,75488,1,0,1:3:0:0:
251,237,75652,53,0,0:0:0:0:
211,362,75815,2,0,B|172:366|172:366|138:355|138:355|104:357,1,110,8|0,0:0|0:0,0:0:0:0:
95,330,76061,1,0,0:0:0:0:
85,304,76143,2,0,L|62:242,2,55,0|0|0,0:0|0:0|0:0,0:0:0:0:
220,335,76471,53,8,0:0:0:0:
256,231,76635,1,0,0:0:0:0:
266,204,76717,1,0,0:0:0:0:
276,178,76799,2,0,L|313:74,1,110,0|0,1:3|0:0,0:0:0:0:
200,144,77127,53,8,0:0:0:0:
160,19,77291,2,0,B|121:15|121:15|87:26|87:26|53:24,1,110,0|0,0:0|0:0,0:0:0:0:
44,51,77537,1,0,0:0:0:0:
34,77,77619,2,0,L|11:139,2,55,0|0|8,0:0|0:0|0:0,0:0:0:0:
170,45,77947,1,0,0:0:0:0:
306,77,78111,53,0,1:3:0:0:
328,183,78274,1,0,0:0:0:0:
315,208,78356,1,0,0:0:0:0:
304,234,78438,2,0,L|176:175,1,110,8|0,0:0|0:0,0:0:0:0:
190,213,78684,1,0,0:0:0:0:
179,239,78766,2,0,L|51:180,1,110
18,335,79094,53,8,0:0:0:0:
171,326,79258,1,0,0:0:0:0:
53,144,79422,6,0,L|84:201,1,55,4|0,3:1|0:0,0:0:0:0:
163,344,79586,2,0,L|87:341,1,55,0|0,3:0|0:0,0:0:0:0:
26,317,79750,53,8,0:0:0:0:
40,287,79832,1,0,0:0:0:0:
66,266,79914,1,0,0:0:0:0:
99,261,79996,1,0,0:0:0:0:
133,256,80078,53,0,0:0:0:0:
182,249,80160,1,0,0:0:0:0:
211,209,80242,1,0,0:0:0:0:
204,160,80324,1,0,0:0:0:0:
164,131,80406,53,8,0:0:0:0:
115,124,80488,1,0,0:0:0:0:
86,84,80570,1,0,0:0:0:0:
93,35,80652,1,0,0:0:0:0:
133,6,80733,54,0,P|163:0|217:15,3,55,4|0|0|0,1:3|0:0|0:0|0:0,0:0:0:0:
280,20,81061,54,0,P|308:29|348:69,3,55,8|0|0|0,0:3|0:0|0:0|0:0,0:0:0:0:
273,99,81389,54,0,P|293:121|307:176,1,55,0|0,0:0|0:0,0:0:0:0:
329,233,81553,2,0,P|335:263|320:316,1,55,0|0,0:0|0:0,0:0:0:0:
227,163,81717,54,0,P|232:192|217:246,1,60.5000018463135,8|0,0:0|0:0,0:0:0:0:
208,307,81881,2,0,P|198:335|158:375,1,60.5000018463135,0|0,0:0|0:0,0:0:0:0:
155,195,82045,6,0,L|135:241,7,32.99999899292,2|0|0|0|0|0|0|0,1:1|0:0|0:0|0:0|0:0|0:0|0:0|0:0,0:0:0:0:
103,137,82373,2,0,L|53:132,7,35.749998363495,8|0|0|0|0|0|0|0,0:0|0:0|0:0|0:0|0:0|0:0|0:0|0:0,0:0:0:0:
142,69,82701,2,0,L|131:20,7,38.4999988250733,0|0|0|0|0|0|0|0,0:0|0:0|0:0|0:0|0:0|0:0|0:0|0:0,0:0:0:0:
218,85,83029,2,0,L|261:59,7,41.2500015735627,8|0|0|0|0|0|0|0,0:0|0:0|0:0|0:0|0:0|0:0|0:0|0:0,0:0:0:0:
227,163,83356,70,0,B|282:171|311:217|311:217|387:215|410:140,1,230.99999295044,0|0,0:3|0:0,0:0:0:0:
407,147,84012,6,0,B|484:264|461:364|461:364|402:345|380:268,1,346.49998942566,0|0,2:3|0:0,0:0:0:0:
385,283,84668,6,0,B|315:271|315:271|285:311|285:311|200:329,1,197.99999395752,6|0,2:0|0:0,0:0:0:0:
150,272,84996,1,8,0:0:0:0:
258,106,85160,1,0,0:0:0:0:
209,326,85324,1,0,0:0:0:0:
181,128,85488,1,0,0:0:0:0:
285,348,85652,1,8,0:0:0:0:
258,106,85815,1,0,0:0:0:0:
110,340,85979,54,0,B|64:368|64:368|19:306|49:216,1,197.99999395752,2|0,3:2|0:0,0:0:0:0:
74,154,86307,1,8,0:0:0:0:
195,283,86471,1,0,0:0:0:0:
206,315,86553,1,0,0:0:0:0:
209,347,86635,1,0,0:0:0:0:
39,304,86799,1,0,0:0:0:0:
263,192,86963,1,8,0:0:0:0:
56,73,87127,1,0,0:0:0:0:
206,315,87291,54,0,B|246:343|310:335|346:302|346:302|334:318|319:344|328:358,1,197.99999395752,2|0,3:1|0:0,0:0:0:0:
404,360,87619,1,8,0:0:0:0:
263,192,87783,1,0,0:0:0:0:
97,384,87947,1,0,0:0:0:0:
10,221,88111,1,0,0:0:0:0:
206,315,88274,1,8,0:0:0:0:
188,50,88438,54,0,B|161:22|161:22|164:116,1,131.99999597168,2|0,0:2|0:0,0:0:0:0:
206,315,88766,1,0,0:0:0:0:
253,121,88930,1,8,0:0:0:0:
142,244,89094,1,2,0:2:0:0:
310,45,89258,2,0,P|249:25|189:50,1,131.99999597168
205,314,89586,2,0,P|144:339|83:318,1,131.99999597168,8|0,0:0|0:0,0:0:0:0:
347,132,89914,54,0,B|378:120|392:100|392:100|365:157|377:212|412:243,1,197.99999395752,2|0,3:1|0:0,0:0:0:0:
460,290,90242,1,8,0:0:0:0:
310,223,90406,1,0,0:0:0:0:
492,158,90570,1,0,0:0:0:0:
459,310,90733,1,0,0:0:0:0:
474,83,90897,2,0,B|499:77|522:81|522:81|511:127|492:159,1,131.99999597168,8|0,0:0|0:0,0:0:0:0:
250,145,91225,53,0,3:0:0:0:
449,69,91389,1,0,0:0:0:0:
207,86,91553,53,8,0:0:0:0:
423,54,91717,1,0,0:0:0:0:
180,17,91881,53,2,0:2:0:0:
403,34,92045,2,0,B|424:59|449:69|449:69|413:101|363:117,1,131.99999597168,0|8,0:0|0:0,0:0:0:0:
134,75,92373,54,0,B|106:107|106:107|94:297,1,197.99999395752,6|0,3:1|0:0,0:0:0:0:
133,334,92701,1,0,0:0:0:0:
21,216,92865,2,0,L|30:67,1,131.99999597168,8|0,0:0|0:0,0:0:0:0:
173,220,93193,1,2,0:1:0:0:
19,304,93356,1,0,0:0:0:0:
215,297,93520,1,8,0:0:0:0:
20,216,93684,54,0,L|29:67,1,131.99999597168,2|0,0:2|0:0,0:0:0:0:
243,42,94012,2,0,L|250:173,1,131.99999597168,2|8,0:2|0:0,0:0:0:0:
128,295,94340,1,0,0:0:0:0:
28,84,94504,1,0,0:0:0:0:
19,304,94668,1,0,0:0:0:0:
128,84,94832,53,8,2:3:0:0:
130,64,94914,1,8,2:3:0:0:
128,44,94996,1,8,2:3:0:0:
130,24,95078,1,8,2:3:0:0:
128,4,95160,54,0,B|175:38|175:38|329:47,1,197.99999395752,6|0,3:1|0:0,0:0:0:0:
391,22,95488,1,8,0:0:0:0:
461,179,95652,1,0,0:0:0:0:
314,46,95815,1,0,0:0:0:0:
478,77,95979,1,0,0:0:0:0:
256,193,96143,2,0,P|299:218|276:174,1,131.99999597168,8|0,0:0|0:0,0:0:0:0:
482,348,96471,54,0,P|424:284|334:354,1,197.99999395752,2|0,3:2|0:0,0:0:0:0:
408,356,96799,1,8,0:0:0:0:
410,201,96963,2,0,B|397:101|397:101|382:129,2,131.99999597168
198,384,97455,53,8,0:0:0:0:
278,174,97619,1,0,0:0:0:0:
485,318,97783,53,4,2:1:0:0:
0,262,98111,1,2,2:1:0:0:
485,318,98438,53,2,2:2:0:0:
0,262,98602,1,2,2:2:0:0:
485,318,98930,54,0,B|439:347|389:319|389:319|359:365|294:355,1,197.99999395752,4|0,3:1|0:0,0:0:0:0:
319,279,99258,1,0,0:0:0:0:
270,71,99422,2,0,B|237:49|237:49|241:158,1,131.99999597168,2|0,0:1|0:0,0:0:0:0:
475,30,99750,53,2,2:2:0:0:
319,279,99914,1,2,2:2:0:0:
475,30,100242,54,0,B|508:125|508:125|398:133,1,197.99999395752,4|0,3:1|0:0,0:0:0:0:
399,53,100570,1,0,0:0:0:0:
373,208,100733,2,0,L|531:195,1,131.99999597168,8|0,0:0|0:0,0:0:0:0:
478,352,101061,2,0,L|346:362,1,131.99999597168,0|0,0:0|0:0,0:0:0:0:
267,123,101389,53,8,1:1:0:0:
427,281,101553,1,0,1:0:0:0:
177,311,101717,54,0,B|141:274|141:274|150:114,1,197.99999395752,4|0,3:1|2:0,0:0:0:0:
200,57,102045,2,0,P|272:33|344:67,1,131.99999597168,8|2,0:0|0:2,0:0:0:0:
300,303,102373,2,0,P|228:327|156:293,1,131.99999597168,0|0,0:0|0:0,0:0:0:0:
357,160,102701,53,10,2:3:0:0:
401,175,102783,1,8,2:3:0:0:
401,221,102865,1,8,2:3:0:0:
357,235,102947,1,8,2:3:0:0:
330,198,103029,54,0,B|324:165|344:115|417:121|450:152|449:214|424:249|399:255|352:237|340:235|289:277|297:330,1,329.9999899292,4|0,3:0|0:0,0:0:0:0:
320,381,103520,2,0,B|362:378|411:348|411:348|373:322,2,131.99999597168,2|0|0,0:2|0:2|0:2,0:0:0:0:
186,255,104012,2,0,B|168:237|146:225|146:225|130:267|140:335|140:335|123:328|96:298,1,197.99999395752,4|0,0:2|0:0,0:0:0:0:
58,252,104340,101,10,0:0:0:0:
89,95,104504,1,0,0:0:0:0:
240,47,104668,1,0,3:0:0:0:
87,176,104832,53,8,0:0:0:0:
156,33,104996,1,0,0:0:0:0:
314,25,105160,1,0,3:0:0:0:
256,192,105324,53,0,2:0:0:0:
249,217,105406,1,0,2:0:0:0:
242,242,105488,2,0,L|275:249,1,19.2499994125366,0|0,2:0|2:0,0:0:0:0:
235,267,105570,2,0,L|268:274,1,19.2499994125366,0|0,2:0|2:0,0:0:0:0:
201,299,105652,101,2,3:2:0:0:
196,318,106307,1,0,0:0:0:0:
73,360,106799,2,0,B|40:383|40:383|3:327|28:240,1,165,2|0,0:1|0:0,0:0:0:0:
64,148,107619,1,0,0:0:0:0:
81,139,108274,53,0,1:3:0:0:
98,131,108930,1,0,0:0:0:0:
200,47,109422,2,0,B|211:39|234:26|234:26|220:84|235:165,1,165,2|0,0:1|0:0,0:0:0:0:
298,252,110242,1,0,0:0:0:0:
316,257,110897,53,0,3:3:0:0:
335,260,111553,1,0,0:0:0:0:
445,331,112045,2,0,B|452:361|479:366|498:344|485:319|441:293|461:215,1,165,2|0,0:1|0:0,0:0:0:0:
455,110,112865,1,0,0:0:0:0:
435,106,113520,53,0,1:3:0:0:
416,103,114176,1,0,0:0:0:0:
291,58,114668,53,2,0:1:0:0:
256,192,114750,12,0,116061,0:0:0:0:
280,247,116143,54,0,P|291:140|196:190,1,263.99999194336,10|0,3:2|0:0,0:0:0:0:
256,192,117291,2,0,P|321:169|395:208,1,131.99999597168,2|0,0:1|0:0,0:0:0:0:
423,254,117783,1,0,0:0:0:0:
352,26,118111,1,8,0:3:0:0:
256,192,118438,2,0,P|223:192|190:188,1,65.9999979858399
146,87,118766,54,0,B|136:124|136:124|170:164|240:149,1,131.99999597168,8|0,1:3|0:0,0:0:0:0:
52,76,119422,2,0,B|34:139|34:139|70:175|76:211,1,131.99999597168,8|0,0:3|0:0,0:0:0:0:
78,277,119914,1,8,0:3:0:0:
219,155,120242,1,0,0:0:0:0:
222,158,120406,1,0,0:0:0:0:
52,76,120733,53,8,0:3:0:0:
225,161,121061,1,0,0:0:0:0:
228,164,121225,1,0,0:0:0:0:
326,170,121389,54,0,B|216:182|216:182|237:158,1,131.99999597168,8|0,3:3|0:0,0:0:0:0:
355,29,122045,1,8,0:3:0:0:
410,205,122373,53,0,0:0:0:0:
358,32,122537,1,8,0:3:0:0:
413,208,123029,53,0,0:0:0:0:
361,35,123356,1,8,0:3:0:0:
392,272,123684,2,0,L|416:211,1,65.9999979858399,0|0,0:0|0:0,0:0:0:0:
317,161,124012,54,0,L|363:37,1,131.99999597168,10|0,1:2|0:0,0:0:0:0:
365,40,124668,1,8,0:3:0:0:
238,173,124996,53,0,0:3:0:0:
368,43,125160,1,8,0:3:0:0:
371,46,125488,53,8,0:3:0:0:
241,176,125979,53,8,0:1:0:0:
411,365,126307,53,2,0:2:0:0:
425,219,126471,1,2,0:1:0:0:
256,68,126635,70,0,L|149:68,1,76.9999976501466,6|0,0:3|0:0,0:0:0:0:
125,153,126963,2,0,L|202:153,1,76.9999976501466,0|0,0:3|0:0,0:0:0:0:
256,238,127291,2,0,L|179:238,2,76.9999976501466,8|0|0,0:3|0:0|0:0,0:0:0:0:
376,152,127783,54,0,B|390:137|390:137|390:251|390:251|376:236,1,153.999995300293,8|0,0:3|0:0,0:0:0:0:
320,319,128274,1,0,0:0:0:0:
374,240,128438,1,0,0:0:0:0:
317,322,128602,2,0,L|230:322,1,76.9999976501466,8|0,0:3|0:0,0:0:0:0:
164,233,128930,1,0,0:0:0:0:
237,325,129094,1,0,0:0:0:0:
84,235,129258,54,0,L|191:235,1,76.9999976501466,2|0,0:1|0:0,0:0:0:0:
242,175,129586,2,0,L|319:175,1,76.9999976501466,0|0,0:3|0:0,0:0:0:0:
400,115,129914,2,0,L|477:115,2,76.9999976501466,8|0|0,0:3|0:0|0:0,0:0:0:0:
301,30,130406,53,8,0:3:0:0:
322,178,130733,1,0,0:0:0:0:
304,33,130897,1,0,0:0:0:0:
248,181,131225,54,0,L|325:181,1,76.9999976501466,8|0,0:3|0:0,0:0:0:0:
384,33,131553,2,0,L|307:33,1,76.9999976501466,0|0,0:3|0:0,0:0:0:0:
328,184,131881,53,2,0:0:0:0:
331,187,132045,1,0,0:0:0:0:
392,302,132209,1,0,0:0:0:0:
395,305,132373,1,0,0:0:0:0:
281,369,132537,1,8,0:3:0:0:
283,372,132701,2,0,L|188:372,1,76.9999976501466
334,190,133029,53,8,0:3:0:0:
204,260,133356,1,0,0:0:0:0:
337,193,133520,1,0,0:0:0:0:
213,112,133684,1,0,0:0:0:0:
207,263,133848,2,0,L|130:263,1,76.9999976501466,8|0,0:3|0:0,0:0:0:0:
340,196,134176,1,0,0:0:0:0:
343,199,134340,1,0,0:0:0:0:
180,137,134504,54,0,L|103:137,1,76.9999976501466,2|0,0:1|0:0,0:0:0:0:
133,266,134832,1,0,0:0:0:0:
100,140,134996,1,0,0:0:0:0:
213,269,135160,2,0,L|136:269,1,76.9999976501466,8|0,0:3|0:0,0:0:0:0:
97,143,135488,1,0,0:0:0:0:
40,336,135652,53,8,0:3:0:0:
94,146,135979,1,0,0:0:0:0:
120,339,136143,2,0,L|43:339,1,76.9999976501466,0|0,0:0|0:0,0:0:0:0:
91,149,136471,38,0,P|64:100|159:126,1,230.99999295044,8|0,0:3|0:0,0:0:0:0:
208,234,137127,69,6,0:3:0:0:
253,157,137291,1,0,0:0:0:0:
340,310,137455,1,0,0:0:0:0:
384,234,137619,1,0,0:0:0:0:
252,310,137783,2,0,P|197:318|145:300,1,88,8|0,0:3|0:0,0:0:0:0:
121,235,138111,1,0,0:0:0:0:
253,157,138274,54,0,P|287:200|297:254,1,88,8|0,0:3|0:0,0:0:0:0:
252,310,138602,1,0,0:0:0:0:
121,235,138766,1,0,0:0:0:0:
208,234,138930,1,0,0:0:0:0:
205,81,139094,1,8,0:3:0:0:
164,160,139258,1,0,0:0:0:0:
293,77,139422,53,0,0:0:0:0:
157,7,139586,1,0,0:0:0:0:
253,157,139750,2,0,L|253:265,1,88,2|0,0:1|0:0,0:0:0:0:
77,196,140078,2,0,L|77:88,1,88
80,105,140324,1,0,0:0:0:0:
83,102,140406,1,8,0:3:0:0:
205,81,140570,1,0,0:0:0:0:
163,198,140733,1,0,0:0:0:0:
26,40,140897,54,0,B|66:22|66:22|116:24,1,88,8|0,0:3|0:0,0:0:0:0:
208,84,141225,1,0,0:0:0:0:
310,3,141389,2,0,B|343:30|343:30|392:41,1,88,0|0,0:3|0:0,0:0:0:0:
416,163,141717,2,0,B|382:135|382:135|333:124,1,88,8|0,0:3|0:0,0:0:0:0:
256,170,142045,1,0,0:0:0:0:
336,219,142209,1,0,0:3:0:0:
390,36,142373,69,6,0:3:0:0:
393,33,142455,1,0,0:0:0:0:
397,31,142537,1,0,0:0:0:0:
401,29,142619,1,0,0:0:0:0:
404,27,142701,53,0,0:0:0:0:
387,55,142783,1,0,0:0:0:0:
370,83,142865,1,0,0:0:0:0:
351,109,142947,1,0,0:0:0:0:
335,137,143029,54,0,L|276:137,1,46.7500008916855,8|0,0:3|0:0,0:0:0:0:
432,200,143193,2,0,L|408:159,1,46.7500008916855
372,307,143356,2,0,L|395:266,1,46.7500008916855
271,251,143520,54,0,B|246:246|246:246|211:255|211:255|163:250,1,93.500001783371,12|0,0:3|0:0,0:0:0:0:
216,25,143848,1,0,0:0:0:0:
219,23,143930,1,0,0:0:0:0:
222,20,144012,53,0,0:0:0:0:
254,25,144094,1,0,0:0:0:0:
286,30,144176,1,0,0:0:0:0:
317,34,144258,1,0,0:0:0:0:
350,38,144340,54,0,L|426:48,1,46.7500008916855,8|0,0:3|0:0,0:0:0:0:
322,142,144504,2,0,L|245:131,1,46.7500008916855,0|0,0:0|0:0,0:0:0:0:
336,13,144668,54,0,L|412:23,1,46.7500008916855
336,167,144832,2,0,L|259:156,1,46.7500008916855
452,115,144996,53,6,0:1:0:0:
457,107,145078,1,0,0:0:0:0:
460,100,145160,1,0,0:0:0:0:
466,92,145242,1,0,0:0:0:0:
471,85,145324,53,0,0:0:0:0:
467,124,145406,1,0,0:0:0:0:
466,163,145488,1,0,0:0:0:0:
464,202,145570,1,0,0:0:0:0:
464,241,145652,53,8,0:3:0:0:
423,213,145733,1,0,0:0:0:0:
382,241,145815,1,0,0:0:0:0:
341,213,145897,1,0,0:0:0:0:
300,241,145979,54,0,L|240:241,1,49.4999984893799
342,312,146143,54,0,L|343:351,14,24.74999924469,14|0|0|0|0|0|0|0|0|0|0|0|8|0|0,0:3|0:0|0:0|0:0|0:0|0:0|0:0|0:0|0:0|0:0|0:0|0:0|0:1|0:0|0:0,0:0:0:0:
259,315,146799,69,0,0:0:0:0:
255,167,146963,54,0,P|276:154|299:146,1,49.4999984893799,8|0,0:3|0:0,0:0:0:0:
177,301,147127,2,0,P|164:322|148:341,1,49.4999984893799,0|0,0:0|0:0,0:0:0:0:
176,152,147291,54,0,P|188:130|204:111,1,49.4999984893799,0|0,0:0|0:0,0:0:0:0:
99,286,147455,2,0,P|77:298|54:306,1,49.4999984893799,0|0,0:0|0:0,0:0:0:0:
62,123,147619,102,0,B|58:64|58:64|115:19|200:39,1,189.750003619194,14|0,3:2|0:2,0:0:0:0:
258,54,147947,2,0,B|328:68|323:33|397:56,1,126.500002412796,10|0,0:0|0:0,0:0:0:0:
343,247,148274,1,0,0:0:0:0:
203,111,148438,1,0,0:0:0:0:
374,155,148602,1,8,0:0:0:0:
201,203,148766,1,2,0:2:0:0:
439,228,148930,54,0,B|466:300|455:359|455:359|383:335,1,189.750003619194,2|0,3:2|0:0,0:0:0:0:
327,322,149258,1,8,0:0:0:0:
177,290,149422,1,0,0:0:0:0:
334,120,149586,2,0,B|359:115|388:121|411:134|411:134|398:109|373:101,1,126.500002412796,0|0,0:0|0:0,0:0:0:0:
151,202,149914,1,8,0:0:0:0:
176,38,150078,1,0,0:0:0:0:
346,244,150242,54,0,B|388:294|430:285|430:285|408:273|393:252,1,126.500002412796,2|0,3:1|0:0,0:0:0:0:
151,202,150570,2,0,B|87:186|59:218|59:218|84:215|108:223,1,126.500002412796,8|0,0:0|0:0,0:0:0:0:
334,120,150897,2,0,B|395:95|399:52|399:52|381:70|356:77,1,126.500002412796,2|0,0:2|0:0,0:0:0:0:
234,294,151225,2,0,B|199:349|220:386|220:386|225:361|240:341,1,126.500002412796,8|0,0:0|0:0,0:0:0:0:
212,95,151553,54,0,B|207:29|168:12|168:12|178:35|178:60,1,126.500002412796,2|0,3:1|0:0,0:0:0:0:
151,202,151881,1,8,0:0:0:0:
33,100,152045,1,0,0:0:0:0:
35,277,152209,1,0,0:0:0:0:
123,114,152373,1,0,0:0:0:0:
114,330,152537,1,8,0:0:0:0:
0,188,152701,1,2,0:2:0:0:
229,359,152865,54,0,B|366:379|366:379|438:357,1,189.750003619194,6|0,3:2|0:0,0:0:0:0:
359,306,153193,2,0,L|233:287,1,126.500002412796,8|0,0:0|0:0,0:0:0:0:
437,286,153520,1,0,0:0:0:0:
361,151,153684,1,0,0:0:0:0:
415,364,153848,1,8,0:0:0:0:
512,154,154012,1,2,0:2:0:0:
270,194,154176,54,0,B|196:182|196:182|146:134|168:69,1,189.750003619194,2|0,3:1|0:0,0:0:0:0:
206,11,154504,1,8,0:0:0:0:
84,159,154668,2,0,P|175:193|238:68,1,253.000004825592,0|0,3:1|0:0,0:0:0:0:
12,181,155160,2,0,B|-2:143|19:102|19:102|72:81,1,126.500002412796,8|0,0:0|0:0,0:0:0:0:
85,373,155488,53,2,3:2:0:0:
12,181,155652,1,2,0:2:0:0:
0,354,155815,1,10,0:0:0:0:
170,176,155979,2,0,B|197:166|197:166|190:222|145:272,1,126.500002412796,2|0,0:2|0:0,0:0:0:0:
219,73,156307,1,0,0:0:0:0:
250,260,156471,2,0,B|218:321|193:329|193:329|138:334,1,126.500002412796,10|0,0:0|0:0,0:0:0:0:
286,158,156799,54,0,B|298:126|329:114|329:114|356:149|408:160|453:121,1,189.750003619194,6|0,3:1|0:0,0:0:0:0:
393,63,157127,1,2,3:1:0:0:
365,232,157291,2,0,P|312:264|250:260,1,126.500002412796,0|0,0:0|0:0,0:0:0:0:
219,73,157619,1,0,0:0:0:0:
230,57,157701,1,0,0:0:0:0:
241,41,157783,53,8,0:0:0:0:
257,86,157865,1,0,0:0:0:0:
241,131,157947,1,0,0:0:0:0:
257,176,158029,1,0,0:0:0:0:
241,221,158111,37,4,0:0:0:0:
181,296,158274,1,0,0:0:0:0:
86,307,158438,1,0,0:0:0:0:
11,247,158602,2,0,P|-6:194|3:139,1,82.5000031471254,0|0,0:0|0:0,0:0:0:0:
93,92,158930,1,0,0:0:0:0:
83,188,159094,1,0,0:0:0:0:
90,89,159422,53,0,0:0:0:0:
80,185,159586,1,0,0:0:0:0:
212,238,159750,1,8,0:1:0:0:
87,86,159914,1,8,0:1:0:0:
227,0,160242,5,8,0:2:0:0:
245,321,160406,1,10,0:2:0:0:
182,151,160733,37,4,0:0:0:0:
272,152,160897,1,0,0:0:0:0:
360,168,161061,1,0,0:0:0:0:
442,198,161225,2,0,P|476:223|505:252,1,82.5000031471254,0|0,0:0|0:0,0:0:0:0:
396,312,161553,1,0,0:0:0:0:
328,253,161717,1,0,0:0:0:0:
393,315,162045,53,0,0:0:0:0:
325,256,162209,1,0,0:0:0:0:
427,112,162373,1,8,0:1:0:0:
390,318,162537,1,8,0:1:0:0:
510,97,162865,5,8,0:2:0:0:
191,58,163029,2,0,L|148:156,1,82.5000031471254,10|0,0:2|0:0,0:0:0:0:
103,329,163356,5,2,2:3:0:0:
267,340,163520,1,0,0:0:0:0:
390,231,163684,1,0,0:0:0:0:
73,290,163848,53,8,0:0:0:0:
262,325,164012,1,0,0:0:0:0:
390,180,164176,1,0,0:0:0:0:
54,241,164340,53,4,2:3:0:0:
258,310,164504,1,0,0:0:0:0:
377,129,164668,1,0,0:0:0:0:
41,193,164832,53,2,0:0:0:0:
254,295,164996,1,0,0:0:0:0:
356,82,165160,1,0,0:0:0:0:
44,153,165324,54,0,B|72:90|72:90|154:101,1,126.500002412796,8|0,2:3|0:0,0:0:0:0:
144,100,165570,1,0,0:0:0:0:
158,102,165652,1,0,0:0:0:0:
253,280,165815,1,0,0:3:0:0:
344,11,165979,53,2,2:3:0:0:
447,139,166143,1,0,0:0:0:0:
428,300,166307,1,0,0:0:0:0:
295,8,166471,53,8,2:3:0:0:
431,143,166635,1,0,0:0:0:0:
386,331,166799,1,0,0:0:0:0:
243,21,166963,53,4,2:3:0:0:
417,148,167127,1,0,0:0:0:0:
337,350,167291,1,0,0:0:0:0:
197,36,167455,53,2,0:0:0:0:
402,154,167619,1,0,0:0:0:0:
287,358,167783,1,0,0:0:0:0:
305,90,167947,54,0,B|275:79|275:79|305:110|300:186|239:209,1,189.750003619194,10|2,2:3|0:0,0:0:0:0:
208,130,168274,2,0,B|170:140|141:130|141:130|128:149|98:165|98:165|140:161|178:178,1,189.750003619194,0|0,0:0|0:0,0:0:0:0:
239,209,168602,85,6,3:3:0:0:
276,79,168766,1,0,0:0:0:0:
333,265,168930,2,0,L|224:199,1,110,8|0,0:0|0:0,0:0:0:0:
358,146,169258,1,0,0:0:0:0:
410,278,169422,1,0,0:2:0:0:
466,114,169586,2,0,L|371:57,1,110,8|0,0:0|0:0,0:0:0:0:
461,209,169914,1,0,3:3:0:0:
494,35,170078,53,0,0:0:0:0:
358,146,170242,1,8,0:0:0:0:
182,34,170406,1,0,0:0:0:0:
355,169,170570,53,0,0:0:0:0:
124,110,170733,1,0,0:0:0:0:
371,57,170897,1,8,0:0:0:0:
163,199,171061,54,0,B|136:233|136:233|129:260|129:260|76:310,2,110,2|0|0,0:2|3:3|0:0,0:0:0:0:
277,46,171553,1,8,0:0:0:0:
258,210,171717,1,2,0:2:0:0:
182,34,171881,53,0,0:0:0:0:
371,57,172045,1,0,0:0:0:0:
124,110,172209,1,8,0:0:0:0:
315,133,172373,1,0,0:0:0:0:
67,189,172537,54,0,P|69:233|85:274,1,55,0|0,3:3|0:0,0:0:0:0:
128,322,172701,1,0,0:0:0:0:
220,122,172865,1,8,0:0:0:0:
71,243,173029,1,0,0:0:0:0:
258,210,173193,2,0,B|314:212|314:212|379:238,1,110,2|0,0:0|0:0,0:0:0:0:
77,261,173520,53,8,0:0:0:0:
264,228,173684,2,0,B|320:230|320:230|385:256,1,110,2|0,0:2|3:3,0:0:0:0:
158,60,174012,1,2,0:2:0:0:
181,247,174176,1,8,0:0:0:0:
256,128,174340,1,0,0:0:0:0:
66,83,174504,1,0,0:0:0:0:
171,166,174668,1,0,0:0:0:0:
51,0,174832,1,8,0:0:0:0:
62,165,174996,1,0,0:0:0:0:
247,26,175160,54,0,P|282:31|313:40,1,55,2|0,3:2|0:0,0:0:0:0:
256,128,175324,1,0,0:0:0:0:
415,86,175488,54,0,P|442:108|465:131,1,55,8|0,0:0|0:0,0:0:0:0:
372,178,175652,1,0,0:0:0:0:
502,29,175815,53,2,0:2:0:0:
495,226,175979,1,0,0:2:0:0:
334,109,176143,1,8,0:0:0:0:
311,354,176307,54,0,B|226:352|226:352|196:336|157:288,1,165,6|0,0:1|0:0,0:0:0:0:
149,250,176635,1,0,0:0:0:0:
148,140,176799,1,8,0:0:0:0:
201,44,176963,1,0,0:0:0:0:
225,201,177127,53,0,0:0:0:0:
72,195,177291,1,0,0:0:0:0:
271,90,177455,53,8,0:0:0:0:
64,108,177619,1,2,0:2:0:0:
279,106,177947,53,2,0:2:0:0:
72,92,178111,1,8,0:0:0:0:
150,193,178274,1,0,0:0:0:0:
251,19,178438,54,0,P|229:35|209:55,1,55
285,120,178602,1,0,0:0:0:0:
168,141,178766,54,0,P|157:166|150:192,1,55,8|0,0:0|0:0,0:0:0:0:
242,207,178930,1,8,0:0:0:0:
230,250,179012,1,0,0:0:0:0:
212,290,179094,54,0,B|208:325|196:358|159:380|159:380|169:349|170:325|146:298,1,165,6|0,3:1|0:0,0:0:0:0:
92,349,179422,1,8,0:0:0:0:
310,298,179586,1,0,0:0:0:0:
149,192,179750,2,0,B|97:174|97:174|40:193|16:264,1,165
17,289,180078,1,8,0:0:0:0:
37,91,180242,54,0,B|57:73|92:67|92:67|162:89,1,110,0|0,0:0|3:1,0:0:0:0:
214,269,180570,2,0,B|194:287|159:293|159:293|89:271,1,110,0|8,0:0|0:0,0:0:0:0:
242,128,180897,1,0,0:0:0:0:
316,237,181061,2,0,L|279:376,1,110,0|0,0:0|0:0,0:0:0:0:
429,242,181389,2,0,L|392:381,1,110,8|0,0:0|0:0,0:0:0:0:
181,188,181717,53,4,3:1:0:0:
214,383,181881,1,0,0:0:0:0:
39,288,182045,2,0,P|13:243|10:168,1,110,8|8,0:0|0:3,0:0:0:0:
157,6,182373,53,8,3:0:0:0:
100,212,182537,1,8,3:0:0:0:
512,78,182865,54,0,B|462:58|411:76|411:76|365:64|328:72,1,165,6|0,0:0|0:0,0:0:0:0:
281,110,183193,1,0,0:0:0:0:
461,191,183356,1,8,0:0:0:0:
306,314,183520,1,0,0:0:0:0:
349,69,183684,1,4,0:0:0:0:
415,264,183848,1,4,0:2:0:0:
215,178,184012,1,8,0:0:0:0:
437,114,184176,54,0,B|478:138|498:178|498:178|485:300,1,165,6|0,0:2|0:0,0:0:0:0:
464,325,184504,1,2,0:0:0:0:
364,372,184668,1,8,0:0:0:0:
260,334,184832,1,0,0:0:0:0:
213,233,184996,2,0,L|213:105,1,110,0|0,0:0|0:0,0:0:0:0:
342,185,185324,1,0,0:0:0:0:
187,308,185488,1,2,0:2:0:0:
406,291,185652,54,0,B|442:267|442:267|480:189,1,110,6|0,0:0|0:0,0:0:0:0:
399,70,185979,2,0,P|342:55|282:71,1,110,8|0,0:0|0:0,0:0:0:0:
342,185,186307,1,8,0:0:0:0:
440,136,186471,1,0,0:0:0:0:
274,137,186635,1,8,0:0:0:0:
257,189,186717,1,0,0:0:0:0:
274,241,186799,1,0,0:0:0:0:
257,293,186881,1,0,0:0:0:0:
274,345,186963,54,0,P|222:330|151:363,1,110,6|0,0:3|0:0,0:0:0:0:
200,128,187291,1,8,0:1:0:0:
415,209,187455,2,0,B|428:241|428:241|424:268|424:268|441:321|411:366,1,165,8|0,0:2|0:0,0:0:0:0:
274,345,187783,2,0,P|235:331|214:333,1,55,10|0,0:2|0:0,0:0:0:0:
141,347,187947,5,0,0:0:0:0:
92,286,188029,1,0,0:0:0:0:
92,208,188111,1,0,0:0:0:0:
123,137,188193,1,0,0:0:0:0:
167,198,188274,69,14,1:3:0:0:
31,335,188438,1,8,1:3:0:0:
70,28,188602,53,8,1:3:0:0:
168,274,188766,1,8,1:3:0:0:
287,67,188930,70,0,P|231:54|178:75,1,98.9999969787599,0|0,0:3|0:0,0:0:0:0:
192,65,189258,6,0,B|178:135|208:182|208:182|233:131,1,148.49999546814,0|0,0:3|0:0,0:0:0:0:
220,157,189586,6,0,B|241:126|241:126|297:163|368:128|367:72|356:34,1,197.99999395752,6|0,0:2|0:1,0:0:0:0:
287,67,189914,1,8,0:0:0:0:
282,231,190078,1,0,0:0:0:0:
192,65,190242,1,0,0:0:0:0:
192,252,190406,1,0,0:0:0:0:
382,78,190570,1,8,0:0:0:0:
198,165,190733,1,0,0:0:0:0:
499,149,190897,54,0,B|520:181|509:218|509:218|494:255|494:255|515:297|494:338,1,197.99999395752,2|0,3:2|0:0,0:0:0:0:
423,298,191225,1,8,0:0:0:0:
245,361,191389,1,0,0:0:0:0:
213,350,191471,1,0,0:0:0:0:
187,329,191553,1,0,0:0:0:0:
296,198,191717,1,0,0:0:0:0:
423,379,191881,1,8,0:0:0:0:
390,144,192045,1,0,0:0:0:0:
187,329,192209,54,0,B|141:357|141:357|111:345|111:345|72:375|24:372|-18:323,1,197.99999395752,2|0,3:1|0:0,0:0:0:0:
59,285,192537,1,8,0:0:0:0:
265,363,192701,1,0,0:0:0:0:
7,346,192865,1,0,0:0:0:0:
46,184,193029,1,0,0:0:0:0:
255,278,193193,1,8,0:0:0:0:
175,28,193356,54,0,B|146:11|146:11|13:10,1,131.99999597168,2|0,0:2|0:0,0:0:0:0:
46,184,193684,1,0,0:0:0:0:
251,155,193848,1,8,0:0:0:0:
49,306,194012,1,2,0:2:0:0:
255,278,194176,2,0,B|277:210|277:210|251:155,1,131.99999597168,0|0,0:0|0:0,0:0:0:0:
49,306,194504,2,0,B|23:251|23:251|45:183,1,131.99999597168,8|0,0:0|0:0,0:0:0:0:
286,358,194832,54,0,B|323:374|361:369|361:369|399:346|399:346|441:369|496:338,1,197.99999395752,2|0,3:1|0:0,0:0:0:0:
438,276,195160,1,8,0:0:0:0:
255,278,195324,1,0,0:0:0:0:
473,348,195488,1,0,0:0:0:0:
286,358,195652,1,0,0:0:0:0:
384,107,195815,2,0,B|418:88|418:88|398:204,1,131.99999597168,8|0,0:0|0:0,0:0:0:0:
126,56,196143,53,0,3:0:0:0:
87,302,196307,1,0,0:0:0:0:
259,47,196471,53,8,0:0:0:0:
157,274,196635,1,0,0:0:0:0:
384,107,196799,53,2,0:2:0:0:
226,300,196963,2,0,B|224:334|253:355|253:355|285:330|272:289,1,131.99999597168,0|8,0:0|0:0,0:0:0:0:
126,56,197291,54,0,B|85:20|85:20|99:182,1,197.99999395752,6|0,3:1|0:0,0:0:0:0:
171,196,197619,1,0,0:0:0:0:
11,165,197783,2,0,L|0:33,1,131.99999597168,8|0,0:0|0:0,0:0:0:0:
104,243,198111,1,2,0:1:0:0:
171,118,198274,1,0,0:0:0:0:
18,251,198438,1,8,0:0:0:0:
288,251,198602,54,0,L|303:106,1,131.99999597168,2|0,0:2|0:0,0:0:0:0:
499,49,198930,2,0,L|512:180,1,131.99999597168,2|8,0:2|0:0,0:0:0:0:
422,300,199258,1,0,0:0:0:0:
380,27,199422,1,0,0:0:0:0:
482,252,199586,1,0,0:0:0:0:
275,182,199750,53,8,2:3:0:0:
256,153,199832,1,8,2:3:0:0:
250,121,199914,1,8,2:3:0:0:
252,87,199996,1,8,2:3:0:0:
266,58,200078,54,0,B|234:40|234:40|202:129|251:216,1,197.99999395752,6|0,3:1|0:0,0:0:0:0:
286,262,200406,1,8,0:0:0:0:
327,124,200570,1,0,0:0:0:0:
144,168,200733,1,0,0:0:0:0:
290,280,200897,1,0,0:0:0:0:
148,74,201061,2,0,B|101:67|101:67|48:83|39:144,1,131.99999597168,8|0,0:0|0:0,0:0:0:0:
52,343,201389,54,0,P|110:279|200:349,1,197.99999395752,2|0,3:2|0:0,0:0:0:0:
126,351,201717,1,8,0:0:0:0:
43,123,201881,2,0,B|12:33|12:33|53:48,2,131.99999597168
292,248,202373,1,8,0:0:0:0:
78,257,202537,1,0,0:0:0:0:
202,70,202701,53,4,2:1:0:0:
0,379,203029,1,2,2:1:0:0:
202,70,203356,53,2,2:2:0:0:
0,379,203520,1,2,2:2:0:0:
202,70,203848,54,0,B|231:44|267:34|267:34|296:59|344:69|412:56,1,197.99999395752,4|0,3:1|0:0,0:0:0:0:
452,22,204176,1,0,0:0:0:0:
444,259,204340,2,0,P|382:269|283:252,1,131.99999597168,2|0,0:1|0:0,0:0:0:0:
155,0,204668,53,2,2:2:0:0:
66,290,204832,1,2,2:2:0:0:
66,290,205160,54,0,B|101:196|101:196|191:260,1,197.99999395752,4|0,3:1|0:0,0:0:0:0:
137,320,205488,1,0,0:0:0:0:
258,218,205652,2,0,L|128:126,1,131.99999597168,8|0,0:0|0:0,0:0:0:0:
270,41,205979,2,0,L|377:118,1,131.99999597168,0|0,0:0|0:0,0:0:0:0:
284,351,206307,53,8,1:1:0:0:
263,127,206471,1,0,1:0:0:0:
454,266,206635,54,0,B|423:308|423:308|282:351,1,197.99999395752,4|0,3:1|2:0,0:0:0:0:
203,317,206963,2,0,B|134:327|134:327|70:312,1,131.99999597168,8|2,0:0|0:2,0:0:0:0:
199,98,207291,2,0,B|268:88|268:88|332:103,1,131.99999597168,0|0,0:0|0:0,0:0:0:0:
233,243,207619,53,10,2:3:0:0:
218,197,207701,1,8,2:3:0:0:
255,169,207783,1,8,2:3:0:0:
293,197,207865,1,8,2:3:0:0:
276,241,207947,54,0,B|257:263|210:258|188:209|198:178|234:145|265:152|290:164|307:181|306:220|332:271|399:261,1,329.9999899292,4|0,3:0|0:0,0:0:0:0:
461,213,208438,2,0,B|443:177|405:142|405:142|389:188,2,131.99999597168,2|0|0,0:2|0:2|0:2,0:0:0:0:
409,364,208930,2,0,B|354:366|321:329|321:329|262:358|193:323,1,197.99999395752,4|0,0:2|0:0,0:0:0:0:
164,280,209258,101,8,0:0:0:0:
172,121,209422,1,0,0:0:0:0:
179,110,209504,1,0,0:0:0:0:
186,99,209586,1,0,3:0:0:0:
293,219,209750,1,8,0:0:0:0:
300,230,209832,1,0,0:0:0:0:
307,241,209914,53,0,3:0:0:0:
296,195,209996,1,0,3:0:0:0:
307,149,210078,1,8,3:0:0:0:
296,103,210160,1,0,3:0:0:0:
307,57,210242,85,0,1:0:0:0:
361,32,210324,1,0,1:0:0:0:
415,54,210406,1,0,1:0:0:0:
423,112,210488,1,0,1:0:0:0:
390,162,210570,22,0,L|390:269,1,76.9999976501466,6|0,0:3|0:0,0:0:0:0:
305,293,210897,2,0,L|305:216,1,76.9999976501466,0|0,0:3|0:0,0:0:0:0:
220,162,211225,2,0,L|220:239,2,76.9999976501466,8|0|0,0:3|0:0|0:0,0:0:0:0:
267,53,211717,54,0,B|281:38|281:38|167:38|167:38|182:53,1,153.999995300293,8|0,0:3|0:0,0:0:0:0:
132,136,212209,1,0,0:0:0:0:
183,54,212373,1,0,0:0:0:0:
135,139,212537,2,0,L|135:216,1,76.9999976501466,8|0,0:3|0:0,0:0:0:0:
238,174,212865,1,0,0:0:0:0:
138,142,213029,1,0,0:0:0:0:
241,259,213193,54,0,L|241:152,1,82.5000031471254,2|0,0:1|0:0,0:0:0:0:
321,106,213520,2,0,L|321:188,1,82.5000031471254,0|0,0:3|0:0,0:0:0:0:
321,271,213848,2,0,L|321:353,2,82.5000031471254,8|0|0,0:3|0:0|0:0,0:0:0:0:
415,189,214340,53,8,0:3:0:0:
375,32,214668,1,0,0:0:0:0:
412,192,214832,1,0,0:0:0:0:
378,35,215160,54,0,L|378:123,1,82.5000031471254,8|0,0:3|0:0,0:0:0:0:
321,188,215488,2,0,L|321:276,1,82.5000031471254,0|0,0:3|0:0,0:0:0:0:
195,310,215815,53,2,0:2:0:0:
192,307,215979,1,0,0:0:0:0:
131,192,216143,1,0,0:0:0:0:
128,189,216307,1,0,0:0:0:0:
236,115,216471,1,8,0:3:0:0:
233,112,216635,2,0,L|233:20,1,82.5000031471254,0|0,0:0|0:0,0:0:0:0:
142,111,216963,53,8,0:3:0:0:
212,247,217291,1,0,0:0:0:0:
145,114,217455,1,0,0:0:0:0:
64,238,217619,1,0,0:0:0:0:
215,332,217783,2,0,L|215:249,1,82.5000031471254,8|0,0:3|0:0,0:0:0:0:
297,342,218111,1,0,0:0:0:0:
300,345,218274,1,0,0:0:0:0:
304,210,218438,54,0,L|304:97,1,82.5000031471254,2|0,0:1|0:0,0:0:0:0:
427,78,218766,1,0,0:0:0:0:
301,124,218930,1,0,0:0:0:0:
430,163,219094,2,0,L|430:81,1,82.5000031471254,8|0,0:3|0:0,0:0:0:0:
298,121,219422,1,0,0:0:0:0:
425,246,219586,53,8,0:3:0:0:
295,118,219914,1,0,0:0:0:0:
249,233,220078,2,0,L|248:315,1,82.5000031471254
156,195,220406,38,0,P|86:125|185:119,1,247.500009441376,8|0,0:3|0:0,0:0:0:0:
309,198,221061,69,6,0:3:0:0:
232,243,221225,1,0,0:0:0:0:
385,330,221389,1,0,0:0:0:0:
309,374,221553,1,0,0:0:0:0:
385,242,221717,2,0,P|393:187|375:135,1,88,8|0,0:3|0:0,0:0:0:0:
310,111,222045,1,0,0:0:0:0:
232,243,222209,54,0,P|275:277|329:287,1,88,8|0,0:3|0:0,0:0:0:0:
385,242,222537,1,0,0:0:0:0:
310,111,222701,1,0,0:0:0:0:
309,198,222865,1,0,0:0:0:0:
156,195,223029,1,8,0:3:0:0:
235,154,223193,1,0,0:0:0:0:
152,283,223356,53,0,0:0:0:0:
82,148,223520,1,0,0:0:0:0:
232,243,223684,2,0,L|340:243,1,88,2|0,0:1|0:0,0:0:0:0:
278,70,224012,2,0,L|170:70,1,88,0|0,0:0|0:0,0:0:0:0:
187,73,224258,1,0,0:0:0:0:
184,76,224340,1,8,0:3:0:0:
156,195,224504,1,0,0:0:0:0:
280,156,224668,1,0,0:0:0:0:
140,209,224832,54,0,P|131:266|143:309,1,88,8|0,0:3|0:0,0:0:0:0:
213,355,225160,1,0,0:0:0:0:
283,242,225324,2,0,P|288:198|279:155,1,88,0|0,0:3|0:0,0:0:0:0:
143,123,225652,2,0,P|133:165|140:209,1,88,8|0,0:3|0:0,0:0:0:0:
279,155,225979,1,0,0:0:0:0:
228,79,226143,1,0,0:3:0:0:
252,315,226307,5,6,0:3:0:0:
251,318,226389,1,0,0:0:0:0:
250,321,226471,1,0,0:0:0:0:
247,324,226553,1,0,0:0:0:0:
245,329,226635,53,0,0:0:0:0:
253,297,226717,1,0,0:0:0:0:
255,264,226799,1,0,0:0:0:0:
243,233,226881,1,0,0:0:0:0:
220,208,226963,54,0,P|181:193|156:188,1,46.7500008916855,8|0,0:3|0:0,0:0:0:0:
136,293,227127,2,0,P|155:279|172:263,1,46.7500008916855,0|0,0:0|0:0,0:0:0:0:
103,177,227291,2,0,P|106:201|112:223,1,46.7500008916855
169,379,227455,54,0,P|211:360|244:328,1,93.500001783371,12|0,0:3|0:0,0:0:0:0:
356,161,227783,1,0,0:0:0:0:
359,158,227865,1,0,0:0:0:0:
362,155,227947,53,0,0:0:0:0:
386,180,228029,1,0,0:0:0:0:
402,207,228111,1,0,0:0:0:0:
406,240,228193,1,0,0:0:0:0:
396,273,228274,54,0,P|368:304|348:320,1,46.7500008916855,8|0,0:3|0:0,0:0:0:0:
330,189,228438,2,0,P|357:157|377:141,1,46.7500008916855,0|0,0:0|0:0,0:0:0:0:
394,313,228602,54,0,P|359:336|336:346,1,46.7500008916855,0|0,0:0|0:0,0:0:0:0:
332,149,228766,2,0,P|366:125|389:115,1,46.7500008916855,0|0,0:0|0:0,0:0:0:0:
199,253,228930,53,6,0:1:0:0:
189,253,229012,1,0,0:0:0:0:
179,253,229094,1,0,0:0:0:0:
168,253,229176,1,0,0:0:0:0:
158,253,229258,53,0,0:0:0:0:
183,223,229340,1,0,0:0:0:0:
196,186,229422,1,0,0:0:0:0:
194,146,229504,1,0,0:0:0:0:
178,111,229586,53,8,0:3:0:0:
193,63,229668,1,0,0:0:0:0:
240,45,229750,1,0,0:0:0:0:
283,70,229832,1,0,0:0:0:0:
290,120,229914,54,0,P|280:162|272:188,1,49.4999984893799,0|0,0:0|0:0,0:0:0:0:
316,234,230078,54,0,L|308:272,14,24.74999924469,14|0|0|0|0|0|0|0|0|0|0|0|8|0|0,0:3|0:0|0:0|0:0|0:0|0:0|0:0|0:0|0:0|0:0|0:0|0:0|0:1|0:0|0:0,0:0:0:0:
355,169,230733,5,0,0:0:0:0:
237,266,230897,54,0,P|213:266|188:270,1,49.4999984893799,8|0,0:3|0:0,0:0:0:0:
392,268,231061,2,0,P|414:256|433:240,1,49.4999984893799,0|0,0:0|0:0,0:0:0:0:
210,341,231225,54,0,P|189:353|170:369,1,49.4999984893799,0|0,0:0|0:0,0:0:0:0:
366,344,231389,2,0,P|390:345|415:341,1,49.4999984893799,0|0,0:0|0:0,0:0:0:0:
355,169,231553,102,0,B|299:132|299:132|216:118|162:162,1,189.750003619194,14|0,3:2|0:2,0:0:0:0:
119,196,231881,2,0,B|26:217|26:217|48:170,1,126.500002412796,8|0,0:0|0:0,0:0:0:0:
127,20,232209,1,0,0:0:0:0:
180,149,232373,1,0,0:0:0:0:
31,43,232537,1,8,0:0:0:0:
213,60,232701,1,2,0:2:0:0:
5,261,232865,54,0,B|18:334|18:334|62:370|134:349,1,189.750003619194,2|0,3:2|0:0,0:0:0:0:
194,311,233193,1,8,0:0:0:0:
318,152,233356,1,0,0:0:0:0:
488,236,233520,2,0,B|510:268|510:268|508:314|490:360,1,126.500002412796
346,232,233848,1,8,0:0:0:0:
429,79,234012,1,0,0:0:0:0:
196,26,234176,54,0,B|172:9|172:9|203:100,1,126.500002412796,2|0,3:1|0:0,0:0:0:0:
397,288,234504,2,0,B|426:287|426:287|346:232,1,126.500002412796,8|0,0:0|0:0,0:0:0:0:
79,195,234832,2,0,B|55:213|55:213|152:211,1,126.500002412796,2|0,0:2|0:0,0:0:0:0:
390,84,235160,2,0,B|398:55|398:55|321:114,1,126.500002412796,8|0,0:0|0:0,0:0:0:0:
206,359,235488,54,0,B|215:386|215:386|243:293,1,126.500002412796,2|0,3:1|0:0,0:0:0:0:
203,100,235815,1,8,0:0:0:0:
151,211,235979,1,0,0:0:0:0:
321,113,236143,1,0,0:0:0:0:
345,231,236307,1,0,0:0:0:0:
121,130,236471,1,8,0:0:0:0:
243,292,236635,1,2,0:2:0:0:
223,30,236799,54,0,B|202:103|202:103|227:140|227:140|230:208,1,189.750003619194,6|0,3:2|0:0,0:0:0:0:
243,292,237127,2,0,B|285:308|285:308|323:308|323:308|380:329,1,126.500002412796,8|0,0:0|0:1,0:0:0:0:
163,261,237455,1,0,0:0:0:0:
315,158,237619,1,0,0:0:0:0:
444,351,237783,1,8,0:0:0:0:
333,145,237947,1,2,0:2:0:0:
176,345,238111,54,0,B|86:364|86:364|19:343|15:269,1,189.750003619194,2|0,3:1|0:0,0:0:0:0:
22,222,238438,1,8,0:0:0:0:
117,47,238602,2,0,B|144:30|185:35|185:35|227:57|281:40|281:40|237:61|230:102,1,253.000004825592,0|0,3:1|0:0,0:0:0:0:
237,268,239094,2,0,B|275:293|312:289|312:289|352:256,1,126.500002412796,8|0,0:0|0:0,0:0:0:0:
383,31,239422,53,2,3:2:0:0:
348,259,239586,1,2,0:2:0:0:
230,102,239750,1,10,0:0:0:0:
448,211,239914,2,0,B|427:251|393:266|393:266|342:258,1,126.500002412796,2|0,0:2|0:0,0:0:0:0:
508,357,240242,1,0,0:0:0:0:
451,99,240406,2,0,P|492:123|474:78,1,126.500002412796,10|0,0:0|0:0,0:0:0:0:
188,112,240733,54,0,B|149:106|135:125|135:125|141:179|99:222|43:215,1,189.750003619194,6|0,3:1|0:0,0:0:0:0:
57,136,241061,1,2,3:1:0:0:
0,319,241225,2,0,B|44:345|44:345|131:341,1,126.500002412796
295,222,241553,53,0,0:0:0:0:
276,205,241635,1,0,0:0:0:0:
256,190,241717,53,8,0:0:0:0:
249,240,241799,1,0,0:0:0:0:
288,271,241881,1,0,0:0:0:0:
334,252,241963,1,0,0:0:0:0:
340,202,242045,37,4,0:0:0:0:
283,120,242209,1,0,0:0:0:0:
183,128,242373,1,0,0:0:0:0:
139,218,242537,2,0,P|99:229|31:207,1,82.5000031471254,0|0,0:0|0:0,0:0:0:0:
24,94,242865,1,0,0:0:0:0:
94,153,243029,1,0,0:0:0:0:
27,97,243356,53,0,0:0:0:0:
100,155,243520,1,0,0:0:0:0:
191,38,243684,1,8,0:1:0:0:
30,100,243848,1,8,0:1:0:0:
128,347,244176,69,8,0:2:0:0:
96,29,244340,1,10,0:2:0:0:
210,251,244668,101,4,0:0:0:0:
293,217,244832,1,0,0:0:0:0:
370,171,244996,1,0,0:0:0:0:
435,113,245160,2,0,P|457:77|474:40,1,82.5000031471254,0|0,0:0|0:0,0:0:0:0:
352,24,245488,1,0,0:0:0:0:
309,103,245652,1,0,0:0:0:0:
348,22,245979,53,0,0:0:0:0:
305,101,246143,1,0,0:0:0:0:
452,199,246307,1,8,0:1:0:0:
344,20,246471,1,8,0:1:0:0:
336,334,246799,69,10,0:2:0:0:
430,28,246963,2,0,L|472:125,1,82.5000031471254,10|0,0:2|0:0,0:0:0:0:
403,279,247291,5,2,2:3:0:0:
239,290,247455,1,0,0:0:0:0:
116,181,247619,1,0,0:0:0:0:
433,240,247783,53,8,0:0:0:0:
244,275,247947,1,0,0:0:0:0:
116,130,248111,1,0,0:0:0:0:
452,191,248274,53,4,2:3:0:0:
248,260,248438,1,0,0:0:0:0:
129,79,248602,1,0,0:0:0:0:
465,143,248766,53,2,0:0:0:0:
252,245,248930,1,0,0:0:0:0:
150,32,249094,1,0,0:0:0:0:
462,103,249258,54,0,B|434:40|434:40|352:51,1,126.500002412796,8|0,2:3|0:0,0:0:0:0:
362,50,249504,1,0,0:0:0:0:
348,52,249586,1,0,0:0:0:0:
253,230,249750,1,0,0:3:0:0:
120,30,249914,53,2,2:3:0:0:
17,158,250078,1,0,0:0:0:0:
36,319,250242,1,0,0:0:0:0:
169,27,250406,53,8,2:3:0:0:
33,162,250570,1,0,0:0:0:0:
78,350,250733,1,0,0:0:0:0:
221,40,250897,53,4,2:3:0:0:
47,167,251061,1,0,0:0:0:0:
127,369,251225,1,0,0:0:0:0:
267,55,251389,53,2,0:0:0:0:
62,173,251553,1,0,0:0:0:0:
177,377,251717,1,0,0:0:0:0:
372,182,251881,54,0,B|412:210|419:257|419:257|483:278|509:240,1,189.750003619194,10|2,2:3|0:0,0:0:0:0:
475,164,252209,2,0,B|451:123|461:49|461:49|435:85|402:86,1,189.750003619194
316,96,252537,85,6,3:3:0:0:
297,200,252701,1,0,0:0:0:0:
359,286,252865,2,0,P|423:279|478:266,1,88,8|0,0:0|0:0,0:0:0:0:
486,109,253193,2,0,P|422:116|367:129,1,88,0|0,0:0|0:0,0:0:0:0:
395,123,253520,1,8,0:0:0:0:
314,112,254012,53,0,0:0:0:0:
388,199,254176,2,0,P|395:242|399:286,1,88,8|0,0:0|0:0,0:0:0:0:
293,350,254504,2,0,P|285:306|281:262,1,88,0|0,0:0|0:0,0:0:0:0:
284,265,254832,1,8,0:0:0:0:
391,202,254996,54,0,B|454:200|454:200|492:217,2,88,0|0|0,0:1|0:0|0:0,0:0:0:0:
287,268,255488,1,8,0:0:0:0:
399,292,255652,2,0,P|420:365|327:353,1,176,0|0,0:0|0:0,0:0:0:0:
290,271,256143,1,8,0:0:0:0:
209,189,256307,1,0,0:0:0:0:
206,192,256389,1,0,0:0:0:0:
203,195,256471,54,0,L|134:193,1,44,0|0,0:0|0:0,0:0:0:0:
281,126,256635,1,0,0:0:0:0:
284,129,256717,1,0,0:0:0:0:
287,132,256799,2,0,L|356:130,1,44,8|0,0:0|0:0,0:0:0:0:
186,91,256963,1,0,0:0:0:0:
183,94,257045,1,0,0:0:0:0:
180,97,257127,54,0,L|111:95,3,44
203,195,257455,2,0,L|204:238,1,44,8|0,0:0|0:0,0:0:0:0:
288,175,257619,2,0,L|287:132,1,44,0|0,0:0|0:0,0:0:0:0:
186,212,257783,6,0,L|175:264,1,53.3500012617875,4|0,0:0|0:0,0:0:0:0:
305,158,257947,2,0,L|314:104,1,53.3500012617875
286,276,258111,53,8,0:0:0:0:
283,288,258193,1,0,0:0:0:0:
287,299,258274,1,0,0:0:0:0:
284,312,258356,1,0,0:0:0:0:
288,323,258438,53,8,0:0:0:0:
312,342,258520,1,0,0:0:0:0:
344,342,258602,1,0,0:0:0:0:
369,322,258684,1,0,0:0:0:0:
372,290,258766,53,8,0:0:0:0:
378,247,258848,1,0,0:0:0:0:
413,222,258930,1,0,0:0:0:0:
455,227,259012,1,0,0:0:0:0:
489,259,259094,54,0,P|489:294|482:340,3,58.8499982040406,4|0|0|0,0:3|0:0|0:0|0:0,0:0:0:0:
470,142,259422,54,0,P|479:108|497:65,3,58.8499982040406,8|0|0|0,0:3|0:3|0:3|0:3,0:0:0:0:
405,293,259750,54,0,P|371:302|324:307,1,58.8499982040406,0|0,0:0|0:0,0:0:0:0:
320,114,259914,2,0,P|353:104|400:99,1,58.8499982040406,0|0,0:0|0:0,0:0:0:0:
385,319,260078,54,0,P|349:318|304:311,1,64.3500002454758,8|0,0:3|0:0,0:0:0:0:
339,88,260242,2,0,P|373:88|419:95,1,64.3500002454758,0|0,0:0|0:0,0:0:0:0:
258,268,260406,54,0,P|242:275|226:281,7,34.9249997335434,2|0|0|0|0|0|0|0,0:1|0:0|0:0|0:0|0:0|0:0|0:0|0:0,0:0:0:0:
208,208,260733,2,0,P|193:193|180:176,7,40.4249981186486,8|0|0|0|0|0|0|0,0:3|0:0|0:0|0:0|0:0|0:0|0:0|0:0,0:0:0:0:
249,141,261061,2,0,P|258:122|273:101,7,45.9249985634423,0|0|0|0|0|0|0|0,0:0|0:0|0:0|0:0|0:0|0:0|0:0|0:0,0:0:0:0:
325,159,261389,2,0,P|345:162|375:172,7,51.4249989799118,8|0|0|0|0|0|0|0,0:3|0:0|0:0|0:0|0:0|0:0|0:0|0:0,0:0:0:0:
331,236,261717,22,0,P|375:271|301:361,1,192.5
295,348,262373,2,0,P|244:339|192:352,1,82.5
179,356,262701,53,2,0:0:0:0:
176,359,262783,1,0,0:0:0:0:
173,362,262865,1,0,0:0:0:0:
170,365,262947,1,0,0:0:0:0:
143,371,263029,54,0,L|55:370,1,65.9999979858399,2|0,0:1|0:0,0:0:0:0:
19,315,263356,1,8,0:0:0:0:
41,239,263520,1,0,0:0:0:0:
120,239,263684,2,0,L|54:239,1,65.9999979858399
26,147,264012,1,8,0:0:0:0:
105,92,264176,1,0,0:0:0:0:
9,7,264340,53,0,0:2:0:0:
93,69,264504,1,0,0:0:0:0:
14,170,264668,1,8,0:0:0:0:
115,167,264832,1,0,0:0:0:0:
133,161,264914,1,0,0:0:0:0:
151,155,264996,1,0,0:0:0:0:
169,149,265078,1,0,0:0:0:0:
187,143,265160,1,0,0:0:0:0:
215,47,265324,1,8,0:0:0:0:
291,110,265488,2,0,L|335:126,1,32.99999899292,0|0,0:0|0:0,0:0:0:0:
383,217,265652,54,0,P|342:228|293:228,1,76.9999976501466,0|0,0:2|0:0,0:0:0:0:
322,121,265979,1,8,0:0:0:0:
448,149,266143,1,0,0:0:0:0:
452,167,266225,1,0,0:0:0:0:
456,185,266307,1,0,0:0:0:0:
461,204,266389,1,0,0:0:0:0:
465,222,266471,1,0,0:0:0:0:
389,310,266635,1,8,0:0:0:0:
307,229,266799,1,0,0:0:0:0:
287,229,266881,1,0,0:0:0:0:
267,229,266963,53,0,0:2:0:0:
167,170,267127,1,0,0:0:0:0:
154,312,267291,1,8,0:0:0:0:
247,229,267455,1,0,0:0:0:0:
249,209,267537,1,0,0:0:0:0:
256,191,267619,2,0,L|294:147,2,38.4999988250733,0|0|0,0:0|0:0|0:0,0:0:0:0:
212,89,267947,2,0,P|162:83|115:92,1,76.9999976501466,8|0,0:0|0:0,0:0:0:0:
90,172,268193,1,0,0:0:0:0:
90,172,268274,54,0,P|140:178|192:165,1,88,0|0,0:2|0:0,0:0:0:0:
42,92,268602,1,8,0:0:0:0:
14,207,268766,1,0,0:0:0:0:
10,228,268848,1,0,0:0:0:0:
14,249,268930,1,0,0:0:0:0:
10,270,269012,1,0,0:0:0:0:
14,291,269094,1,0,0:0:0:0:
83,370,269258,2,0,P|133:376|185:363,1,88,8|0,0:0|0:0,0:0:0:0:
197,356,269504,1,0,0:0:0:0:
220,335,269586,53,0,0:2:0:0:
205,178,269750,1,0,0:0:0:0:
94,292,269914,1,8,0:0:0:0:
249,252,270078,1,0,0:0:0:0:
273,229,270160,1,0,0:0:0:0:
287,200,270241,1,0,0:0:0:0:
289,167,270323,1,0,0:0:0:0:
279,136,270405,1,0,0:0:0:0:
203,29,270570,1,8,0:0:0:0:
333,22,270733,1,0,0:0:0:0:
361,32,270815,1,0,0:0:0:0:
385,50,270897,54,0,P|418:80|446:131,1,98.9999969787599,0|0,0:2|0:0,0:0:0:0:
421,275,271225,1,8,0:0:0:0:
328,160,271389,1,0,0:0:0:0:
295,149,271471,1,0,0:0:0:0:
262,160,271553,1,0,0:0:0:0:
229,149,271635,1,0,0:0:0:0:
196,160,271717,1,0,0:0:0:0:
172,32,271881,1,8,0:0:0:0:
163,149,272045,1,0,0:0:0:0:
130,160,272127,1,0,0:0:0:0:
97,149,272209,53,0,0:2:0:0:
34,26,272373,1,0,0:0:0:0:
0,182,272537,1,8,0:0:0:0:
90,286,272701,1,0,0:0:0:0:
99,318,272783,1,0,0:0:0:0:
124,341,272865,38,0,L|131:376,7,24.74999924469
165,264,273193,2,0,L|158:229,7,24.74999924469,8|0|0|0|0|0|0|0,0:0|0:0|0:0|0:0|0:0|0:0|0:0|0:0,0:0:0:0:
214,339,273520,86,0,B|248:352|281:355|320:326|320:326|336:359|360:366,1,165,6|0,3:1|0:0,0:0:0:0:
396,294,273848,1,8,0:0:0:0:
334,170,274012,1,0,0:0:0:0:
354,364,274176,1,0,0:0:0:0:
424,205,274340,1,0,0:0:0:0:
243,252,274504,2,0,B|196:260|196:260|156:255|125:211,1,110,8|0,0:0|0:0,0:0:0:0:
84,69,274832,54,0,B|82:54|100:32|100:32|41:55|52:134,1,165,2|0,3:2|0:0,0:0:0:0:
61,213,275160,1,8,0:0:0:0:
199,143,275324,2,0,B|253:79|253:79|227:78,2,110
69,292,275815,1,8,0:0:0:0:
257,229,275979,1,0,0:0:0:0:
77,371,276143,53,4,2:1:0:0:
135,9,276471,1,2,2:1:0:0:
77,371,276799,53,2,2:2:0:0:
135,9,276963,1,2,2:2:0:0:
77,371,277291,54,0,B|26:358|26:358|-1:312|35:235,1,165,4|0,3:1|0:0,0:0:0:0:
82,189,277619,1,0,0:0:0:0:
291,193,277783,2,0,B|308:212|341:215|341:215|316:231|314:259,1,110,2|0,0:1|0:0,0:0:0:0:
41,120,278111,53,2,2:2:0:0:
345,137,278274,1,2,2:2:0:0:
41,120,278602,54,0,B|86:51|86:51|137:128,1,165,4|0,3:1|0:0,0:0:0:0:
166,192,278930,1,0,0:0:0:0:
143,348,279094,2,0,P|31:344|8:328,1,110,8|0,0:0|0:0,0:0:0:0:
200,277,279422,2,0,P|312:273|335:257,1,110,0|0,0:0|0:0,0:0:0:0:
333,67,279750,53,8,1:1:0:0:
166,192,279914,1,0,1:0:0:0:
407,207,280078,54,0,B|380:176|380:176|242:125,1,165,4|0,3:1|2:0,0:0:0:0:
186,113,280406,2,0,B|128:107|128:107|53:70,1,110,8|2,0:0|0:2,0:0:0:0:
5,223,280733,2,0,B|51:245|51:245|109:251,1,110
246,295,281061,2,0,L|323:295,1,55,2|0,0:2|0:0,0:0:0:0:
232,201,281225,2,0,L|166:201,1,55,2|0,0:2|0:0,0:0:0:0:
184,341,281389,5,4,1:3:0:0:
155,358,281471,1,0,0:0:0:0:
122,366,281553,1,0,1:1:0:0:
88,365,281635,1,0,0:0:0:0:
41,375,281717,53,8,1:1:0:0:
51,337,281799,1,0,0:0:0:0:
61,299,281881,1,8,1:1:0:0:
71,261,281963,1,0,0:0:0:0:
53,214,282045,54,0,L|49:151,1,55,8|0,0:0|0:0,0:0:0:0:
140,85,282209,2,0,L|136:22,1,55,8|0,0:2|0:0,0:0:0:0:
212,181,282373,54,0,P|242:189|295:195,3,55,0|0|0|0,0:2|0:0|0:0|0:0,0:0:0:0:
382,89,282701,22,0,L|416:70,1,30.2500009231568,8|0,0:3|0:0,0:0:0:0:
418,109,282783,2,0,L|456:98,1,30.2500009231568,0|0,0:0|0:0,0:0:0:0:
445,140,282865,2,0,L|484:138,1,30.2500009231568
461,179,282947,2,0,L|499:187,1,30.2500009231568
461,222,283029,2,0,L|496:238,1,30.2500009231568,0|0,0:0|0:0,0:0:0:0:
447,261,283111,2,0,L|478:285,1,30.2500009231568,0|0,0:0|0:0,0:0:0:0:
421,294,283193,2,0,L|445:324,1,30.2500009231568
384,316,283274,2,0,L|401:351,1,30.2500009231568,0|0,0:0|0:0,0:0:0:0:
351,290,283356,6,0,L|329:310,1,30.2500009231568,8|0,0:3|0:0,0:0:0:0:
306,269,283438,2,0,L|289:294,1,30.2500009231568,0|0,0:0|0:0,0:0:0:0:
256,266,283520,2,0,L|246:294,1,30.2500009231568
211,279,283602,2,0,L|207:309,1,30.2500009231568,0|0,0:0|0:0,0:0:0:0:
164,274,283684,85,2,0:2:0:0:
100,227,283766,1,0,0:0:0:0:
97,147,283848,1,0,0:0:0:0:
158,95,283930,1,0,0:0:0:0:
236,111,284012,102,0,B|312:128|352:184|352:184|284:193,1,197.99999395752,6|0,0:0|0:0,0:0:0:0:
214,195,284340,1,8,0:0:0:0:
255,363,284504,1,0,0:0:0:0:
100,227,284668,1,0,0:0:0:0:
309,286,284832,1,0,0:0:0:0:
58,375,284996,1,8,0:0:0:0:
214,195,285160,1,0,0:0:0:0:
442,347,285324,54,0,B|491:366|491:366|462:222,1,197.99999395752,2|0,3:2|0:0,0:0:0:0:
434,140,285652,1,8,0:0:0:0:
309,286,285815,1,0,0:0:0:0:
377,77,285979,1,0,0:0:0:0:
462,222,286143,1,0,0:0:0:0:
241,82,286307,1,8,0:0:0:0:
309,286,286471,1,0,0:0:0:0:
308,26,286635,54,0,B|238:15|184:40|184:40|254:92,1,197.99999395752,2|0,3:1|0:0,0:0:0:0:
290,146,286963,1,8,0:0:0:0:
203,349,287127,1,0,0:0:0:0:
121,154,287291,1,0,0:0:0:0:
231,219,287455,1,0,0:0:0:0:
36,251,287619,1,8,0:0:0:0:
268,295,287783,54,0,B|333:293|333:293|376:267|392:219,1,131.99999597168,2|0,0:2|0:0,0:0:0:0:
364,32,288111,1,0,0:0:0:0:
202,148,288274,1,8,0:0:0:0:
389,165,288438,1,2,0:2:0:0:
214,33,288602,2,0,P|144:43|98:88,1,131.99999597168,0|0,0:0|0:0,0:0:0:0:
303,212,288930,2,0,P|254:255|190:263,1,131.99999597168,8|0,0:0|0:0,0:0:0:0:
380,70,289258,54,0,B|464:80|464:80|501:141|463:185,1,197.99999395752,2|0,3:1|0:0,0:0:0:0:
412,247,289586,1,8,0:0:0:0:
307,108,289750,1,0,0:0:0:0:
343,295,289914,1,0,0:0:0:0:
215,148,290078,1,0,0:0:0:0:
463,185,290242,2,0,B|488:228|488:228|484:327,1,131.99999597168,8|0,0:0|0:0,0:0:0:0:
256,239,290570,53,0,3:0:0:0:
420,106,290733,1,0,0:0:0:0:
215,148,290897,53,8,0:0:0:0:
398,88,291061,1,0,0:0:0:0:
174,57,291225,53,2,0:2:0:0:
382,65,291389,2,0,B|400:91|423:109|423:109|410:127|365:156,1,131.99999597168,0|8,0:0|0:0,0:0:0:0:
80,26,291717,54,0,B|16:55|16:55|-14:119|14:203,1,197.99999395752,6|0,3:1|0:0,0:0:0:0:
51,247,292045,1,0,0:0:0:0:
174,100,292209,1,8,0:0:0:0:
201,282,292373,1,0,0:0:0:0:
189,312,292455,1,0,0:0:0:0:
177,343,292537,1,2,0:1:0:0:
105,167,292701,1,0,0:0:0:0:
278,306,292865,1,8,0:0:0:0:
7,179,293029,54,0,L|16:30,1,131.99999597168,2|0,0:2|0:0,0:0:0:0:
285,174,293356,2,0,L|276:323,1,131.99999597168,2|8,0:2|0:0,0:0:0:0:
138,260,293684,1,0,0:0:0:0:
327,66,293848,1,0,0:0:0:0:
277,305,294012,1,0,0:0:0:0:
150,164,294176,53,10,2:1:0:0:
152,144,294258,1,8,2:3:0:0:
150,124,294340,1,8,2:3:0:0:
152,104,294422,1,8,2:3:0:0:
150,83,294504,54,0,B|187:104|187:104|237:64|237:64|291:54|344:71,1,197.99999395752,6|0,3:1|0:0,0:0:0:0:
403,93,294832,1,8,0:0:0:0:
375,260,294996,1,0,0:0:0:0:
497,159,295160,1,0,0:0:0:0:
280,165,295324,1,0,0:0:0:0:
468,39,295488,2,0,B|494:61|494:61|498:197,1,131.99999597168,8|0,0:0|0:0,0:0:0:0:
458,338,295815,54,0,B|412:352|412:352|376:334|376:334|340:366|283:363|256:324,1,197.99999395752,2|0,3:2|0:0,0:0:0:0:
231,278,296143,1,8,0:0:0:0:
384,167,296307,2,0,B|413:169|429:185|429:185|434:228|420:272,2,131.99999597168
154,283,296799,53,8,0:0:0:0:
324,66,296963,1,0,0:0:0:0:
197,347,297127,53,4,2:1:0:0:
464,16,297455,1,2,2:1:0:0:
197,347,297783,53,2,2:2:0:0:
464,16,297947,1,2,2:2:0:0:
197,347,298274,54,0,B|155:343|128:354|124:357|121:360|84:380|47:349|47:349|69:344|103:314,1,197.99999395752,4|0,3:1|0:0,0:0:0:0:
115,256,298602,1,0,0:0:0:0:
39,88,298766,2,0,B|7:116|7:116|7:211,1,131.99999597168,2|0,2:1|0:0,0:0:0:0:
318,162,299094,53,2,2:2:0:0:
24,8,299258,1,2,2:2:0:0:
335,238,299586,54,0,B|236:260|236:260|240:150,1,197.99999395752,4|0,3:1|0:0,0:0:0:0:
318,162,299914,1,0,0:0:0:0:
151,272,300078,2,0,L|154:141,1,131.99999597168,8|0,0:0|0:0,0:0:0:0:
63,356,300406,2,0,L|65:224,1,131.99999597168,0|0,0:0|0:0,0:0:0:0:
269,102,300733,53,8,0:1:0:0:
270,300,300897,1,0,0:0:0:0:
355,69,301061,54,0,B|305:29|305:29|231:16|163:68,1,197.99999395752,4|0,3:1|2:0,0:0:0:0:
129,129,301389,2,0,B|122:186|122:186|151:274,1,131.99999597168,8|2,0:0|0:2,0:0:0:0:
368,273,301717,2,0,B|375:216|375:216|346:128,1,131.99999597168,0|0,0:0|0:0,0:0:0:0:
285,338,302045,53,10,2:3:0:0:
243,358,302127,1,8,2:3:0:0:
210,325,302209,1,8,2:3:0:0:
231,284,302291,1,8,2:3:0:0:
277,292,302373,54,0,B|304:311|325:360|269:407|224:409|181:364|174:322|187:300|233:279|243:272|250:207|206:175,1,329.9999899292,6|0,3:0|0:0,0:0:0:0:
164,134,302865,2,0,B|128:164|117:206|117:206|175:241,2,131.99999597168,2|0|0,0:2|0:2|0:2,0:0:0:0:
258,84,303356,2,0,B|300:58|360:55|403:77|403:77|383:131,1,197.99999395752,4|0,0:2|0:0,0:0:0:0:
358,196,303684,101,8,0:0:0:0:
164,134,303848,1,0,0:0:0:0:
208,334,304012,1,0,3:0:0:0:
287,126,304176,53,0,0:0:0:0:
273,105,304258,1,0,0:0:0:0:
258,84,304340,1,0,0:0:0:0:
187,232,304504,1,0,0:0:0:0:
165,39,304668,1,0,0:0:0:0:
128,352,304996,86,0,B|77:346|77:346|44:314|41:235,1,153.999995300293,6|0,0:3|2:0,0:0:0:0:
71,49,305324,1,0,0:3:0:0:
187,232,305488,53,0,2:0:0:0:
232,261,305570,1,0,2:0:0:0:
285,267,305652,1,0,0:3:0:0:
444,108,305815,1,0,2:0:0:0:
396,330,305979,1,0,0:3:0:0:
276,22,306143,54,0,B|251:18|207:38|150:15|150:15|159:24|163:37,1,153.999995300293,2|0,2:1|0:0,0:0:0:0:
285,267,306471,1,0,2:0:0:0:
382,33,306635,1,0,0:3:0:0:
225,153,306799,1,0,2:0:0:0:
444,108,306963,1,0,0:3:0:0:
164,38,307127,53,0,2:0:0:0:
110,29,307209,1,0,2:0:0:0:
57,21,307291,2,0,B|44:54|52:85|52:85|64:104|68:134|68:134|70:117|80:98,1,153.999995300293,0|0,0:3|2:0,0:0:0:0:
243,366,307619,53,4,0:3:0:0:
22,204,307783,1,0,2:0:0:0:
318,215,307947,1,0,0:3:0:0:
164,38,308111,1,0,2:0:0:0:
85,350,308274,53,0,0:3:0:0:
211,153,308438,1,0,2:0:0:0:
411,355,308602,1,0,0:3:0:0:
465,35,308766,54,0,B|408:11|356:36|356:36|385:64,1,153.999995300293,2|0,2:1|0:0,0:0:0:0:
512,302,309094,1,0,2:0:0:0:
290,178,309258,1,0,0:0:0:0:
512,162,309422,1,0,2:0:0:0:
230,342,309586,53,4,0:2:0:0:
226,126,309750,1,0,2:0:0:0:
240,74,309832,1,0,2:0:0:0:
277,35,309914,1,4,0:2:0:0:
409,219,310078,1,2,2:0:0:0:
160,282,310242,54,0,B|120:274|79:286|79:286|34:277|5:229,1,153.999995300293,6|0,0:3|2:0,0:0:0:0:
47,33,310570,1,0,0:3:0:0:
91,208,310733,1,0,2:0:0:0:
178,8,310897,53,0,0:3:0:0:
276,164,311061,1,0,2:0:0:0:
59,126,311225,1,0,0:3:0:0:
337,58,311389,54,0,B|375:76|375:76|399:149|367:214,1,153.999995300293,2|0,2:1|0:0,0:0:0:0:
300,318,311717,1,0,2:0:0:0:
197,140,311881,1,0,0:3:0:0:
364,267,312045,1,0,2:0:0:0:
237,47,312209,1,0,0:3:0:0:
157,233,312373,53,0,2:0:0:0:
163,270,312455,1,0,2:0:0:0:
177,305,312537,2,0,B|202:359|237:372|237:372|211:334|220:297,1,153.999995300293,0|0,0:3|2:0,0:0:0:0:
359,48,312865,53,4,0:3:0:0:
73,20,313029,1,0,2:0:0:0:
357,133,313193,53,0,0:3:0:0:
69,130,313356,1,0,2:0:0:0:
363,218,313520,53,0,0:3:0:0:
74,254,313684,1,0,2:0:0:0:
259,17,313848,1,0,0:3:0:0:
232,340,314012,54,2,B|179:385|179:385|93:389|42:359|26:327,1,230.99999295044,2|0,2:1|0:0,0:0:0:0:
74,254,314340,1,0,2:0:0:0:
240,190,314504,1,0,0:3:0:0:
31,119,314668,54,2,B|74:128|105:158|105:158|162:151|162:151|189:182|241:191,1,230.99999295044,2|2,2:0|0:2,0:0:0:0:
332,197,314996,2,0,P|378:194|423:184,1,76.9999976501466,0|0,2:0|2:0,0:0:0:0:
342,13,315160,1,2,0:1:0:0:
240,190,315324,1,2,2:0:0:0:
461,331,315488,102,0,B|482:342|502:374|502:374|505:257,1,176,6|0,0:1|2:0,0:0:0:0:
499,15,315815,1,0,0:3:0:0:
332,197,315979,53,0,2:0:0:0:
271,189,316061,1,0,2:0:0:0:
210,182,316143,1,0,0:3:0:0:
342,13,316307,1,0,2:0:0:0:
512,152,316471,1,0,0:3:0:0:
238,89,316635,54,0,B|203:79|167:98|167:98|145:82|106:72|106:72|143:55|173:58,1,176,2|0,2:1|0:0,0:0:0:0:
36,301,316963,1,0,2:0:0:0:
210,182,317127,1,0,0:3:0:0:
21,329,317291,53,0,2:0:0:0:
215,161,317455,1,0,0:3:0:0:
2,357,317619,53,0,2:0:0:0:
60,376,317701,1,0,2:0:0:0:
120,363,317783,2,0,B|162:345|200:359|204:361|208:362|247:381|294:359,1,176,0|0,0:3|2:0,0:0:0:0:
349,56,318111,53,6,0:1:0:0:
246,265,318274,1,0,2:0:0:0:
233,22,318438,1,0,0:3:0:0:
349,221,318602,1,0,2:0:0:0:
84,46,318766,53,0,0:3:0:0:
137,243,318930,1,0,2:0:0:0:
367,40,319094,1,0,0:3:0:0:
512,324,319258,54,0,B|499:374|452:381|452:381|407:362|366:368,1,176,2|0,2:1|0:0,0:0:0:0:
280,135,319586,1,0,2:0:0:0:
197,365,319750,1,0,0:0:0:0:
349,221,319914,1,0,2:0:0:0:
16,183,320078,53,4,0:2:0:0:
170,13,320242,1,0,2:0:0:0:
229,18,320324,1,0,2:0:0:0:
290,25,320406,1,4,0:2:0:0:
349,221,320570,1,2,2:0:0:0:
76,51,320733,54,0,B|34:22|34:22|171:12,1,187.000003566742,6|0,0:1|2:0,0:0:0:0:
413,131,321061,1,0,0:3:0:0:
150,111,321225,1,0,2:0:0:0:
459,232,321389,53,0,0:3:0:0:
290,25,321553,1,0,2:0:0:0:
285,311,321717,1,0,0:3:0:0:
481,34,321881,54,0,B|515:4|515:4|512:175,1,187.000003566742,2|0,2:1|0:0,0:0:0:0:
394,321,322209,1,0,2:0:0:0:
296,59,322373,1,0,0:3:0:0:
285,311,322537,1,0,2:0:0:0:
397,77,322701,1,0,0:3:0:0:
57,111,322865,53,0,2:0:0:0:
22,166,322947,1,0,2:0:0:0:
34,230,323029,2,0,B|60:355|60:355|92:258,1,187.000003566742,0|0,0:3|2:0,0:0:0:0:
187,73,323356,53,6,0:1:0:0:
147,340,323520,1,0,2:0:0:0:
322,73,323684,53,0,0:3:0:0:
226,322,323848,1,0,2:0:0:0:
475,114,324012,53,0,0:3:0:0:
306,325,324176,1,0,2:0:0:0:
252,15,324340,1,0,0:3:0:0:
61,267,324504,70,2,B|62:329|121:348|121:348|243:308|308:325,1,296.99999093628,2|0,2:1|0:0,0:0:0:0:
466,354,324832,1,0,2:0:0:0:
247,208,324996,1,0,0:3:0:0:
480,51,325160,54,2,P|507:204|466:353,1,313.499991628647,2|0,2:0|0:0,0:0:0:0:
305,325,325488,2,0,P|255:325|166:339,1,104.499997209549,0|0,2:0|2:0,0:0:0:0:
53,362,325652,53,2,0:1:0:0:
206,96,325815,1,2,2:0:0:0:
383,314,325979,70,0,B|344:228|344:228|245:209|245:209|319:142|319:142|306:45|306:45|392:93|392:93|480:51|480:51|460:147|460:147|528:219|528:219|434:229,1,877.250026771546,14|0,3:3|0:0,0:0:0:0:
256,192,335488,12,4,336471,0:1:0:0:
