osu file format v14

[General]
AudioFilename: kanshou.mp3
AudioLeadIn: 0
PreviewTime: 261697
Countdown: 0
SampleSet: Soft
StackLeniency: 0.3
Mode: 0
LetterboxInBreaks: 0
EpilepsyWarning: 1
WidescreenStoryboard: 1

[Editor]
DistanceSpacing: 0.7
BeatDivisor: 4
GridSize: 16
TimelineZoom: 3.999998

[Metadata]
Title:Kanshou no Matenrou
TitleUnicode:感傷の摩天楼
Artist:Halozy
ArtistUnicode:Halozy
Creator:Lasse
Version:Lunatic
Source:東方星蓮船 ~ Undefined Fantastic Object.
Tags:Touhou Project Hotaru ほたる Sumijun すみじゅん Aqua Trytone c80 Hijiri Byakuren 聖 白蓮 sentimental emotional skyscraper 感情の摩天楼 Cosmic Mind
BeatmapID:940751
BeatmapSetID:436799

[Difficulty]
HPDrainRate:5
CircleSize:3.8
OverallDifficulty:8
ApproachRate:9
SliderMultiplier:1.8
SliderTickRate:1

[Events]
//Background and Video events
0,0,"notbg.png",0,0
//Break Periods
//Storyboard Layer 0 (Background)
//Storyboard Layer 1 (Fail)
//Storyboard Layer 2 (Pass)
//Storyboard Layer 3 (Foreground)
Sprite,Foreground,Centre,"sb\r1.png",320,240 M,0,62373,62454,482,100,473,121 S,1,62373,62537,0.4,0.2 C,0,62373,63110,218,218,211,255,51,51 R,2,62373,63111,0,6.3 M,0,62455,62536,473,121,469,143 M,0,62537,62618,469,143,469,165 S,2,62538,63111,0.21,0.625 M,0,62619,62700,469,165,475,187 M,0,62701,62782,475,187,459,200 M,0,62783,62864,459,200,465,222 M,0,62865,62946,459,200,466,244 M,0,62947,63028,466,244,463,266 M,0,63029,63110,463,266,456,287 F,2,63111,63193,1,0
Sprite,Foreground,Centre,"sb\r1.png",320,240 M,0,136471,136553,218,322,205,350 S,1,136471,136635,0.4,0.2 R,2,136471,136963,0,6.3 C,0,136471,136963,152,149,143,211,158,254 M,0,136553,136635,205,350,214,360 M,0,136636,136717,214,360,240,396 S,2,136636,136963,0.21,0.625 M,0,136718,136798,240,396,270,391 M,0,136799,136881,270,391,290,368 M,0,136882,136963,290,368,289,337 F,2,136963,137045,1,0
Sprite,Foreground,Centre,"sb\r1.png",320,240 M,0,220406,220488,386,366,353,376 S,1,220406,220570,0.4,0.2 R,2,220406,220897,0,6.3 C,0,220406,220897,152,149,143,211,158,254 M,0,220488,220570,353,376,319,375 M,0,220570,220652,319,375,287,364 S,2,220571,220897,0.21,0.625 M,0,220652,220733,287,364,266,346 M,0,220733,220897,266,346,296,286 F,2,220898,220979,1,0
Sprite,Foreground,Centre,"sb\hlY.png",320,240 S,0,0,60897,1.6 P,0,0,60897,A F,0,60897,60997,0,1 M,0,60897,61097,342,90 F,0,60997,61047,1,0
Sprite,Foreground,Centre,"sb\hlY.png",320,240 S,0,0,60897,1.6 P,0,0,60897,A F,0,60897,60997,0,1 M,0,60897,61097,342,90 F,0,60997,61047,1,0
Sprite,Foreground,Centre,"sb\hlY.png",320,240 S,0,0,61061,1.6 P,0,0,61061,A F,0,61061,61161,0,1 M,0,61061,61261,299,318 F,0,61161,61211,1,0
Sprite,Foreground,Centre,"sb\hlY.png",320,240 S,0,0,61061,1.6 P,0,0,61061,A F,0,61061,61161,0,1 M,0,61061,61261,299,318 F,0,61161,61211,1,0
Sprite,Foreground,Centre,"sb\hlY.png",320,240 S,0,0,61225,1.6 P,0,0,61225,A F,0,61225,61325,0,1 M,0,61225,61425,199,108 F,0,61325,61375,1,0
Sprite,Foreground,Centre,"sb\hlY.png",320,240 S,0,0,61225,1.6 P,0,0,61225,A F,0,61225,61325,0,1 M,0,61225,61425,199,108 F,0,61325,61375,1,0
Sprite,Foreground,Centre,"sb\hlY.png",320,240 S,0,0,61389,1.6 P,0,0,61389,A F,0,61389,61489,0,1 M,0,61389,61589,403,218 F,0,61489,61539,1,0
Sprite,Foreground,Centre,"sb\hlY.png",320,240 S,0,0,61389,1.6 P,0,0,61389,A F,0,61389,61489,0,1 M,0,61389,61589,403,218 F,0,61489,61539,1,0
Sprite,Foreground,Centre,"sb\hlY.png",320,240 S,0,0,61553,1.6 P,0,0,61553,A F,0,61553,61653,0,1 M,0,61553,61753,173,249 F,0,61653,61703,1,0
Sprite,Foreground,Centre,"sb\hlY.png",320,240 S,0,0,61553,1.6 P,0,0,61553,A F,0,61553,61653,0,1 M,0,61553,61753,173,249 F,0,61653,61703,1,0
Sprite,Foreground,Centre,"sb\hlR.png",320,240 S,0,0,63193,1.6 P,0,0,63193,A F,0,63193,63293,0,1 M,0,63193,63393,400,348 F,0,63293,63343,1,0
Sprite,Foreground,Centre,"sb\hlR.png",320,240 S,0,0,63193,1.6 P,0,0,63193,A F,0,63193,63293,0,1 M,0,63193,63393,400,348 F,0,63293,63343,1,0
Sprite,Foreground,Centre,"sb\hlR.png",320,240 S,0,0,63356,1.6 P,0,0,63356,A F,0,63356,63456,0,1 M,0,63356,63556,300,204 F,0,63456,63506,1,0
Sprite,Foreground,Centre,"sb\hlR.png",320,240 S,0,0,63356,1.6 P,0,0,63356,A F,0,63356,63456,0,1 M,0,63356,63556,300,204 F,0,63456,63506,1,0
Sprite,Foreground,Centre,"sb\hlR.png",320,240 S,0,0,63520,1.6 P,0,0,63520,A F,0,63520,63620,0,1 M,0,63520,63720,505,189 F,0,63620,63670,1,0
Sprite,Foreground,Centre,"sb\hlR.png",320,240 S,0,0,63520,1.6 P,0,0,63520,A F,0,63520,63620,0,1 M,0,63520,63720,505,189 F,0,63620,63670,1,0
Sprite,Foreground,Centre,"sb\hlY.png",320,240 S,0,0,146799,1.6 P,0,0,146799,A F,0,146799,146899,0,1 M,0,146799,146999,322,229 F,0,146899,146949,1,0
Sprite,Foreground,Centre,"sb\hlY.png",320,240 S,0,0,146799,1.6 P,0,0,146799,A F,0,146799,146899,0,1 M,0,146799,146999,322,229 F,0,146899,146949,1,0
Sprite,Foreground,Centre,"sb\hlO.png",320,240 S,0,0,146963,1.6 P,0,0,146963,A F,0,146963,147063,0,1 M,0,146963,147163,304,307 F,0,147063,147113,1,0
Sprite,Foreground,Centre,"sb\hlO.png",320,240 S,0,0,146963,1.6 P,0,0,146963,A F,0,146963,147063,0,1 M,0,146963,147163,304,307 F,0,147063,147113,1,0
Sprite,Foreground,Centre,"sb\hlO.png",320,240 S,0,0,147127,1.6 P,0,0,147127,A F,0,147127,147227,0,1 M,0,147127,147327,340,149 F,0,147227,147277,1,0
Sprite,Foreground,Centre,"sb\hlO.png",320,240 S,0,0,147127,1.6 P,0,0,147127,A F,0,147127,147227,0,1 M,0,147127,147327,340,149 F,0,147227,147277,1,0
Sprite,Foreground,Centre,"sb\hlY.png",320,240 S,0,0,147291,1.6 P,0,0,147291,A F,0,147291,147391,0,1 M,0,147291,147491,318,319 F,0,147391,147441,1,0
Sprite,Foreground,Centre,"sb\hlY.png",320,240 S,0,0,147291,1.6 P,0,0,147291,A F,0,147291,147391,0,1 M,0,147291,147491,318,319 F,0,147391,147441,1,0
Sprite,Foreground,Centre,"sb\hlY.png",320,240 S,0,0,147455,1.6 P,0,0,147455,A F,0,147455,147555,0,1 M,0,147455,147655,327,138 F,0,147555,147605,1,0
Sprite,Foreground,Centre,"sb\hlY.png",320,240 S,0,0,147455,1.6 P,0,0,147455,A F,0,147455,147555,0,1 M,0,147455,147655,327,138 F,0,147555,147605,1,0
Sprite,Foreground,Centre,"sb\hlR.png",320,240 S,0,0,188274,1.6 P,0,0,188274,A F,0,188274,188374,0,1 M,0,188274,188474,186,211 F,0,188374,188424,1,0
Sprite,Foreground,Centre,"sb\hlR.png",320,240 S,0,0,188274,1.6 P,0,0,188274,A F,0,188274,188374,0,1 M,0,188274,188474,186,211 F,0,188374,188424,1,0
Sprite,Foreground,Centre,"sb\hlR.png",320,240 S,0,0,188438,1.6 P,0,0,188438,A F,0,188438,188538,0,1 M,0,188438,188638,92,343 F,0,188538,188588,1,0
Sprite,Foreground,Centre,"sb\hlR.png",320,240 S,0,0,188438,1.6 P,0,0,188438,A F,0,188438,188538,0,1 M,0,188438,188638,92,343 F,0,188538,188588,1,0
Sprite,Foreground,Centre,"sb\hlY.png",320,240 S,0,0,188602,1.6 P,0,0,188602,A F,0,188602,188702,0,1 M,0,188602,188802,90,138 F,0,188702,188752,1,0
Sprite,Foreground,Centre,"sb\hlY.png",320,240 S,0,0,188602,1.6 P,0,0,188602,A F,0,188602,188702,0,1 M,0,188602,188802,90,138 F,0,188702,188752,1,0
Sprite,Foreground,Centre,"sb\hlY.png",320,240 S,0,0,188766,1.6 P,0,0,188766,A F,0,188766,188866,0,1 M,0,188766,188966,149,290 F,0,188866,188916,1,0
Sprite,Foreground,Centre,"sb\hlY.png",320,240 S,0,0,188766,1.6 P,0,0,188766,A F,0,188766,188866,0,1 M,0,188766,188966,149,290 F,0,188866,188916,1,0
Sprite,Foreground,Centre,"sb\hlY.png",320,240 S,0,0,230733,1.6 P,0,0,230733,A F,0,230733,230833,0,1 M,0,230733,230933,436,246 F,0,230833,230883,1,0
Sprite,Foreground,Centre,"sb\hlY.png",320,240 S,0,0,230733,1.6 P,0,0,230733,A F,0,230733,230833,0,1 M,0,230733,230933,436,246 F,0,230833,230883,1,0
Sprite,Foreground,Centre,"sb\hlO.png",320,240 S,0,0,230897,1.6 P,0,0,230897,A F,0,230897,230997,0,1 M,0,230897,231097,348,227 F,0,230997,231047,1,0
Sprite,Foreground,Centre,"sb\hlO.png",320,240 S,0,0,230897,1.6 P,0,0,230897,A F,0,230897,230997,0,1 M,0,230897,231097,348,227 F,0,230997,231047,1,0
Sprite,Foreground,Centre,"sb\hlO.png",320,240 S,0,0,231061,1.6 P,0,0,231061,A F,0,231061,231161,0,1 M,0,231061,231261,524,267 F,0,231161,231211,1,0
Sprite,Foreground,Centre,"sb\hlO.png",320,240 S,0,0,231061,1.6 P,0,0,231061,A F,0,231061,231161,0,1 M,0,231061,231261,524,267 F,0,231161,231211,1,0
Sprite,Foreground,Centre,"sb\hlY.png",320,240 S,0,0,231225,1.6 P,0,0,231225,A F,0,231225,231325,0,1 M,0,231225,231425,348,206 F,0,231325,231375,1,0
Sprite,Foreground,Centre,"sb\hlY.png",320,240 S,0,0,231225,1.6 P,0,0,231225,A F,0,231225,231325,0,1 M,0,231225,231425,348,206 F,0,231325,231375,1,0
Sprite,Foreground,Centre,"sb\hlY.png",320,240 S,0,0,231389,1.6 P,0,0,231389,A F,0,231389,231489,0,1 M,0,231389,231589,532,288 F,0,231489,231539,1,0
Sprite,Foreground,Centre,"sb\hlY.png",320,240 S,0,0,231389,1.6 P,0,0,231389,A F,0,231389,231489,0,1 M,0,231389,231589,532,288 F,0,231489,231539,1,0
//Storyboard Sound Samples

[TimingPoints]
734,327.868852459016,4,2,20,10,1,0
734,-333.333333333333,4,2,20,10,0,0
21553,-333.333333333333,4,2,99,10,0,0
21717,-333.333333333333,4,2,1,55,0,0
21799,-333.333333333333,4,2,20,40,0,0
26963,-333.333333333333,4,2,21,50,0,0
27045,-333.333333333333,4,2,20,45,0,0
32209,-250,4,2,20,60,0,0
32373,-250,4,2,20,45,0,0
34832,-250,4,2,1,45,0,0
36143,-250,4,2,1,50,0,0
37455,-250,4,2,1,52,0,0
38602,-222.222222222222,4,2,1,52,0,0
38766,-222.222222222222,4,2,1,55,0,0
40078,-200,4,2,1,60,0,0
40733,-181.818181818182,4,2,1,50,0,0
41389,-166.666666666667,4,2,1,40,0,0
42045,-200,4,2,1,45,0,0
42373,-200,4,2,1,50,0,0
42537,-200,4,2,99,5,0,0
42701,-166.666666666667,4,2,1,60,0,1
42865,-166.666666666667,4,2,1,40,0,0
47947,-142.857142857143,4,2,1,45,0,0
49258,-142.857142857143,4,2,1,50,0,0
50570,-142.857142857143,4,2,1,55,0,0
51881,-142.857142857143,4,2,1,60,0,0
53193,-142.857142857143,4,2,1,80,0,1
53274,-142.857142857143,4,2,1,65,0,0
58438,-142.857142857143,4,2,1,70,0,0
60406,-100,4,2,1,70,0,0
61061,-100,4,3,1,75,0,0
61717,-100,4,2,20,60,0,0
62373,-200,4,2,20,50,0,0
63111,-200,4,2,20,5,0,0
63193,-200,4,3,1,56,0,0
63356,-200,4,3,1,70,0,0
63520,-200,4,3,1,65,0,0
63684,-76.9230769230769,4,1,1,80,0,1
63848,-76.9230769230769,4,1,1,70,0,0
68766,-76.9230769230769,4,1,1,70,0,0
68930,-76.9230769230769,4,1,1,70,0,1
69094,-76.9230769230769,4,1,1,70,0,0
74176,-100,4,2,1,80,0,0
74340,-100,4,2,1,70,0,0
79422,-100,4,2,1,80,0,0
79504,-100,4,2,1,70,0,0
79586,-100,4,2,1,75,0,0
79668,-100,4,2,1,70,0,0
82045,-90.9090909090909,4,2,1,70,0,0
82373,-83.3333333333333,4,2,1,70,0,0
82701,-76.9230769230769,4,2,1,70,0,0
83029,-71.4285714285714,4,2,1,70,0,0
83356,-166.666666666667,4,2,42,70,0,0
83438,-166.666666666667,4,2,42,30,0,0
83930,-166.666666666667,4,2,20,5,0,0
84012,-111.111111111111,4,2,43,70,0,0
84094,-111.111111111111,4,2,43,30,0,0
84586,-166.666666666667,4,2,20,5,0,0
84668,-86.9565217391304,4,2,44,85,0,1
84832,-86.9565217391304,4,1,3,75,0,1
84914,-86.9565217391304,4,2,20,5,0,1
84996,-86.9565217391304,4,1,3,75,0,1
86225,-86.9565217391304,4,2,20,5,0,1
86307,-86.9565217391304,4,1,3,75,0,1
87537,-86.9565217391304,4,2,20,5,0,1
87618,-86.9565217391304,4,1,3,75,0,1
88602,-86.9565217391304,4,1,3,30,0,1
88766,-86.9565217391304,4,1,3,75,0,1
90160,-86.9565217391304,4,2,20,5,0,1
90242,-86.9565217391304,4,1,3,75,0,1
92373,-86.9565217391304,4,1,3,80,0,1
92619,-86.9565217391304,4,2,20,5,0,1
92701,-86.9565217391304,4,1,3,75,0,1
94996,-86.9565217391304,4,1,3,75,0,0
95160,-86.9565217391304,4,1,3,80,0,1
95406,-86.9565217391304,4,2,20,5,0,1
95488,-86.9565217391304,4,1,3,75,0,1
96717,-86.9565217391304,4,2,20,5,0,1
96799,-86.9565217391304,4,1,3,75,0,1
97783,-86.9565217391304,4,1,3,80,0,1
97947,-86.9565217391304,4,1,3,75,0,1
98930,-86.9565217391304,4,1,3,80,0,1
99176,-86.9565217391304,4,2,20,5,0,1
99258,-86.9565217391304,4,1,3,75,0,1
100242,-86.9565217391304,4,1,3,80,0,1
100488,-86.9565217391304,4,2,20,5,0,1
100570,-86.9565217391304,4,1,3,75,0,1
101717,-86.9565217391304,4,1,3,80,0,1
101963,-86.9565217391304,4,2,20,5,0,1
102045,-86.9565217391304,4,1,3,75,0,1
103029,-86.9565217391304,4,1,3,60,0,0
103111,-86.9565217391304,4,2,20,60,0,0
103356,-86.9565217391304,4,2,20,20,0,0
103438,-86.9565217391304,4,2,20,5,0,0
103520,-86.9565217391304,4,1,3,60,0,0
103684,-86.9565217391304,4,1,3,60,0,0
104258,-86.9565217391304,4,2,20,5,0,0
104340,-86.9565217391304,4,1,3,60,0,0
104504,-86.9565217391304,4,1,3,60,0,0
105324,-142.857142857143,4,2,1,60,0,0
105652,-200,4,2,60,50,0,0
105815,-200,4,2,20,30,0,0
106307,-200,4,2,20,30,0,0
108274,-200,4,2,60,30,0,0
108930,-200,4,2,20,30,0,0
110897,-200,4,2,60,30,0,0
111553,-200,4,2,20,30,0,0
113520,-200,4,2,60,30,0,0
114176,-200,4,2,20,30,0,0
114668,-200,4,2,3,30,0,0
114750,-200,4,2,20,10,0,0
115324,-200,4,2,20,20,0,0
115488,-200,4,2,20,30,0,0
115652,-200,4,2,20,40,0,0
115815,-200,4,2,20,50,0,0
115979,-200,4,2,20,60,0,0
116061,-200,4,2,99,5,0,0
116143,-166.666666666667,4,2,60,60,0,0
116307,-166.666666666667,4,2,1,25,0,0
116799,-166.666666666667,4,2,1,45,0,0
117291,-166.666666666667,4,2,51,45,0,0
117619,-166.666666666667,4,2,1,45,0,0
118766,-166.666666666667,4,2,60,45,0,0
119094,-166.666666666667,4,2,1,45,0,0
121389,-166.666666666667,4,2,60,45,0,0
121717,-166.666666666667,4,2,1,45,0,0
124012,-166.666666666667,4,2,60,45,0,0
124340,-166.666666666667,4,2,1,45,0,0
126635,-142.857142857143,4,2,1,60,0,0
126799,-142.857142857143,4,2,1,50,0,0
129258,-142.857142857143,4,2,51,50,0,0
129422,-142.857142857143,4,2,1,50,0,0
134504,-142.857142857143,4,2,51,50,0,0
134668,-142.857142857143,4,2,1,50,0,0
136799,-142.857142857143,4,2,1,15,0,0
136963,-142.857142857143,4,2,1,50,0,0
137126,-125,4,2,1,65,0,0
137291,-125,4,2,1,60,0,0
142373,-117.647058823529,4,2,1,68,0,0
142537,-117.647058823529,4,2,1,63,0,0
144996,-111.111111111111,4,2,1,70,0,0
145161,-111.111111111111,4,2,1,65,0,0
146143,-111.111111111111,4,2,1,70,0,0
146308,-111.111111111111,4,2,1,65,0,0
146963,-111.111111111111,4,2,1,65,0,0
147045,-111.111111111111,4,2,1,40,0,0
147127,-111.111111111111,4,2,1,65,0,0
147209,-111.111111111111,4,2,1,40,0,0
147291,-111.111111111111,4,2,1,65,0,0
147373,-111.111111111111,4,2,1,40,0,0
147455,-111.111111111111,4,2,1,65,0,0
147537,-111.111111111111,4,2,1,40,0,0
147619,-90.0900900900901,4,3,44,75,0,1
147865,-90.0900900900901,4,2,20,5,0,1
147947,-90.0900900900901,4,1,3,70,0,1
148111,-90.0900900900901,4,1,3,45,0,1
148274,-90.0900900900901,4,1,3,70,0,1
149176,-90.0900900900901,4,2,20,5,0,1
149258,-90.0900900900901,4,1,3,70,0,1
150078,-90.0900900900901,4,1,3,45,0,1
150242,-90.0900900900901,4,1,3,70,0,1
150406,-90.0900900900901,4,1,3,45,0,1
150570,-90.0900900900901,4,1,3,70,0,1
151389,-90.0900900900901,4,1,3,45,0,1
151553,-90.0900900900901,4,1,3,70,0,1
151717,-90.0900900900901,4,1,3,45,0,1
151881,-90.0900900900901,4,1,3,70,0,1
153111,-90.0900900900901,4,2,20,5,0,1
153193,-90.0900900900901,4,1,3,70,0,1
153356,-90.0900900900901,4,1,3,45,0,1
153520,-90.0900900900901,4,1,3,70,0,1
154422,-90.0900900900901,4,2,20,5,0,1
154504,-90.0900900900901,4,1,3,70,0,1
155324,-90.0900900900901,4,1,3,45,0,1
155488,-90.0900900900901,4,1,3,70,0,1
155652,-90.0900900900901,4,1,3,45,0,1
155815,-90.0900900900901,4,1,3,70,0,1
156471,-90.0900900900901,4,1,3,70,0,1
156799,-90.0900900900901,4,1,3,70,0,1
157045,-90.0900900900901,4,2,20,5,0,1
157127,-90.0900900900901,4,1,3,70,0,1
157783,-90.0900900900901,4,1,3,70,0,0
158111,-133.333333333333,4,2,1,75,0,0
158274,-133.333333333333,4,2,1,70,0,0
158766,-133.333333333333,4,2,20,30,0,0
158930,-133.333333333333,4,2,1,70,0,0
159422,-133.333333333333,4,1,3,70,0,0
159750,-133.333333333333,4,1,2,70,0,0
160733,-133.333333333333,4,2,1,72,0,0
160897,-133.333333333333,4,2,1,70,0,0
161389,-133.333333333333,4,2,20,30,0,0
161553,-133.333333333333,4,2,1,70,0,0
162045,-133.333333333333,4,1,3,70,0,0
162372,-133.333333333333,4,1,2,70,0,0
163193,-133.333333333333,4,1,2,25,0,0
163356,-86.9565217391304,4,3,2,75,0,1
163520,-86.9565217391304,4,3,2,70,0,0
163848,-86.9565217391304,4,3,2,75,0,0
164012,-86.9565217391304,4,3,2,70,0,0
164340,-86.9565217391304,4,3,2,75,0,0
164504,-86.9565217391304,4,3,2,70,0,0
164832,-86.9565217391304,4,3,2,75,0,0
164996,-86.9565217391304,4,3,2,70,0,0
165324,-86.9565217391304,4,3,2,75,0,0
165488,-86.9565217391304,4,3,2,70,0,0
165652,-86.9565217391304,4,3,2,75,0,0
165815,-86.9565217391304,4,3,2,70,0,0
165979,-86.9565217391304,4,3,2,75,0,0
166143,-86.9565217391304,4,3,2,70,0,0
166471,-86.9565217391304,4,3,2,75,0,0
166635,-86.9565217391304,4,3,2,70,0,0
166963,-86.9565217391304,4,3,2,75,0,0
167127,-86.9565217391304,4,3,2,70,0,0
167455,-86.9565217391304,4,3,2,75,0,0
167619,-86.9565217391304,4,3,2,70,0,0
167947,-86.9565217391304,4,3,2,75,0,0
168111,-86.9565217391304,4,2,20,20,0,0
168274,-86.9565217391304,4,3,2,70,0,0
168438,-86.9565217391304,4,2,20,20,0,0
168602,-100,4,1,3,75,0,0
168766,-100,4,1,3,70,0,0
171389,-100,4,1,3,55,0,0
171553,-100,4,1,3,70,0,0
176635,-100,4,1,3,70,0,0
179094,-100,4,1,3,75,0,0
179258,-100,4,1,3,30,0,0
179422,-100,4,1,3,65,0,0
179914,-100,4,1,3,30,0,0
180078,-100,4,1,3,65,0,0
184340,-100,4,1,3,30,0,0
184504,-100,4,1,3,65,0,0
187291,-100,4,1,3,60,0,0
187947,-83.3333333333333,4,2,21,60,0,0
188274,-100,4,1,3,65,0,1
188438,-100,4,1,3,70,0,0
188602,-100,4,1,3,75,0,0
188766,-100,4,1,3,80,0,0
188930,-166.666666666667,4,2,42,70,0,0
189176,-166.666666666667,4,2,20,5,0,0
189258,-111.111111111111,4,2,43,70,0,0
189504,-166.666666666667,4,2,20,5,0,0
189586,-86.9565217391304,4,2,44,85,0,1
189750,-86.9565217391304,4,1,3,75,0,1
189832,-86.9565217391304,4,2,20,5,0,1
189914,-86.9565217391304,4,1,3,75,0,1
191143,-86.9565217391304,4,2,20,5,0,1
191225,-86.9565217391304,4,1,3,75,0,1
192455,-86.9565217391304,4,2,20,5,0,1
192537,-86.9565217391304,4,1,3,75,0,1
193520,-86.9565217391304,4,1,3,30,0,1
193684,-86.9565217391304,4,1,3,75,0,1
195078,-86.9565217391304,4,2,20,5,0,1
195160,-86.9565217391304,4,1,3,75,0,1
197537,-86.9565217391304,4,2,20,5,0,1
197619,-86.9565217391304,4,1,3,75,0,1
199914,-86.9565217391304,4,1,3,75,0,0
200078,-86.9565217391304,4,1,3,80,0,1
200324,-86.9565217391304,4,2,20,5,0,1
200406,-86.9565217391304,4,1,3,75,0,1
201635,-86.9565217391304,4,2,20,5,0,1
201717,-86.9565217391304,4,1,3,75,0,1
202701,-86.9565217391304,4,1,3,80,0,1
202865,-86.9565217391304,4,1,3,75,0,1
203848,-86.9565217391304,4,1,3,80,0,1
204094,-86.9565217391304,4,2,20,5,0,1
204176,-86.9565217391304,4,1,3,75,0,1
205160,-86.9565217391304,4,1,3,80,0,1
205406,-86.9565217391304,4,2,20,5,0,1
205488,-86.9565217391304,4,1,3,75,0,1
206635,-86.9565217391304,4,1,3,80,0,1
206881,-86.9565217391304,4,2,20,5,0,1
206963,-86.9565217391304,4,1,3,75,0,1
207947,-86.9565217391304,4,1,3,60,0,0
208029,-86.9565217391304,4,2,20,60,0,0
208356,-86.9565217391304,4,2,20,5,0,0
208438,-86.9565217391304,4,1,3,60,0,0
208602,-86.9565217391304,4,1,3,60,0,0
209176,-86.9565217391304,4,2,20,5,0,0
209258,-86.9565217391304,4,2,1,60,0,0
209422,-86.9565217391304,4,2,1,60,0,0
210242,-142.857142857143,4,2,1,60,0,0
210570,-142.857142857143,4,2,1,60,0,0
210733,-142.857142857143,4,2,1,50,0,0
213193,-133.333333333333,4,2,51,50,0,0
213356,-133.333333333333,4,2,1,50,0,0
218438,-133.333333333333,4,2,51,50,0,0
218602,-133.333333333333,4,2,1,50,0,0
221061,-125,4,2,1,65,0,0
221225,-125,4,2,1,60,0,0
226307,-117.647058823529,4,2,1,68,0,0
226471,-117.647058823529,4,2,1,63,0,0
228930,-111.111111111111,4,2,1,70,0,0
229094,-111.111111111111,4,2,1,65,0,0
230078,-111.111111111111,4,2,1,70,0,0
230242,-111.111111111111,4,2,1,65,0,0
230897,-111.111111111111,4,2,1,65,0,0
230979,-111.111111111111,4,2,1,40,0,0
231061,-111.111111111111,4,2,1,65,0,0
231143,-111.111111111111,4,2,1,40,0,0
231225,-111.111111111111,4,2,1,65,0,0
231307,-111.111111111111,4,2,1,40,0,0
231389,-111.111111111111,4,2,1,65,0,0
231471,-111.111111111111,4,2,1,40,0,0
231553,-90.0900900900901,4,3,44,75,0,1
231799,-90.0900900900901,4,2,20,5,0,1
231881,-90.0900900900901,4,1,3,70,0,1
232045,-90.0900900900901,4,1,3,45,0,1
232209,-90.0900900900901,4,1,3,70,0,1
233111,-90.0900900900901,4,2,20,5,0,1
233193,-90.0900900900901,4,1,3,70,0,1
234012,-90.0900900900901,4,1,3,45,0,1
234176,-90.0900900900901,4,1,3,70,0,1
234340,-90.0900900900901,4,1,3,45,0,1
234504,-90.0900900900901,4,1,3,70,0,1
235324,-90.0900900900901,4,1,3,45,0,1
235488,-90.0900900900901,4,1,3,70,0,1
235652,-90.0900900900901,4,1,3,45,0,1
235815,-90.0900900900901,4,1,3,70,0,1
237045,-90.0900900900901,4,2,20,5,0,1
237127,-90.0900900900901,4,1,3,70,0,1
237291,-90.0900900900901,4,1,3,45,0,1
237455,-90.0900900900901,4,1,3,70,0,1
238356,-90.0900900900901,4,2,20,5,0,1
238438,-90.0900900900901,4,1,3,70,0,1
239258,-90.0900900900901,4,1,3,45,0,1
239422,-90.0900900900901,4,1,3,70,0,1
239586,-90.0900900900901,4,1,3,45,0,1
239750,-90.0900900900901,4,1,3,70,0,1
240406,-90.0900900900901,4,1,3,70,0,1
240733,-90.0900900900901,4,1,3,70,0,1
240979,-90.0900900900901,4,2,20,5,0,1
241061,-90.0900900900901,4,1,3,70,0,1
241717,-90.0900900900901,4,1,3,70,0,0
242045,-133.333333333333,4,2,1,75,0,0
242209,-133.333333333333,4,2,1,70,0,0
242701,-133.333333333333,4,2,20,30,0,0
242865,-133.333333333333,4,2,1,70,0,0
243356,-133.333333333333,4,1,3,70,0,0
243684,-133.333333333333,4,1,2,70,0,0
244668,-133.333333333333,4,2,1,72,0,0
244832,-133.333333333333,4,2,1,70,0,0
245324,-133.333333333333,4,2,20,30,0,0
245488,-133.333333333333,4,2,1,70,0,0
245979,-133.333333333333,4,1,3,70,0,0
246307,-133.333333333333,4,1,2,70,0,0
246799,-133.333333333333,4,1,2,70,0,0
247127,-133.333333333333,4,1,3,25,0,0
247291,-86.9565217391304,4,3,2,75,0,1
247455,-86.9565217391304,4,3,2,70,0,0
247783,-86.9565217391304,4,3,2,75,0,0
247947,-86.9565217391304,4,3,2,70,0,0
248274,-86.9565217391304,4,3,2,75,0,0
248438,-86.9565217391304,4,3,2,70,0,0
248766,-86.9565217391304,4,3,2,75,0,0
248930,-86.9565217391304,4,3,2,70,0,0
249258,-86.9565217391304,4,3,2,75,0,0
249422,-86.9565217391304,4,3,2,70,0,0
249586,-86.9565217391304,4,3,2,75,0,0
249750,-86.9565217391304,4,3,2,70,0,0
249914,-86.9565217391304,4,3,2,75,0,0
250078,-86.9565217391304,4,3,2,70,0,0
250406,-86.9565217391304,4,3,2,75,0,0
250570,-86.9565217391304,4,3,2,70,0,0
250897,-86.9565217391304,4,3,2,75,0,0
251061,-86.9565217391304,4,3,2,70,0,0
251389,-86.9565217391304,4,3,2,75,0,0
251553,-86.9565217391304,4,3,2,70,0,0
251881,-86.9565217391304,4,3,2,75,0,0
252045,-86.9565217391304,4,3,2,70,0,0
252537,-125,4,3,1,75,0,0
252865,-125,4,2,51,75,0,0
257783,-103.092783505155,4,2,51,75,0,0
259094,-93.4579439252336,4,2,1,75,0,0
260406,-78.7401574803149,4,2,1,75,0,0
260733,-68.0272108843537,4,2,1,75,0,0
261061,-59.8802395209581,4,2,1,75,0,0
261389,-53.475935828877,4,2,1,75,0,0
261717,-200,4,2,42,35,0,0
262291,-200,4,2,20,5,0,0
262373,-200,4,2,43,35,0,0
262619,-200,4,2,99,5,0,0
262701,-200,4,2,21,35,0,0
263029,-166.666666666667,4,2,44,39,0,0
263111,-166.666666666667,4,2,1,39,0,0
264340,-166.666666666667,4,2,1,43,0,0
265651,-142.857142857143,4,2,1,47,0,0
266963,-142.857142857143,4,2,1,51,0,0
268274,-125,4,2,1,55,0,0
269586,-125,4,2,1,59,0,0
270897,-111.111111111111,4,2,1,63,0,0
272209,-111.111111111111,4,2,1,67,0,0
273520,-100,4,1,3,75,0,1
273684,-100,4,1,3,65,0,0
273766,-100,4,2,20,5,0,0
273848,-100,4,1,3,65,0,0
275078,-100,4,2,20,5,0,0
275160,-100,4,1,3,65,0,0
276143,-100,4,1,3,75,0,0
276307,-100,4,1,3,65,0,0
277291,-100,4,1,3,75,0,0
277537,-100,4,2,20,5,0,0
277619,-100,4,1,3,65,0,0
278602,-100,4,1,3,75,0,0
278848,-100,4,2,20,5,0,0
278930,-100,4,1,3,65,0,0
280078,-100,4,1,3,75,0,0
280324,-100,4,2,20,5,0,0
280406,-100,4,1,3,65,0,0
281389,-100,4,2,1,75,0,0
281553,-100,4,2,1,65,0,0
282045,-100,4,2,21,65,0,0
282373,-100,4,2,21,65,0,0
282701,-90.9090909090909,4,2,42,70,0,0
282742,-90.9090909090909,4,2,1,50,0,0
282783,-90.9090909090909,4,2,1,51,0,0
282865,-90.9090909090909,4,2,1,52,0,0
282947,-90.9090909090909,4,2,1,53,0,0
283029,-90.9090909090909,4,2,1,54,0,0
283111,-90.9090909090909,4,2,1,55,0,0
283193,-90.9090909090909,4,2,1,56,0,0
283274,-90.9090909090909,4,2,1,57,0,0
283356,-90.9090909090909,4,2,43,75,0,0
283397,-90.9090909090909,4,2,1,55,0,0
283438,-90.9090909090909,4,2,1,56,0,0
283520,-90.9090909090909,4,2,1,57,0,0
283602,-90.9090909090909,4,2,1,58,0,0
283684,-90.9090909090909,4,2,21,80,0,0
283725,-90.9090909090909,4,2,1,25,0,0
283766,-90.9090909090909,4,2,21,80,0,0
283807,-90.9090909090909,4,2,1,25,0,0
283848,-90.9090909090909,4,2,21,80,0,0
283889,-90.9090909090909,4,2,1,25,0,0
283930,-90.9090909090909,4,2,21,80,0,0
283971,-90.9090909090909,4,2,1,25,0,0
284012,-86.9565217391304,4,2,44,85,0,1
284176,-86.9565217391304,4,1,3,75,0,1
284258,-86.9565217391304,4,2,20,5,0,1
284340,-86.9565217391304,4,1,3,75,0,1
285570,-86.9565217391304,4,2,20,5,0,1
285652,-86.9565217391304,4,1,3,75,0,1
286881,-86.9565217391304,4,2,20,5,0,1
286963,-86.9565217391304,4,1,3,75,0,1
287947,-86.9565217391304,4,1,3,30,0,1
288111,-86.9565217391304,4,1,3,75,0,1
289504,-86.9565217391304,4,2,20,5,0,1
289586,-86.9565217391304,4,1,3,75,0,1
291717,-86.9565217391304,4,1,3,80,0,1
291963,-86.9565217391304,4,2,20,5,0,1
292045,-86.9565217391304,4,1,3,75,0,1
294340,-86.9565217391304,4,1,3,75,0,0
294504,-86.9565217391304,4,1,3,80,0,1
294750,-86.9565217391304,4,2,20,5,0,1
294832,-86.9565217391304,4,1,3,75,0,1
296061,-86.9565217391304,4,2,20,5,0,1
296143,-86.9565217391304,4,1,3,75,0,1
297127,-86.9565217391304,4,1,3,80,0,1
297291,-86.9565217391304,4,1,3,75,0,1
298274,-86.9565217391304,4,1,3,80,0,1
298520,-86.9565217391304,4,2,20,5,0,1
298602,-86.9565217391304,4,1,3,75,0,1
299586,-86.9565217391304,4,1,3,80,0,1
299832,-86.9565217391304,4,2,20,5,0,1
299914,-86.9565217391304,4,1,3,75,0,1
301061,-86.9565217391304,4,1,3,80,0,1
301307,-86.9565217391304,4,2,20,5,0,1
301389,-86.9565217391304,4,1,3,75,0,1
302373,-86.9565217391304,4,1,3,60,0,0
302455,-86.9565217391304,4,2,20,60,0,0
302783,-86.9565217391304,4,2,20,5,0,0
302865,-86.9565217391304,4,1,3,60,0,0
303029,-86.9565217391304,4,1,3,60,0,0
303602,-86.9565217391304,4,2,20,5,0,0
303684,-86.9565217391304,4,2,1,60,0,1
303848,-86.9565217391304,4,2,1,60,0,0
304504,-200,4,2,1,56,0,0
304667,-200,4,2,1,70,0,0
304832,-200,4,2,1,65,0,0
304996,-76.9230769230769,4,1,1,80,0,1
305160,-76.9230769230769,4,1,1,70,0,0
310078,-76.9230769230769,4,1,1,70,0,0
310242,-76.9230769230769,4,1,1,70,0,1
310406,-76.9230769230769,4,1,1,70,0,0
315488,-68.9655172413793,4,1,1,85,0,1
315652,-68.9655172413793,4,1,1,75,0,1
320570,-68.9655172413793,4,1,1,75,0,0
320733,-68.9655172413793,4,1,1,75,0,1
320897,-68.9655172413793,4,1,1,75,0,1
324504,-68.9655172413793,4,1,1,75,0,1
324832,-62.5,4,1,1,75,0,1
325160,-62.5,4,1,1,75,0,1
325979,-625,4,2,1,80,0,0
326061,-666.666666666667,4,2,70,75,0,0
326307,-666.666666666667,4,2,71,70,0,0
326635,-666.666666666667,4,2,70,65,0,0
327291,-1000,4,2,71,60,0,0
327947,-1000,4,2,70,55,0,0
328602,-1000,4,2,71,50,0,0
329258,-1000,4,2,70,45,0,0
329914,-1000,4,2,71,40,0,0
330570,-1000,4,2,70,35,0,0
331225,-1000,4,2,71,30,0,0
331881,-1000,4,2,70,25,0,0
332537,-1000,4,2,71,20,0,0
333193,-1000,4,2,70,15,0,0
333848,-1000,4,2,71,10,0,0
334996,-1000,4,2,99,5,0,0
335652,-1000,4,2,99,15,0,0
335733,-1000,4,2,99,25,0,0
335815,-1000,4,1,1,50,0,0
336143,-1000,4,1,1,60,0,0
336307,-1000,4,1,1,70,0,0
336471,-1000,4,2,99,25,0,0

[Colours]
Combo1 : 255,136,202
Combo2 : 147,73,228
Combo3 : 252,85,29
Combo4 : 218,218,211
Combo5 : 221,158,254
Combo6 : 255,51,51
Combo7 : 250,255,36
Combo8 : 152,149,143

[HitObjects]
256,192,19094,12,0,21553,0:0:0:0:
103,324,21717,38,0,L|139:318,1,26.9999991760254,2|0,0:3|0:0,0:0:0:0:
193,277,22045,2,0,L|222:270,1,26.9999991760254,0|0,0:0|0:0,0:0:0:0:
283,230,22373,2,0,L|312:223,1,26.9999991760254,0|0,0:0|0:0,0:0:0:0:
373,183,22701,1,0,0:0:0:0:
293,136,22865,54,0,L|231:126,1,53.9999983520508,2|0,0:1|0:0,0:0:0:0:
169,154,23356,2,0,L|138:159,1,26.9999991760254,0|0,0:0|0:0,0:0:0:0:
70,133,23684,2,0,L|39:128,1,26.9999991760254,0|0,0:0|0:0,0:0:0:0:
34,53,24012,1,0,0:0:0:0:
100,17,24176,1,0,0:0:0:0:
156,67,24340,54,0,L|187:62,1,26.9999991760254,2|0,0:0|0:0,0:0:0:0:
254,38,24668,2,0,L|285:43,1,26.9999991760254,0|0,0:0|0:0,0:0:0:0:
350,72,24996,2,0,L|381:67,2,26.9999991760254,0|0|0,0:0|0:0|0:0,0:0:0:0:
285,166,25488,54,0,L|276:229,1,53.9999983520508,2|0,0:1|0:0,0:0:0:0:
347,259,25979,2,0,L|350:232,1,26.9999991760254,0|0,0:0|0:0,0:0:0:0:
431,223,26307,2,0,L|427:249,1,26.9999991760254,0|0,0:0|0:0,0:0:0:0:
396,324,26635,1,0,0:0:0:0:
316,337,26799,1,0,0:0:0:0:
350,232,26963,54,0,L|353:205,1,26.9999991760254,2|0,0:3|0:0,0:0:0:0:
392,133,27291,2,0,L|395:106,1,26.9999991760254,0|0,0:0|0:0,0:0:0:0:
434,34,27619,2,0,L|437:7,2,26.9999991760254,0|0|0,0:0|0:0|0:0,0:0:0:0:
479,141,28111,54,0,L|475:215,1,53.9999983520508,2|0,0:1|0:0,0:0:0:0:
455,267,28602,1,0,0:0:0:0:
401,320,28766,1,0,0:0:0:0:
327,338,28930,2,0,L|290:336,1,26.9999991760254,0|0,0:0|0:0,0:0:0:0:
226,354,29258,1,0,0:0:0:0:
205,281,29422,1,0,0:0:0:0:
152,372,29586,54,0,L|115:370,1,26.9999991760254,2|0,0:0|0:0,0:0:0:0:
69,318,29914,2,0,L|52:284,1,26.9999991760254,0|0,0:0|0:0,0:0:0:0:
74,219,30242,2,0,L|94:187,1,26.9999991760254
161,174,30570,1,0,0:0:0:0:
66,114,30733,54,0,L|36:68,1,53.9999983520508,2|0,0:1|0:0,0:0:0:0:
94,19,31225,1,0,0:0:0:0:
152,68,31389,1,0,0:0:0:0:
210,19,31553,2,0,L|248:20,1,26.9999991760254,0|0,0:0|0:0,0:0:0:0:
313,19,31881,1,0,0:0:0:0:
338,90,32045,1,0,0:0:0:0:
443,42,32209,53,6,0:0:0:0:
470,116,32373,1,0,0:0:0:0:
497,190,32537,2,0,P|477:193|448:187,1,36,0|0,0:0|0:0,0:0:0:0:
395,146,32865,1,0,0:0:0:0:
338,90,33029,1,0,0:0:0:0:
267,126,33193,1,0,0:0:0:0:
326,221,33356,54,0,B|334:261|334:261|326:303,1,72,2|0,0:1|0:1,0:0:0:0:
261,347,33848,2,0,P|249:328|243:308,1,36,0|0,0:0|0:0,0:0:0:0:
183,253,34176,2,0,P|171:266|163:283,1,36
115,355,34504,1,0,0:0:0:0:
53,294,34668,1,0,0:0:0:0:
101,201,34832,70,0,L|107:152,1,36,2|0,0:0|0:0,0:0:0:0:
125,71,35160,1,0,0:0:0:0:
197,129,35324,1,0,0:0:0:0:
247,51,35488,1,0,0:0:0:0:
328,89,35652,2,0,L|356:90,2,18
278,179,35979,54,0,P|323:191|362:182,1,72,2|0,0:1|0:0,0:0:0:0:
350,190,36389,1,0,0:0:0:0:
353,193,36471,1,0,0:0:0:0:
289,261,36635,1,0,0:0:0:0:
286,264,36717,1,0,0:0:0:0:
283,267,36799,1,0,0:0:0:0:
381,287,36963,1,0,0:0:0:0:
384,290,37045,1,0,0:0:0:0:
387,293,37127,2,0,L|436:294,1,36
492,202,37455,53,2,0:0:0:0:
489,122,37619,1,0,0:0:0:0:
411,169,37783,1,0,0:0:0:0:
388,93,37947,1,0,0:0:0:0:
325,164,38111,5,0,0:0:0:0:
322,174,38193,1,0,0:0:0:0:
319,184,38274,1,0,0:0:0:0:
318,194,38356,1,0,0:0:0:0:
319,204,38438,1,0,0:0:0:0:
320,214,38520,1,0,0:0:0:0:
321,224,38602,54,0,L|332:261,2,20.2499993820191,2|0|0,0:1|0:0|0:0,0:0:0:0:
231,311,38930,2,0,L|220:348,2,20.2499993820191
201,221,39258,1,0,0:0:0:0:
196,209,39340,1,0,0:0:0:0:
192,197,39422,54,0,L|184:164,3,20.2499993820191
240,122,39750,2,0,L|248:89,3,20.2499993820191
316,120,40078,53,2,0:3:0:0:
334,127,40160,1,0,0:0:0:0:
349,138,40242,1,0,0:0:0:0:
361,153,40324,1,0,0:0:0:0:
368,170,40406,1,0,0:0:0:0:
370,188,40488,1,0,0:0:0:0:
368,207,40570,1,0,0:0:0:0:
361,224,40652,1,0,0:0:0:0:
349,238,40733,53,0,0:0:0:0:
328,220,40815,1,0,0:0:0:0:
304,209,40897,1,0,0:0:0:0:
277,204,40979,1,0,0:0:0:0:
249,206,41061,2,0,L|220:227,3,24.7500007553101,0|0|0|0,0:0|0:0|0:0|0:0,0:0:0:0:
256,192,41389,12,0,42537,0:0:0:0:
192,256,42701,86,0,P|180:227|175:190,1,53.9999983520508,6|0,0:3|0:0,0:0:0:0:
188,107,43029,1,8,0:3:0:0:
276,83,43193,1,0,0:0:0:0:
333,155,43356,2,0,P|343:183|348:213,1,53.9999983520508,0|0,0:0|0:0,0:0:0:0:
283,274,43684,1,8,0:3:0:0:
380,351,43848,54,0,P|404:337|444:306,1,53.9999983520508,0|0,0:1|0:3,0:1:0:0:
469,228,44176,1,0,0:0:0:0:
347,206,44340,1,8,0:3:0:0:
413,128,44504,1,0,0:3:0:0:
416,125,44586,1,0,0:0:0:0:
419,122,44668,2,0,P|441:106|464:93,1,53.9999983520508,0|0,0:0|0:0,0:1:0:0:
393,37,44996,2,0,P|366:32|340:24,1,53.9999983520508,8|0,0:3|0:0,0:1:0:0:
336,45,45242,1,0,0:0:0:0:
328,65,45324,54,0,P|310:85|290:104,1,53.9999983520508,0|0,0:3|0:0,0:1:0:0:
169,45,45652,1,8,0:3:0:0:
122,135,45815,1,0,0:0:0:0:
117,155,45897,1,0,0:0:0:0:
113,176,45979,2,0,L|100:236,1,53.9999983520508,0|0,0:0|0:0,0:0:0:0:
170,311,46307,2,0,L|182:250,1,53.9999983520508,8|0,0:3|0:0,0:0:0:0:
269,168,46635,53,0,0:3:0:0:
314,260,46799,1,0,0:0:0:0:
181,258,46963,1,8,0:3:0:0:
252,331,47127,1,0,0:0:0:0:
255,334,47209,1,0,0:0:0:0:
258,337,47291,2,0,L|285:368,2,26.9999991760254
121,317,47619,2,0,P|97:318|47:310,1,53.9999983520508,8|0,0:3|0:0,0:0:0:0:
35,140,47947,53,4,0:3:0:0:
100,241,48111,1,0,0:0:0:0:
174,132,48274,1,8,0:3:0:0:
223,245,48438,2,0,L|271:256,1,31.4999990386963
115,208,48602,2,0,L|67:197,1,31.4999990386963
238,212,48766,1,0,0:0:0:0:
210,333,48930,1,8,0:3:0:0:
64,314,49094,54,0,L|14:318,2,31.4999990386963,0|0|0,0:0|0:0|0:3,0:0:0:0:
205,308,49422,1,0,0:0:0:0:
179,156,49586,1,8,0:3:0:0:
284,218,49750,1,0,0:0:0:0:
293,230,49832,1,0,0:0:0:0:
302,242,49914,1,0,0:0:0:0:
311,254,49996,1,0,0:0:0:0:
320,266,50078,1,0,0:0:0:0:
433,211,50242,2,0,L|451:127,1,62.9999980773926,8|0,0:3|0:0,0:0:0:0:
450,124,50488,1,0,0:0:0:0:
454,99,50570,54,0,P|413:97|371:80,1,62.9999980773926,0|0,0:3|0:0,0:0:0:0:
286,11,50897,1,8,0:3:0:0:
230,110,51061,1,0,0:0:0:0:
226,128,51143,1,0,0:0:0:0:
222,146,51225,2,0,L|181:142,2,31.4999990386963,0|0|0,0:0|0:0|0:0,0:0:0:0:
330,229,51553,2,0,L|410:235,1,62.9999980773926,8|0,0:3|0:0,0:0:0:0:
247,300,51881,54,0,L|166:306,1,62.9999980773926,0|0,0:3|0:0,0:0:0:0:
92,235,52209,1,8,0:3:0:0:
162,167,52373,1,0,0:0:0:0:
176,155,52455,1,0,0:0:0:0:
190,143,52537,2,0,L|219:170,2,31.4999990386963
147,43,52865,2,0,L|62:32,1,62.9999980773926,8|0,0:3|0:0,0:0:0:0:
42,52,53111,1,0,0:0:0:0:
39,55,53193,6,0,P|21:102|22:136,1,62.9999980773926,6|0,0:3|0:0,0:0:0:0:
106,257,53520,1,8,0:3:0:0:
113,137,53684,1,0,0:0:0:0:
17,251,53848,2,0,P|22:281|35:310,1,62.9999980773926
191,202,54176,1,8,0:3:0:0:
255,342,54340,53,0,0:0:0:0:
256,346,54422,1,0,0:0:0:0:
257,350,54504,1,0,0:3:0:0:
203,228,54668,1,0,0:3:0:0:
180,380,54832,1,8,0:3:0:0:
273,262,54996,1,0,0:0:0:0:
276,259,55078,1,0,0:0:0:0:
279,256,55160,2,0,L|334:244,2,31.4999990386963
206,144,55488,2,0,P|158:152|126:176,1,62.9999980773926,8|0,0:3|0:0,0:0:0:0:
13,76,55815,53,0,0:3:0:0:
21,180,55979,1,0,0:0:0:0:
129,263,56143,1,8,0:3:0:0:
146,159,56307,1,0,0:3:0:0:
142,143,56389,1,0,0:0:0:0:
136,128,56471,1,0,0:0:0:0:
131,112,56553,1,0,0:0:0:0:
125,97,56635,1,0,0:3:0:0:
38,174,56799,2,0,L|30:263,1,62.9999980773926,8|0,0:3|0:0,0:0:0:0:
32,262,57045,1,0,0:0:0:0:
35,286,57127,54,0,B|49:313|49:313|87:342,1,62.9999980773926,0|0,0:3|0:0,0:0:0:0:
207,319,57455,1,8,0:3:0:0:
194,186,57619,1,0,0:0:0:0:
191,189,57701,1,0,0:0:0:0:
188,192,57783,2,0,B|110:176,1,62.9999980773926,0|0,0:0|0:0,0:0:0:0:
240,118,58111,2,0,B|318:102,1,62.9999980773926,8|0,0:3|0:0,0:0:0:0:
308,290,58438,53,4,0:3:0:0:
170,293,58602,1,0,0:0:0:0:
298,193,58766,1,8,0:3:0:0:
310,308,58930,1,0,0:0:0:0:
312,326,59012,1,0,0:0:0:0:
314,344,59094,2,0,L|254:376,2,62.9999980773926,0|0|8,0:0|0:0|0:3,0:0:0:0:
400,243,59586,53,0,0:0:0:0:
411,228,59668,1,0,0:0:0:0:
422,214,59750,2,0,L|487:233,2,62.9999980773926,0|0|8,0:3|0:0|0:3,0:0:0:0:
341,125,60242,5,0,0:0:0:0:
338,106,60324,1,0,0:0:0:0:
336,88,60406,2,0,L|373:69,10,22.5,0|0|0|0|0|0|0|0|0|0|0,0:0|0:0|0:0|0:0|0:0|0:0|0:0|0:0|0:3|0:0|0:0,0:0:0:0:
278,35,60897,5,0,0:0:0:0:
236,263,61061,1,4,0:0:0:0:
135,53,61225,1,0,0:0:0:0:
339,163,61389,1,0,0:0:0:0:
109,194,61553,1,0,0:0:0:0:
202,13,61881,21,0,0:0:0:0:
224,178,62045,1,0,0:0:0:0:
418,45,62373,38,0,B|394:89|412:135|412:135|395:145|395:145|414:193|388:240,1,202.5,0|0,0:0|0:0,0:0:0:0:
336,293,63193,21,4,0:0:0:0:
236,149,63356,1,0,0:0:0:0:
411,134,63520,1,0,0:0:0:0:
402,333,63684,6,0,B|265:356,1,116.999994644165,6|0,0:3|2:0,0:0:0:0:
325,179,64012,1,0,0:3:0:0:
448,240,64176,53,0,2:0:0:0:
451,243,64258,1,0,2:0:0:0:
454,246,64340,1,0,0:3:0:0:
316,265,64504,1,0,2:0:0:0:
436,153,64668,1,0,0:3:0:0:
278,53,64832,54,0,P|220:46|144:67,1,116.999994644165,2|0,2:1|0:0,0:0:0:0:
143,223,65160,1,0,2:0:0:0:
285,142,65324,1,0,0:3:0:0:
121,145,65488,1,0,2:0:0:0:
168,301,65652,1,0,0:3:0:0:
288,145,65815,53,0,2:0:0:0:
291,148,65897,1,0,2:0:0:0:
294,151,65979,2,0,B|310:246|310:246|285:234,1,116.999994644165,0|0,0:3|2:0,0:0:0:0:
376,69,66307,53,4,0:3:0:0:
484,175,66471,1,0,2:0:0:0:
350,62,66635,2,0,B|328:70|328:70|270:49|206:93,1,116.999994644165,0|0,0:3|2:0,0:0:0:0:
194,222,66963,53,0,0:3:0:0:
214,90,67127,1,0,2:0:0:0:
291,237,67291,1,0,0:3:0:0:
95,215,67455,54,0,B|68:190|68:190|55:99,1,116.999994644165,2|0,2:1|0:0,0:0:0:0:
204,65,67783,1,0,2:0:0:0:
194,222,67947,1,0,0:0:0:0:
141,118,68111,1,0,2:0:0:0:
305,171,68274,53,4,0:2:0:0:
191,58,68438,1,0,2:0:0:0:
178,51,68520,1,0,2:0:0:0:
165,44,68602,1,4,0:2:0:0:
181,215,68766,1,2,2:0:0:0:
316,75,68930,54,0,P|381:75|466:94,1,116.999994644165,6|0,0:3|2:0,0:0:0:0:
487,251,69258,1,0,0:3:0:0:
458,92,69422,1,0,2:0:0:0:
460,248,69586,53,0,0:3:0:0:
344,154,69750,1,0,2:0:0:0:
484,100,69914,1,0,0:3:0:0:
363,236,70078,54,0,B|364:289|364:289|400:373,1,116.999994644165,2|0,2:1|0:0,0:0:0:0:
460,248,70406,1,0,2:0:0:0:
273,232,70570,1,0,0:3:0:0:
434,169,70733,1,0,2:0:0:0:
288,314,70897,1,0,0:3:0:0:
327,130,71061,53,0,2:0:0:0:
343,120,71143,1,0,2:0:0:0:
359,110,71225,2,0,B|392:91|392:91|430:100|487:89,1,116.999994644165,0|0,0:3|2:0,0:0:0:0:
256,27,71553,53,4,0:3:0:0:
176,183,71717,1,0,2:0:0:0:
359,110,71881,1,0,0:3:0:0:
179,86,72045,1,0,2:0:0:0:
361,2,72209,53,0,0:3:0:0:
268,148,72373,1,0,2:0:0:0:
149,17,72537,1,0,0:3:0:0:
110,223,72701,54,2,B|131:280|131:280|219:318|324:298,1,233.999989288331,2|0,2:1|2:0,0:0:0:0:
428,179,73193,1,0,0:3:0:0:
291,70,73356,2,2,B|263:45|218:58|218:58|196:155|82:137,1,233.999989288331,2|0,2:0|2:0,0:0:0:0:
73,133,73766,1,0,2:0:0:0:
49,115,73848,1,2,0:1:0:0:
130,0,74012,1,2,2:0:0:0:
291,70,74176,86,0,L|314:185,1,90,4|0,1:3|0:0,0:0:0:0:
412,185,74504,2,0,L|435:300,1,90,8|0,0:0|0:0,0:0:0:0:
434,294,74750,1,0,0:0:0:0:
438,316,74832,2,0,L|501:301,2,45,0|0|0,0:0|0:0|0:0,0:0:0:0:
326,352,75160,1,8,0:0:0:0:
255,259,75324,1,0,0:0:0:0:
251,237,75406,1,0,0:0:0:0:
246,216,75488,1,0,1:3:0:0:
157,317,75652,53,0,0:0:0:0:
132,202,75815,2,0,L|109:87,1,90,8|0,0:0|0:0,0:0:0:0:
110,93,76061,1,0,0:0:0:0:
106,71,76143,2,0,L|43:86,2,45
223,82,76471,53,8,0:0:0:0:
337,57,76635,1,0,0:0:0:0:
358,53,76717,1,0,0:0:0:0:
380,49,76799,2,0,L|495:26,1,90,0|0,1:3|0:0,0:0:0:0:
383,210,77127,53,8,0:0:0:0:
268,184,77291,2,0,L|153:161,1,90
158,162,77537,1,0,0:0:0:0:
137,158,77619,2,0,L|152:95,2,45,0|0|8,0:0|0:0|0:0,0:0:0:0:
54,267,77947,53,0,0:0:0:0:
140,346,78111,1,0,1:3:0:0:
241,288,78274,1,0,0:0:0:0:
258,302,78356,1,0,0:0:0:0:
276,315,78438,2,0,L|401:313,1,90,8|0,0:0|0:0,0:0:0:0:
382,299,78684,1,0,0:0:0:0:
400,286,78766,2,0,L|525:288,1,90,0|0,0:0|0:0,0:0:0:0:
495,160,79094,53,8,0:0:0:0:
380,107,79258,1,0,0:0:0:0:
290,227,79422,6,0,L|270:172,1,45,4|0,3:1|0:0,0:0:0:0:
236,73,79586,2,0,L|189:127,1,45,0|0,3:0|0:0,0:0:0:0:
148,224,79750,53,8,0:0:0:0:
145,227,79832,1,0,0:0:0:0:
142,230,79914,1,0,0:0:0:0:
139,233,79996,1,0,0:0:0:0:
136,236,80078,53,0,0:0:0:0:
156,248,80160,1,0,0:0:0:0:
176,260,80242,1,0,0:0:0:0:
195,273,80324,1,0,0:0:0:0:
214,286,80406,53,8,0:0:0:0:
193,309,80488,1,0,0:0:0:0:
172,332,80570,1,0,0:0:0:0:
150,355,80652,1,0,0:0:0:0:
127,376,80733,54,0,L|75:375,3,45,4|0|0|0,1:3|0:0|0:0|0:0,0:0:0:0:
65,301,81061,54,0,L|20:301,3,45,8|0|0|0,0:0|0:0|0:0|0:0,0:0:0:0:
46,212,81389,54,0,L|29:157,1,45
126,215,81553,2,0,L|139:257,1,45
110,120,81717,54,0,L|93:65,1,45,8|0,0:0|0:0,0:0:0:0:
190,123,81881,2,0,L|203:165,1,45
182,41,82045,6,0,L|223:31,7,24.7500007553101,2|0|0|0|0|0|0|0,1:1|0:0|0:0|0:0|0:0|0:0|0:0|0:0,0:0:0:0:
236,48,82373,2,0,L|278:48,7,26.9999991760254,8|0|0|0|0|0|0|0,0:0|0:0|0:0|0:0|0:0|0:0|0:0|0:0,0:0:0:0:
286,68,82701,2,0,L|326:79,7,29.2499986610413
329,100,83029,2,0,L|365:121,7,31.4999990386963,8|0|0|0|0|0|0|0,0:0|0:0|0:0|0:0|0:0|0:0|0:0|0:0,0:0:0:0:
362,142,83356,70,0,B|397:188|397:188|401:266|366:340,1,188.999994232178,0|0,0:3|0:0,0:0:0:0:
376,316,84012,6,0,B|190:284|190:284|129:301|106:343,1,283.499991348267,0|0,2:3|0:0,0:0:0:0:
111,333,84668,6,0,P|58:351|11:268,1,155.250002961159,6|0,2:0|0:0,0:0:0:0:
13,265,84996,1,8,0:0:0:0:
69,125,85160,1,0,0:0:0:0:
169,256,85324,1,0,0:0:0:0:
21,252,85488,1,0,0:0:0:0:
170,158,85652,1,8,0:0:0:0:
0,175,85815,1,0,0:0:0:0:
178,269,85979,54,0,B|218:287|218:287|376:261,1,155.250002961159,2|0,3:2|0:0,0:0:0:0:
343,264,86307,1,8,0:0:0:0:
309,134,86471,1,0,0:0:0:0:
304,119,86553,1,0,0:0:0:0:
298,104,86635,1,0,0:0:0:0:
237,204,86799,1,0,0:0:0:0:
388,136,86963,1,8,0:0:0:0:
224,100,87127,1,0,0:0:0:0:
425,202,87291,54,0,B|462:228|462:228|478:118,1,155.250002961159,2|0,3:1|0:0,0:0:0:0:
479,103,87619,1,8,0:0:0:0:
335,80,87783,1,0,0:0:0:0:
312,224,87947,1,0,0:0:0:0:
388,136,88111,1,0,0:0:0:0:
253,174,88274,1,8,0:0:0:0:
200,16,88438,54,0,B|156:12|125:23|125:23|113:48,1,103.500001974106,2|0,0:2|0:0,0:0:0:0:
119,172,88766,1,0,0:0:0:0:
242,90,88930,1,8,0:0:0:0:
121,188,89094,1,2,0:2:0:0:
253,102,89258,2,0,P|289:158|281:225,1,103.500001974106,0|0,0:0|0:0,0:0:0:0:
158,295,89586,2,0,P|127:254|121:204,1,103.500001974106,8|0,0:0|0:0,0:0:0:0:
280,342,89914,54,0,P|354:328|409:251,1,155.250002961159,2|0,3:1|0:0,0:0:0:0:
418,265,90242,2,0,P|427:206|414:157,1,103.500001974106,8|0,0:0|0:0,0:0:0:0:
334,70,90570,1,0,0:0:0:0:
457,46,90733,1,0,0:0:0:0:
320,166,90897,2,0,B|270:172|270:172|212:163,1,103.500001974106,8|0,0:0|0:0,0:0:0:0:
254,1,91225,53,0,3:0:0:0:
205,154,91389,1,0,0:0:0:0:
281,10,91553,53,8,0:0:0:0:
194,145,91717,1,0,0:0:0:0:
300,29,91881,53,2,0:2:0:0:
181,136,92045,2,0,P|150:87|138:41,1,103.500001974106,0|8,0:0|0:0,0:0:0:0:
29,172,92373,54,0,B|11:211|11:211|13:323,1,155.250002961159,6|0,3:1|0:0,0:0:0:0:
16,339,92701,1,0,0:0:0:0:
170,325,92865,2,0,L|161:183,1,103.500001974106,8|0,0:0|0:0,0:0:0:0:
68,97,93193,1,2,0:1:0:0:
89,232,93356,1,0,0:0:0:0:
223,154,93520,1,8,0:0:0:0:
120,32,93684,54,0,P|66:18|-12:54,1,103.500001974106,2|0,0:2|0:0,0:0:0:0:
123,150,94012,2,0,P|177:164|255:128,1,103.500001974106,2|8,0:2|0:0,0:0:0:0:
252,44,94340,1,0,0:0:0:0:
319,183,94504,1,0,0:0:0:0:
387,88,94668,1,0,0:0:0:0:
236,42,94832,53,8,2:3:0:0:
220,39,94914,1,8,2:3:0:0:
204,35,94996,1,8,2:3:0:0:
188,32,95078,1,8,2:3:0:0:
170,51,95160,54,0,B|136:39|136:39|75:37|20:69,1,155.250002961159,6|0,3:1|0:0,0:0:0:0:
17,83,95488,1,8,0:0:0:0:
15,207,95652,1,0,0:0:0:0:
154,140,95815,1,0,0:0:0:0:
30,192,95979,1,0,0:0:0:0:
118,318,96143,2,0,P|168:315|194:273,1,103.500001974106,8|0,0:0|0:0,0:0:0:0:
362,302,96471,54,0,P|343:229|269:225,1,155.250002961159,2|0,3:2|0:0,0:0:0:0:
259,229,96799,1,8,0:0:0:0:
282,363,96963,2,0,B|348:383|348:383|402:381,2,103.500001974106,0|0|0,0:0|0:0|0:0,0:0:0:0:
190,200,97455,53,8,0:0:0:0:
339,157,97619,1,0,0:0:0:0:
195,333,97783,53,4,2:1:0:0:
245,109,98111,1,2,2:1:0:0:
195,333,98438,53,2,2:2:0:0:
245,109,98602,1,2,2:2:0:0:
195,333,98930,54,0,P|137:354|34:318,1,155.250002961159,4|0,3:1|0:0,0:0:0:0:
38,319,99258,1,0,0:0:0:0:
79,169,99422,2,0,P|119:186|179:160,1,103.500001974106,2|0,0:1|0:0,0:0:0:0:
265,11,99750,53,2,2:2:0:0:
88,11,99914,1,2,2:2:0:0:
265,11,100242,54,0,B|314:11|314:11|360:40|429:45,1,155.250002961159,4|0,3:1|0:0,0:0:0:0:
429,41,100570,1,0,0:0:0:0:
405,162,100733,2,0,P|337:152|278:126,1,103.500001974106,8|0,0:0|0:0,0:0:0:0:
374,271,101061,2,0,P|442:261|501:235,1,103.500001974106
290,220,101389,53,8,1:1:0:0:
330,359,101553,1,0,1:0:0:0:
173,305,101717,54,0,B|138:263|138:263|126:202|149:134,1,155.250002961159,4|0,3:1|2:0,0:0:0:0:
133,149,102045,2,0,P|144:102|181:52,1,103.500001974106,8|2,0:0|0:2,0:0:0:0:
332,128,102373,2,0,P|321:175|284:225,1,103.500001974106
270,49,102701,53,10,2:3:0:0:
300,46,102783,1,8,2:3:0:0:
330,52,102865,1,8,2:3:0:0:
360,49,102947,1,8,2:3:0:0:
388,30,103029,54,0,B|466:22|466:22|482:105|447:206,1,258.750004935265,4|0,3:0|0:0,0:0:0:0:
459,217,103520,2,0,P|427:264|384:295,2,103.500001974106,2|0|0,0:2|0:2|0:2,0:0:0:0:
373,137,104012,2,0,P|306:117|223:129,1,155.250002961159,4|0,0:2|0:0,0:0:0:0:
204,138,104340,101,8,0:0:0:0:
109,233,104504,1,0,0:0:0:0:
239,268,104668,1,0,3:0:0:0:
130,159,104832,53,8,0:0:0:0:
164,288,104996,1,0,0:0:0:0:
258,193,105160,1,0,3:0:0:0:
109,233,105324,54,0,L|60:253,3,31.4999990386963,0|0|0|0,2:0|2:0|2:0|2:0,0:0:0:0:
164,288,105652,101,2,3:2:0:0:
166,300,106307,1,0,0:0:0:0:
24,329,106799,2,0,B|10:294|10:294|15:245|47:197,1,135,2|0,0:1|0:0,0:0:0:0:
109,130,107619,1,0,0:0:0:0:
115,121,108274,53,0,1:3:0:0:
121,112,108930,1,0,0:0:0:0:
237,22,109422,2,0,B|268:16|297:27|297:27|278:68|286:111,1,135,2|0,0:1|0:0,0:0:0:0:
342,179,110242,1,0,0:0:0:0:
347,188,110897,53,0,3:3:0:0:
352,197,111553,1,0,0:0:0:0:
395,339,112045,2,0,B|366:363|366:363|336:373|271:356,1,135,2|0,0:1|0:0,0:0:0:0:
221,269,112865,1,0,0:0:0:0:
215,259,113520,53,0,1:3:0:0:
209,249,114176,1,0,0:0:0:0:
255,108,114668,53,2,0:1:0:0:
256,192,114750,12,0,116061,0:0:0:0:
286,149,116143,54,0,P|286:239|203:201,1,215.999993408203,10|0,3:2|0:0,0:0:0:0:
430,186,117291,2,0,P|420:246|388:294,1,107.999996704102,2|0,0:1|0:0,0:0:0:0:
334,329,117783,1,0,0:0:0:0:
485,326,118111,1,8,0:3:0:0:
430,186,118438,2,0,L|355:186,1,53.9999983520508
298,82,118766,54,0,L|408:82,1,107.999996704102,8|0,1:3|0:0,0:0:0:0:
267,163,119422,2,0,L|159:163,1,107.999996704102,8|0,0:3|0:0,0:0:0:0:
118,98,119914,1,8,0:3:0:0:
59,237,120242,1,0,0:0:0:0:
62,240,120406,1,0,0:0:0:0:
36,63,120733,53,8,0:3:0:0:
185,39,121061,1,0,0:0:0:0:
188,42,121225,1,0,0:0:0:0:
217,145,121389,54,0,B|175:92|193:32,1,107.999996704102,8|0,3:3|0:0,0:0:0:0:
341,62,122045,1,8,0:3:0:0:
341,213,122373,1,0,0:0:0:0:
408,246,122537,1,8,0:3:0:0:
471,28,123029,53,0,0:0:0:0:
471,178,123356,1,8,0:3:0:0:
474,31,123684,2,0,L|474:100,1,53.9999983520508,0|0,0:0|0:0,0:0:0:0:
352,130,124012,54,0,B|306:138|306:138|226:127,1,107.999996704102,10|0,1:2|0:0,0:0:0:0:
124,37,124668,1,8,0:3:0:0:
82,182,124996,53,0,0:3:0:0:
16,143,125160,1,8,0:3:0:0:
127,40,125488,53,8,0:3:0:0:
153,264,125979,1,8,0:1:0:0:
256,153,126307,53,2,0:2:0:0:
259,156,126471,1,2,0:1:0:0:
156,267,126635,70,0,L|63:270,1,62.9999980773926,6|0,0:3|0:0,0:0:0:0:
119,184,126963,2,0,L|56:186,1,62.9999980773926,0|0,0:3|0:0,0:0:0:0:
82,101,127291,2,0,L|19:103,2,62.9999980773926,8|0|0,0:3|0:0|0:0,0:0:0:0:
194,43,127783,54,0,B|245:41|245:41|337:77,1,125.999996154785,8|0,0:3|0:0,0:0:0:0:
388,127,128274,1,0,0:0:0:0:
329,201,128438,1,0,0:0:0:0:
397,265,128602,2,0,L|459:267,1,62.9999980773926,8|0,0:3|0:0,0:0:0:0:
472,172,128930,1,0,0:0:0:0:
388,127,129094,1,0,0:0:0:0:
319,225,129258,54,0,L|256:222,1,62.9999980773926,2|0,0:1|0:0,0:0:0:0:
248,128,129586,2,0,L|310:125,1,62.9999980773926,0|0,0:3|0:0,0:0:0:0:
301,30,129914,2,0,L|239:28,2,62.9999980773926,8|0|0,0:3|0:0|0:0,0:0:0:0:
431,76,130406,53,8,0:3:0:0:
400,261,130733,1,0,0:0:0:0:
403,264,130897,1,0,0:0:0:0:
224,201,131225,54,0,L|161:203,1,62.9999980773926,8|0,0:3|0:0,0:0:0:0:
197,115,131553,2,0,L|259:113,1,62.9999980773926,0|0,0:3|0:0,0:0:0:0:
163,27,131881,53,2,0:2:0:0:
160,24,132045,1,0,0:0:0:0:
65,29,132209,1,0,0:0:0:0:
62,26,132373,1,0,0:0:0:0:
41,121,132537,1,8,0:3:0:0:
38,118,132701,2,0,L|100:120,1,62.9999980773926
156,23,133029,53,8,0:3:0:0:
130,209,133356,1,0,0:0:0:0:
100,120,133520,1,0,0:0:0:0:
193,139,133684,1,0,0:0:0:0:
126,211,133848,2,0,L|64:209,1,62.9999980773926,8|0,0:3|0:0,0:0:0:0:
86,301,134176,1,0,0:0:0:0:
83,304,134340,1,0,0:0:0:0:
201,272,134504,54,0,L|263:270,1,62.9999980773926,2|0,0:1|0:0,0:0:0:0:
347,224,134832,1,0,0:0:0:0:
350,227,134996,1,0,0:0:0:0:
286,157,135160,2,0,L|224:159,1,62.9999980773926,8|0,0:3|0:0,0:0:0:0:
255,69,135488,1,0,0:0:0:0:
368,145,135652,53,8,0:3:0:0:
173,94,135979,1,0,0:0:0:0:
114,176,136143,2,0,L|51:173,1,62.9999980773926
154,267,136471,38,0,P|166:338|216:268,1,188.999994232178,8|0,0:3|0:0,0:0:0:0:
179,118,137127,69,6,0:3:0:0:
114,176,137291,1,0,0:0:0:0:
121,53,137455,1,0,0:0:0:0:
184,129,137619,1,0,0:0:0:0:
58,108,137783,2,0,P|39:61|48:21,1,72,8|0,0:3|0:0,0:0:0:0:
204,45,138111,1,0,0:0:0:0:
114,176,138274,54,0,P|67:195|27:187,1,72,8|0,0:3|0:0,0:0:0:0:
58,108,138602,1,0,0:0:0:0:
184,129,138766,1,0,0:0:0:0:
124,61,138930,1,0,0:0:0:0:
188,215,139094,1,8,0:3:0:0:
261,169,139258,1,0,0:0:0:0:
114,176,139422,53,0,0:0:0:0:
134,274,139586,1,0,0:0:0:0:
280,238,139750,2,0,L|253:143,1,72,2|0,0:1|0:0,0:0:0:0:
219,307,140078,2,0,L|246:402,1,72,0|0,0:0|0:0,0:0:0:0:
256,371,140324,1,0,0:0:0:0:
273,368,140406,2,0,L|342:348,1,72,8|0,0:3|0:0,0:0:0:0:
374,244,140733,1,0,0:0:0:0:
260,168,140897,54,0,P|201:173|171:166,1,72,8|0,0:3|0:0,0:0:0:0:
221,67,141225,1,0,0:0:0:0:
320,108,141389,2,0,P|340:163|341:194,1,72,0|0,0:3|0:0,0:0:0:0:
388,62,141717,2,0,P|360:39|327:23,1,72,8|0,0:3|0:0,0:0:0:0:
221,67,142045,1,0,0:0:0:0:
320,108,142209,1,0,0:3:0:0:
227,190,142373,69,6,0:3:0:0:
224,193,142455,1,0,0:0:0:0:
221,196,142537,1,0,0:0:0:0:
218,199,142619,1,0,0:0:0:0:
215,202,142701,53,0,0:0:0:0:
196,195,142783,1,0,0:0:0:0:
177,189,142865,1,0,0:0:0:0:
158,184,142947,1,0,0:0:0:0:
139,180,143029,54,0,L|88:181,3,38.2500007295609,8|0|0|0,0:3|0:0|0:0|0:0,0:0:0:0:
69,159,143356,1,0,0:0:0:0:
157,265,143520,54,0,L|174:366,1,76.5000014591217,12|0,0:3|0:0,0:0:0:0:
264,294,143848,1,0,0:0:0:0:
267,291,143930,1,0,0:0:0:0:
270,288,144012,53,0,0:0:0:0:
289,288,144094,1,0,0:0:0:0:
308,288,144176,1,0,0:0:0:0:
327,288,144258,1,0,0:0:0:0:
346,289,144340,54,0,L|414:298,1,38.2500007295609,8|0,0:3|0:0,0:0:0:0:
305,200,144504,2,0,L|237:209,1,38.2500007295609,0|0,0:0|0:0,0:0:0:0:
406,172,144668,54,0,L|474:181,1,38.2500007295609
345,94,144832,2,0,L|277:103,1,38.2500007295609,0|0,0:0|0:0,0:0:0:0:
423,47,144996,53,6,0:1:0:0:
426,44,145078,1,0,0:0:0:0:
429,41,145160,1,0,0:0:0:0:
432,38,145242,1,0,0:0:0:0:
435,35,145324,54,0,L|480:34,3,40.4999987640381
467,118,145652,53,8,0:3:0:0:
451,146,145733,1,0,0:0:0:0:
443,177,145815,1,0,0:0:0:0:
429,206,145897,1,0,0:0:0:0:
432,238,145979,54,0,L|419:281,1,40.4999987640381
343,225,146143,54,0,L|310:229,14,20.2499993820191,14|0|0|0|0|0|0|0|0|0|0|0|8|0|0,0:3|0:0|0:0|0:0|0:0|0:0|0:0|0:0|0:0|0:0|0:0|0:0|0:1|0:0|0:0,0:0:0:0:
258,174,146799,69,0,0:0:0:0:
240,252,146963,54,0,P|222:244|205:234,1,40.4999987640381,8|0,0:3|0:0,0:0:0:0:
276,94,147127,2,0,P|296:103|313:113,1,40.4999987640381,0|0,0:3|0:0,0:0:0:0:
254,264,147291,54,0,P|232:260|213:255,1,40.4999987640381,0|0,0:3|0:0,0:0:0:0:
263,83,147455,2,0,P|284:86|303:91,1,40.4999987640381,0|0,0:3|0:0,0:0:0:0:
108,124,147619,102,0,B|72:143|72:143|49:195|61:250,1,149.850003658447,14|0,3:2|0:2,3:2:0:0:
52,262,147947,2,0,P|59:324|100:380,1,99.9000024389649,8|0,0:0|0:0,0:0:0:0:
189,250,148274,1,0,0:0:0:0:
60,249,148438,1,0,0:0:0:0:
164,339,148602,1,8,0:0:0:0:
241,187,148766,1,2,0:2:0:0:
304,328,148930,54,0,B|248:358|248:358|150:335,1,149.850003658447,2|0,3:2|0:0,0:0:0:0:
157,326,149258,1,8,0:0:0:0:
271,261,149422,1,0,0:0:0:0:
133,134,149586,2,0,B|71:173|71:173|100:181,1,99.9000024389649
111,48,149914,1,8,0:0:0:0:
269,71,150078,1,0,0:0:0:0:
235,248,150242,54,0,P|192:256|195:213,1,99.9000024389649,2|0,3:1|0:0,0:0:0:0:
322,129,150570,2,0,P|365:121|361:164,1,99.9000024389649,8|0,0:0|0:0,0:0:0:0:
274,283,150897,54,0,P|231:291|234:248,1,99.9000024389649,2|0,0:2|0:0,0:0:0:0:
362,164,151225,2,0,P|404:156|401:199,1,99.9000024389649,8|0,0:0|0:0,0:0:0:0:
313,319,151553,54,0,P|261:307|285:279,1,99.9000024389649,2|0,3:1|0:0,0:0:0:0:
401,199,151881,1,8,0:0:0:0:
410,339,152045,1,0,0:0:0:0:
436,182,152209,1,0,0:0:0:0:
445,356,152373,1,0,0:0:0:0:
273,283,152537,1,8,0:0:0:0:
332,383,152701,1,2,0:2:0:0:
366,216,152865,54,0,B|324:218|324:218|219:155,1,149.850003658447,6|0,3:2|0:0,0:0:0:0:
218,170,153193,2,0,B|181:176|181:176|98:160,1,99.9000024389649,8|0,0:0|0:0,0:0:0:0:
172,45,153520,2,0,B|233:33|233:33|270:39,1,99.9000024389649,0|0,0:0|0:0,0:0:0:0:
98,83,153848,1,8,0:0:0:0:
0,4,154012,1,2,0:2:0:0:
11,158,154176,54,0,B|10:227|10:227|30:266|93:280,1,149.850003658447,2|0,3:1|0:0,0:0:0:0:
87,280,154504,1,8,0:0:0:0:
201,219,154668,2,0,P|279:214|336:324,1,199.80000487793,0|0,3:1|0:0,0:0:0:0:
450,239,155160,2,0,L|398:124,1,99.9000024389649,8|0,0:0|0:0,0:0:0:0:
266,73,155488,53,2,3:2:0:0:
201,219,155652,1,2,0:2:0:0:
284,62,155815,1,10,0:0:0:0:
184,206,155979,2,0,L|65:161,2,99.9000024389649,2|0|0,0:2|0:0|0:0,0:0:0:0:
277,297,156471,2,0,L|396:342,1,99.9000024389649,10|0,0:0|0:0,0:0:0:0:
418,164,156799,54,0,B|395:140|357:136|357:136|337:157|314:165|283:155,1,149.850003658447,6|0,3:1|0:0,0:0:0:0:
271,147,157127,1,2,3:1:0:0:
303,21,157291,2,0,B|369:9|369:9|435:15,1,99.9000024389649
482,114,157619,1,0,0:0:0:0:
487,128,157701,1,0,0:0:0:0:
492,141,157783,54,0,L|525:143,6,24.9750006097412,8|0|0|0|0|0|0,0:0|0:0|0:0|0:0|0:0|0:0|0:0,0:0:0:0:
452,207,158111,101,4,0:0:0:0:
387,242,158274,1,0,0:0:0:0:
322,207,158438,1,0,0:0:0:0:
257,242,158602,2,0,P|222:243|174:238,1,67.5000025749208,0|0,0:0|0:0,0:0:0:0:
103,169,158930,1,0,0:0:0:0:
163,126,159094,1,0,0:0:0:0:
165,129,159422,53,0,0:0:0:0:
98,96,159586,1,0,0:0:0:0:
104,250,159750,1,8,0:1:0:0:
168,132,159914,1,8,0:1:0:0:
171,135,160242,5,8,0:2:0:0:
139,378,160406,1,10,0:2:0:0:
142,381,160733,37,4,0:0:0:0:
212,358,160897,1,0,0:0:0:0:
282,335,161061,1,0,0:0:0:0:
353,312,161225,2,0,L|425:288,1,67.5000025749208,0|0,0:0|0:0,0:0:0:0:
388,201,161553,1,0,0:0:0:0:
314,206,161717,1,0,0:0:0:0:
311,209,162045,53,0,0:0:0:0:
344,141,162209,1,0,0:0:0:0:
420,293,162373,1,8,0:1:0:0:
308,212,162537,1,8,0:1:0:0:
305,215,162865,5,8,0:2:0:0:
462,29,163029,2,0,L|478:121,1,67.5000025749208,10|0,0:2|0:0,0:0:0:0:
393,214,163356,5,2,2:3:0:0:
329,85,163520,1,0,0:0:0:0:
473,95,163684,1,0,0:0:0:0:
298,175,163848,54,0,B|220:182|220:182|234:153,2,103.500001974106,8|0|0,0:0|0:0|0:0,0:0:0:0:
473,95,164340,53,4,2:3:0:0:
455,287,164504,1,0,0:0:0:0:
298,175,164668,1,0,0:0:0:0:
512,195,164832,53,2,0:0:0:0:
353,267,164996,1,0,0:0:0:0:
369,93,165160,1,0,0:0:0:0:
455,287,165324,54,0,B|435:324|435:324|367:357,1,103.500001974106,8|0,2:3|0:0,0:0:0:0:
353,353,165570,1,0,0:0:0:0:
327,353,165652,2,0,B|271:326|271:326|251:289,1,103.500001974106,0|0,0:0|0:3,0:0:0:0:
238,121,165979,53,2,2:3:0:0:
91,217,166143,1,0,0:0:0:0:
251,289,166307,1,0,0:0:0:0:
135,103,166471,54,0,B|79:50|79:50|75:92,2,103.500001974106,8|0|0,2:3|0:0|0:0,0:0:0:0:
149,313,166963,53,4,2:3:0:0:
24,145,167127,1,0,0:0:0:0:
234,120,167291,1,0,0:0:0:0:
45,286,167455,53,2,0:0:0:0:
135,103,167619,1,0,0:0:0:0:
246,273,167783,1,0,0:0:0:0:
24,145,167947,54,0,P|19:89|36:17,1,103.500001974106,8|0,2:3|0:0,0:0:0:0:
142,236,168274,2,0,P|147:287|139:338,1,103.500001974106,0|0,0:0|0:0,0:0:0:0:
135,103,168602,85,6,3:3:0:0:
249,78,168766,1,0,0:0:0:0:
274,192,168930,2,0,L|266:285,1,90,8|0,0:0|0:0,0:0:0:0:
205,149,169258,1,0,0:0:0:0:
264,48,169422,1,0,0:2:0:0:
365,107,169586,2,0,L|398:196,1,90,8|0,0:0|0:0,0:0:0:0:
478,126,169914,1,0,3:3:0:0:
512,257,170078,53,0,0:0:0:0:
419,328,170242,1,8,0:0:0:0:
396,191,170406,1,0,0:0:0:0:
497,114,170570,1,0,0:0:0:0:
456,4,170733,1,0,0:0:0:0:
365,107,170897,1,8,0:0:0:0:
249,15,171061,54,0,B|207:3|207:3|135:21,2,90,2|0|0,0:2|3:3|0:0,0:0:0:0:
285,165,171553,1,8,0:0:0:0:
205,83,171717,1,2,0:2:0:0:
241,233,171881,2,0,B|287:244|287:244|329:233,1,90,0|0,0:0|0:0,0:0:0:0:
190,163,172209,1,8,0:0:0:0:
169,278,172373,1,0,0:0:0:0:
82,152,172537,54,0,L|5:155,2,45,0|0|0,3:3|0:0|0:0,0:0:0:0:
169,48,172865,1,8,0:0:0:0:
190,163,173029,1,0,0:0:0:0:
277,59,173193,2,0,B|319:52|319:52|383:70,1,90,2|0,0:0|0:0,0:0:0:0:
436,179,173520,53,8,0:0:0:0:
462,46,173684,2,0,B|420:39|420:39|356:57,1,90,2|0,0:2|3:3,0:0:0:0:
361,161,174012,1,2,0:2:0:0:
490,121,174176,1,8,0:0:0:0:
503,231,174340,1,0,0:0:0:0:
374,273,174504,2,0,P|317:264|282:234,1,90,0|0,0:0|0:0,0:0:0:0:
273,118,174832,2,0,P|219:138|173:130,1,90,8|0,0:0|0:0,0:0:0:0:
74,63,175160,54,0,L|43:7,2,45,2|0|0,3:2|0:0|0:0,0:0:0:0:
104,195,175488,1,8,0:0:0:0:
151,66,175652,1,0,0:0:0:0:
176,215,175815,53,2,0:2:0:0:
34,163,175979,1,0,0:2:0:0:
59,311,176143,1,8,0:0:0:0:
195,203,176307,54,0,B|241:184|241:184|272:214|327:216|371:181,1,180,6|0,0:1|0:0,0:0:0:0:
405,98,176799,1,8,0:0:0:0:
301,103,176963,1,0,0:0:0:0:
413,79,177127,53,0,0:0:0:0:
293,84,177291,1,0,0:0:0:0:
421,60,177455,53,8,0:0:0:0:
285,65,177619,1,2,0:2:0:0:
277,46,177947,53,2,0:2:0:0:
169,54,178111,53,8,0:0:0:0:
269,27,178274,1,0,0:0:0:0:
223,154,178438,2,0,L|159:155,2,45
339,123,178766,1,8,0:0:0:0:
363,131,178848,1,0,0:0:0:0:
385,116,178930,1,8,0:0:0:0:
409,122,179012,1,0,0:0:0:0:
435,98,179094,54,0,B|451:76|502:87|502:87|481:99|475:113,1,90,6|0,3:1|0:0,0:0:0:0:
419,235,179422,1,8,0:0:0:0:
363,131,179586,1,0,0:0:0:0:
500,197,179750,2,0,P|505:258|476:314,1,90,0|0,0:0|0:0,0:0:0:0:
344,210,180078,1,8,0:0:0:0:
420,75,180242,54,0,P|465:49|509:36,1,90,0|0,0:0|3:1,0:0:0:0:
500,197,180570,2,0,P|454:222|410:235,1,90,0|8,0:0|0:0,0:0:0:0:
363,131,180897,1,0,0:0:0:0:
312,236,181061,2,0,L|308:337,1,90
203,378,181389,2,0,L|199:277,1,90,8|0,0:0|0:0,0:0:0:0:
187,122,181717,53,4,3:1:0:0:
87,215,181881,1,0,0:0:0:0:
57,82,182045,2,0,P|81:37|120:6,1,90,8|8,0:0|0:3,0:0:0:0:
186,221,182373,53,8,3:0:0:0:
2,164,182537,1,8,3:0:0:0:
260,46,182865,54,0,B|306:66|306:66|340:41|393:39|435:73,1,180,6|0,0:0|0:0,0:0:0:0:
478,193,183356,2,0,P|425:186|359:198,1,90,8|0,0:0|0:0,0:0:0:0:
312,354,183684,1,4,0:0:0:0:
207,205,183848,1,4,0:2:0:0:
345,270,184012,1,8,0:0:0:0:
177,339,184176,54,0,P|136:319|101:291,1,90,6|0,0:2|0:0,0:0:0:0:
207,205,184504,1,2,0:0:0:0:
86,87,184668,1,8,0:0:0:0:
58,192,184832,1,0,0:0:0:0:
171,122,184996,2,0,L|267:123,1,90
371,64,185324,1,0,0:0:0:0:
206,37,185488,1,2,0:2:0:0:
345,148,185652,54,0,L|458:194,1,90,6|0,0:0|0:0,0:0:0:0:
341,235,185979,2,0,L|228:281,1,90,8|0,0:0|0:0,0:0:0:0:
345,322,186307,2,0,L|458:368,1,90,8|0,0:0|0:0,0:0:0:0:
488,272,186635,1,8,0:0:0:0:
488,249,186717,1,0,0:0:0:0:
498,229,186799,1,0,0:0:0:0:
498,206,186881,1,0,0:0:0:0:
507,178,186963,54,0,B|510:130|510:130|490:59,1,90,6|0,0:3|0:0,0:0:0:0:
405,33,187291,1,8,0:1:0:0:
341,165,187455,2,0,L|340:282,1,90,8|0,0:2|0:0,0:0:0:0:
222,112,187783,1,10,0:2:0:0:
169,263,187947,86,0,L|163:327,3,53.9999983520508
122,156,188274,37,14,1:3:0:0:
25,288,188438,1,8,1:3:0:0:
26,83,188602,5,8,1:3:0:0:
85,235,188766,1,8,1:3:0:0:
144,67,188930,70,0,P|193:61|238:83,1,80.9999975280763,0|0,0:3|0:0,0:0:0:0:
221,71,189258,6,0,P|276:82|349:64,1,121.499996292114,0|0,0:3|0:0,0:0:0:0:
339,68,189586,6,0,B|370:54|394:56|394:56|411:122|394:169,1,155.250002961159,6|0,0:2|0:1,0:0:0:0:
395,168,189914,1,8,0:0:0:0:
360,308,190078,1,0,0:0:0:0:
315,178,190242,1,0,0:0:0:0:
461,214,190406,1,0,0:0:0:0:
291,259,190570,1,8,0:0:0:0:
440,292,190733,1,0,0:0:0:0:
272,345,190897,54,0,B|223:352|223:352|156:326|93:360,1,155.250002961159,2|0,3:2|0:0,0:0:0:0:
108,360,191225,1,8,0:0:0:0:
90,200,191389,1,0,0:0:0:0:
89,184,191471,1,0,0:0:0:0:
87,168,191553,1,0,0:0:0:0:
187,241,191717,1,0,0:0:0:0:
11,225,191881,1,8,0:0:0:0:
169,149,192045,1,0,0:0:0:0:
61,0,192209,54,0,B|16:35|16:35|10:151,1,155.250002961159,2|0,3:1|0:0,0:0:0:0:
9,148,192537,1,8,0:0:0:0:
96,276,192701,1,0,0:0:0:0:
87,120,192865,1,0,0:0:0:0:
11,225,193029,1,0,0:0:0:0:
159,226,193193,1,8,0:0:0:0:
138,30,193356,54,0,B|71:146,1,103.500001974106,2|0,0:2|0:0,0:0:0:0:
159,226,193684,1,0,0:0:0:0:
215,109,193848,1,8,0:0:0:0:
249,282,194012,1,2,0:2:0:0:
229,125,194176,2,0,P|294:111|353:142,1,103.500001974106,0|0,0:0|0:0,0:0:0:0:
360,298,194504,2,0,P|310:312|261:299,1,103.500001974106,8|0,0:0|0:0,0:0:0:0:
412,200,194832,54,0,P|444:131|414:42,1,155.250002961159,2|0,3:1|0:0,0:0:0:0:
410,57,195160,2,0,P|358:27|307:22,1,103.500001974106,8|0,0:0|0:0,0:0:0:0:
174,26,195488,1,0,0:0:0:0:
229,125,195652,1,0,0:0:0:0:
80,106,195815,2,0,B|57:68|55:37|55:37|67:50|88:54,1,103.500001974106,8|0,0:0|0:0,0:0:0:0:
229,125,196143,53,0,3:0:0:0:
57,201,196307,1,0,0:0:0:0:
242,151,196471,53,8,0:0:0:0:
55,187,196635,1,0,0:0:0:0:
241,177,196799,53,2,0:2:0:0:
53,171,196963,2,0,B|60:96|60:96|85:126,1,103.500001974106,0|8,0:0|0:0,0:0:0:0:
128,283,197291,54,0,P|200:306|300:264,1,155.250002961159,6|0,3:1|0:0,0:0:0:0:
286,274,197619,1,0,0:0:0:0:
328,125,197783,2,0,B|309:97|309:97|275:81|192:82,1,103.500001974106,8|0,0:0|0:0,0:0:0:0:
407,53,198111,1,2,0:1:0:0:
440,166,198274,1,0,0:0:0:0:
275,188,198438,1,8,0:0:0:0:
406,53,198602,54,0,P|457:47|505:67,1,103.500001974106,2|0,0:2|0:0,0:0:0:0:
473,278,198930,2,0,P|422:284|374:264,1,103.500001974106,2|8,0:2|0:0,0:0:0:0:
361,155,199258,1,0,0:0:0:0:
233,243,199422,1,0,0:0:0:0:
277,142,199586,1,0,0:0:0:0:
301,297,199750,53,8,2:3:0:0:
296,316,199832,1,8,2:3:0:0:
292,336,199914,1,8,2:3:0:0:
288,355,199996,1,8,2:3:0:0:
256,355,200078,54,0,P|152:341|85:360,1,155.250002961159,6|0,3:1|0:0,0:0:0:0:
90,359,200406,1,8,0:0:0:0:
34,247,200570,1,0,0:0:0:0:
168,214,200733,1,0,0:0:0:0:
44,230,200897,1,0,0:0:0:0:
222,268,201061,2,0,P|243:207|201:145,1,103.500001974106,8|0,0:0|0:0,0:0:0:0:
339,37,201389,54,0,P|389:74|468:27,1,155.250002961159,2|0,3:2|0:0,0:0:0:0:
472,21,201717,1,8,0:0:0:0:
464,234,201881,2,0,B|470:315|470:315|430:298,2,103.500001974106
312,142,202373,1,8,0:0:0:0:
290,295,202537,1,0,0:0:0:0:
420,134,202701,53,4,2:1:0:0:
367,357,203029,1,2,2:1:0:0:
420,134,203356,53,2,2:2:0:0:
367,357,203520,1,2,2:2:0:0:
420,134,203848,54,0,B|378:68|378:68|290:37,1,155.250002961159,4|0,3:1|0:0,0:0:0:0:
290,40,204176,1,0,0:0:0:0:
283,210,204340,2,0,B|326:240|326:240|341:191,1,103.500001974106,2|0,0:1|0:0,0:0:0:0:
155,87,204668,53,2,2:2:0:0:
113,260,204832,1,2,2:2:0:0:
155,87,205160,54,0,P|72:81|2:125,1,155.250002961159,4|0,3:1|0:0,0:0:0:0:
2,128,205488,1,0,0:0:0:0:
113,260,205652,2,0,P|181:250|240:224,1,103.500001974106,8|0,0:0|0:0,0:0:0:0:
146,353,205979,2,0,P|78:343|19:317,1,103.500001974106,0|0,0:0|0:0,0:0:0:0:
70,176,206307,53,8,1:1:0:0:
213,237,206471,1,0,1:0:0:0:
180,58,206635,54,0,B|194:30|237:19|237:19|268:44|317:33,1,155.250002961159,4|0,3:1|2:0,0:0:0:0:
331,26,206963,2,0,P|374:46|415:93,1,103.500001974106,8|2,0:0|0:2,0:0:0:0:
314,221,207291,2,0,P|270:200|229:153,1,103.500001974106
422,171,207619,53,10,2:3:0:0:
420,201,207701,1,8,2:3:0:0:
409,229,207783,1,8,2:3:0:0:
407,259,207865,1,8,2:3:0:0:
421,290,207947,54,0,B|435:330|415:368|415:368|366:323|290:318|247:355,1,258.750004935265,4|0,3:0|0:0,2:0:0:0:
252,367,208438,2,0,P|164:369|123:342,2,103.500001974106,2|0|0,0:2|0:2|0:2,0:0:0:0:
270,191,208930,2,0,B|246:144|246:144|194:108|126:127,1,155.250002961159,4|0,0:2|0:0,0:0:0:0:
145,138,209258,101,8,0:0:0:0:
156,273,209422,1,0,0:0:0:0:
34,216,209586,1,0,3:0:0:0:
188,202,209750,53,8,0:0:0:0:
79,279,209914,1,0,3:0:0:0:
68,146,210078,1,8,3:0:0:0:
156,273,210242,86,0,L|176:321,3,31.4999990386963,0|0|0|0,1:0|1:0|1:0|1:0,0:0:0:0:
188,202,210570,22,0,L|185:109,1,62.9999980773926,6|0,0:3|0:0,0:0:0:0:
271,165,210897,2,0,L|269:102,1,62.9999980773926,0|0,0:3|0:0,0:0:0:0:
354,128,211225,2,0,L|352:65,2,62.9999980773926,8|0|0,0:3|0:0|0:0,0:0:0:0:
461,124,211717,54,0,B|463:174|463:174|427:267,1,125.999996154785,8|0,0:3|0:0,0:0:0:0:
342,297,212209,1,0,0:0:0:0:
268,238,212373,1,0,0:0:0:0:
204,306,212537,2,0,L|202:368,1,62.9999980773926,8|0,0:3|0:0,0:0:0:0:
297,381,212865,1,0,0:0:0:0:
342,297,213029,1,0,0:0:0:0:
266,220,213193,54,0,L|263:151,1,67.5000025749208,2|0,0:1|0:0,0:0:0:0:
161,142,213520,2,0,L|157:210,1,67.5000025749208,0|0,0:3|0:0,0:0:0:0:
54,200,213848,2,0,L|52:133,2,67.5000025749208,8|0|0,0:3|0:0|0:0,0:0:0:0:
50,305,214340,53,8,0:3:0:0:
238,315,214668,1,0,0:0:0:0:
241,318,214832,1,0,0:0:0:0:
161,142,215160,54,0,L|158:70,1,67.5000025749208,8|0,0:3|0:0,0:0:0:0:
259,111,215488,2,0,L|256:181,1,67.5000025749208,0|0,0:3|0:0,0:0:0:0:
343,275,215815,53,2,0:2:0:0:
346,278,215979,1,0,0:0:0:0:
420,215,216143,1,0,0:0:0:0:
423,218,216307,1,0,0:0:0:0:
385,126,216471,1,8,0:3:0:0:
388,129,216635,2,0,L|390:61,1,67.5000025749208,0|0,0:0|0:0,0:0:0:0:
296,26,216963,53,8,0:3:0:0:
223,199,217291,1,0,0:0:0:0:
217,105,217455,1,0,0:0:0:0:
302,147,217619,1,0,0:0:0:0:
220,202,217783,2,0,L|217:270,1,67.5000025749208,8|0,0:3|0:0,0:0:0:0:
250,358,218111,1,0,0:0:0:0:
253,361,218274,1,0,0:0:0:0:
118,362,218438,54,0,L|115:294,1,67.5000025749208,2|0,0:1|0:0,0:0:0:0:
72,209,218766,1,0,0:0:0:0:
75,212,218930,1,0,0:0:0:0:
106,123,219094,2,0,L|103:55,1,67.5000025749208,8|0,0:3|0:0,0:0:0:0:
193,22,219422,1,0,0:0:0:0:
212,149,219586,53,8,0:3:0:0:
398,116,219914,1,0,0:0:0:0:
433,203,220078,2,0,L|430:270,1,67.5000025749208
322,311,220406,38,0,B|264:338|199:296|199:296|233:229,1,202.500007724762,8|0,0:3|0:0,0:0:0:0:
283,160,221061,69,6,0:3:0:0:
353,208,221225,1,0,0:0:0:0:
233,232,221389,1,0,0:0:0:0:
270,156,221553,1,0,0:0:0:0:
309,277,221717,2,0,P|342:289|377:284,1,72,8|0,0:3|0:0,0:0:0:0:
358,120,222045,1,0,0:0:0:0:
232,232,222209,54,0,P|220:265|223:301,1,72,8|0,0:3|0:0,0:0:0:0:
308,279,222537,1,0,0:0:0:0:
270,156,222701,1,0,0:0:0:0:
345,207,222865,1,0,0:0:0:0:
186,166,223029,1,8,0:3:0:0:
220,86,223193,1,0,0:0:0:0:
233,232,223356,53,0,0:0:0:0:
133,227,223520,1,0,0:0:0:0:
149,77,223684,2,0,L|220:86,1,72,2|0,0:1|0:0,0:0:0:0:
89,147,224012,2,0,L|17:137,1,72,0|0,0:0|0:0,0:0:0:0:
15,155,224258,1,0,0:0:0:0:
13,172,224340,2,0,L|5:251,1,72,8|0,0:3|0:0,0:0:0:0:
36,339,224668,1,0,0:0:0:0:
112,272,224832,54,0,B|150:274|150:274|201:294,1,72,8|0,0:3|0:0,0:0:0:0:
270,335,225160,1,0,0:0:0:0:
294,236,225324,2,0,B|256:234|256:234|205:214,1,72,0|0,0:3|0:0,0:0:0:0:
356,166,225652,2,0,B|394:168|394:168|445:188,1,72,8|0,0:3|0:0,0:0:0:0:
512,249,225979,1,0,0:0:0:0:
413,270,226143,1,0,0:3:0:0:
480,108,226307,5,6,0:3:0:0:
477,105,226389,1,0,0:0:0:0:
474,102,226471,1,0,0:0:0:0:
471,99,226553,1,0,0:0:0:0:
468,96,226635,53,0,0:0:0:0:
449,89,226717,1,0,0:0:0:0:
430,83,226799,1,0,0:0:0:0:
411,78,226881,1,0,0:0:0:0:
392,74,226963,54,0,L|341:75,3,38.2500007295609,8|0|0|0,0:3|0:0|0:0|0:0,2:0:0:0:
320,63,227291,1,0,0:0:0:0:
369,188,227455,54,0,L|403:283,1,76.5000014591217,12|0,0:3|0:0,0:0:0:0:
287,256,227783,1,0,0:0:0:0:
283,257,227865,1,0,0:0:0:0:
279,258,227947,53,0,0:0:0:0:
262,251,228029,1,0,0:0:0:0:
245,243,228111,1,0,0:0:0:0:
227,235,228193,1,0,0:0:0:0:
211,226,228274,54,0,L|153:189,3,38.2500007295609,8|0|0|0,0:3|0:0|0:0|0:0,0:0:0:0:
232,146,228602,54,0,L|290:146,1,38.2500007295609
149,279,228766,2,0,L|104:279,1,38.2500007295609
120,148,228930,53,6,0:1:0:0:
117,145,229012,1,0,0:0:0:0:
114,142,229094,1,0,0:0:0:0:
111,139,229176,1,0,0:0:0:0:
108,136,229258,54,0,L|63:135,3,40.4999987640381
154,51,229586,53,8,0:3:0:0:
185,45,229668,1,0,0:0:0:0:
217,46,229750,1,0,0:0:0:0:
248,40,229832,1,0,0:0:0:0:
278,51,229914,54,0,L|322:49,1,40.4999987640381
375,108,230078,54,0,L|405:103,14,20.2499993820191,14|0|0|0|0|0|0|0|0|0|0|0|8|0|0,0:3|0:0|0:0|0:0|0:0|0:0|0:0|0:0|0:0|0:0|0:0|0:0|0:1|0:0|0:0,0:0:0:0:
372,191,230733,5,0,0:0:0:0:
284,172,230897,54,0,L|333:181,1,40.4999987640381,8|0,0:3|0:0,0:0:0:0:
460,212,231061,2,0,L|408:198,1,40.4999987640381
284,151,231225,54,0,L|330:168,1,40.4999987640381,0|0,0:3|0:0,0:0:0:0:
460,233,231389,2,0,L|413:215,1,40.4999987640381,0|0,0:3|0:0,0:0:0:0:
279,268,231553,102,0,B|238:304|238:304|179:306|154:267,1,149.850003658447,14|0,3:2|0:2,3:2:0:0:
139,271,231881,2,0,P|97:224|83:156,1,99.9000024389649,8|0,0:0|0:0,0:0:0:0:
211,106,232209,1,0,0:0:0:0:
215,215,232373,1,0,0:0:0:0:
133,79,232537,1,8,0:0:0:0:
280,142,232701,1,2,0:2:0:0:
242,5,232865,54,0,B|180:6|180:6|131:31|117:84,1,149.850003658447,2|0,3:2|0:0,0:0:0:0:
133,79,233193,1,8,0:0:0:0:
142,197,233356,1,0,0:0:0:0:
280,142,233520,2,0,B|321:149|321:149|364:194,1,99.9000024389649
386,350,233848,1,8,0:0:0:0:
512,268,234012,1,0,0:0:0:0:
364,249,234176,54,0,B|322:220|322:220|366:187,1,99.9000024389649,2|0,3:1|0:0,0:0:0:0:
484,138,234504,2,0,B|523:167|523:167|481:196,1,99.9000024389649,8|0,0:0|0:0,0:0:0:0:
361,190,234832,54,0,B|319:161|319:161|358:131,1,99.9000024389649,2|0,0:2|0:0,0:0:0:0:
486,79,235160,2,0,B|525:108|525:108|483:137,1,99.9000024389649,8|0,0:0|0:0,0:0:0:0:
358,131,235488,54,0,B|316:102|316:102|360:69,1,99.9000024389649,2|0,3:1|0:0,0:0:0:0:
486,79,235815,1,8,0:0:0:0:
396,0,235979,1,0,0:0:0:0:
358,131,236143,1,0,0:0:0:0:
270,36,236307,1,0,0:0:0:0:
229,207,236471,1,8,0:0:0:0:
143,71,236635,1,2,0:2:0:0:
37,212,236799,54,0,B|41:267|41:267|64:295|145:298,1,149.850003658447,6|0,3:2|0:0,0:0:0:0:
131,312,237127,2,0,P|185:323|259:307,1,99.9000024389649,8|0,0:0|0:1,0:0:0:0:
316,225,237455,2,0,P|319:280|353:347,1,99.9000024389649,0|0,0:0|0:0,0:0:0:0:
496,330,237783,1,8,0:0:0:0:
420,189,237947,1,2,0:2:0:0:
408,363,238111,54,0,P|328:337|245:382,1,149.850003658447,2|0,3:1|0:0,0:0:0:0:
259,370,238438,1,8,0:0:0:0:
137,322,238602,2,0,P|209:257|191:141,1,199.80000487793,0|0,3:1|0:0,0:0:0:0:
54,141,239094,2,0,B|25:181|25:181|14:252,1,99.9000024389649,8|0,0:0|0:0,0:0:0:0:
137,322,239422,53,2,3:2:0:0:
204,160,239586,1,2,0:2:0:0:
119,333,239750,1,10,0:0:0:0:
221,173,239914,2,0,L|340:218,2,99.9000024389649,2|0|0,0:2|0:0|0:0,0:0:0:0:
135,48,240406,2,0,L|41:12,1,99.9000024389649,10|0,0:0|0:0,0:0:0:0:
204,87,240733,54,0,B|241:100|275:78|275:78|316:74|339:108,1,149.850003658447,6|0,3:1|0:0,0:0:0:0:
346,123,241061,1,2,3:1:0:0:
385,225,241225,2,0,B|422:277|422:277|454:200,1,99.9000024389649
468,115,241553,1,0,0:0:0:0:
473,101,241635,1,0,0:0:0:0:
478,88,241717,54,0,L|511:86,6,24.9750006097412,8|0|0|0|0|0|0,0:0|0:0|0:0|0:0|0:0|0:0|0:0,0:0:0:0:
398,57,242045,37,4,0:0:0:0:
333,22,242209,1,0,0:0:0:0:
268,57,242373,1,0,0:0:0:0:
203,22,242537,2,0,P|168:21|120:26,1,67.5000025749208
140,169,242865,1,0,0:0:0:0:
182,102,243029,1,0,0:0:0:0:
179,99,243356,53,0,0:0:0:0:
221,169,243520,1,0,0:0:0:0:
122,245,243684,1,8,0:1:0:0:
176,96,243848,1,8,0:1:0:0:
173,93,244176,69,8,0:2:0:0:
208,326,244340,1,10,0:2:0:0:
211,329,244668,101,4,0:0:0:0:
140,305,244832,1,0,0:0:0:0:
107,238,244996,1,0,0:0:0:0:
131,167,245160,2,0,L|215:188,1,67.5000025749208,0|0,0:0|0:0,0:0:0:0:
287,115,245488,1,0,0:0:0:0:
304,187,245652,1,0,0:0:0:0:
302,190,245979,53,0,0:0:0:0:
358,136,246143,1,0,0:0:0:0:
189,113,246307,1,8,0:1:0:0:
300,195,246471,1,8,0:1:0:0:
302,196,246799,69,10,0:2:0:0:
96,325,246963,2,0,L|53:272,1,67.5000025749208,10|0,0:2|0:0,0:0:0:0:
144,162,247291,5,2,2:3:0:0:
197,296,247455,1,0,0:0:0:0:
54,273,247619,1,0,0:0:0:0:
235,209,247783,54,0,B|280:200|312:208|312:208|295:236,2,103.500001974106,8|0|0,0:0|0:0|0:0,0:0:0:0:
54,273,248274,53,4,2:3:0:0:
89,84,248438,1,0,0:0:0:0:
235,209,248602,1,0,0:0:0:0:
24,170,248766,53,2,0:0:0:0:
189,113,248930,1,0,0:0:0:0:
157,284,249094,1,0,0:0:0:0:
89,84,249258,54,0,B|112:48|112:48|182:21,1,103.500001974106,8|0,2:3|0:0,0:0:0:0:
196,27,249504,1,0,0:0:0:0:
222,29,249586,2,0,B|275:60|275:60|292:99,1,103.500001974106,0|0,0:0|0:3,0:0:0:0:
290,268,249914,53,2,2:3:0:0:
445,185,250078,1,0,0:0:0:0:
292,99,250242,1,0,0:0:0:0:
391,295,250406,54,0,B|418:330|450:343|450:343|451:301,2,103.500001974106,8|0|0,2:3|0:0|0:0,0:0:0:0:
396,84,250897,53,4,2:3:0:0:
506,263,251061,1,0,0:0:0:0:
294,269,251225,1,0,0:0:0:0:
497,120,251389,53,2,0:0:0:0:
391,295,251553,1,0,0:0:0:0:
296,116,251717,1,0,0:0:0:0:
506,263,251881,54,0,B|501:299|508:319|508:319|482:389,1,103.500001974106,8|0,2:3|0:0,0:0:0:0:
396,162,252209,2,0,B|401:126|394:106|394:106|419:35,1,103.500001974106,0|0,0:0|0:0,0:0:0:0:
391,295,252537,85,6,3:3:0:0:
307,215,252701,1,0,0:0:0:0:
394,298,252865,2,0,P|387:353|376:401,1,72,8|0,0:0|0:0,0:0:0:0:
310,218,253193,2,0,P|316:162|327:114,1,72,0|0,0:0|0:0,0:0:0:0:
322,149,253520,1,8,0:0:0:0:
106,136,254012,53,0,0:0:0:0:
193,221,254176,2,0,P|186:276|175:324,1,72,8|0,0:0|0:0,0:0:0:0:
110,140,254504,2,0,P|116:84|127:36,1,72,0|0,0:0|0:0,0:0:0:0:
121,71,254832,1,8,0:0:0:0:
230,109,254996,54,0,B|299:55,2,72,0|0|0,0:1|0:0|0:0,0:0:0:0:
190,218,255488,1,8,0:0:0:0:
305,223,255652,2,0,B|338:250|357:288|357:288|355:257|367:227,1,144
470,179,256143,1,8,0:0:0:0:
380,109,256307,1,0,0:0:0:0:
377,106,256389,1,0,0:0:0:0:
374,103,256471,54,0,L|374:38,3,36
301,67,256799,2,0,L|284:4,3,36,8|0|0|0,0:0|0:0|0:0|0:0,0:0:0:0:
221,51,257127,54,0,L|188:-5,3,36
139,56,257455,2,0,L|93:10,3,36,8|0|0|0,0:0|0:0|0:0|0:0,0:0:0:0:
68,143,257783,6,0,L|140:162,1,43.6500010323715,4|0,0:0|0:0,0:0:0:0:
177,240,257947,2,0,L|105:259,1,43.6500010323715
81,343,258111,53,8,0:0:0:0:
84,346,258193,1,0,0:0:0:0:
87,349,258274,1,0,0:0:0:0:
90,352,258356,1,0,0:0:0:0:
90,352,258438,53,8,0:0:0:0:
108,352,258520,1,0,0:0:0:0:
126,350,258602,1,0,0:0:0:0:
144,354,258684,1,0,0:0:0:0:
161,349,258766,53,8,0:0:0:0:
194,338,258848,1,0,0:0:0:0:
228,335,258930,1,0,0:0:0:0:
261,340,259012,1,0,0:0:0:0:
291,353,259094,54,0,L|346:355,3,48.1499985305787,4|0|0|0,0:3|0:0|0:0|0:0,0:0:0:0:
346,277,259422,54,0,L|401:275,3,48.1499985305787,8|0|0|0,0:3|0:0|0:0|0:0,0:0:0:0:
268,257,259750,54,0,L|210:255,1,48.1499985305787
296,182,259914,2,0,L|350:183,1,48.1499985305787,0|0,0:0|0:0,0:0:0:0:
218,175,260078,54,0,L|160:173,1,48.1499985305787,8|0,0:3|0:0,0:0:0:0:
247,100,260242,2,0,L|302:101,1,48.1499985305787,0|0,0:0|0:0,0:0:0:0:
139,86,260406,54,0,L|100:88,7,28.5749997819901,2|0|0|0|0|0|0|0,0:1|0:0|0:0|0:0|0:0|0:0|0:0|0:0,0:0:0:0:
116,114,260733,2,0,L|78:125,7,33.0749984607125,8|0|0|0|0|0|0|0,0:3|0:0|0:0|0:0|0:0|0:0|0:0|0:0,0:0:0:0:
101,146,261061,2,0,L|69:167,7,37.5749988246346
95,181,261389,2,0,L|67:211,7,42.0749991653824,8|0|0|0|0|0|0|0,0:3|0:0|0:0|0:0|0:0|0:0|0:0|0:0,0:0:0:0:
110,219,261717,22,0,P|164:266|250:247,1,157.5
268,228,262373,2,0,P|307:234|346:230,1,67.5
367,221,262701,53,2,0:0:0:0:
370,218,262783,1,0,0:0:0:0:
373,215,262865,1,0,0:0:0:0:
376,213,262947,1,0,0:0:0:0:
403,211,263029,54,0,L|480:218,1,53.9999983520508,2|0,0:1|0:0,0:0:0:0:
512,165,263356,1,8,0:0:0:0:
486,95,263520,1,0,0:0:0:0:
410,94,263684,2,0,L|464:94,1,53.9999983520508
405,15,264012,1,8,0:0:0:0:
331,78,264176,1,0,0:0:0:0:
384,179,264340,54,0,P|380:217|369:246,1,53.9999983520508,0|0,0:2|0:0,0:0:0:0:
341,306,264668,1,8,0:0:0:0:
267,263,264832,1,0,0:0:0:0:
263,252,264914,1,0,0:0:0:0:
259,242,264996,2,0,L|248:212,2,26.9999991760254,0|0|0,0:0|0:0|0:0,0:0:0:0:
211,342,265324,2,0,P|163:342|134:336,1,53.9999983520508,8|0,0:0|0:0,0:0:0:0:
146,338,265570,1,0,0:0:0:0:
134,333,265652,54,0,P|110:291|97:256,1,62.9999980773926,0|0,0:2|0:0,0:0:0:0:
105,163,265979,1,8,0:0:0:0:
203,121,266143,1,0,0:0:0:0:
213,116,266225,1,0,0:0:0:0:
223,112,266307,2,0,L|254:98,2,31.4999990386963,0|0|0,0:0|0:0|0:0,0:0:0:0:
134,50,266635,2,0,L|37:58,1,94.499997116089,8|0,0:0|0:0,0:0:0:0:
35,73,266963,54,0,L|18:161,1,62.9999980773926,0|0,0:2|0:0,0:0:0:0:
34,235,267291,1,8,0:0:0:0:
105,163,267455,1,0,0:0:0:0:
117,160,267537,1,0,0:0:0:0:
129,156,267619,2,0,L|190:155,2,31.4999990386963,0|0|0,0:0|0:0|0:0,0:0:0:0:
112,280,267947,2,0,L|114:374,1,94.499997116089,8|0,0:0|0:0,0:0:0:0:
126,366,268274,54,0,B|156:357|156:357|226:358,1,72,0|0,0:2|0:0,0:0:0:0:
305,360,268602,1,8,0:0:0:0:
251,266,268766,1,0,0:0:0:0:
248,254,268848,1,0,0:0:0:0:
244,242,268930,2,0,L|229:180,2,36
373,260,269258,2,0,B|395:257|423:225|423:225|426:178,1,108,8|0,0:0|0:0,0:0:0:0:
428,160,269586,53,0,0:2:0:0:
364,46,269750,1,0,0:0:0:0:
350,177,269914,1,8,0:0:0:0:
438,81,270078,1,0,0:0:0:0:
450,73,270160,1,0,0:0:0:0:
462,65,270242,2,0,L|498:41,2,36
311,107,270570,1,8,0:0:0:0:
428,160,270733,2,0,L|471:181,1,36
399,238,270897,54,0,P|356:256|295:234,1,80.9999975280763,0|0,0:2|0:0,0:0:0:0:
214,195,271225,1,8,0:0:0:0:
211,341,271389,1,0,0:0:0:0:
228,350,271471,1,0,0:0:0:0:
248,354,271553,1,0,0:0:0:0:
268,353,271635,1,0,0:0:0:0:
288,347,271717,1,0,0:0:0:0:
176,267,271881,1,8,0:0:0:0:
96,337,272045,1,0,0:0:0:0:
77,331,272127,1,0,0:0:0:0:
60,320,272209,54,0,P|32:278|26:229,1,80.9999975280763,0|0,0:2|0:0,0:0:0:0:
100,108,272537,1,8,0:0:0:0:
214,168,272701,1,0,0:0:0:0:
221,186,272783,1,0,0:0:0:0:
227,205,272865,38,0,L|232:232,7,20.2499993820191
215,246,273193,2,0,L|210:273,7,20.2499993820191,8|0|0|0|0|0|0|0,0:0|0:0|0:0|0:0|0:0|0:0|0:0|0:0,0:0:0:0:
222,292,273520,86,0,B|254:313|254:313|378:291,1,135,6|0,3:1|0:0,0:0:0:0:
360,284,273848,1,8,0:0:0:0:
362,160,274012,1,0,0:0:0:0:
488,237,274176,53,0,0:0:0:0:
351,172,274340,1,0,0:0:0:0:
464,73,274504,2,0,B|434:42|434:42|371:57,1,90,8|0,0:0|0:0,0:0:0:0:
264,154,274832,54,0,P|241:81|154:66,1,135,2|0,3:2|0:0,0:0:0:0:
176,58,275160,1,8,0:0:0:0:
91,166,275324,2,0,B|49:230|49:230|72:228,2,90,0|0|0,0:0|0:0|0:0,0:0:0:0:
264,154,275815,1,8,0:0:0:0:
221,281,275979,1,0,0:0:0:0:
174,135,276143,53,4,2:1:0:0:
316,273,276471,1,2,2:1:0:0:
174,135,276799,53,2,2:2:0:0:
316,273,276963,1,2,2:2:0:0:
174,135,277291,54,0,P|111:120|27:140,1,135,4|0,3:1|0:0,0:0:0:0:
31,143,277619,1,0,0:0:0:0:
115,32,277783,2,0,P|162:38|228:61,1,90,2|0,0:1|0:0,0:0:0:0:
329,137,278111,53,2,2:2:0:0:
216,240,278274,1,2,2:2:0:0:
216,240,278602,54,0,B|265:242|265:242|298:263|298:263|376:262,1,135,4|0,3:1|0:0,0:0:0:0:
360,268,278930,1,0,0:0:0:0:
237,322,279094,2,0,L|117:316,1,90,8|0,0:0|0:0,0:0:0:0:
194,161,279422,2,0,L|314:167,1,90
422,178,279750,53,8,1:1:0:0:
368,52,279914,1,0,1:0:0:0:
349,232,280078,54,0,B|326:280|326:280|281:299|209:272,1,135,4|0,3:1|2:0,0:0:0:0:
236,296,280406,2,0,L|146:291,1,90,8|2,0:0|0:2,0:0:0:0:
198,164,280733,2,0,L|318:170,1,90
389,78,281061,2,0,L|321:74,1,45,2|0,0:2|0:0,0:0:0:0:
262,70,281225,2,0,L|194:66,1,45,2|0,0:2|0:0,0:0:0:0:
135,60,281389,69,4,1:3:0:0:
132,63,281471,1,0,0:0:0:0:
129,66,281553,1,0,1:1:0:0:
126,69,281635,1,0,0:0:0:0:
123,72,281717,53,8,1:1:0:0:
105,85,281799,1,0,0:0:0:0:
98,106,281881,1,8,1:1:0:0:
105,128,281963,1,0,0:0:0:0:
121,143,282045,54,0,L|121:205,3,45,8|0|0|0,0:0|0:0|0:2|0:0,0:0:0:0:
211,154,282373,54,0,P|237:155|275:144,3,45,0|0|0|0,0:2|0:0|0:0|0:0,0:0:0:0:
328,100,282701,22,0,L|364:80,15,24.7500007553101,8|0|0|0|0|0|0|0|0|0|0|0|0|0|0|0,0:3|0:0|0:0|0:0|0:0|0:0|0:0|0:0|0:0|0:0|0:0|0:0|0:0|0:0|0:0|0:0,0:0:0:0:
368,139,283356,6,0,L|409:139,7,24.7500007553101,8|0|0|0|0|0|0|0,0:3|0:0|0:0|0:0|0:0|0:0|0:0|0:0,0:0:0:0:
383,192,283684,86,0,L|421:215,7,24.7500007553101,2|0|0|0|0|0|0|0,0:2|0:0|0:0|0:0|0:0|0:0|0:0|0:0,0:0:0:0:
369,245,284012,102,0,B|388:279|388:279|333:319|262:290,1,155.250002961159,6|0,0:0|0:0,0:0:0:0:
267,291,284340,1,8,0:0:0:0:
165,188,284504,1,0,0:0:0:0:
322,134,284668,1,0,0:0:0:0:
236,220,284832,1,0,0:0:0:0:
279,50,284996,1,8,0:0:0:0:
412,163,285160,1,0,0:0:0:0:
196,103,285324,54,0,B|157:82|157:82|93:76|43:100,1,155.250002961159,2|0,3:2|0:0,0:0:0:0:
36,92,285652,2,0,P|8:147|15:214,1,103.500001974106,8|0,0:0|0:0,0:0:0:0:
91,326,285979,1,0,0:0:0:0:
178,213,286143,1,0,0:0:0:0:
11,270,286307,1,8,0:0:0:0:
184,296,286471,1,0,0:0:0:0:
7,187,286635,54,0,B|3:131|24:91|24:91|76:69,1,155.250002961159,2|0,3:1|0:0,0:0:0:0:
95,64,286963,1,8,0:0:0:0:
252,116,287127,1,0,0:0:0:0:
91,155,287291,1,0,0:0:0:0:
189,44,287455,1,0,0:0:0:0:
192,220,287619,1,8,0:0:0:0:
341,58,287783,54,0,B|388:76|388:76|432:143,1,103.500001974106,2|0,0:2|0:0,0:0:0:0:
415,287,288111,1,0,0:0:0:0:
277,233,288274,1,8,0:0:0:0:
427,276,288438,1,2,0:2:0:0:
281,217,288602,2,0,P|306:155|365:123,1,103.500001974106
493,184,288930,2,0,P|477:232|439:266,1,103.500001974106,8|0,0:0|0:0,0:0:0:0:
417,121,289258,54,0,B|408:72|408:72|368:40|308:49,1,155.250002961159,2|0,3:1|0:0,0:0:0:0:
305,33,289586,2,0,P|255:22|206:38,1,103.500001974106,8|0,0:0|0:0,0:0:0:0:
143,168,289914,1,0,0:0:0:0:
120,74,290078,1,0,0:0:0:0:
63,217,290242,2,0,P|100:251|151:262,1,103.500001974106,8|0,0:0|0:0,0:0:0:0:
269,146,290570,53,0,3:0:0:0:
357,281,290733,1,0,0:0:0:0:
293,132,290897,53,8,0:0:0:0:
343,284,291061,1,0,0:0:0:0:
320,129,291225,53,2,0:2:0:0:
329,288,291389,2,0,P|277:285|234:257,1,103.500001974106,0|8,0:0|0:0,0:0:0:0:
183,84,291717,54,0,B|165:118|165:118|131:96|68:96|40:134,1,155.250002961159,6|0,3:1|0:0,0:0:0:0:
43,131,292045,1,0,0:0:0:0:
131,253,292209,2,0,L|256:258,1,103.500001974106,8|0,0:0|0:0,0:0:0:0:
250,256,292455,1,0,0:0:0:0:
265,256,292537,1,2,0:1:0:0:
194,169,292701,1,0,0:0:0:0:
188,343,292865,1,8,0:0:0:0:
213,159,293029,54,0,L|316:158,1,103.500001974106,2|0,0:2|0:0,0:0:0:0:
310,353,293356,2,0,L|207:353,1,103.500001974106,2|8,0:2|0:0,0:0:0:0:
265,256,293684,1,0,0:0:0:0:
386,362,293848,1,0,0:0:0:0:
467,291,294012,1,0,0:0:0:0:
364,166,294176,53,10,2:1:0:0:
348,163,294258,1,8,2:3:0:0:
332,159,294340,1,8,2:3:0:0:
316,156,294422,1,8,2:3:0:0:
301,134,294504,54,0,B|280:117|246:117|246:117|189:132|151:104,1,155.250002961159,6|0,3:1|0:0,0:0:0:0:
139,97,294832,1,8,0:0:0:0:
212,2,294996,1,0,0:0:0:0:
125,88,295160,1,0,0:0:0:0:
226,11,295324,1,0,0:0:0:0:
255,191,295488,2,0,P|206:199|131:175,1,103.500001974106,8|0,0:0|0:0,0:0:0:0:
198,356,295815,54,0,P|272:334|347:376,1,155.250002961159,2|0,3:2|0:0,0:0:0:0:
345,381,296143,1,8,0:0:0:0:
390,242,296307,2,0,B|397:176|397:176|388:123,2,103.500001974106
233,240,296799,53,8,0:0:0:0:
302,101,296963,1,0,0:0:0:0:
310,293,297127,53,4,2:1:0:0:
195,95,297455,1,2,2:1:0:0:
310,293,297783,53,2,2:2:0:0:
195,95,297947,1,2,2:2:0:0:
310,293,298274,54,0,P|261:330|152:328,1,155.250002961159,4|0,3:1|0:0,0:0:0:0:
155,326,298602,1,0,0:0:0:0:
160,170,298766,2,0,P|203:176|263:142,1,103.500001974106,2|0,2:1|0:0,0:0:0:0:
124,32,299094,53,2,2:2:0:0:
41,187,299258,1,2,2:2:0:0:
41,187,299586,54,0,B|33:248|51:305|51:305|73:277,1,155.250002961159,4|0,3:1|0:0,0:0:0:0:
84,266,299914,1,0,0:0:0:0:
160,170,300078,2,0,P|202:158|267:176,1,103.500001974106,8|0,0:0|0:0,0:0:0:0:
237,331,300406,2,0,P|195:343|130:325,1,103.500001974106
259,171,300733,53,8,0:1:0:0:
332,307,300897,1,0,0:0:0:0:
380,129,301061,54,0,B|348:81|348:81|310:67|215:71,1,155.250002961159,4|0,3:1|2:0,0:0:0:0:
237,62,301389,2,0,B|190:49|190:49|120:71,1,103.500001974106,8|2,0:0|0:2,0:0:0:0:
213,175,301717,2,0,B|260:188|260:188|330:166,1,103.500001974106,0|0,0:0|0:0,0:0:0:0:
111,162,302045,53,10,2:3:0:0:
99,196,302127,1,8,2:3:0:0:
111,230,302209,1,8,2:3:0:0:
99,264,302291,1,8,2:3:0:0:
111,298,302373,54,0,B|167:319|229:291|229:291|237:313|237:313|303:283|376:328,1,258.750004935265,6|0,3:0|0:0,0:0:0:0:
357,309,302865,2,0,P|414:314|480:300,2,103.500001974106,2|0|0,0:2|0:2|0:2,0:0:0:0:
335,206,303356,2,0,B|329:175|349:143|349:143|336:133|336:133|356:97|339:44,1,155.250002961159,4|0,0:2|0:0,0:0:0:0:
337,48,303684,101,8,0:0:0:0:
183,21,303848,1,0,0:0:0:0:
237,168,304012,1,0,3:0:0:0:
261,29,304176,53,0,0:0:0:0:
262,24,304258,1,0,0:0:0:0:
263,20,304340,1,0,0:0:0:0:
161,149,304504,1,0,0:0:0:0:
315,176,304668,1,0,0:0:0:0:
147,343,304996,86,0,P|194:363|281:358,1,116.999994644165,6|0,0:3|2:0,0:0:0:0:
237,168,305324,1,0,0:3:0:0:
110,248,305488,53,0,2:0:0:0:
107,251,305570,1,0,2:0:0:0:
104,254,305652,1,0,0:3:0:0:
251,267,305815,1,0,2:0:0:0:
122,161,305979,1,0,0:3:0:0:
271,71,306143,54,0,B|310:48|344:57|344:57|374:83,1,116.999994644165,2|0,2:1|0:0,0:0:0:0:
436,234,306471,1,0,2:0:0:0:
293,155,306635,1,0,0:3:0:0:
457,158,306799,1,0,2:0:0:0:
410,314,306963,1,0,0:3:0:0:
290,158,307127,53,0,2:0:0:0:
287,161,307209,1,0,2:0:0:0:
284,164,307291,2,0,B|257:189|257:189|261:292,1,116.999994644165,0|0,0:3|2:0,0:0:0:0:
77,232,307619,53,4,0:3:0:0:
151,98,307783,1,0,2:0:0:0:
76,257,307947,2,0,B|92:332|92:332|143:388,1,116.999994644165,0|0,0:3|2:0,0:0:0:0:
170,190,308274,53,0,0:3:0:0:
73,84,308438,1,0,2:0:0:0:
0,229,308602,1,0,0:3:0:0:
176,97,308766,54,0,B|216:94|216:94|251:106|251:106|306:102,1,116.999994644165,2|0,2:1|0:0,0:0:0:0:
419,83,309094,1,0,2:0:0:0:
385,266,309258,1,0,0:0:0:0:
259,232,309422,1,0,2:0:0:0:
316,99,309586,53,4,0:2:0:0:
422,172,309750,1,0,2:0:0:0:
435,178,309832,1,0,2:0:0:0:
448,184,309914,1,4,0:2:0:0:
335,207,310078,1,2,2:0:0:0:
438,53,310242,54,0,B|423:33|391:24|391:24|331:20,1,116.999994644165,6|0,0:3|2:0,0:0:0:0:
224,175,310570,1,0,0:3:0:0:
254,34,310733,1,0,2:0:0:0:
128,173,310897,53,0,0:3:0:0:
299,138,311061,1,0,2:0:0:0:
137,71,311225,1,0,0:3:0:0:
335,207,311389,54,0,B|341:245|341:245|298:344,1,116.999994644165,2|0,2:1|0:0,0:0:0:0:
155,340,311717,1,0,2:0:0:0:
224,175,311881,1,0,0:3:0:0:
107,264,312045,1,0,2:0:0:0:
309,317,312209,1,0,0:3:0:0:
137,347,312373,53,0,2:0:0:0:
120,356,312455,1,0,2:0:0:0:
102,364,312537,2,0,B|68:367|68:367|31:337|36:294,1,116.999994644165,0|0,0:3|2:0,0:0:0:0:
164,118,312865,53,4,0:3:0:0:
214,277,313029,1,0,2:0:0:0:
43,171,313193,1,0,0:3:0:0:
224,195,313356,1,0,2:0:0:0:
69,66,313520,53,0,0:3:0:0:
148,230,313684,1,0,2:0:0:0:
248,111,313848,1,0,0:3:0:0:
311,333,314012,54,2,P|225:296|100:377,1,233.999989288331,2|0,2:1|2:0,0:0:0:0:
31,230,314504,1,0,0:3:0:0:
204,211,314668,2,2,B|292:205|363:263|363:263|341:231|330:195,1,233.999989288331,2|0,2:0|2:0,0:0:0:0:
334,189,315078,1,0,2:0:0:0:
338,171,315160,1,2,0:1:0:0:
426,40,315324,1,2,2:0:0:0:
510,253,315488,102,0,B|502:308|502:308|474:351|431:376,1,130.500003982544,6|0,0:1|2:0,0:0:0:0:
334,207,315815,1,0,0:3:0:0:
462,161,315979,53,0,2:0:0:0:
466,161,316061,1,0,2:0:0:0:
470,161,316143,1,0,0:3:0:0:
394,277,316307,1,0,2:0:0:0:
388,114,316471,1,0,0:3:0:0:
214,51,316635,54,0,P|153:36|95:63,1,130.500003982544,2|0,2:1|0:0,0:0:0:0:
165,213,316963,1,0,2:0:0:0:
12,135,317127,1,0,0:3:0:0:
161,124,317291,1,0,2:0:0:0:
72,275,317455,1,0,0:3:0:0:
252,300,317619,53,0,2:0:0:0:
255,303,317701,1,0,2:0:0:0:
258,306,317783,2,0,B|286:328|286:328|287:227,1,130.500003982544,0|0,0:3|2:0,0:0:0:0:
161,124,318111,53,6,0:1:0:0:
310,76,318274,1,0,2:0:0:0:
151,43,318438,2,0,B|105:60|105:60|74:101|82:143,1,130.500003982544,0|0,0:3|2:0,0:0:0:0:
279,150,318766,53,0,0:3:0:0:
240,21,318930,1,0,2:0:0:0:
212,201,319094,1,0,0:3:0:0:
395,75,319258,54,0,B|436:78|436:78|474:125|474:125|473:154,1,130.500003982544,2|0,2:1|0:0,0:0:0:0:
417,294,319586,1,0,2:0:0:0:
279,150,319750,1,0,0:0:0:0:
396,205,319914,1,0,2:0:0:0:
273,316,320078,53,4,0:2:0:0:
290,123,320242,1,0,2:0:0:0:
302,97,320324,1,0,2:0:0:0:
314,72,320406,1,4,0:2:0:0:
223,215,320570,1,2,2:0:0:0:
146,42,320733,54,0,B|135:19|135:19|239:34,1,130.500003982544,6|0,0:1|2:0,0:0:0:0:
362,159,321061,1,0,0:3:0:0:
195,134,321225,1,0,2:0:0:0:
326,47,321389,53,0,0:3:0:0:
302,219,321553,1,0,2:0:0:0:
238,33,321717,1,0,0:3:0:0:
384,241,321881,54,0,B|397:284|394:337|394:337|384:325|368:316,1,130.500003982544,2|0,2:1|0:0,0:0:0:0:
198,314,322209,1,0,2:0:0:0:
362,159,322373,1,0,0:3:0:0:
283,315,322537,1,0,2:0:0:0:
280,137,322701,1,0,0:3:0:0:
143,247,322865,53,0,2:0:0:0:
124,265,322947,1,0,2:0:0:0:
106,284,323029,2,0,B|51:339|51:339|57:267,1,130.500003982544,0|0,0:3|2:0,0:0:0:0:
105,65,323356,53,6,0:1:0:0:
217,214,323520,1,0,2:0:0:0:
177,23,323684,53,0,0:3:0:0:
249,220,323848,1,0,2:0:0:0:
252,0,324012,53,0,0:3:0:0:
280,226,324176,1,0,2:0:0:0:
70,137,324340,1,0,0:3:0:0:
335,104,324504,6,2,B|388:89|429:115|429:115|462:215|409:290,1,261.000007965088,2|0,2:0|2:0,0:0:0:0:
298,352,324996,1,0,0:3:0:0:
179,247,325160,54,2,B|109:156|182:65|182:65|225:107|235:171,1,288,2|0,2:0|2:0,0:0:0:0:
233,161,325570,1,0,2:0:0:0:
238,181,325652,1,2,0:1:0:0:
76,76,325815,1,2,2:0:0:0:
337,46,325979,6,0,B|375:65|388:107|388:107|418:89|471:88|471:88|461:139|435:171|435:171|464:193|481:241|481:241|429:249|393:236|393:236|380:268|338:301|338:301|315:253|318:214|318:214|281:211|237:181|237:181|263:128|308:125,1,792,14|0,3:3|0:0,0:0:0:0:
256,192,335488,12,4,336471,0:1:0:0:
