osu file format v14

[General]
AudioFilename: Sentimental Skyscraper.mp3
AudioLeadIn: 0
PreviewTime: 189506
Countdown: 0
SampleSet: Soft
StackLeniency: 0.7
Mode: 0
LetterboxInBreaks: 0
EpilepsyWarning: 1
WidescreenStoryboard: 1

[Editor]
Bookmarks: 49834,51146,52457,161309,212293,221309,262949,265244,314588,314916,315244
DistanceSpacing: 4
BeatDivisor: 4
GridSize: 4
TimelineZoom: 3.399998

[Metadata]
Title:Kanshou no Matenrou
TitleUnicode:感傷の摩天楼
Artist:Halozy
ArtistUnicode:Halozy
Creator:Keada
Version:Endless Dream
Source:東方Project
Tags:Kanjou Sentimental Skyscraper Aqua Trytone Comiket80 Sumijun すみじゅん ほたる Hotaru 法界の火 fires of hokkai stage 6 theme 感情の摩天楼 emotional skyscraper cosmic mind Touhou Seirensen Undefined Fantastic Object Byakuren Hijiri Kanjou smsh150
BeatmapID:1653112
BeatmapSetID:787649

[Difficulty]
HPDrainRate:6
CircleSize:4.5
OverallDifficulty:8.8
ApproachRate:9.3
SliderMultiplier:1.4
SliderTickRate:2

[Events]
//Background and Video events
0,0,"byakuren333.jpg",0,0
//Break Periods
2,106428,114690
//Storyboard Layer 0 (Background)
//Storyboard Layer 1 (Fail)
//Storyboard Layer 2 (Pass)
//Storyboard Layer 3 (Foreground)
//Storyboard Sound Samples

[TimingPoints]
1310,327.868852459016,4,2,1,20,1,0
15736,-100,4,2,1,30,0,0
17047,-100,4,2,1,30,0,0
18359,-100,4,2,1,40,0,0
19670,-100,4,2,1,50,0,0
20982,-100,4,2,1,60,0,0
22293,-100,4,2,1,60,0,0
22949,-200,4,2,0,50,0,0
32785,-133.333333333333,4,2,1,60,0,0
32949,-133.333333333333,4,2,1,53,0,0
34096,-133.333333333333,4,2,1,56,0,0
35408,-133.333333333333,4,2,1,59,0,0
36719,-133.333333333333,4,2,1,61,0,0
39342,-133.333333333333,4,2,1,64,0,0
40654,-133.333333333333,4,2,1,55,0,0
41637,-133.333333333333,4,2,1,20,0,0
41965,-133.333333333333,4,2,1,5,0,0
42293,-133.333333333333,4,2,1,20,0,0
42621,-133.333333333333,4,2,1,60,0,0
43277,-133.333333333333,4,2,1,30,0,0
48523,-133.333333333333,4,2,1,40,0,0
53687,-133.333333333333,4,2,1,5,0,0
53769,-100,4,2,1,55,0,0
53932,-100,4,2,1,55,0,0
59014,-100,4,2,1,60,0,0
61637,-83.3333333333333,4,2,2,70,0,0
62129,-142.857142857143,4,2,2,70,0,0
62457,-133.333333333333,4,2,1,50,0,0
62867,-133.333333333333,4,2,1,5,0,0
62949,-133.333333333333,4,2,1,50,0,0
63687,-133.333333333333,4,2,2,5,0,0
63769,-133.333333333333,4,2,2,70,0,0
64096,-133.333333333333,4,2,0,70,0,0
64260,-83.3333333333333,4,2,2,80,0,1
74752,-133.333333333333,4,2,1,60,0,0
79998,-100,4,2,1,60,0,0
83932,-100,4,2,1,30,0,0
84260,-76.9230769230769,4,2,1,30,0,0
84588,-62.5,4,2,1,30,0,0
84916,-100,4,2,1,60,0,0
85244,-76.9230769230769,4,2,2,80,0,1
85490,-76.9230769230769,4,2,2,5,0,1
85572,-76.9230769230769,4,2,2,80,0,1
86801,-76.9230769230769,4,2,2,5,0,1
86883,-76.9230769230769,4,2,2,80,0,1
88113,-76.9230769230769,4,2,2,5,0,1
88195,-76.9230769230769,4,2,2,80,0,1
90408,-76.9230769230769,4,2,2,5,0,1
90490,-76.9230769230769,4,2,2,80,0,1
90736,-76.9230769230769,4,2,2,5,0,1
90818,-76.9230769230769,4,2,2,80,0,1
95982,-76.9230769230769,4,2,2,5,0,1
96064,-76.9230769230769,4,2,2,80,0,1
102539,-76.9230769230769,4,2,2,5,0,1
102621,-76.9230769230769,4,2,2,80,0,1
103605,-133.333333333333,4,2,2,70,0,0
104916,-133.333333333333,4,2,1,70,0,0
105408,-133.333333333333,4,2,2,70,0,0
106228,-133.333333333333,4,2,1,70,0,0
115244,-133.333333333333,4,2,2,5,0,0
115900,-133.333333333333,4,2,2,35,0,0
116228,-133.333333333333,4,2,2,65,0,0
116719,-133.333333333333,4,2,2,70,0,0
117375,-200,4,2,1,50,0,0
127129,-200,4,2,1,5,0,0
127211,-200,4,2,1,50,0,0
132293,-200,4,2,1,5,0,0
132457,-200,4,2,1,50,0,0
137621,-200,4,2,1,5,0,0
137703,-133.333333333333,4,2,1,55,0,0
147211,-100,4,2,2,60,0,0
148195,-90.9090909090909,4,2,2,80,0,0
148441,-100,4,2,2,5,0,0
148523,-100,4,2,2,80,0,0
149752,-100,4,2,2,5,0,0
149834,-100,4,2,2,80,0,0
151064,-100,4,2,2,5,0,0
151146,-100,4,2,2,80,0,0
152047,-100,4,2,2,5,0,0
152129,-100,4,2,2,80,0,0
153687,-100,4,2,2,5,0,0
153769,-100,4,2,2,80,0,0
158687,-133.333333333333,4,2,2,60,0,0
158850,-133.333333333333,4,2,0,60,0,0
160326,-100,4,2,0,60,0,0
161309,-133.333333333333,4,2,0,60,0,0
162949,-100,4,2,0,60,0,0
163932,-100,4,2,2,75,0,0
168769,-100,4,2,2,5,0,0
168850,-100,4,3,2,60,0,0
169178,-90.9090909090909,4,2,2,70,0,0
170408,-100,4,2,2,5,0,0
170490,-100,4,2,2,70,0,0
175982,-100,4,2,2,5,0,0
176064,-100,4,2,2,70,0,0
179916,-100,4,2,2,5,0,0
179998,-100,4,2,2,70,0,0
187539,-100,4,2,1,70,0,0
187867,-100,4,2,2,70,0,0
188031,-100,4,3,2,70,0,0
188523,-100,4,2,1,70,0,0
188850,-100,4,2,1,70,0,0
189506,-76.9230769230769,4,2,2,40,0,0
189752,-76.9230769230769,4,2,2,5,0,0
189834,-76.9230769230769,4,2,2,40,0,0
190080,-100,4,2,2,5,0,0
190162,-71.4285714285714,4,2,2,80,0,1
190408,-71.4285714285714,4,2,2,5,0,1
190490,-71.4285714285714,4,2,2,80,0,1
191719,-71.4285714285714,4,2,2,5,0,1
191801,-71.4285714285714,4,2,2,80,0,1
193031,-71.4285714285714,4,2,2,5,0,1
193113,-71.4285714285714,4,2,2,80,0,1
195080,-133.333333333333,4,2,2,80,0,1
195326,-71.4285714285714,4,2,2,5,0,1
195408,-71.4285714285714,4,2,2,80,0,1
195654,-71.4285714285714,4,2,2,5,0,1
195736,-71.4285714285714,4,2,2,80,0,1
200900,-71.4285714285714,4,2,2,5,0,1
200982,-71.4285714285714,4,2,2,80,0,1
207457,-71.4285714285714,4,2,2,5,0,1
207539,-71.4285714285714,4,2,2,80,0,1
208523,-133.333333333333,4,2,2,60,0,0
209834,-133.333333333333,4,2,1,60,0,0
210818,-133.333333333333,4,2,2,50,0,0
211146,-133.333333333333,4,2,1,50,0,0
211309,-133.333333333333,4,2,1,50,0,0
221555,-133.333333333333,4,2,1,5,0,0
221637,-100,4,2,2,55,0,0
221801,-100,4,2,1,55,0,0
229506,-100,4,2,2,60,0,0
232129,-83.3333333333333,4,2,2,70,0,0
232375,-83.3333333333333,4,2,2,5,0,0
232457,-83.3333333333333,4,2,2,70,0,0
233687,-83.3333333333333,4,2,2,5,0,0
233769,-83.3333333333333,4,2,2,70,0,0
235982,-83.3333333333333,4,2,2,5,0,0
236064,-83.3333333333333,4,2,2,70,0,0
237621,-83.3333333333333,4,2,2,5,0,0
237703,-83.3333333333333,4,2,2,70,0,0
241555,-83.3333333333333,4,2,2,5,0,0
241637,-83.3333333333333,4,2,2,70,0,0
242293,-83.3333333333333,4,2,2,70,0,0
242621,-83.3333333333333,4,2,2,70,0,0
242785,-117.647058823529,4,2,1,70,0,0
243850,-117.647058823529,4,2,2,5,0,0
243932,-117.647058823529,4,2,2,70,0,0
244260,-117.647058823529,4,2,0,70,0,0
245244,-117.647058823529,4,2,1,70,0,0
246473,-117.647058823529,4,2,1,5,0,0
246555,-117.647058823529,4,2,1,70,0,0
246883,-117.647058823529,4,2,0,70,0,0
247867,-100,4,2,2,70,0,0
253031,-100,4,2,2,5,0,0
253113,-133.333333333333,4,2,2,50,0,0
253441,-133.333333333333,4,2,0,50,0,0
253769,-133.333333333333,4,2,2,50,0,0
254096,-133.333333333333,4,2,0,50,0,0
254424,-133.333333333333,4,2,2,50,0,0
254752,-133.333333333333,4,2,0,50,0,0
255080,-133.333333333333,4,2,2,50,0,0
255408,-133.333333333333,4,2,0,50,0,0
255572,-133.333333333333,4,2,2,50,0,0
256064,-133.333333333333,4,2,0,50,0,0
256228,-133.333333333333,4,2,2,50,0,0
256719,-133.333333333333,4,2,0,50,0,0
256801,-133.333333333333,4,2,2,50,0,0
257375,-133.333333333333,4,2,0,50,0,0
257703,-133.333333333333,4,2,2,50,0,0
258359,-117.647058823529,4,2,2,50,0,0
262867,-133.333333333333,4,2,2,5,0,0
262949,-133.333333333333,4,2,2,50,0,0
263195,-133.333333333333,4,2,2,5,0,0
263277,-133.333333333333,4,2,0,50,0,0
263605,-133.333333333333,4,2,1,50,0,0
263769,-133.333333333333,4,2,1,50,0,0
268769,-133.333333333333,4,2,1,5,0,0
268850,-133.333333333333,4,2,1,50,0,0
273113,-133.333333333333,4,2,2,60,0,0
274096,-100,4,2,2,60,0,0
276719,-100,4,2,2,70,0,0
277867,-83.3333333333333,4,2,2,70,0,0
280900,-100,4,2,2,5,0,0
280982,-100,4,2,2,70,0,0
283277,-100,4,2,2,40,0,0
283605,-100,4,2,2,50,0,0
283932,-100,4,2,2,60,0,0
284260,-100,4,2,2,70,0,0
284588,-66.6666666666667,4,2,2,80,0,1
284834,-66.6666666666667,4,2,2,5,0,1
284916,-66.6666666666667,4,2,2,80,0,1
286146,-66.6666666666667,4,2,2,5,0,1
286228,-66.6666666666667,4,2,2,80,0,1
287457,-66.6666666666667,4,2,2,5,0,1
287539,-66.6666666666667,4,2,2,80,0,1
289752,-66.6666666666667,4,2,2,5,0,1
289834,-66.6666666666667,4,2,2,80,0,1
290080,-66.6666666666667,4,2,2,5,0,1
290162,-66.6666666666667,4,2,2,80,0,1
291064,-66.6666666666667,4,2,2,5,0,1
291146,-66.6666666666667,4,2,2,80,0,1
295326,-66.6666666666667,4,2,2,5,0,1
295408,-66.6666666666667,4,2,2,80,0,1
296637,-66.6666666666667,4,2,2,5,0,1
296719,-66.6666666666667,4,2,2,80,0,1
297949,-66.6666666666667,4,2,2,5,0,1
298031,-66.6666666666667,4,2,2,80,0,1
301883,-66.6666666666667,4,2,2,5,0,1
301965,-66.6666666666667,4,2,2,80,0,1
302949,-100,4,2,2,70,0,0
304260,-100,4,2,1,70,0,0
304588,-100,4,2,1,70,0,0
304752,-100,4,2,1,70,0,0
305080,-100,4,2,1,70,0,0
305244,-200,4,2,2,70,0,0
305490,-200,4,2,2,5,0,0
305572,-66.6666666666667,4,2,2,80,0,1
315982,-66.6666666666667,4,2,2,80,0,0
316064,-66.6666666666667,4,2,2,80,0,1
326555,-100,4,2,2,80,0,0
326719,-100,4,2,2,60,0,0
329178,-100,4,2,2,50,0,0
331801,-100,4,2,2,40,0,0
334424,-100,4,2,2,30,0,0
337047,-100,4,2,2,20,0,0

[Colours]
Combo1 : 225,128,157
Combo2 : 167,90,207
Combo3 : 146,13,5
Combo4 : 210,186,218

[HitObjects]
256,192,14424,12,6,22293,0:0:0:0:
132,128,22949,6,0,L|128:204,1,70,2|0,0:0|0:0,0:0:0:0:
224,240,23441,1,2,0:0:0:0:
232,248,23769,2,0,L|308:248,1,70,2|0,0:0|0:0,0:0:0:0:
408,248,24260,2,0,P|416:216|412:200,1,35,2|0,0:0|0:0,0:0:0:0:
336,152,24588,2,0,P|337:169|343:185,1,35,2|0,0:0|0:0,0:0:0:0:
488,148,24916,6,0,L|404:144,1,70,2|0,0:0|0:0,0:0:0:0:
384,352,25572,1,2,0:0:0:0:
376,364,25900,1,0,0:0:0:0:
272,352,26064,2,0,P|280:308|308:284,1,70,2|0,0:0|0:0,0:0:0:0:
396,260,26555,1,2,0:0:0:0:
408,264,26883,2,0,L|404:216,1,35,2|0,0:0|0:0,0:0:0:0:
304,192,27211,2,0,L|308:144,1,35,2|0,0:0|0:0,0:0:0:0:
416,84,27539,6,0,B|392:80|392:80|364:88|364:88|336:84,1,70,2|0,0:0|0:0,0:0:0:0:
148,12,28195,1,2,0:0:0:0:
136,8,28523,1,0,0:0:0:0:
168,108,28687,2,0,P|176:144|164:184,1,70,2|0,0:0|0:0,0:0:0:0:
68,144,29178,2,0,L|116:140,1,35,2|0,0:0|0:0,0:0:0:0:
200,244,29506,2,0,B|164:252|164:252|120:236,1,70,2|0,0:0|0:0,0:0:0:0:
255,144,30162,6,0,P|288:140|328:156,1,70,2|0,0:0|0:0,0:0:0:0:
444,324,30818,2,0,L|444:244,1,70,2|0,0:0|0:0,0:0:0:0:
352,304,31309,6,0,P|319:316|284:312,1,70,2|0,0:0|0:0,0:0:0:0:
208,240,31801,2,0,P|200:224|200:204,1,35,2|0,0:0|0:0,0:0:0:0:
288,172,32129,2,0,P|287:189|279:204,1,35,2|0,0:0|0:0,0:0:0:0:
128,224,32457,2,0,L|92:220,1,35,2|0,0:0|0:0,0:0:0:0:
20,32,32785,5,2,0:0:0:0:
84,116,32949,1,0,0:0:0:0:
92,120,33031,1,0,0:0:0:0:
100,124,33113,2,0,L|160:124,1,52.5000020027161
248,52,33441,1,0,0:0:0:0:
251,71,33523,1,0,0:0:0:0:
255,90,33605,1,0,0:0:0:0:
258,110,33687,1,0,0:0:0:0:
262,129,33769,1,0,0:0:0:0:
224,200,33932,6,0,P|273:211|318:186,1,105.000004005432
352,44,34424,1,0,0:0:0:0:
325,42,34506,1,0,0:0:0:0:
299,40,34588,1,0,0:0:0:0:
273,38,34670,1,0,0:0:0:0:
248,36,34752,2,0,L|180:36,1,52.5000020027161
68,40,35080,5,0,0:0:0:0:
54,53,35162,1,0,0:0:0:0:
45,71,35244,1,0,0:0:0:0:
42,90,35326,1,0,0:0:0:0:
44,112,35408,2,0,P|52:144|48:176,1,52.5000020027161
12,312,35736,1,0,0:0:0:0:
29,303,35818,1,0,0:0:0:0:
48,300,35900,1,0,0:0:0:0:
68,302,35982,1,0,0:0:0:0:
88,312,36064,2,0,P|116:320|148:312,1,52.5000020027161
232,172,36391,5,0,0:0:0:0:
232,172,36473,1,0,0:0:0:0:
232,172,36555,2,0,L|224:300,1,105.000004005432
384,352,37047,1,0,0:0:0:0:
390,333,37129,1,0,0:0:0:0:
395,314,37211,1,0,0:0:0:0:
390,295,37293,1,0,0:0:0:0:
384,277,37375,2,0,L|328:273,1,52.5000020027161
148,224,37703,1,0,0:0:0:0:
316,140,37867,5,0,0:0:0:0:
316,140,37949,1,0,0:0:0:0:
316,140,38031,2,0,L|372:136,1,52.5000020027161
240,196,38359,1,0,0:0:0:0:
226,181,38441,1,0,0:0:0:0:
218,163,38523,1,0,0:0:0:0:
216,144,38605,1,0,0:0:0:0:
221,125,38687,1,0,0:0:0:0:
225,105,38769,1,0,0:0:0:0:
223,86,38850,1,0,0:0:0:0:
215,68,38932,1,0,0:0:0:0:
200,56,39014,1,0,0:0:0:0:
180,52,39096,1,0,0:0:0:0:
160,56,39178,6,0,B|160:96|160:96|148:120|148:120|148:180,1,105.000004005432
296,340,39670,1,0,0:0:0:0:
309,318,39752,1,0,0:0:0:0:
312,292,39834,1,0,0:0:0:0:
302,268,39916,1,0,0:0:0:0:
283,250,39998,1,0,0:0:0:0:
274,228,40080,1,0,0:0:0:0:
271,202,40162,1,0,0:0:0:0:
281,178,40244,1,0,0:0:0:0:
300,160,40326,1,0,0:0:0:0:
324,156,40408,1,0,0:0:0:0:
348,148,40490,1,0,0:0:0:0:
368,128,40572,1,0,0:0:0:0:
376,104,40654,5,0,0:0:0:0:
256,192,40736,12,0,43113,0:0:0:0:
196,252,43277,5,2,0:0:0:0:
244,312,43441,1,2,0:0:0:0:
272,236,43605,2,0,P|264:208|236:180,1,52.5000020027161,8|0,0:0|0:0,0:0:0:0:
168,176,43932,1,0,2:0:0:0:
76,268,44096,6,0,B|58:243|58:243|53:155,1,105.000004005432,2|0,0:0|0:0,0:0:0:0:
208,60,44588,5,2,0:0:0:0:
132,84,44752,1,2,0:0:0:0:
148,8,44916,2,0,L|208:8,1,52.5000020027161,8|0,0:0|0:0,0:0:0:0:
216,24,45162,1,0,0:0:0:0:
229,23,45244,1,2,0:0:0:0:
242,22,45326,1,0,0:0:0:0:
256,20,45408,1,2,0:0:0:0:
336,60,45572,2,0,B|344:88|344:88|336:120,1,52.5000020027161,8|0,0:0|0:0,0:0:0:0:
248,208,45900,5,2,0:0:0:0:
248,208,46064,1,2,0:0:0:0:
300,268,46228,1,8,0:0:0:0:
224,284,46391,1,0,0:0:0:0:
211,280,46473,1,0,0:0:0:0:
199,274,46555,1,2,0:0:0:0:
189,265,46637,1,0,0:0:0:0:
182,255,46719,1,2,0:0:0:0:
248,208,46883,2,0,L|312:196,1,52.5000020027161,8|0,0:0|0:0,0:0:0:0:
112,216,47211,5,2,0:0:0:0:
180,172,47375,1,2,0:0:0:0:
182,255,47539,2,0,L|170:319,1,52.5000020027161,8|0,0:0|0:0,0:0:0:0:
160,320,47785,1,0,0:0:0:0:
147,323,47867,1,2,0:0:0:0:
134,324,47949,1,0,0:0:0:0:
121,322,48031,1,2,0:0:0:0:
256,276,48195,2,0,B|284:272|284:272|312:280,1,52.5000020027161,8|0,0:0|0:0,0:0:0:0:
420,348,48523,5,2,0:0:0:0:
448,276,48687,1,2,0:0:0:0:
428,200,48850,2,0,L|360:188,1,52.5000020027161,8|0,0:0|0:0,0:0:0:0:
344,192,49096,1,0,0:0:0:0:
336,196,49178,2,0,L|292:200,1,26.2500010013581,2|0,0:0|0:0,0:0:0:0:
260,124,49342,2,0,L|304:128,1,26.2500010013581,2|0,0:0|0:0,0:0:0:0:
224,200,49506,2,0,P|196:184|184:156,1,52.5000020027161,8|0,0:0|0:0,0:0:0:0:
184,32,49834,5,2,0:0:0:0:
184,32,49998,1,2,0:0:0:0:
124,120,50162,2,0,P|88:120|64:104,1,52.5000020027161,8|0,0:0|0:0,0:0:0:0:
60,96,50408,1,0,0:0:0:0:
55,76,50490,1,2,0:0:0:0:
50,57,50572,1,0,0:0:0:0:
46,38,50654,1,2,0:0:0:0:
198,115,50818,2,0,L|184:173,1,52.5000020027161,8|0,0:0|0:0,0:0:0:0:
144,228,51064,1,0,0:0:0:0:
144,228,51146,5,2,0:0:0:0:
228,328,51309,1,2,0:0:0:0:
280,208,51473,2,0,P|280:177|268:144,1,52.5000020027161,8|0,0:0|0:0,0:0:0:0:
198,115,51719,1,0,0:0:0:0:
171,114,51801,1,2,0:0:0:0:
145,113,51883,1,0,0:0:0:0:
119,112,51965,1,2,0:0:0:0:
252,280,52129,2,0,P|280:288|312:276,1,52.5000020027161,8|0,0:0|0:0,0:0:0:0:
420,176,52457,5,2,0:0:0:0:
368,56,52621,1,2,0:0:0:0:
364,260,52785,1,8,0:0:0:0:
500,204,52949,1,0,0:0:0:0:
503,178,53031,1,0,0:0:0:0:
500,152,53113,1,2,0:0:0:0:
489,128,53195,1,0,0:0:0:0:
471,108,53277,1,2,0:0:0:0:
216,64,53441,6,0,B|200:120|200:120|208:160,1,78.7500030040742,8|0,0:0|0:0,0:0:0:0:
244,208,53769,5,6,0:0:0:0:
72,220,53932,1,2,0:0:0:0:
252,312,54096,2,0,L|348:320,1,70,8|0,0:0|0:0,0:0:0:0:
396,304,54342,1,0,0:0:0:0:
412,284,54424,1,2,0:0:0:0:
420,259,54506,1,0,0:0:0:0:
417,233,54588,1,2,0:0:0:0:
204,140,54752,2,0,L|108:136,1,70,8|0,0:0|0:0,0:0:0:0:
340,248,55080,5,2,0:0:0:0:
340,248,55244,1,2,0:0:0:0:
332,72,55408,1,8,0:0:0:0:
208,256,55572,1,0,0:0:0:0:
208,256,55654,1,0,0:0:0:0:
208,256,55736,2,0,P|200:280|200:300,1,35,2|0,0:0|0:0,0:0:0:0:
416,244,55900,2,0,P|413:226|407:210,1,35,2|0,0:0|0:0,0:0:0:0:
252,76,56064,1,8,0:0:0:0:
272,216,56228,1,0,0:0:0:0:
416,120,56391,5,2,0:0:0:0:
224,152,56555,1,2,0:0:0:0:
488,180,56719,1,8,0:0:0:0:
252,76,56883,1,0,0:0:0:0:
217,70,56965,1,0,0:0:0:0:
184,80,57047,1,2,0:0:0:0:
157,102,57129,1,0,0:0:0:0:
142,133,57211,2,0,L|136:184,1,35,2|0,0:0|0:0,0:0:0:0:
208,312,57375,1,8,0:0:0:0:
308,144,57539,5,0,0:0:0:0:
308,144,57621,1,0,0:0:0:0:
308,144,57703,1,2,0:0:0:0:
444,252,57867,1,2,0:0:0:0:
220,148,58031,1,8,0:0:0:0:
223,113,58113,1,0,0:0:0:0:
240,82,58195,1,0,0:0:0:0:
267,61,58277,1,0,0:0:0:0:
301,53,58359,2,0,L|352:48,1,35,2|0,0:0|0:0,0:0:0:0:
332,224,58523,2,0,L|280:220,1,35,2|0,0:0|0:0,0:0:0:0:
423,102,58687,2,0,L|457:99,1,35,10|0,0:0|0:0,0:0:0:0:
356,312,58850,5,0,0:0:0:0:
356,312,58932,1,0,0:0:0:0:
356,312,59014,2,0,L|304:312,1,35,2|0,0:0|0:0,0:0:0:0:
176,240,59178,2,0,L|211:240,1,35,2|0,0:0|0:0,0:0:0:0:
420,240,59342,5,8,0:0:0:0:
453,213,59424,1,0,0:0:0:0:
467,172,59506,1,0,0:0:0:0:
455,130,59588,1,0,0:0:0:0:
423,102,59670,1,2,0:0:0:0:
384,122,59752,1,0,0:0:0:0:
341,116,59834,1,2,0:0:0:0:
309,87,59916,1,0,0:0:0:0:
299,45,59998,5,8,0:0:0:0:
295,89,60080,1,0,0:0:0:0:
291,133,60162,1,0,0:0:0:0:
288,176,60244,1,0,0:0:0:0:
284,220,60326,2,0,L|283:270,1,35,2|0,0:0|0:0,0:0:0:0:
184,184,60490,2,0,L|183:149,1,35,2|0,0:0|0:0,0:0:0:0:
354,280,60654,5,8,0:0:0:0:
329,315,60736,1,0,0:0:0:0:
289,331,60818,1,0,0:0:0:0:
247,322,60900,1,0,0:0:0:0:
217,291,60982,2,0,P|200:288|184:288,7,17.5,2|0|0|0|2|0|0|0,0:0|0:0|0:0|0:0|0:0|0:0|0:0|0:0,0:0:0:0:
128,288,61309,2,0,P|110:289|95:293,7,17.5,8|0|0|0|0|0|0|0,0:0|0:0|0:0|0:0|0:0|0:0|0:0|0:0,0:0:0:0:
40,348,61637,5,10,0:0:0:0:
108,60,61801,1,10,0:0:0:0:
168,360,61965,1,10,0:0:0:0:
176,4,62129,6,0,P|196:48|184:104,1,97.9999970092774,10|0,0:0|0:0,0:0:0:0:
0,276,62621,2,0,L|79:285,1,78.7500030040742,0|0,2:0|2:0,2:0:0:0:
102,244,62949,6,0,P|46:248|124:294,1,236.250009012223
176,248,63769,1,2,0:0:0:0:
196,352,63932,1,8,0:0:0:0:
248,196,64096,1,0,2:0:0:0:
352,368,64260,5,12,0:0:0:0:
392,160,64424,1,2,0:0:0:0:
196,352,64588,1,8,0:0:0:0:
156,144,64752,1,2,0:0:0:0:
272,376,64916,1,8,0:0:0:0:
276,164,65080,1,2,0:0:0:0:
120,376,65244,1,8,0:0:0:0:
83,103,65408,6,0,P|155:63|236:110,1,167.999994873047,2|2,0:0|0:0,0:0:0:0:
364,320,65900,1,8,0:0:0:0:
368,108,66064,1,2,0:0:0:0:
184,212,66228,1,8,0:0:0:0:
392,240,66391,1,2,0:0:0:0:
392,240,66473,1,2,0:0:0:0:
392,240,66555,1,8,0:0:0:0:
300,52,66719,1,2,0:0:0:0:
276,320,66883,5,8,0:0:0:0:
416,164,67047,1,2,0:0:0:0:
183,252,67211,1,8,0:0:0:0:
392,240,67375,1,2,0:0:0:0:
210,124,67539,1,8,0:0:0:0:
276,320,67703,1,2,0:0:0:0:
300,52,67867,1,8,0:0:0:0:
183,252,68031,6,0,L|15:237,1,167.999994873047,2|2,0:0|0:0,0:0:0:0:
276,228,68523,1,8,0:0:0:0:
80,156,68687,1,2,0:0:0:0:
376,172,68850,5,12,0:0:0:0:
96,84,69014,1,2,0:0:0:0:
92,44,69096,1,2,0:0:0:0:
88,4,69178,1,12,0:0:0:0:
312,132,69342,1,2,0:0:0:0:
84,332,69506,5,12,0:0:0:0:
152,132,69670,1,2,0:0:0:0:
380,332,69834,1,8,0:0:0:0:
312,132,69998,1,2,0:0:0:0:
232,372,70162,1,8,0:0:0:0:
232,161,70326,1,2,0:0:0:0:
460,264,70490,1,8,0:0:0:0:
192,252,70654,6,0,B|259:255|259:255|287:239|287:239|355:243,1,167.999994873047,2|2,0:0|0:0,0:0:0:0:
116,160,71146,1,8,0:0:0:0:
316,100,71309,1,2,0:0:0:0:
260,344,71473,1,8,0:0:0:0:
220,136,71637,1,2,0:0:0:0:
220,136,71719,1,2,0:0:0:0:
220,136,71801,1,8,0:0:0:0:
420,204,71965,1,2,0:0:0:0:
172,328,72129,5,8,0:0:0:0:
296,160,72293,1,2,0:0:0:0:
96,348,72457,1,8,0:0:0:0:
128,142,72621,1,2,0:0:0:0:
280,344,72785,1,8,0:0:0:0:
64,216,72949,1,2,0:0:0:0:
280,84,73113,1,8,0:0:0:0:
96,348,73277,5,6,0:0:0:0:
88,356,73605,1,2,0:0:0:0:
328,280,73769,1,8,0:0:0:0:
36,124,73932,5,6,0:0:0:0:
32,140,74260,1,2,0:0:0:0:
28,156,74342,1,2,0:0:0:0:
24,172,74424,2,0,L|28:260,1,83.9999974365235,10|2,0:0|0:0,0:0:0:0:
252,304,74752,5,6,0:0:0:0:
252,304,74916,1,0,0:0:0:0:
284,176,75080,2,0,L|288:136,1,26.2500010013581,8|0,0:0|0:0,0:0:0:0:
200,120,75244,2,0,L|202:146,1,26.2500010013581,2|0,0:0|0:0,0:0:0:0:
360,188,75408,1,2,0:0:0:0:
220,220,75572,1,2,0:0:0:0:
268,80,75736,2,0,P|304:80|336:96,1,52.5000020027161,8|0,0:0|0:0,0:0:0:0:
436,232,76064,5,2,0:0:0:0:
436,232,76228,1,2,0:0:0:0:
324,296,76391,2,0,L|288:300,1,26.2500010013581,8|0,0:0|0:0,0:0:0:0:
220,220,76555,2,0,L|256:224,1,26.2500010013581,2|0,0:0|0:0,0:0:0:0:
368,368,76719,1,2,0:0:0:0:
361,368,76801,1,0,0:0:0:0:
354,369,76883,1,2,0:0:0:0:
224,296,77047,1,8,0:0:0:0:
356,168,77211,6,0,B|320:156|320:156|292:164|292:164|255:153,1,105.000004005432,0|2,0:0|0:0,0:0:0:0:
172,52,77703,1,8,0:0:0:0:
50,223,77867,2,0,P|98:240|144:215,1,105.000004005432,0|2,0:0|0:0,0:0:0:0:
96,112,78359,2,0,L|92:180,1,52.5000020027161,8|0,0:0|0:0,0:0:0:0:
168,348,78687,6,0,L|208:356,1,26.2500010013581,2|0,0:0|0:0,0:0:0:0:
252,304,78850,2,0,L|277:298,1,26.2500010013581,2|0,0:0|0:0,0:0:0:0:
331,248,79014,1,8,0:0:0:0:
342,223,79096,1,0,0:0:0:0:
343,197,79178,1,0,0:0:0:0:
337,172,79260,1,0,0:0:0:0:
323,150,79342,1,2,0:0:0:0:
312,125,79424,1,0,0:0:0:0:
311,99,79506,1,2,0:0:0:0:
317,74,79588,1,0,0:0:0:0:
331,52,79670,1,8,0:0:0:0:
308,65,79752,1,0,0:0:0:0:
283,71,79834,1,0,0:0:0:0:
257,69,79916,1,0,0:0:0:0:
233,59,79998,6,0,P|217:51|200:48,1,35,6|0,0:0|0:0,0:0:0:0:
152,152,80162,2,0,P|169:148|184:140,1,35,2|0,0:0|0:0,0:0:0:0:
52,68,80326,1,8,0:0:0:0:
41,110,80408,1,0,0:0:0:0:
35,153,80490,1,0,0:0:0:0:
33,197,80572,1,0,0:0:0:0:
36,241,80654,1,2,0:0:0:0:
79,232,80736,1,0,0:0:0:0:
123,233,80818,1,2,0:0:0:0:
165,245,80900,1,0,0:0:0:0:
203,265,80982,1,8,0:0:0:0:
246,274,81064,1,0,0:0:0:0:
290,273,81146,1,0,0:0:0:0:
332,261,81228,1,0,0:0:0:0:
371,241,81309,6,0,L|384:192,1,35,2|0,0:0|0:0,0:0:0:0:
264,144,81473,2,0,L|272:177,1,35,2|0,0:0|0:0,0:0:0:0:
452,232,81637,1,8,0:0:0:0:
455,188,81719,1,0,0:0:0:0:
459,144,81801,1,0,0:0:0:0:
463,101,81883,1,0,0:0:0:0:
467,57,81965,2,0,L|420:52,1,35,2|0,0:0|0:0,0:0:0:0:
332,72,82129,2,0,L|297:76,1,35,2|0,0:0|0:0,0:0:0:0:
160,40,82293,1,8,0:0:0:0:
117,31,82375,1,0,0:0:0:0:
76,44,82457,1,0,0:0:0:0:
46,75,82539,1,0,0:0:0:0:
36,117,82621,6,0,L|40:160,5,23.3333333333333,2|0|0|2|0|0,0:0|0:0|0:0|0:0|0:0|0:0,0:0:0:0:
96,184,82949,2,0,L|92:227,5,23.3333333333333,8|0|0|0|0|0,0:0|0:0|0:0|0:0|0:0|0:0,0:0:0:0:
48,268,83277,2,0,L|52:311,5,23.3333333333333,0|0|0|2|0|0,0:0|0:0|0:0|0:0|0:0|0:0,0:0:0:0:
104,348,83605,2,0,L|100:391,5,23.3333333333333,8|0|0|0|0|0,0:0|0:0|0:0|0:0|0:0|0:0,0:0:0:0:
152,280,83932,6,0,L|221:276,1,70
256,264,84260,6,0,L|156:260,1,90.9999958343508
144,240,84588,6,0,L|260:236,1,112
464,240,84916,1,0,0:0:0:0:
505,209,84998,1,0,0:0:0:0:
489,159,85080,1,0,0:0:0:0:
438,159,85162,1,0,0:0:0:0:
420,209,85244,6,0,P|376:228|308:164,1,136.499993751526,6|0,0:0|0:0,0:0:0:0:
305,108,85572,1,8,0:0:0:0:
340,314,85736,1,0,0:0:0:0:
144,240,85900,1,2,0:0:0:0:
305,36,86064,1,2,0:0:0:0:
237,291,86228,1,8,0:0:0:0:
50,106,86391,1,0,0:0:0:0:
372,74,86555,6,0,L|385:237,1,136.499993751526,2|0,0:0|0:0,0:0:0:0:
340,314,86883,1,8,0:0:0:0:
251,124,87047,1,0,0:0:0:0:
131,295,87211,1,2,0:0:0:0:
404,281,87375,1,2,0:0:0:0:
259,49,87539,1,8,0:0:0:0:
268,321,87703,1,0,0:0:0:0:
454,90,87867,6,0,B|406:86|406:86|378:100|378:100|316:94,1,136.499993751526,2|0,0:0|0:0,0:0:0:0:
251,124,88195,2,0,L|239:224,1,90.9999958343508,8|0,0:0|0:0,0:0:0:0:
55,349,88523,1,2,0:0:0:0:
156,145,88687,1,2,0:0:0:0:
303,316,88850,1,8,0:0:0:0:
79,188,89014,6,0,P|68:144|76:99,1,90.9999958343508,2|0,0:0|0:0,0:0:0:0:
305,227,89342,2,0,P|313:271|302:315,1,90.9999958343508,2|8,0:0|0:0,0:0:0:0:
129,370,89670,1,0,0:0:0:0:
225,114,89834,1,2,0:0:0:0:
426,298,89998,1,2,0:0:0:0:
163,170,90162,2,0,P|142:110|200:35,1,136.499993751526,8|0,0:0|0:0,0:0:0:0:
257,25,90490,6,0,L|407:21,1,136.499993751526,2|0,0:0|0:0,0:0:0:0:
465,78,90818,1,8,0:0:0:0:
376,287,90982,1,0,0:0:0:0:
225,114,91146,1,2,0:0:0:0:
480,205,91309,1,2,0:0:0:0:
270,379,91473,2,0,L|175:358,1,90.9999958343508,8|0,0:0|0:0,0:0:0:0:
97,78,91801,5,2,0:0:0:0:
349,44,91965,1,0,0:0:0:0:
263,284,92129,1,8,0:0:0:0:
168,47,92293,1,0,0:0:0:0:
451,113,92457,1,2,0:0:0:0:
304,357,92621,1,2,0:0:0:0:
191,88,92785,1,8,0:0:0:0:
439,295,92949,6,0,B|394:308|353:287|353:287|310:264|261:284,1,181.999991668702,6|0,0:0|0:0,0:0:0:0:
46,359,93441,1,8,0:0:0:0:
87,135,93605,1,0,0:0:0:0:
262,283,93769,1,2,0:0:0:0:
38,246,93932,1,2,0:0:0:0:
187,73,94096,1,8,0:0:0:0:
141,335,94260,6,0,L|133:226,1,90.9999958343508,2|0,0:0|0:0,0:0:0:0:
271,29,94588,2,0,L|264:119,1,90.9999958343508,2|8,0:0|0:0,0:0:0:0:
262,283,94916,1,0,0:0:0:0:
87,135,95080,1,2,0:0:0:0:
304,201,95244,1,2,0:0:0:0:
52,220,95408,1,8,0:0:0:0:
18,189,95490,1,8,0:0:0:0:
4,148,95572,1,8,0:0:0:0:
12,102,95654,1,8,0:0:0:0:
35,65,95736,6,0,B|146:47|146:47|123:67,1,136.499993751526,6|0,0:0|0:0,0:0:0:0:
87,135,96064,2,0,L|92:236,1,90.9999958343508,8|0,0:0|0:0,0:0:0:0:
296,328,96391,1,2,0:0:0:0:
196,124,96555,1,2,0:0:0:0:
44,296,96719,2,0,P|88:312|140:296,1,90.9999958343508,8|0,0:0|0:0,0:0:0:0:
288,64,97047,6,0,L|308:252,1,181.999991668702,2|2,0:0|0:0,0:0:0:0:
49,170,97539,2,0,P|93:114|209:138,1,181.999991668702,8|2,0:0|0:0,0:0:0:0:
308,324,98031,1,8,0:0:0:0:
416,124,98195,1,2,0:0:0:0:
136,288,98359,6,0,L|248:276,1,90.9999958343508,6|0,0:0|0:0,0:0:0:0:
488,56,98687,2,0,L|376:44,1,90.9999958343508,8|0,0:0|0:0,0:0:0:0:
132,192,99014,1,8,0:0:0:0:
448,184,99178,1,8,0:0:0:0:
464,204,99506,6,0,B|396:200|396:200|360:224|360:224|289:220,1,181.999991668702,6|2,0:0|0:0,0:0:0:0:
60,240,99998,2,0,P|47:196|56:152,1,90.9999958343508,8|0,0:0|0:0,0:0:0:0:
328,20,100326,5,12,0:0:0:0:
312,320,100490,1,8,0:0:0:0:
316,344,100818,6,0,B|308:301|335:257|335:257|358:215|339:169,1,181.999991668702,6|2,0:0|0:0,0:0:0:0:
168,52,101309,2,0,B|124:44|124:44|68:64,1,90.9999958343508,8|0,0:0|0:0,0:0:0:0:
32,284,101637,1,2,0:0:0:0:
208,140,101801,1,2,0:0:0:0:
12,24,101965,2,0,B|4:68|4:68|24:124,1,90.9999958343508,8|0,0:0|0:0,0:0:0:0:
179,355,102293,6,0,L|327:343,1,136.499993751526,6|0,0:0|0:0,0:0:0:0:
404,364,102621,1,8,0:0:0:0:
432,140,102785,1,2,0:0:0:0:
315,343,102949,1,8,0:0:0:0:
287,119,103113,1,2,0:0:0:0:
428,216,103277,1,0,0:0:0:0:
450,216,103359,1,0,0:0:0:0:
471,209,103441,1,0,0:0:0:0:
489,194,103523,1,0,0:0:0:0:
500,176,103605,6,0,L|380:168,1,105.000004005432,6|0,0:0|0:0,0:0:0:0:
244,252,104096,2,0,L|364:244,1,105.000004005432
320,100,104588,2,0,P|301:134|299:173,1,78.7500030040742
388,316,104916,6,0,L|432:312,1,26.2500010013581
496,264,105080,2,0,L|452:260,1,26.2500010013581
480,368,105244,1,8,0:0:0:0:
412,196,105408,6,0,L|408:164,8,17.500000667572
472,128,105900,2,0,L|476:96,5,17.500000667572
400,72,106228,5,6,0:0:0:0:
256,192,115244,12,2,116719,0:0:0:0:
152,140,117375,6,0,P|140:172|148:212,1,70,8|0,0:0|0:0,0:0:0:0:
216,260,117867,2,0,L|296:268,1,70
372,244,118359,1,2,0:0:0:0:
384,252,118687,6,0,B|392:220|392:220|384:176,1,70,8|0,0:0|0:0,0:0:0:0:
280,44,119342,6,0,B|252:40|252:40|240:44|240:44|208:40,1,70,2|0,0:0|0:0,0:0:0:0:
200,216,119998,2,0,P|216:184|212:144,1,70,8|0,0:0|0:0,0:0:0:0:
144,100,120490,2,0,L|100:92,1,35,8|0,0:0|0:0,0:0:0:0:
24,72,120818,1,2,0:0:0:0:
24,72,120982,1,2,0:0:0:0:
40,244,121309,2,0,P|76:256|112:244,1,70,8|0,0:0|0:0,0:0:0:0:
208,104,121965,5,2,0:0:0:0:
268,188,122293,1,0,0:0:0:0:
164,196,122621,2,0,P|134:178|116:148,1,70,8|0,0:0|0:0,0:0:0:0:
112,60,123113,6,0,L|148:56,2,35,8|0|0,0:0|0:0|0:0,0:0:0:0:
40,112,123605,1,2,0:0:0:0:
28,120,123932,2,0,L|24:192,1,70,8|0,0:0|0:0,0:0:0:0:
148,312,124588,6,0,P|180:324|216:308,1,70,2|0,0:0|0:0,0:0:0:0:
312,168,125244,2,0,L|304:88,1,70,8|0,0:0|0:0,0:0:0:0:
224,64,125736,2,0,P|220:80|220:108,1,35,8|0,0:0|0:0,0:0:0:0:
388,104,126064,2,0,P|387:86|383:69,2,35,8|0|0,0:0|0:0|0:0,0:0:0:0:
216,232,126555,2,0,P|168:228|212:216,1,122.5,8|0,0:0|0:0,0:0:0:0:
292,208,127211,6,0,P|296:224|294:242,1,35,2|0,0:0|0:0,0:0:0:0:
96,236,127539,2,0,P|94:218|98:201,1,35
240,128,127867,2,0,L|276:120,2,35,8|0|0,0:0|0:0|0:0,0:0:0:0:
80,124,128359,6,0,P|64:92|67:58,1,70,2|0,0:0|0:0,0:0:0:0:
152,40,128850,2,0,L|156:88,1,35,2|0,0:0|0:0,0:0:0:0:
184,176,129178,2,0,L|180:224,1,35,8|0,0:0|0:0,0:0:0:0:
132,304,129506,1,0,0:0:0:0:
220,312,129670,1,0,0:0:0:0:
308,316,129834,6,0,L|320:236,1,70,2|0,0:0|0:0,0:0:0:0:
276,52,130490,2,0,P|260:88|264:128,1,70,8|0,0:0|0:0,0:0:0:0:
352,176,130982,6,0,L|396:184,1,35,2|0,0:0|0:0,0:0:0:0:
484,144,131309,1,2,0:0:0:0:
484,144,131473,1,2,0:0:0:0:
264,224,131801,2,0,B|248:256|248:256|268:336,1,105,8|0,0:0|0:0,0:0:0:0:
364,356,132457,5,2,0:0:0:0:
412,264,132621,1,0,0:0:0:0:
352,352,132785,1,0,0:0:0:0:
420,272,132949,1,0,0:0:0:0:
468,368,133113,2,0,L|508:376,2,35,8|0|0,0:0|0:0|0:0,0:0:0:0:
323,263,133605,6,0,P|312:231|316:196,1,70,2|0,0:0|0:0,0:0:0:0:
416,168,134096,2,0,P|420:148|412:124,1,35,2|0,0:0|0:0,0:0:0:0:
352,52,134424,2,0,L|308:52,1,35,8|0,0:0|0:0,0:0:0:0:
232,188,134752,1,0,0:0:0:0:
216,104,134916,1,0,0:0:0:0:
196,20,135080,6,0,P|161:15|128:26,1,70,2|0,0:0|0:0,0:0:0:0:
52,184,135736,2,0,L|48:268,1,70,8|0,0:0|0:0,0:0:0:0:
120,304,136228,2,0,P|144:308|160:304,1,35,8|0,0:0|0:0,0:0:0:0:
188,224,136555,2,0,P|170:222|153:226,2,35,8|0|0,0:0|0:0|0:0,0:0:0:0:
304,296,137047,2,0,P|328:308|301:281,1,122.5,8|0,0:0|0:0,0:0:0:0:
423,284,137703,6,0,L|487:288,1,52.5000020027161,6|0,0:0|0:0,0:0:0:0:
392,188,138031,2,0,L|328:192,1,52.5000020027161
292,372,138359,2,0,L|344:375,1,52.5000020027161,8|0,0:0|0:0,0:0:0:0:
476,288,138687,1,0,0:0:0:0:
271,167,138850,6,0,P|221:177|193:219,1,105.000004005432,2|0,0:0|0:0,0:0:0:0:
188,344,139342,2,0,L|116:336,1,52.5000020027161,2|0,0:0|0:0,0:0:0:0:
32,256,139670,2,0,L|104:248,1,52.5000020027161,8|0,0:0|0:0,0:0:0:0:
264,240,139998,1,0,0:0:0:0:
268,108,140162,1,0,0:0:0:0:
35,151,140326,6,0,L|31:275,1,105.000004005432,2|0,0:0|0:0,0:0:0:0:
188,344,140818,1,2,0:0:0:0:
188,344,140900,1,2,0:0:0:0:
188,344,140982,2,0,L|264:344,1,52.5000020027161,8|0,0:0|0:0,0:0:0:0:
372,344,141309,1,0,0:0:0:0:
308,228,141473,6,0,P|276:220|248:224,1,52.5000020027161,2|0,0:0|0:0,0:0:0:0:
188,344,141801,2,0,P|161:342|136:350,1,52.5000020027161,2|0,0:0|0:0,0:0:0:0:
80,152,142129,1,2,0:0:0:0:
80,152,142211,1,2,0:0:0:0:
80,152,142293,2,0,B|108:140|144:144,1,52.5000020027161,8|0,0:0|0:0,0:0:0:0:
272,292,142621,2,0,B|248:295|220:283,1,52.5000020027161
176,72,142949,5,6,0:0:0:0:
175,68,143031,1,0,0:0:0:0:
174,65,143113,1,0,0:0:0:0:
174,62,143195,1,0,0:0:0:0:
173,59,143277,1,0,0:0:0:0:
173,55,143359,1,0,0:0:0:0:
172,52,143441,1,2,0:0:0:0:
172,49,143523,1,0,0:0:0:0:
172,46,143605,2,0,L|216:40,1,26.2500010013581,12|0,0:0|0:0,0:0:0:0:
272,12,143769,2,0,L|316:17,1,26.2500010013581
368,52,143932,2,0,L|394:49,1,26.2500010013581
504,140,144096,6,0,L|508:268,1,105.000004005432,6|0,0:0|0:0,0:0:0:0:
376,280,144588,1,2,0:0:0:0:
365,287,144670,1,0,0:0:0:0:
352,291,144752,1,0,0:0:0:0:
339,292,144834,1,0,0:0:0:0:
326,290,144916,1,8,0:0:0:0:
313,287,144998,1,0,0:0:0:0:
300,288,145080,1,0,0:0:0:0:
287,293,145162,1,0,0:0:0:0:
276,300,145244,2,0,P|256:304|240:300,1,26.2500010013581
204,220,145408,2,0,P|217:219|229:223,1,26.2500010013581
148,304,145572,5,6,0:0:0:0:
129,285,145654,1,0,0:0:0:0:
116,263,145736,1,0,0:0:0:0:
110,237,145818,1,0,0:0:0:0:
112,211,145900,1,0,0:0:0:0:
114,184,145982,1,0,0:0:0:0:
108,159,146064,1,0,0:0:0:0:
95,136,146146,1,0,0:0:0:0:
76,120,146228,5,8,0:0:0:0:
106,143,146309,1,0,0:0:0:0:
145,149,146391,1,0,0:0:0:0:
182,136,146473,1,0,0:0:0:0:
208,107,146555,2,0,L|208:72,1,26.2500010013581
304,132,146719,6,0,L|304:160,8,17.500000667572,6|0|0|0|0|0|0|0|0,0:0|0:0|0:0|0:0|0:0|0:0|0:0|0:0|0:0,0:0:0:0:
336,64,147211,2,0,P|364:84|378:115,1,70,8|0,0:0|0:0,0:0:0:0:
296,312,147539,6,0,L|256:316,1,35,2|0,0:0|0:0,0:0:0:0:
160,188,147703,2,0,L|194:191,1,35,2|0,0:0|0:0,0:0:0:0:
200,356,147867,6,0,L|160:360,1,35,2|0,0:0|0:0,0:0:0:0:
64,232,148031,2,0,L|98:235,1,35,2|0,0:0|0:0,0:0:0:0:
344,375,148195,6,0,P|373:333|364:268,1,115.50000352478,6|0,0:0|0:0,0:0:0:0:
308,204,148523,1,8,0:0:0:0:
484,200,148687,1,0,0:0:0:0:
392,52,148850,1,2,0:0:0:0:
416,224,149014,1,2,0:0:0:0:
472,20,149178,1,8,0:0:0:0:
268,76,149342,1,0,0:0:0:0:
472,279,149506,6,0,P|493:233|483:182,1,105,2|0,0:0|0:0,0:0:0:0:
412,140,149834,1,8,0:0:0:0:
303,275,149998,2,0,P|281:211|310:150,1,140,2|0,0:0|0:0,0:0:0:0:
487,104,150490,1,8,0:0:0:0:
356,216,150654,1,0,0:0:0:0:
336,44,150818,6,0,L|436:36,1,70,2|0,0:0|0:0,0:0:0:0:
200,148,151146,2,0,L|100:140,1,70,8|0,0:0|0:0,0:0:0:0:
264,4,151473,1,2,0:0:0:0:
392,152,151637,1,2,0:0:0:0:
209,217,151801,2,0,L|197:133,1,70,8|0,0:0|0:0,0:0:0:0:
484,192,152129,6,0,L|488:356,1,140,2|8,0:0|0:0,0:0:0:0:
207,319,152621,2,0,P|144:294|112:233,1,140,2|2,0:0|0:0,0:0:0:0:
160,44,153113,1,8,0:0:0:0:
209,217,153277,1,0,0:0:0:0:
56,40,153441,6,0,B|92:32|92:32|188:48,1,105,6|0,0:0|0:0,0:0:0:0:
235,107,153769,2,0,P|268:119|302:111,1,70,8|0,0:0|0:0,0:0:0:0:
452,24,154096,1,2,0:0:0:0:
376,180,154260,1,2,0:0:0:0:
280,32,154424,2,0,B|316:24|316:24|360:40,1,70,8|0,0:0|0:0,0:0:0:0:
408,260,154752,6,0,B|356:260|356:260|328:240|328:240|264:240,1,140,2|8,0:0|0:0,0:0:0:0:
79,267,155244,2,0,P|43:210|65:146,1,140,2|2,0:0|0:0,0:0:0:0:
232,92,155736,2,0,L|320:84,1,70,8|0,0:0|0:0,0:0:0:0:
408,260,156064,5,2,0:0:0:0:
228,168,156228,1,2,0:0:0:0:
396,56,156391,1,8,0:0:0:0:
312,240,156555,1,0,0:0:0:0:
324,8,156719,1,2,0:0:0:0:
508,148,156883,1,2,0:0:0:0:
268,308,157047,2,0,P|243:283|231:250,1,70,8|0,0:0|0:0,0:0:0:0:
396,56,157375,6,0,L|372:216,1,140,2|8,0:0|0:0,0:0:0:0:
168,304,157867,2,0,L|147:165,1,140,2|0,0:0|0:0,0:0:0:0:
44,24,158359,2,0,L|12:24,5,23.3333333333333,8|0|0|0|0|0,0:0|0:0|0:0|0:0|0:0|0:0,0:0:0:0:
56,108,158687,5,6,0:0:0:0:
132,88,158850,1,0,0:0:0:0:
208,68,159014,1,0,0:0:0:0:
284,44,159178,2,0,L|300:156,1,105.000004005432,2|0,0:0|0:0,0:0:0:0:
364,24,159670,2,0,L|376:112,1,78.7500030040742,2|0,0:0|0:0,0:0:0:0:
388,180,159998,5,0,0:0:0:0:
312,232,160162,1,0,0:0:0:0:
468,228,160326,1,10,0:0:0:0:
236,280,160490,1,10,0:0:0:0:
472,140,160818,5,10,0:0:0:0:
236,292,160982,1,12,0:0:0:0:
236,304,161309,6,0,L|168:300,2,52.5000020027161,2|0|0,0:0|0:0|0:0,0:0:0:0:
344,232,161801,2,0,P|360:184|332:132,1,105.000004005432,2|0,0:0|0:0,0:0:0:0:
236,52,162293,2,0,B|208:44|208:44|136:52,1,78.7500030040742,2|0,0:0|0:0,0:0:0:0:
84,76,162621,1,2,0:0:0:0:
92,156,162785,1,0,0:0:0:0:
32,16,162949,1,10,0:0:0:0:
100,236,163113,1,10,0:0:0:0:
32,16,163441,5,10,0:0:0:0:
112,316,163605,1,12,0:0:0:0:
484,160,163932,5,6,0:0:0:0:
271,282,164096,1,2,0:0:0:0:
271,37,164260,1,2,0:0:0:0:
484,220,164424,5,6,0:0:0:0:
247,282,164588,1,2,0:0:0:0:
310,46,164752,1,2,0:0:0:0:
469,278,164916,5,6,0:0:0:0:
223,277,165080,1,2,0:0:0:0:
346,65,165244,1,2,0:0:0:0:
439,330,165408,5,6,0:0:0:0:
202,266,165572,1,2,0:0:0:0:
376,93,165736,1,2,0:0:0:0:
244,360,165900,5,6,0:0:0:0:
208,80,166064,1,2,0:0:0:0:
384,316,166228,5,6,0:0:0:0:
420,36,166392,1,2,0:0:0:0:
96,312,166555,5,6,0:0:0:0:
96,66,166719,1,2,0:0:0:0:
308,189,166883,1,2,0:0:0:0:
32,276,167047,5,6,0:0:0:0:
86,73,167211,1,2,0:0:0:0:
234,221,167375,1,2,0:0:0:0:
32,352,167539,5,6,0:0:0:0:
119,200,167703,1,2,0:0:0:0:
207,352,167867,1,2,0:0:0:0:
8,264,168031,5,6,0:0:0:0:
106,165,168195,1,2,0:0:0:0:
143,300,168359,1,2,0:0:0:0:
24,140,168523,2,0,P|38:108|67:89,1,70,2|0,0:0|0:0,0:0:0:0:
220,286,168850,2,0,P|222:320|206:351,1,70,2|0,3:0|0:0,0:0:0:0:
144,88,169178,6,0,L|220:80,1,77.0000023498536,6|0,0:0|0:0,0:0:0:0:
412,52,169506,1,8,0:0:0:0:
272,188,169670,1,0,0:0:0:0:
452,124,169834,1,2,0:0:0:0:
300,4,169998,1,2,0:0:0:0:
212,244,170162,2,0,P|263:267|319:256,1,115.50000352478,8|0,0:0|0:0,0:0:0:0:
388,208,170490,6,0,B|392:176|392:176|376:132,1,70,2|0,0:0|0:0,0:0:0:0:
204,132,170818,1,8,0:0:0:0:
164,304,170982,1,0,0:0:0:0:
284,176,171146,1,2,0:0:0:0:
116,128,171309,1,2,0:0:0:0:
236,336,171473,1,8,0:0:0:0:
280,84,171637,6,0,P|252:52|200:40,2,70,0|2|0,0:0|0:0|0:0,0:0:0:0:
288,260,172129,1,8,0:0:0:0:
124,236,172293,2,0,B|116:128|116:128|132:164,1,140,2|0,0:0|0:0,0:0:0:0:
332,348,172785,1,8,0:0:0:0:
92,316,172949,6,0,P|61:300|45:269,1,70,2|0,0:0|0:0,0:0:0:0:
44,92,173277,1,2,0:0:0:0:
204,228,173441,1,8,0:0:0:0:
232,20,173605,1,0,0:0:0:0:
44,112,173769,1,2,0:0:0:0:
204,248,173932,1,2,0:0:0:0:
232,40,174096,1,8,0:0:0:0:
144,148,174260,1,0,0:0:0:0:
348,196,174424,6,0,B|360:160|360:160|352:120,1,70,2|0,0:0|0:0,0:0:0:0:
128,228,174752,2,0,B|121:259|121:259|133:295,1,70,8|0,0:0|0:0,0:0:0:0:
308,268,175080,1,2,0:0:0:0:
144,148,175244,1,2,0:0:0:0:
316,56,175408,1,8,0:0:0:0:
224,228,175572,1,0,0:0:0:0:
124,60,175736,6,0,L|248:56,1,105,2|0,0:0|0:0,0:0:0:0:
316,56,176064,2,0,P|328:88|324:136,1,70,8|0,0:0|0:0,0:0:0:0:
148,232,176391,1,2,0:0:0:0:
356,204,176555,1,2,0:0:0:0:
72,188,176719,1,8,0:0:0:0:
424,248,176883,6,0,B|432:192|432:192|420:164|420:164|428:100,1,140,6|0,0:0|0:0,0:0:0:0:
356,308,177375,1,8,0:0:0:0:
356,308,177539,1,2,0:0:0:0:
220,148,177703,1,2,0:0:0:0:
220,148,177867,1,2,0:0:0:0:
140,344,178031,1,8,0:0:0:0:
320,200,178195,5,2,0:0:0:0:
328,196,178523,1,2,0:0:0:0:
152,264,178687,2,0,B|124:260|124:260|116:252|116:252|84:247,1,70,8|0,0:0|0:0,0:0:0:0:
208,76,179014,1,2,0:0:0:0:
260,280,179178,1,2,0:0:0:0:
24,304,179342,1,8,0:0:0:0:
5,264,179423,1,8,0:0:0:0:
6,221,179505,1,8,0:0:0:0:
27,183,179587,1,8,0:0:0:0:
63,158,179670,6,0,L|172:164,1,105,6|0,0:0|0:0,0:0:0:0:
236,204,179998,1,8,0:0:0:0:
264,32,180162,1,0,0:0:0:0:
404,136,180326,1,2,0:0:0:0:
232,116,180490,1,2,0:0:0:0:
392,48,180654,1,8,0:0:0:0:
289,246,180818,6,0,P|257:230|235:203,1,70,0|2,0:0|0:0,0:0:0:0:
404,136,181146,1,2,0:0:0:0:
332,320,181309,2,0,P|298:330|264:327,1,70,8|0,0:0|0:0,0:0:0:0:
120,228,181637,1,2,0:0:0:0:
120,228,181801,1,2,0:0:0:0:
312,96,181965,2,0,L|304:196,1,70,8|0,0:0|0:0,0:0:0:0:
88,344,182293,5,6,0:0:0:0:
60,116,182457,1,2,0:0:0:0:
184,352,182621,5,8,0:0:0:0:
208,120,182785,1,2,0:0:0:0:
4,312,182949,5,8,0:0:0:0:
316,272,183113,1,8,0:0:0:0:
336,264,183441,6,0,B|280:264|280:264|256:280|256:280|196:280,1,140,6|0,0:0|0:0,0:0:0:0:
48,196,183932,2,0,P|39:162|47:128,1,70,8|0,0:0|0:0,0:0:0:0:
308,20,184260,1,6,0:0:0:0:
260,352,184424,1,2,0:0:0:0:
260,352,184752,6,0,P|194:373|132:344,1,140,6|0,0:0|0:0,0:0:0:0:
152,168,185244,2,0,L|252:148,1,70,8|0,0:0|0:0,0:0:0:0:
368,252,185572,2,0,L|299:238,1,70,2|0,0:0|0:0,0:0:0:0:
232,76,185900,1,8,0:0:0:0:
200,280,186064,1,0,0:0:0:0:
200,280,186146,1,0,0:0:0:0:
200,280,186228,6,0,B|176:264|176:264|72:260,1,105,6|0,0:0|0:0,0:0:0:0:
28,312,186555,1,8,0:0:0:0:
92,76,186719,1,2,0:0:0:0:
96,360,186883,1,8,0:0:0:0:
32,124,187047,1,2,0:0:0:0:
200,280,187211,1,8,0:0:0:0:
230,295,187292,1,2,0:0:0:0:
265,295,187374,1,2,0:0:0:0:
296,279,187456,1,2,0:0:0:0:
315,250,187539,6,0,L|320:216,1,35,4|0,0:0|0:0,0:0:0:0:
236,152,187703,2,0,L|240:186,1,35
400,232,187867,2,0,L|404:197,1,35,8|0,0:0|0:0,0:0:0:0:
240,76,188031,2,0,P|205:77|177:97,1,70,12|0,0:0|0:0,0:0:0:0:
392,308,188359,2,0,P|426:306|454:286,1,70,12|0,0:0|0:0,0:0:0:0:
480,216,188605,1,0,0:0:0:0:
481,198,188686,1,0,0:0:0:0:
483,181,188768,1,0,0:0:0:0:
488,164,188850,6,0,L|484:120,1,35,2|0,0:0|0:0,0:0:0:0:
368,228,189014,2,0,L|372:184,1,35,2|0,0:0|0:0,0:0:0:0:
248,156,189178,2,0,L|244:112,1,35,2|0,0:0|0:0,0:0:0:0:
120,224,189342,2,0,L|123:189,1,35,2|0,0:0|0:0,0:0:0:0:
220,32,189506,6,0,B|252:24|252:24|280:32|280:32|320:16|364:36,1,136.499993751526
368,108,189834,2,0,P|332:152|332:92,1,136.499993751526
464,20,190162,6,0,B|476:55|476:55|461:82|461:82|480:124|464:164,1,146.999995513916,6|0,0:0|0:0,0:0:0:0:
416,244,190490,1,8,0:0:0:0:
352,31,190654,1,0,0:0:0:0:
196,188,190818,1,2,0:0:0:0:
416,228,190982,1,2,0:0:0:0:
260,64,191146,2,0,B|216:52|216:52|164:64,1,97.9999970092774,8|0,0:0|0:0,0:0:0:0:
24,304,191473,6,0,L|232:288,1,195.999994018555,2|8,0:0|0:0,0:0:0:0:
488,276,191965,2,0,P|500:228|480:172,1,97.9999970092774,2|0,0:0|0:0,0:0:0:0:
408,116,192293,1,2,0:0:0:0:
332,280,192457,2,0,P|319:233|332:186,1,97.9999970092774,2|0,0:0|0:0,0:0:0:0:
396,384,192785,6,0,L|407:237,1,146.999995513916,2|0,0:0|0:0,0:0:0:0:
408,196,193113,1,8,0:0:0:0:
232,304,193277,1,2,0:0:0:0:
236,100,193441,1,0,0:0:0:0:
160,344,193605,1,2,0:0:0:0:
328,95,193769,1,8,0:0:0:0:
16,197,193932,6,0,P|61:213|108:201,1,97.9999970092774,2|0,0:0|0:0,0:0:0:0:
328,95,194260,2,0,P|281:83|235:99,1,97.9999970092774,2|8,0:0|0:0,0:0:0:0:
112,292,194588,1,0,0:0:0:0:
112,292,194670,1,0,0:0:0:0:
112,292,194752,1,2,0:0:0:0:
128,68,194916,1,2,0:0:0:0:
292,204,195080,2,0,B|263:203|263:203|248:208|248:208|204:208,1,78.7500030040742,8|0,0:0|0:0,0:0:0:0:
268,184,195408,6,0,P|321:193|265:210,1,146.999995513916,2|0,0:0|0:0,0:0:0:0:
284,316,195736,1,8,0:0:0:0:
240,96,195900,1,2,0:0:0:0:
80,224,196064,1,2,0:0:0:0:
240,64,196228,1,2,0:0:0:0:
212,288,196391,2,0,B|188:244|188:244|196:192,1,97.9999970092774,8|0,0:0|0:0,0:0:0:0:
404,32,196719,5,2,0:0:0:0:
356,292,196883,1,0,0:0:0:0:
288,0,197047,5,8,0:0:0:0:
336,260,197211,1,2,0:0:0:0:
64,124,197375,5,10,0:0:0:0:
368,112,197539,1,2,0:0:0:0:
60,136,197703,1,8,0:0:0:0:
432,44,197867,6,0,B|348:36|348:36|327:50|327:50|228:40,1,195.999994018555,6|0,0:0|0:0,0:0:0:0:
16,20,198359,1,8,0:0:0:0:
16,20,198523,1,2,0:0:0:0:
120,208,198687,1,2,0:0:0:0:
216,16,198850,1,2,0:0:0:0:
16,100,199014,1,8,0:0:0:0:
192,228,199178,6,0,B|240:240|240:240|288:216,1,97.9999970092774,2|0,0:0|0:0,0:0:0:0:
216,16,199506,2,0,B|172:-5|172:-5|124:6,1,97.9999970092774,2|8,0:0|0:0,0:0:0:0:
368,236,199834,1,0,0:0:0:0:
408,24,199998,1,2,0:0:0:0:
204,92,200162,1,2,0:0:0:0:
392,312,200326,1,8,0:0:0:0:
430,283,200407,1,8,0:0:0:0:
446,237,200489,1,8,0:0:0:0:
432,191,200571,1,8,0:0:0:0:
395,161,200654,6,0,B|300:144|300:144|244:160,1,146.999995513916,6|0,0:0|0:0,0:0:0:0:
168,224,200982,2,0,P|112:220|72:176,1,97.9999970092774,8|0,0:0|0:0,0:0:0:0:
268,68,201309,1,2,0:0:0:0:
216,288,201473,1,2,0:0:0:0:
68,120,201637,2,0,L|176:112,1,97.9999970092774,8|0,0:0|0:0,0:0:0:0:
444,161,201965,6,0,B|360:153|360:153|336:165|336:165|244:157,1,195.999994018555,2|8,0:0|0:0,0:0:0:0:
440,24,202457,2,0,B|428:56|428:56|460:96|444:160|444:160|412:92,1,195.999994018555,2|2,0:0|0:0,0:0:0:0:
188,32,202949,1,8,0:0:0:0:
220,276,203113,1,0,0:0:0:0:
360,8,203277,5,6,0:0:0:0:
320,248,203441,1,0,0:0:0:0:
448,0,203605,5,8,0:0:0:0:
488,240,203769,1,2,0:0:0:0:
192,120,203932,5,8,0:0:0:0:
508,96,204096,1,8,0:0:0:0:
508,96,204424,6,0,B|456:68|456:68|296:100,1,195.999994018555,6|0,0:0|0:0,0:0:0:0:
156,276,204916,1,8,0:0:0:0:
128,32,205080,1,2,0:0:0:0:
372,232,205244,5,12,0:0:0:0:
60,200,205408,1,8,0:0:0:0:
60,200,205736,6,0,B|194:173|194:173|246:201,1,195.999994018555,6|0,0:0|0:0,0:0:0:0:
404,316,206228,1,8,0:0:0:0:
324,108,206391,1,0,0:0:0:0:
168,272,206555,1,2,0:0:0:0:
384,204,206719,1,2,0:0:0:0:
216,52,206883,2,0,L|92:40,1,97.9999970092774,8|0,0:0|0:0,0:0:0:0:
168,272,207211,6,0,P|244:292|316:244,1,146.999995513916,6|0,0:0|0:0,0:0:0:0:
384,204,207539,1,8,0:0:0:0:
164,164,207703,1,0,0:0:0:0:
408,184,207867,1,8,0:0:0:0:
144,144,208031,1,0,0:0:0:0:
301,262,208195,1,2,0:0:0:0:
298,237,208276,1,2,0:0:0:0:
295,213,208358,1,2,0:0:0:0:
293,188,208440,1,2,0:0:0:0:
292,164,208523,6,0,L|416:160,1,105.000004005432,6|0,0:0|0:0,0:0:0:0:
220,212,209014,2,0,L|96:208,1,105.000004005432,2|0,0:0|0:0,0:0:0:0:
200,64,209506,2,0,P|228:96|228:136,1,78.7500030040742
152,124,209834,2,0,L|104:120,1,26.2500010013581
16,160,209998,2,0,L|64:156,1,26.2500010013581
116,48,210162,1,8,0:0:0:0:
115,208,210326,6,0,L|120:240,8,17.500000667572,2|0|0|0|0|0|0|0|0,0:0|0:0|0:0|0:0|0:0|0:0|0:0|0:0|0:0,0:0:0:0:
64,284,210818,2,0,L|59:316,5,17.500000667572
148,308,211146,5,6,0:0:0:0:
224,292,211309,1,0,0:0:0:0:
300,276,211473,1,0,0:0:0:0:
376,256,211637,1,0,0:0:0:0:
452,232,211801,2,0,L|452:296,2,52.5000020027161,8|0|0,0:0|0:0|0:0,0:0:0:0:
427,127,212293,6,0,P|379:109|327:117,1,105.000004005432,2|0,0:0|0:0,0:0:0:0:
276,176,212785,1,2,0:0:0:0:
200,196,212949,1,0,0:0:0:0:
128,164,213113,2,0,P|123:135|135:99,1,52.5000020027161,8|0,0:0|0:0,0:0:0:0:
220,68,213441,2,0,P|225:93|221:119,1,52.5000020027161
148,320,213769,5,2,0:0:0:0:
77,355,213932,1,0,0:0:0:0:
21,299,214096,1,0,0:0:0:0:
57,229,214260,1,0,0:0:0:0:
135,242,214424,2,0,L|200:248,1,52.5000020027161,8|0,0:0|0:0,0:0:0:0:
264,260,214752,1,0,0:0:0:0:
160,152,214916,6,0,L|107:156,1,52.5000020027161,2|0,0:0|0:0,0:0:0:0:
21,299,215244,1,2,0:0:0:0:
21,299,215408,2,0,L|73:303,1,52.5000020027161,2|0,0:0|0:0,0:0:0:0:
240,184,215736,2,0,P|247:132|220:88,1,105.000004005432,8|0,0:0|0:0,0:0:0:0:
148,56,216228,1,0,0:0:0:0:
200,252,216391,6,0,P|223:263|249:261,1,52.5000020027161,2|0,0:0|0:0,0:0:0:0:
360,204,216719,2,0,P|334:202|310:213,1,52.5000020027161
308,340,217047,2,0,P|319:316|317:290,2,52.5000020027161,8|0|0,0:0|0:0|0:0,0:0:0:0:
136,364,217539,6,0,L|4:372,1,105.000004005432,2|0,0:0|0:0,0:0:0:0:
8,228,218031,2,0,L|76:232,1,52.5000020027161,2|0,0:0|0:0,0:0:0:0:
184,152,218359,2,0,L|116:156,1,52.5000020027161,8|0,0:0|0:0,0:0:0:0:
24,48,218687,1,0,0:0:0:0:
100,28,218850,1,0,0:0:0:0:
128,236,219014,6,0,P|82:218|52:168,1,105.000004005432,2|0,0:0|0:0,0:0:0:0:
240,120,219670,2,0,B|240:160|240:160|252:176|252:176|252:221,1,105.000004005432,8|0,0:0|0:0,0:0:0:0:
279,304,220162,2,0,P|254:308|228:304,1,52.5000020027161
332,236,220490,2,0,P|357:231|383:236,1,52.5000020027161
440,316,220818,1,0,0:0:0:0:
343,147,220982,6,0,P|374:87|378:155,1,183.750007009506,8|0,0:0|0:0,0:0:0:0:
264,184,221637,6,0,L|180:184,1,70,6|0,0:0|0:0,0:0:0:0:
72,68,221965,2,0,L|156:68,1,70
96,256,222293,2,0,P|76:227|67:193,1,70,8|0,0:0|0:0,0:0:0:0:
208,104,222621,1,0,0:0:0:0:
156,316,222785,6,0,P|116:336|20:296,1,140,2|0,0:0|0:0,0:0:0:0:
194,184,223277,2,0,B|227:177|227:177|266:192,1,70,2|0,0:0|0:0,0:0:0:0:
324,248,223523,1,0,0:0:0:0:
324,248,223605,2,0,L|336:160,1,70,8|0,0:0|0:0,0:0:0:0:
384,48,223932,1,0,0:0:0:0:
408,188,224096,1,0,0:0:0:0:
284,120,224260,6,0,P|265:90|262:55,1,70,2|0,0:0|0:0,0:0:0:0:
476,44,224588,2,0,P|472:78|454:108,1,70
408,188,224834,1,0,0:0:0:0:
408,188,224916,2,0,L|324:184,1,70,8|0,0:0|0:0,0:0:0:0:
204,144,225244,1,0,0:0:0:0:
350,116,225408,6,0,L|322:276,1,140,2|0,0:0|0:0,0:0:0:0:
212,324,225900,2,0,B|176:324|176:324|136:296,1,70,2|0,0:0|0:0,0:0:0:0:
120,232,226146,1,0,0:0:0:0:
120,232,226228,2,0,B|84:232|84:232|44:260,1,70,8|0,0:0|0:0,0:0:0:0:
200,236,226555,2,0,B|200:200|200:200|180:172,1,70
68,44,226883,5,6,0:0:0:0:
87,59,226964,1,0,0:0:0:0:
110,69,227046,1,0,0:0:0:0:
134,73,227128,1,0,0:0:0:0:
159,72,227210,1,0,0:0:0:0:
183,64,227292,1,0,0:0:0:0:
204,51,227374,1,0,0:0:0:0:
222,34,227456,1,0,0:0:0:0:
260,52,227539,5,8,0:0:0:0:
277,34,227620,1,0,0:0:0:0:
299,21,227702,1,0,0:0:0:0:
323,16,227784,1,0,0:0:0:0:
348,17,227866,1,0,0:0:0:0:
371,26,227948,1,0,0:0:0:0:
404,60,228031,5,6,0:0:0:0:
406,87,228112,1,0,0:0:0:0:
408,115,228194,1,0,0:0:0:0:
410,143,228276,1,0,0:0:0:0:
412,171,228358,1,0,0:0:0:0:
415,199,228440,1,0,0:0:0:0:
416,228,228523,2,0,L|368:228,1,35,2|0,0:0|0:0,0:0:0:0:
304,300,228687,2,0,L|339:300,1,35
332,176,228850,5,8,0:0:0:0:
308,158,228931,1,0,0:0:0:0:
279,149,229013,1,0,0:0:0:0:
249,151,229095,1,0,0:0:0:0:
222,163,229177,1,0,0:0:0:0:
201,184,229259,1,0,0:0:0:0:
188,211,229341,1,0,0:0:0:0:
186,241,229423,1,0,0:0:0:0:
184,288,229506,5,6,0:0:0:0:
177,253,229587,1,0,0:0:0:0:
171,219,229669,1,0,0:0:0:0:
164,184,229751,1,0,0:0:0:0:
158,150,229833,1,0,0:0:0:0:
152,115,229915,1,0,0:0:0:0:
145,81,229997,1,0,0:0:0:0:
139,47,230079,1,0,0:0:0:0:
136,12,230162,5,8,0:0:0:0:
157,39,230243,1,0,0:0:0:0:
187,57,230325,1,0,0:0:0:0:
221,64,230407,1,0,0:0:0:0:
255,58,230489,1,0,0:0:0:0:
285,40,230571,1,0,0:0:0:0:
308,12,230654,6,0,L|346:8,8,23.3333333333333,6|0|0|0|0|0|0|0|0,0:0|0:0|0:0|0:0|0:0|0:0|0:0|0:0|0:0,0:0:0:0:
400,32,231146,2,0,L|408:112,1,70,8|0,0:0|0:0,0:0:0:0:
428,312,231473,2,0,L|372:304,1,35
244,336,231637,2,0,L|300:328,1,35
444,232,231801,2,0,L|388:224,1,35
260,256,231965,2,0,L|316:248,1,35
484,104,232129,6,0,P|428:96|367:133,1,125.999996154785,6|0,0:0|0:0,0:0:0:0:
324,188,232457,1,8,0:0:0:0:
284,36,232621,1,0,0:0:0:0:
164,164,232785,1,2,0:0:0:0:
268,24,232949,1,2,0:0:0:0:
244,188,233113,1,8,0:0:0:0:
152,40,233277,1,0,0:0:0:0:
84,284,233441,6,0,B|136:280|136:280|156:292|156:292|212:288,1,125.999996154785
280,304,233769,1,8,0:0:0:0:
297,126,233932,2,0,P|211:109|162:171,1,167.999994873047,2|0,0:0|0:0,0:0:0:0:
396,192,234424,2,0,L|484:188,1,83.9999974365235,8|0,0:0|0:0,0:0:0:0:
352,0,234752,6,0,B|340:40|340:40|356:88,1,83.9999974365235,2|0,0:0|0:0,0:0:0:0:
478,268,235080,2,0,B|491:227|491:227|479:187,1,83.9999974365235,8|0,0:0|0:0,0:0:0:0:
256,48,235408,1,2,0:0:0:0:
492,120,235572,1,2,0:0:0:0:
311,288,235736,2,0,P|261:297|204:244,1,125.999996154785,8|0,0:0|0:0,0:0:0:0:
280,216,236064,6,0,L|456:208,1,167.999994873047,2|8,0:0|0:0,0:0:0:0:
164,336,236555,2,0,P|116:264|156:176,1,167.999994873047,2|2,0:0|0:0,0:0:0:0:
320,124,237047,1,8,0:0:0:0:
100,124,237211,1,2,0:0:0:0:
404,64,237375,6,0,B|424:96|424:96|408:212,1,125.999996154785,6|0,0:0|0:0,0:0:0:0:
336,240,237703,2,0,P|294:243|260:221,1,83.9999974365235,8|0,0:0|0:0,0:0:0:0:
124,72,238031,1,2,0:0:0:0:
320,124,238195,1,2,0:0:0:0:
183,275,238359,2,0,P|168:237|172:195,1,83.9999974365235,8|0,0:0|0:0,0:0:0:0:
412,184,238687,6,0,B|424:308|424:308|404:264,1,167.999994873047,2|8,0:0|0:0,0:0:0:0:
348,76,239178,2,0,B|408:64|408:64|448:84|448:84|524:72,1,167.999994873047,2|2,0:0|0:0,0:0:0:0:
288,128,239670,2,0,P|268:91|274:50,1,83.9999974365235,8|0,0:0|0:0,0:0:0:0:
496,148,239998,5,2,0:0:0:0:
308,220,240162,1,2,0:0:0:0:
332,0,240326,1,8,0:0:0:0:
384,252,240490,1,0,0:0:0:0:
384,252,240572,1,0,0:0:0:0:
384,252,240654,1,2,0:0:0:0:
144,168,240818,1,2,0:0:0:0:
380,80,240982,2,0,P|392:119|382:159,1,83.9999974365235,8|0,0:0|0:0,0:0:0:0:
72,264,241309,6,0,L|60:124,1,125.999996154785,2|0,0:0|0:0,0:0:0:0:
56,64,241637,1,8,0:0:0:0:
144,168,241801,6,0,P|164:172|184:168,8,27.9999991455078,2|0|0|0|0|0|0|0|0,0:0|0:0|0:0|0:0|0:0|0:0|0:0|0:0|0:0,0:0:0:0:
248,140,242293,2,0,P|264:128|276:111,5,27.9999991455078,8|0|0|0|0|0,0:0|0:0|0:0|0:0|0:0|0:0,0:0:0:0:
300,52,242621,5,6,0:0:0:0:
376,36,242785,1,0,0:0:0:0:
448,64,242949,1,0,0:0:0:0:
484,132,243113,2,0,B|492:168|492:168|460:260,1,119.000002269745
400,288,243605,2,0,P|356:292|304:256,1,89.2500017023087
280,200,243932,5,0,0:0:0:0:
232,260,244096,1,0,0:0:0:0:
360,208,244260,1,10,0:0:0:0:
184,320,244424,1,10,0:0:0:0:
324,136,244752,1,10,0:0:0:0:
131,375,244916,2,0,P|108:338|112:295,1,89.2500017023087,12|0,0:0|0:0,0:0:0:0:
152,224,245244,6,0,L|80:200,2,59.5000011348725
396,168,245736,2,0,P|404:112|340:59,1,119.000002269745
232,140,246228,2,0,L|341:134,1,89.2500017023087
272,61,246555,2,0,L|208:64,1,59.5000011348725
56,72,246883,2,0,P|48:92|48:112,1,29.7500005674362,10|0,0:0|0:0,0:0:0:0:
48,248,247047,2,0,L|148:252,1,89.2500017023087,10|0,0:0|0:0,0:0:0:0:
220,244,247375,2,0,P|217:229|211:215,1,29.7500005674362,12|0,0:0|0:0,0:0:0:0:
16,328,247539,2,0,L|116:332,1,89.2500017023087,12|0,0:0|0:0,0:0:0:0:
208,336,247867,5,6,0:0:0:0:
308,192,248031,1,2,0:0:0:0:
256,24,248195,1,2,0:0:0:0:
233,342,248359,5,6,0:0:0:0:
307,182,248523,1,2,0:0:0:0:
226,26,248687,1,2,0:0:0:0:
260,343,248850,5,6,0:0:0:0:
304,174,249014,1,2,0:0:0:0:
198,34,249178,1,2,0:0:0:0:
286,340,249342,5,6,0:0:0:0:
301,166,249506,1,2,0:0:0:0:
172,46,249670,1,2,0:0:0:0:
304,332,249834,5,6,0:0:0:0:
344,24,249998,1,2,0:0:0:0:
380,328,250162,5,6,0:0:0:0:
256,24,250326,1,2,0:0:0:0:
136,336,250490,5,6,0:0:0:0:
36,192,250654,1,2,0:0:0:0:
88,24,250818,1,2,0:0:0:0:
112,312,250982,5,6,0:0:0:0:
44,165,251146,1,2,0:0:0:0:
129,30,251310,1,2,0:0:0:0:
93,285,251473,5,6,0:0:0:0:
53,144,251637,1,2,0:0:0:0:
161,46,251801,1,2,0:0:0:0:
79,255,251965,5,6,0:0:0:0:
58,123,252129,1,2,0:0:0:0:
182,70,252293,1,2,0:0:0:0:
84,224,252457,2,0,P|72:191|76:157,1,70,8|0,0:0|0:0,0:0:0:0:
356,44,252785,2,0,P|360:78|349:111,1,70,8|0,0:0|0:0,0:0:0:0:
212,312,253113,6,0,L|144:304,1,52.5000020027161,6|2,0:0|0:0,0:0:0:0:
84,296,253441,1,2,0:0:0:0:
218,151,253769,2,0,L|286:143,1,52.5000020027161,2|2,0:0|0:0,0:0:0:0:
346,135,254097,1,2,0:0:0:0:
84,296,254424,6,0,P|68:268|68:232,1,52.5000020027161,0|2,0:0|0:0,0:0:0:0:
72,168,254752,1,2,0:0:0:0:
346,135,255080,5,2,0:0:0:0:
352,215,255245,2,0,P|348:240|334:263,1,52.5000020027161,2|2,0:0|0:0,0:0:0:0:
48,96,255572,6,0,B|86:88|86:88|110:104|110:104|168:96,1,105.000004005432,0|2,0:0|0:0,0:0:0:0:
236,88,256064,1,2,0:0:0:0:
136,264,256228,2,0,P|102:225|107:175,1,105.000004005432,2|2,0:0|0:0,0:0:0:0:
236,164,256719,2,0,L|232:224,1,52.5000020027161,2|0,0:0|0:0,0:0:0:0:
144,348,257047,5,2,0:0:0:0:
144,348,257211,1,2,0:0:0:0:
296,288,257375,2,0,P|324:256|332:228,1,52.5000020027161,2|0,0:0|0:0,0:0:0:0:
316,84,257703,2,0,P|308:109|309:135,1,52.5000020027161,2|2,0:0|0:0,0:0:0:0:
456,180,258031,2,0,P|430:172|404:173,1,52.5000020027161,2|2,0:0|0:0,0:0:0:0:
188,260,258359,5,6,0:0:0:0:
150,268,258440,1,0,0:0:0:0:
113,255,258522,1,2,0:0:0:0:
89,225,258604,1,0,0:0:0:0:
86,186,258686,1,8,0:0:0:0:
104,152,258768,1,0,0:0:0:0:
138,132,258850,1,0,0:0:0:0:
177,135,258932,1,0,0:0:0:0:
208,157,259014,5,0,0:0:0:0:
239,179,259096,1,0,0:0:0:0:
278,182,259178,1,2,0:0:0:0:
312,162,259260,1,0,0:0:0:0:
330,128,259342,1,8,0:0:0:0:
327,89,259424,1,0,0:0:0:0:
303,59,259506,1,0,0:0:0:0:
266,46,259588,1,0,0:0:0:0:
228,54,259670,5,2,0:0:0:0:
243,89,259751,1,0,0:0:0:0:
270,118,259833,1,2,0:0:0:0:
306,134,259915,1,0,0:0:0:0:
345,138,259997,1,8,0:0:0:0:
382,127,260079,1,0,0:0:0:0:
414,104,260161,1,0,0:0:0:0:
436,71,260243,1,0,0:0:0:0:
444,33,260325,5,0,0:0:0:0:
440,72,260407,1,0,0:0:0:0:
437,111,260489,1,2,0:0:0:0:
433,151,260571,1,0,0:0:0:0:
429,190,260653,1,8,0:0:0:0:
425,229,260735,1,0,0:0:0:0:
421,268,260817,1,0,0:0:0:0:
418,307,260899,1,0,0:0:0:0:
414,347,260982,6,0,L|388:344,11,19.8333337116242,2|0|0|0|0|0|8|0|0|0|0|0,0:0|0:0|0:0|0:0|0:0|0:0|0:0|0:0|0:0|0:0|0:0|0:0,0:0:0:0:
332,308,261637,2,0,L|308:308,11,19.8333337116242,2|0|0|0|0|0|8|0|0|0|0|0,0:0|0:0|0:0|0:0|0:0|0:0|0:0|0:0|0:0|0:0|0:0|0:0,0:0:0:0:
232,348,262293,6,0,P|238:260|348:216,1,208.250003972054
408,252,262949,6,0,B|416:216|416:216|404:156,1,78.7500030040742
332,120,263277,1,2,2:0:0:0:
294,107,263359,1,2,2:0:0:0:
294,68,263441,1,2,2:0:0:0:
332,56,263523,1,2,2:0:0:0:
355,88,263605,6,0,L|352:152,1,52.5000020027161,2|2,0:0|0:0,0:0:0:0:
272,232,263932,2,0,L|269:179,1,52.5000020027161,8|0,0:0|0:0,0:0:0:0:
216,48,264260,1,0,0:0:0:0:
216,48,264424,1,2,0:0:0:0:
158,151,264588,2,0,P|182:175|210:179,1,52.5000020027161,8|0,0:0|0:0,0:0:0:0:
100,52,264916,6,0,B|72:48|72:48|44:56,1,52.5000020027161,2|2,0:0|0:0,0:0:0:0:
106,148,265244,2,0,B|129:154|129:154|157:150,1,52.5000020027161,8|0,0:0|0:0,0:0:0:0:
220,108,265490,1,0,0:0:0:0:
228,97,265571,1,0,0:0:0:0:
234,86,265653,1,0,0:0:0:0:
237,73,265735,1,2,0:0:0:0:
28,132,265900,2,0,P|22:157|30:181,1,52.5000020027161,8|0,0:0|0:0,0:0:0:0:
188,284,266228,6,0,L|256:288,1,52.5000020027161,2|2,0:0|0:0,0:0:0:0:
412,212,266555,2,0,L|344:216,1,52.5000020027161,8|0,0:0|0:0,0:0:0:0:
284,216,266801,1,0,0:0:0:0:
274,207,266882,1,0,0:0:0:0:
266,196,266964,1,0,0:0:0:0:
261,184,267046,1,2,0:0:0:0:
475,167,267211,2,0,P|486:192|487:218,1,52.5000020027161,8|0,0:0|0:0,0:0:0:0:
328,152,267539,5,2,0:0:0:0:
320,288,267703,1,2,0:0:0:0:
196,212,267867,1,8,0:0:0:0:
393,114,268031,1,0,0:0:0:0:
393,114,268113,1,0,0:0:0:0:
392,113,268195,2,0,P|398:124|400:137,1,26.2500010013581
320,76,268359,2,0,P|321:63|328:51,1,26.2500010013581,2|0,0:0|0:0,0:0:0:0:
320,156,268523,2,0,P|280:148|252:116,1,78.7500030040742,8|0,0:0|0:0,0:0:0:0:
248,48,268850,5,2,0:0:0:0:
104,84,269014,1,2,0:0:0:0:
204,192,269178,1,8,0:0:0:0:
112,8,269342,1,0,0:0:0:0:
92,7,269423,1,0,0:0:0:0:
73,11,269505,1,0,0:0:0:0:
56,21,269587,1,0,0:0:0:0:
42,35,269669,1,2,0:0:0:0:
151,194,269834,2,0,L|223:190,1,52.5000020027161,8|0,0:0|0:0,0:0:0:0:
324,72,270162,5,2,0:0:0:0:
324,72,270326,1,2,0:0:0:0:
304,240,270490,1,8,0:0:0:0:
220,80,270654,1,0,0:0:0:0:
220,80,270736,1,0,0:0:0:0:
220,80,270818,2,0,L|216:36,1,26.2500010013581
352,148,270982,2,0,L|349:174,1,26.2500010013581,2|0,0:0|0:0,0:0:0:0:
156,136,271146,1,8,0:0:0:0:
408,88,271309,5,0,0:0:0:0:
408,88,271391,1,0,0:0:0:0:
408,88,271473,1,2,0:0:0:0:
352,268,271637,1,2,0:0:0:0:
328,40,271801,1,8,0:0:0:0:
416,308,271965,1,0,0:0:0:0:
393,331,272046,1,0,0:0:0:0:
362,343,272128,1,0,0:0:0:0:
330,341,272210,1,0,0:0:0:0:
301,325,272292,1,2,0:0:0:0:
440,172,272457,2,0,L|512:176,1,52.5000020027161,8|0,0:0|0:0,0:0:0:0:
352,268,272785,5,2,0:0:0:0:
200,156,272949,1,2,0:0:0:0:
372,76,273113,6,0,L|392:72,5,17.500000667572,8|0|0|0|0|0,0:0|0:0|0:0|0:0|0:0|0:0,0:0:0:0:
296,32,273441,2,0,L|284:15,5,17.500000667572
300,120,273769,2,0,L|296:140,5,17.500000667572
216,84,274096,5,6,0:0:0:0:
216,84,274260,1,0,0:0:0:0:
216,84,274424,2,0,L|212:160,1,70
28,264,274752,1,0,0:0:0:0:
28,264,274916,1,0,0:0:0:0:
28,264,275080,2,0,L|24:188,1,70
268,224,275408,6,0,P|202:243|142:211,1,140
292,94,275900,2,0,B|348:86|348:86|376:98|376:98|448:90,1,140
508,264,276391,1,0,0:0:0:0:
336,240,276555,1,0,0:0:0:0:
499,47,276719,6,0,P|511:80|509:115,1,70,6|0,0:0|0:0,0:0:0:0:
326,307,277047,2,0,P|324:272|335:239,1,70,2|0,0:0|0:0,0:0:0:0:
424,12,277375,1,8,0:0:0:0:
424,372,277539,1,8,0:0:0:0:
424,372,277867,6,0,L|240:352,1,167.999994873047,6|0,0:0|0:0,0:0:0:0:
56,196,278359,1,8,0:0:0:0:
304,144,278523,1,2,0:0:0:0:
24,272,278687,1,12,0:0:0:0:
336,72,278850,1,12,0:0:0:0:
344,64,279178,6,0,B|380:92|380:92|399:212,1,167.999994873047,6|2,0:0|0:0,0:0:0:0:
228,336,279670,1,8,0:0:0:0:
200,128,279834,1,0,0:0:0:0:
200,128,279916,1,0,0:0:0:0:
200,128,279998,1,2,0:0:0:0:
328,292,280162,1,2,0:0:0:0:
120,324,280326,2,0,P|100:292|104:232,1,83.9999974365235,8|0,0:0|0:0,0:0:0:0:
256,44,280654,6,0,B|280:124|280:124|264:184,1,125.999996154785,6|0,0:0|0:0,0:0:0:0:
196,212,280982,1,8,0:0:0:0:
400,156,281146,1,2,0:0:0:0:
180,240,281309,1,8,0:0:0:0:
391,238,281473,1,2,0:0:0:0:
184,100,281637,1,2,0:0:0:0:
148,94,281719,1,2,0:0:0:0:
133,125,281801,1,2,0:0:0:0:
157,150,281883,1,2,0:0:0:0:
187,134,281965,6,0,P|194:117|195:100,1,35,8|0,0:0|0:0,0:0:0:0:
56,124,282129,2,2,P|57:141|63:157,1,35,0|0,0:0|0:0,0:0:0:0:
196,12,282293,2,0,P|178:13|162:19,1,35,8|0,0:0|0:0,0:0:0:0:
100,224,282457,2,0,L|228:236,1,105,2|0,0:0|0:0,0:0:0:0:
280,271,282785,2,0,P|286:255|289:238,1,35,8|0,0:0|0:0,0:0:0:0:
288,56,282949,1,8,0:0:0:0:
340,51,283030,1,8,0:0:0:0:
392,46,283112,1,8,0:0:0:0:
444,41,283194,1,8,0:0:0:0:
497,36,283277,6,0,L|504:72,5,23.3333333333333,2|0|0|0|0|0,0:0|0:0|0:0|0:0|0:0|0:0,0:0:0:0:
464,128,283605,2,0,L|459:150,5,23.3333333333333
492,220,283932,2,0,L|496:242,5,23.3333333333333
376,272,284260,1,0,0:0:0:0:
309,250,284342,1,0,0:0:0:0:
309,180,284424,1,0,0:0:0:0:
376,158,284506,1,0,0:0:0:0:
417,215,284588,6,0,B|364:204|364:204|328:224|328:224|257:211,1,157.500006008148,6|0,0:0|0:0,0:0:0:0:
172,260,284916,2,0,P|159:209|175:160,1,105.000004005432,8|0,0:0|0:0,0:0:0:0:
372,80,285244,1,2,0:0:0:0:
376,292,285408,1,2,0:0:0:0:
275,88,285572,2,0,B|323:64|323:64|387:84,1,105.000004005432,8|0,0:0|0:0,0:0:0:0:
440,352,285900,6,0,P|342:367|292:300,1,157.500006008148,2|0,0:0|2:0,0:0:0:0:
296,296,286228,2,0,L|300:184,1,105.000004005432,8|0,0:0|0:0,0:0:0:0:
488,112,286555,1,2,0:0:0:0:
488,112,286719,1,2,0:0:0:0:
299,191,286883,2,0,B|248:192|248:192|199:171,1,105.000004005432,8|0,0:0|0:0,0:0:0:0:
488,112,287211,6,0,B|496:152|496:152|488:184|488:184|508:224|491:266,1,157.500006008148,2|0,0:0|0:0,0:0:0:0:
328,228,287539,2,0,P|375:210|423:230,1,105.000004005432,8|0,0:0|0:0,0:0:0:0:
136,332,287867,1,2,0:0:0:0:
216,104,288031,1,2,0:0:0:0:
372,288,288195,1,8,0:0:0:0:
148,148,288359,6,0,B|136:96|136:96|160:40,1,105.000004005432
423,230,288687,2,0,B|447:278|447:278|436:332,1,105.000004005432,2|8,0:0|0:0,0:0:0:0:
104,240,289014,1,0,0:0:0:0:
104,240,289096,1,0,0:0:0:0:
104,240,289178,1,2,0:0:0:0:
304,64,289342,1,2,0:0:0:0:
296,304,289506,2,0,P|296:324|288:292,1,157.500006008148,8|0,0:0|0:0,0:0:0:0:
173,365,289834,6,0,P|165:290|211:223,1,157.500006008148,6|0,0:0|0:0,0:0:0:0:
312,200,290162,1,8,0:0:0:0:
63,114,290326,2,0,B|48:76|48:76|100:88|100:88|152:48|208:76,1,210.000008010865,2|2,0:0|0:0,0:0:0:0:
369,273,290818,2,0,P|323:298|263:274,1,105.000004005432,8|0,0:0|0:0,0:0:0:0:
264,20,291146,5,2,0:0:0:0:
204,276,291309,1,2,0:0:0:0:
388,16,291473,5,8,0:0:0:0:
448,272,291636,1,2,0:0:0:0:
176,144,291801,5,8,0:0:0:0:
432,84,291964,1,2,0:0:0:0:
144,224,292129,1,8,0:0:0:0:
468,12,292293,6,0,P|514:98|444:167,1,210.000008010865,6|0,0:0|0:0,0:0:0:0:
100,160,292785,1,8,0:0:0:0:
340,52,292949,1,0,0:0:0:0:
312,312,293113,1,2,0:0:0:0:
264,52,293277,1,2,0:0:0:0:
232,340,293441,1,8,0:0:0:0:
168,96,293605,5,2,0:0:0:0:
160,84,293932,1,2,0:0:0:0:
372,364,294096,2,0,P|392:316|368:260,1,105.000004005432,8|0,0:0|0:0,0:0:0:0:
236,136,294424,1,0,0:0:0:0:
228,356,294588,1,0,0:0:0:0:
428,188,294752,1,8,0:0:0:0:
434,136,294833,1,8,0:0:0:0:
414,88,294915,1,8,0:0:0:0:
374,54,294997,1,8,0:0:0:0:
323,45,295080,6,0,B|200:36|200:36|260:60,1,157.500006008148,6|0,0:0|0:0,0:0:0:0:
340,144,295408,1,8,0:0:0:0:
106,50,295572,2,0,P|90:98|222:166,1,210.000008010865
448,16,296064,1,8,0:0:0:0:
392,272,296228,1,2,0:0:0:0:
172,100,296391,6,0,L|388:88,1,210.000008010865,2|8,0:0|0:0,0:0:0:0:
224,336,296883,2,0,L|8:324,1,210.000008010865,2|2,0:0|0:0,0:0:0:0:
392,272,297375,1,8,0:0:0:0:
80,220,297539,1,2,0:0:0:0:
456,56,297703,5,6,0:0:0:0:
376,352,297867,1,2,0:0:0:0:
232,0,298031,5,8,0:0:0:0:
320,304,298195,1,2,0:0:0:0:
504,0,298359,5,8,0:0:0:0:
308,376,298523,1,10,0:0:0:0:
296,384,298850,6,0,L|256:152,1,210.000008010865,6|0,0:0|0:0,0:0:0:0:
500,384,299342,1,8,0:0:0:0:
192,312,299506,1,2,0:0:0:0:
504,0,299670,5,12,0:0:0:0:
104,180,299834,1,12,0:0:0:0:
88,192,300162,6,0,B|172:180|172:180|204:200|204:200|312:184,1,210.000008010865,6|2,0:0|0:0,0:0:0:0:
464,64,300654,1,8,0:0:0:0:
404,264,300818,1,0,0:0:0:0:
404,264,300900,1,0,0:0:0:0:
404,264,300982,1,2,0:0:0:0:
276,100,301146,1,2,0:0:0:0:
488,216,301309,2,0,B|500:268|500:268|484:324,1,105.000004005432,8|0,0:0|0:0,0:0:0:0:
204,56,301637,6,0,P|264:20|352:60,1,157.500006008148,6|0,0:0|0:0,0:0:0:0:
388,144,301965,1,8,0:0:0:0:
124,140,302129,1,2,0:0:0:0:
404,160,302293,1,8,0:0:0:0:
140,156,302457,1,2,0:0:0:0:
280,380,302621,1,0,0:0:0:0:
283,353,302702,1,0,0:0:0:0:
287,327,302784,1,0,0:0:0:0:
290,301,302866,1,0,0:0:0:0:
294,275,302949,6,0,P|233:245|166:260,1,140,6|0,0:0|0:0,0:0:0:0:
380,332,303441,2,0,P|446:347|508:316,1,140,2|0,0:0|0:0,0:0:0:0:
371,119,303932,2,0,L|363:247,1,105,8|0,0:0|0:0,0:0:0:0:
443,264,304260,6,0,P|453:249|456:232,1,35
282,244,304424,2,0,P|284:261|294:275,1,35
388,48,304588,2,0,P|371:44|354:48,1,35,8|0,0:0|0:0,0:0:0:0:
365,224,304752,6,0,L|369:264,5,23.3333333333333,2|0|0|0|0|0,0:0|0:0|0:0|0:0|0:0|0:0,0:0:0:0:
372,328,305080,2,0,L|432:332,1,35,2|0,0:0|0:0,0:0:0:0:
240,256,305244,2,0,B|216:248|216:248|188:252,1,52.5,8|0,0:0|0:0,0:0:0:0:
104,308,305572,5,12,0:0:0:0:
172,52,305736,1,2,0:0:0:0:
316,336,305900,5,8,0:0:0:0:
248,80,306064,1,2,0:0:0:0:
28,280,306228,5,8,0:0:0:0:
96,24,306392,1,2,0:0:0:0:
240,308,306556,5,8,0:0:0:0:
172,52,306719,2,0,L|392:48,1,210.000008010865,2|2,0:0|0:0,0:0:0:0:
24,300,307211,5,8,0:0:0:0:
279,230,307375,1,2,0:0:0:0:
63,4,307539,5,8,0:0:0:0:
164,280,307703,1,2,0:0:0:0:
172,228,307785,1,2,0:0:0:0:
180,176,307867,1,8,0:0:0:0:
0,368,308031,1,0,0:0:0:0:
120,76,308195,5,8,0:0:0:0:
360,188,308359,1,2,0:0:0:0:
104,4,308523,5,8,0:0:0:0:
216,244,308687,1,2,0:0:0:0:
416,4,308850,5,8,0:0:0:0:
304,244,309014,1,2,0:0:0:0:
48,60,309178,5,8,0:0:0:0:
312,31,309342,2,0,L|86:1,1,210.000008010865,2|2,0:0|0:0,0:0:0:0:
356,316,309834,5,8,0:0:0:0:
246,76,309998,1,2,0:0:0:0:
16,364,310162,5,12,0:0:0:0:
344,200,310326,1,2,0:0:0:0:
292,188,310408,1,2,0:0:0:0:
240,176,310490,1,12,0:0:0:0:
468,308,310654,1,2,0:0:0:0:
312,36,310818,5,12,0:0:0:0:
268,296,310982,1,2,0:0:0:0:
48,72,311146,5,8,0:0:0:0:
92,332,311310,1,2,0:0:0:0:
308,108,311473,5,8,0:0:0:0:
49,151,311637,1,2,0:0:0:0:
344,264,311801,5,8,0:0:0:0:
124,108,311965,2,0,L|92:344,1,210.000008010865,2|2,0:0|0:0,0:0:0:0:
256,56,312457,5,8,0:0:0:0:
232,316,312621,1,2,0:0:0:0:
484,28,312785,5,8,0:0:0:0:
300,216,312949,1,2,0:0:0:0:
248,208,313031,1,2,0:0:0:0:
196,200,313113,1,8,0:0:0:0:
456,168,313277,1,0,0:0:0:0:
160,276,313441,5,12,0:0:0:0:
372,120,313605,1,0,0:0:0:0:
84,248,313769,5,8,0:0:0:0:
345,218,313933,1,0,0:0:0:0:
32,184,314096,5,8,0:0:0:0:
273,288,314260,1,0,0:0:0:0:
20,100,314424,1,8,0:0:0:0:
276,364,314588,6,0,B|436:352|436:352|368:328,1,210.000008010865,6|2,0:0|0:0,0:0:0:0:
148,364,315080,1,8,0:0:0:0:
360,24,315244,6,0,B|388:68|388:68|344:228,1,210.000008010865,6|0,0:0|0:0,0:0:0:0:
328,270,315654,1,2,0:0:0:0:
314,320,315736,1,12,0:0:0:0:
148,364,315900,1,0,0:0:0:0:
72,32,316064,5,6,0:0:0:0:
132,288,316228,1,2,0:0:0:0:
392,112,316391,5,8,0:0:0:0:
332,368,316555,1,2,0:0:0:0:
216,76,316719,5,8,0:0:0:0:
207,338,316883,1,2,0:0:0:0:
464,156,317047,5,8,0:0:0:0:
202,147,317211,1,2,0:0:0:0:
468,320,317375,5,8,0:0:0:0:
217,243,317539,1,2,0:0:0:0:
472,56,317703,5,8,0:0:0:0:
395,307,317867,1,2,0:0:0:0:
228,40,318031,5,8,0:0:0:0:
276,296,318195,1,2,0:0:0:0:
224,304,318277,1,2,0:0:0:0:
172,312,318359,1,8,0:0:0:0:
388,164,318523,1,2,0:0:0:0:
76,132,318687,5,8,0:0:0:0:
332,72,318850,1,0,0:0:0:0:
16,68,319014,5,8,0:0:0:0:
272,128,319177,1,2,0:0:0:0:
36,304,319342,5,8,0:0:0:0:
96,47,319505,1,2,0:0:0:0:
232,332,319670,5,8,0:0:0:0:
172,75,319833,1,2,0:0:0:0:
64,372,319998,5,8,0:0:0:0:
321,312,320161,1,2,0:0:0:0:
68,120,320326,5,8,0:0:0:0:
325,180,320490,1,2,0:0:0:0:
16,376,320654,5,12,0:0:0:0:
176,104,320818,1,2,0:0:0:0:
184,156,320900,1,2,0:0:0:0:
192,208,320982,1,12,0:0:0:0:
8,20,321146,1,0,0:0:0:0:
316,76,321309,5,12,0:0:0:0:
268,332,321473,1,2,0:0:0:0:
140,44,321637,5,8,0:0:0:0:
188,300,321801,1,2,0:0:0:0:
408,76,321965,5,8,0:0:0:0:
152,124,322129,1,2,0:0:0:0:
424,260,322293,5,8,0:0:0:0:
168,212,322457,1,2,0:0:0:0:
468,120,322621,5,8,0:0:0:0:
420,376,322785,1,2,0:0:0:0:
304,84,322949,5,8,0:0:0:0:
352,340,323113,1,2,0:0:0:0:
480,48,323277,5,8,0:0:0:0:
284,296,323441,1,2,0:0:0:0:
232,292,323523,1,2,0:0:0:0:
180,288,323605,1,8,0:0:0:0:
416,176,323769,1,0,0:0:0:0:
164,364,323932,5,8,0:0:0:0:
124,104,324096,1,2,0:0:0:0:
260,332,324260,5,8,0:0:0:0:
300,72,324424,1,2,0:0:0:0:
60,272,324588,5,8,0:0:0:0:
372,224,324752,1,2,0:0:0:0:
40,260,324916,1,8,0:0:0:0:
408,148,325080,5,6,0:0:0:0:
420,141,325408,1,2,0:0:0:0:
168,352,325572,1,8,0:0:0:0:
356,36,325736,5,6,0:0:0:0:
408,40,326064,1,2,0:0:0:0:
460,44,326146,1,2,0:0:0:0:
512,48,326228,1,12,0:0:0:0:
284,300,326391,1,0,0:0:0:0:
132,16,326555,5,6,0:0:0:0:
256,192,326719,12,4,337047,0:0:0:0:
