osu file format v14

[General]
AudioFilename: audio.mp3
AudioLeadIn: 0
PreviewTime: 44753
Countdown: 0
SampleSet: Soft
StackLeniency: 0.5
Mode: 0
LetterboxInBreaks: 0
WidescreenStoryboard: 1

[Editor]
Bookmarks: 2028,12814,23601,33039,34387,43826,45174,55960,66747,72140,74837,77533
DistanceSpacing: 0.3
BeatDivisor: 4
GridSize: 4
TimelineZoom: 5.599997

[Metadata]
Title:K.O.K.O.R.O
TitleUnicode:K.O.K.O.R.O
Artist:Halozy
ArtistUnicode:Halozy
Creator:GanyuMyMommy
Version:Soraka's Insane
Source:東方地霊殿 ~ Subterranean Animism.
Tags:Soraka -Sylvari Video Game Instrumental Touhou Project 東方Project ZUN Touhou Team Shanghai Alice SA DnB Satori Maiden Third Eye Komeiji KOKORO Stage 4 Boss ハートフェルトファンシー 3rd Eyes Chireiden Earth Spirit Palace TH11 TH 11 すみじゅん sumijun Reitaisai 9 R9 HLZY-0013 Future Love nytrocide_ nytro
BeatmapID:3404692
BeatmapSetID:1666067

[Difficulty]
HPDrainRate:4.8
CircleSize:3.8
OverallDifficulty:7.8
ApproachRate:9
SliderMultiplier:1.72
SliderTickRate:1

[Events]
//Background and Video events
0,0,"kokoro bg.jpg",0,0
//Break Periods
//Storyboard Layer 0 (Background)
//Storyboard Layer 1 (Fail)
//Storyboard Layer 2 (Pass)
//Storyboard Layer 3 (Foreground)
//Storyboard Layer 4 (Overlay)
//Storyboard Sound Samples

[TimingPoints]
680,337.078651685393,4,2,1,50,1,0
680,-133.333333333333,4,2,1,50,0,0
1859,-100,4,2,1,50,0,0
2028,-138.888888888889,4,2,1,55,0,0
12814,-121.951219512195,4,2,2,55,0,0
18208,-121.951219512195,4,2,2,60,0,0
20904,-121.951219512195,4,2,2,65,0,0
22927,-192.307692307692,4,2,2,55,0,0
23179,-192.307692307692,4,2,2,5,0,0
23264,-138.888888888889,4,2,2,55,0,0
23517,-138.888888888889,4,2,2,5,0,0
23601,-108.695652173913,4,2,2,70,0,0
23854,-108.695652173913,4,2,2,70,0,0
23938,-108.695652173913,4,2,2,70,0,0
24865,-108.695652173913,4,2,2,5,0,0
24949,-108.695652173913,4,2,2,70,0,0
26550,-108.695652173913,4,2,2,70,0,0
26635,-108.695652173913,4,2,2,70,0,0
27562,-108.695652173913,4,2,2,5,0,0
27646,-108.695652173913,4,2,2,70,0,0
29247,-108.695652173913,4,2,2,70,0,0
29331,-108.695652173913,4,2,2,70,0,0
30258,-108.695652173913,4,2,2,5,0,0
30342,-108.695652173913,4,2,2,70,0,0
31944,-108.695652173913,4,2,2,70,0,0
32028,-108.695652173913,4,2,2,70,0,0
33039,-161.290322580645,4,2,2,65,0,0
33292,-161.290322580645,4,2,2,5,0,0
33376,-161.290322580645,4,2,2,65,0,0
33545,-161.290322580645,4,2,1,55,0,0
33713,-121.951219512195,4,2,2,65,0,0
34387,-108.695652173913,4,2,2,70,0,0
39781,-108.695652173913,4,2,2,75,0,0
42477,-108.695652173913,4,2,2,80,0,0
43826,-108.695652173913,4,2,2,72,0,0
44500,-108.695652173913,4,2,2,70,0,0
44837,-161.290322580645,4,2,2,68,0,0
45174,-98.0392156862745,4,2,2,85,0,1
50314,-98.0392156862745,4,2,2,5,0,1
50399,-98.0392156862745,4,2,2,85,0,1
50483,-98.0392156862745,4,2,2,5,0,1
50567,-98.0392156862745,4,2,2,85,0,1
52168,-98.0392156862745,4,2,2,85,0,1
52253,-98.0392156862745,4,2,2,85,0,1
52842,-98.0392156862745,4,2,2,85,0,1
52927,-98.0392156862745,4,2,2,85,0,1
54528,-98.0392156862745,4,2,2,85,0,1
54612,-98.0392156862745,4,2,2,85,0,1
55623,-98.0392156862745,4,2,2,77,0,1
55960,-98.0392156862745,4,2,2,65,0,1
61101,-98.0392156862745,4,2,2,5,0,1
61185,-98.0392156862745,4,2,2,65,0,1
61269,-98.0392156862745,4,2,2,5,0,1
61354,-98.0392156862745,4,2,2,85,0,1
62955,-98.0392156862745,4,2,2,85,0,1
63039,-98.0392156862745,4,2,2,85,0,1
63629,-98.0392156862745,4,2,2,85,0,1
63713,-98.0392156862745,4,2,2,85,0,1
66747,-108.695652173913,4,2,2,65,0,0
71803,-312.499999999999,4,2,2,65,0,0
72140,-108.695652173913,4,2,2,70,0,0
74837,-108.695652173913,4,2,2,72,0,0
76185,-108.695652173913,4,2,2,65,0,0
76859,-108.695652173913,4,2,2,70,0,0
77533,-400,4,2,1,50,0,0

[Colours]
Combo1 : 230,200,150
Combo2 : 210,60,60
Combo3 : 90,215,60
Combo4 : 200,90,170

[HitObjects]
256,192,680,12,0,1859,0:0:0:0:
31,46,2028,6,0,B|73:36|73:36|105:59|105:59|147:48,1,123.840003023438,4|8,1:2|0:2,0:0:0:0:
254,30,2533,1,2,0:2:0:0:
254,30,2702,2,0,P|245:59|237:89,1,61.9200015117188,0|0,0:0|1:2,0:0:0:0:
162,142,3039,2,0,P|170:171|178:201,1,61.9200015117188,8|2,0:2|0:2,0:0:0:0:
160,296,3376,2,0,P|131:288|101:280,1,61.9200015117188,0|2,1:2|0:2,0:0:0:0:
6,203,3713,2,0,P|36:194|66:187,1,61.9200015117188,8|2,0:2|0:2,0:0:0:0:
155,313,4050,2,0,P|126:305|96:297,1,61.9200015117188,2|0,0:2|1:2,0:0:0:0:
0,187,4387,2,0,P|30:178|60:171,1,61.9200015117188,8|2,0:2|0:2,0:0:0:0:
190,104,4724,6,0,B|166:158|166:158|191:219,1,123.840003023438,0|8,1:2|0:2,0:0:0:0:
239,320,5230,1,2,0:2:0:0:
239,320,5399,2,0,P|271:330|301:324,1,61.9200015117188,0|0,0:0|1:2,0:0:0:0:
337,243,5736,2,0,P|367:238|396:248,1,61.9200015117188,8|2,0:2|0:2,0:0:0:0:
488,316,6073,2,0,P|498:287|493:257,1,61.9200015117188,0|2,1:2|0:2,0:0:0:0:
400,178,6410,2,0,P|390:207|395:237,1,61.9200015117188,8|2,0:2|0:2,0:0:0:0:
507,324,6747,2,1,P|517:295|512:265,1,61.9200015117188,2|0,0:2|1:2,0:0:0:0:
396,165,7084,1,8,1:2:0:0:
396,165,7168,1,2,0:2:0:0:
460,55,7421,6,0,B|418:45|418:45|386:68|386:68|344:57,1,123.840003023438,0|8,1:2|0:2,0:0:0:0:
240,48,7927,1,2,0:2:0:0:
240,48,8095,2,0,P|249:77|257:107,1,61.9200015117188,0|0,0:0|1:2,0:0:0:0:
338,146,8432,2,0,P|329:175|321:205,1,61.9200015117188,8|2,0:2|0:2,0:0:0:0:
267,279,8769,2,0,P|238:271|208:263,1,61.9200015117188,0|2,1:2|0:2,0:0:0:0:
113,186,9106,2,0,P|143:177|173:170,1,61.9200015117188,8|2,0:2|0:2,0:0:0:0:
262,296,9443,2,0,P|233:288|203:280,1,61.9200015117188,2|0,0:2|1:2,0:0:0:0:
107,170,9780,2,0,P|137:161|167:154,1,61.9200015117188,8|2,0:2|0:2,0:0:0:0:
303,195,10118,6,0,B|327:141|327:141|302:80,1,123.840003023438,0|8,1:2|0:2,0:0:0:0:
233,0,10623,1,2,0:2:0:0:
233,0,10792,2,0,P|203:-5|174:5,1,61.9200015117188,0|0,0:0|1:2,0:0:0:0:
125,83,11129,2,0,P|96:93|66:88,1,61.9200015117188,8|2,0:2|0:2,0:0:0:0:
0,192,11466,2,0,P|29:182|59:187,1,61.9200015117188,0|2,1:2|0:2,0:0:0:0:
151,262,11803,2,0,P|122:272|92:267,1,61.9200015117188,8|2,0:2|0:2,0:0:0:0:
0,174,12140,2,1,P|29:164|59:169,1,61.9200015117188,2|0,0:2|1:2,0:0:0:0:
153,282,12477,1,8,1:2:0:0:
153,282,12562,1,2,0:2:0:0:
268,121,12814,6,0,P|247:188|229:256,1,141.0400021521,12|8,0:2|0:2,0:0:0:0:
200,367,13320,1,0,0:0:0:0:
290,264,13488,2,1,P|326:274|362:283,1,70.5200010760498,8|0,0:2|1:2,0:0:0:0:
432,362,13826,2,1,P|396:373|360:382,1,70.5200010760498,8|0,0:2|0:0,0:0:0:0:
461,256,14163,2,0,P|476:189|440:131,1,141.0400021521,8|8,0:2|0:2,0:0:0:0:
357,89,14668,1,0,0:0:0:0:
294,201,14837,2,0,P|254:188|224:202,1,70.5200010760498,8|0,0:2|1:2,0:0:0:0:
185,67,15174,2,0,P|225:80|255:66,1,70.5200010760498,8|0,0:2|0:0,0:0:0:0:
84,47,15511,6,0,P|105:114|123:182,1,141.0400021521,8|8,0:2|0:2,0:0:0:0:
144,267,16017,1,0,0:0:0:0:
76,136,16185,2,1,P|40:146|4:155,1,70.5200010760498,8|0,0:2|1:2,0:0:0:0:
62,259,16523,2,0,P|98:269|134:278,1,70.5200010760498,8|0,0:2|0:0,0:0:0:0:
217,128,16859,2,0,P|202:195|238:253,1,141.0400021521,8|8,0:2|0:2,0:0:0:0:
329,295,17364,1,0,0:0:0:0:
359,191,17533,2,0,P|399:204|429:190,1,70.5200010760498,8|0,0:2|1:2,0:0:0:0:
495,326,17870,2,0,P|455:313|425:327,1,70.5200010760498,8|0,0:2|0:0,0:0:0:0:
334,384,18208,5,12,0:2:0:0:
334,384,18376,1,8,0:2:0:0:
208,306,18545,5,8,0:2:0:0:
208,306,18713,1,8,0:2:0:0:
352,300,18882,6,1,P|360:266|371:233,1,70.5200010760498,8|8,0:2|0:2,0:0:0:0:
189,227,19219,2,1,P|180:193|171:159,1,70.5200010760498,8|8,0:2|0:2,0:0:0:0:
389,152,19556,5,12,0:2:0:0:
383,130,19724,1,8,0:2:0:0:
163,56,19893,5,8,0:2:0:0:
155,82,20061,1,8,0:2:0:0:
369,231,20230,6,1,P|359:265|352:300,1,70.5200010760498,8|8,0:2|0:2,0:0:0:0:
170,159,20567,2,1,P|180:192|188:227,1,70.5200010760498,8|8,0:2|0:2,0:0:0:0:
90,27,20904,6,1,L|55:18,3,35.2600005380249,6|2|2|2,1:2|1:2|1:2|1:2,0:0:0:0:
180,78,21241,2,1,L|214:69,3,35.2600005380249,2|2|2|2,1:2|1:2|1:2|1:2,0:0:0:0:
300,79,21578,5,2,1:2:0:0:
334,87,21662,1,2,1:2:0:0:
369,83,21746,1,2,1:2:0:0:
400,67,21830,1,2,1:2:0:0:
432,44,21915,2,0,L|421:2,3,35.2600005380249,2|2|2|2,1:2|1:2|1:2|1:2,0:0:0:0:
496,94,22253,5,2,1:2:0:0:
495,101,22337,1,2,1:2:0:0:
493,111,22421,1,2,1:2:0:0:
491,124,22505,1,2,1:2:0:0:
488,141,22590,1,2,1:2:0:0:
484,161,22674,1,2,1:2:0:0:
480,185,22758,1,2,1:2:0:0:
475,212,22842,1,2,1:2:0:0:
441,238,22927,6,0,P|474:234|503:252,1,67.0799995905762,14|0,0:2|0:0,0:0:0:0:
500,329,23264,6,0,P|455:332|407:307,1,92.8800022675782,10|0,0:2|0:0,0:0:0:0:
320,270,23601,6,0,B|258:248|270:301|196:284,1,118.679996015991,4|0,1:2|0:0,0:0:0:0:
176,315,23938,2,1,P|165:276|153:239,1,79.1199973439942,8|2,0:2|0:2,0:0:0:0:
98,126,24275,1,2,0:2:0:0:
60,231,24444,1,0,1:2:0:0:
199,180,24612,2,0,B|238:163|238:163|314:186,1,118.679996015991,8|0,0:2|0:0,0:0:0:0:
339,198,24949,6,0,P|369:207|418:155,1,79.1199973439942,0|2,1:2|0:2,0:0:0:0:
287,8,25286,2,0,P|270:35|308:95,1,79.1199973439942,8|2,0:2|0:2,0:0:0:0:
394,0,25623,1,2,0:2:0:0:
291,105,25792,1,2,1:2:0:0:
422,98,25960,2,0,P|411:50|405:4,1,79.1199973439942,10|2,0:2|0:2,0:0:0:0:
512,200,26297,6,0,P|473:182|393:220,1,118.679996015991,0|0,1:2|0:0,0:0:0:0:
397,238,26635,2,0,B|361:258|361:258|323:251,1,79.1199973439942,8|2,0:2|0:2,0:0:0:0:
182,242,26972,1,2,0:2:0:0:
267,161,27140,1,0,1:2:0:0:
239,334,27309,2,0,P|177:319|119:308,1,118.679996015991,8|0,0:2|0:0,0:0:0:0:
91,298,27646,6,0,P|65:266|68:222,1,79.1199973439942,0|2,1:2|0:2,0:0:0:0:
16,117,27983,2,1,P|56:121|94:126,1,79.1199973439942,8|2,0:2|0:2,0:0:0:0:
208,152,28320,1,2,0:2:0:0:
148,44,28488,1,2,1:2:0:0:
278,9,28657,2,0,P|265:46|255:84,1,79.1199973439942,8|2,0:2|0:2,0:0:0:0:
302,191,28994,6,0,B|364:169|352:222|426:205,1,118.679996015991,0|0,1:2|0:0,0:0:0:0:
445,233,29331,2,1,P|456:194|468:157,1,79.1199973439942,8|2,0:2|0:2,0:0:0:0:
499,46,29668,1,2,0:2:0:0:
408,103,29837,1,0,1:2:0:0:
327,38,30005,2,0,B|288:21|288:21|212:44,1,118.679996015991,8|0,0:2|0:0,0:0:0:0:
180,70,30342,6,0,P|152:43|147:3,1,79.1199973439942,0|2,1:2|0:2,0:0:0:0:
277,112,30679,2,0,P|264:149|254:187,1,79.1199973439942,8|2,0:2|0:2,0:0:0:0:
215,307,31017,1,2,0:2:0:0:
152,223,31185,1,2,1:2:0:0:
97,340,31354,2,1,P|86:301|74:264,1,79.1199973439942,10|2,0:2|0:2,0:0:0:0:
7,127,31691,6,0,P|63:141|118:122,1,118.679996015991,0|0,1:2|0:0,0:0:0:0:
133,88,32028,2,0,P|165:70|209:78,1,79.1199973439942,8|2,0:2|0:2,0:0:0:0:
292,167,32365,1,2,0:2:0:0:
308,56,32533,1,0,1:2:0:0:
185,163,32702,2,0,P|197:200|207:238,1,79.1199973439942,8|0,0:2|0:0,0:0:0:0:
216,353,33039,6,0,P|244:326|283:317,1,79.9799968269655,10|0,0:2|0:0,0:0:0:0:
283,317,33376,1,10,0:2:0:0:
456,292,33545,1,2,0:2:0:0:
456,292,33629,1,0,0:0:0:0:
456,292,33713,2,1,P|450:313|444:333,2,35.2600005380249,10|0|2,0:2|0:0|1:2,0:0:0:0:
486,157,34050,1,10,0:2:0:0:
488,146,34135,1,0,0:0:0:0:
490,135,34219,1,10,0:2:0:0:
456,292,34387,6,0,P|423:313|375:309,1,79.1199973439942,4|2,1:2|0:2,0:0:0:0:
327,201,34724,2,0,P|294:180|246:184,1,79.1199973439942,8|2,0:2|0:2,0:0:0:0:
132,282,35062,1,2,0:2:0:0:
253,346,35230,1,0,1:2:0:0:
169,183,35399,2,0,P|158:225|146:265,1,79.1199973439942,8|2,0:2|0:2,0:0:0:0:
12,108,35736,6,1,P|21:147|32:185,1,79.1199973439942,0|2,1:2|0:2,0:0:0:0:
132,62,36073,1,8,0:2:0:0:
132,62,36241,1,2,0:2:0:0:
235,127,36410,2,0,P|274:127|306:106,1,79.1199973439942,2|0,0:2|1:2,0:0:0:0:
422,0,36747,2,0,P|402:33|403:72,1,79.1199973439942,8|2,0:2|0:2,0:0:0:0:
468,235,37084,6,0,P|488:158|513:83,1,158.239994687988,0|8,1:2|0:2,0:0:0:0:
438,162,37590,1,2,0:2:0:0:
352,82,37758,2,0,P|312:81|280:102,1,79.1199973439942,2|0,0:2|1:2,0:0:0:0:
235,208,38095,1,8,0:2:0:0:
235,208,38264,1,2,0:2:0:0:
161,115,38432,6,1,P|152:76|140:38,1,79.1199973439942,0|2,1:2|0:2,0:0:0:0:
21,12,38769,2,1,P|9:49|0:88,1,79.1199973439942,8|2,0:2|0:2,0:0:0:0:
53,212,39106,2,0,L|63:250,3,39.5599986719971,2|0|2|0,0:2|0:0|1:2|0:0,0:0:0:0:
148,256,39444,2,0,L|137:294,3,39.5599986719971,10|0|2|0,0:2|0:0|0:2|0:0,0:0:0:0:
107,384,39781,6,1,P|144:372|183:363,1,79.1199973439942,4|2,1:2|0:2,0:0:0:0:
381,334,40118,2,1,P|343:322|304:313,1,79.1199973439942,0|2,1:2|0:2,0:0:0:0:
206,202,40455,1,0,1:2:0:0:
224,279,40623,1,2,0:2:0:0:
381,238,40792,2,0,P|402:195|383:150,1,79.1199973439942,0|2,1:2|0:2,0:0:0:0:
252,128,41129,6,0,P|292:121|338:108,1,79.1199973439942,4|2,1:2|0:2,0:0:0:0:
357,21,41466,1,0,1:2:0:0:
427,91,41634,1,2,0:2:0:0:
222,24,41803,2,1,P|233:61|242:100,1,79.1199973439942,0|2,1:2|0:2,0:0:0:0:
138,243,42140,1,0,1:2:0:0:
138,243,42309,1,2,0:2:0:0:
0,182,42477,5,6,1:2:0:0:
31,176,42562,1,2,1:2:0:0:
62,170,42646,1,2,1:2:0:0:
93,164,42730,1,2,1:2:0:0:
124,158,42814,2,0,L|165:164,1,39.5599986719971,2|2,1:2|1:2,0:0:0:0:
215,245,42983,2,0,L|254:239,1,39.5599986719971,2|2,1:2|1:2,0:0:0:0:
364,253,43151,5,2,1:2:0:0:
364,253,43236,1,2,1:2:0:0:
364,253,43320,2,0,L|370:212,1,39.5599986719971,2|2,1:2|1:2,0:0:0:0:
350,124,43487,5,2,1:2:0:0:
344,93,43573,1,2,1:2:0:0:
338,62,43657,1,2,1:2:0:0:
332,31,43740,1,2,1:2:0:0:
326,0,43826,6,0,L|356:8,7,19.7799993359986,2|0|2|0|2|0|2|0,1:2|0:0|1:2|0:0|1:2|0:0|1:2|0:0,0:0:0:0:
216,38,44163,6,0,L|185:46,7,19.7799993359986,2|0|2|0|2|0|2|0,1:2|0:0|1:2|0:0|1:2|0:0|1:2|0:0,0:0:0:0:
237,55,44500,5,8,0:2:0:0:
237,55,44668,1,0,1:2:0:0:
184,136,44837,2,0,L|131:128,1,53.3199978846436,8|0,0:2|0:0,0:0:0:0:
19,256,45174,6,0,B|79:243|79:243|125:275|125:275|181:262,1,175.440001070801,6|8,1:2|0:2,0:0:0:0:
271,178,45679,1,2,0:2:0:0:
150,77,45848,2,0,P|134:130|162:166,1,87.7200005354004,2|0,0:2|1:2,0:0:0:0:
292,277,46185,2,0,P|308:224|280:188,1,87.7200005354004,8|0,0:2|0:0,0:0:0:0:
162,369,46522,2,0,B|193:348|193:348|334:377,1,175.440001070801,2|8,1:2|0:2,0:0:0:0:
392,259,47028,1,2,0:2:0:0:
477,384,47196,2,1,P|487:341|500:299,1,87.7200005354004,2|2,0:2|1:2,0:0:0:0:
349,157,47533,2,0,P|362:198|372:241,1,87.7200005354004,10|0,0:2|0:0,0:0:0:0:
512,87,47871,6,0,P|442:60|343:40,1,175.440001070801,2|8,1:2|0:2,0:0:0:0:
205,0,48376,1,2,0:2:0:0:
265,110,48545,2,0,B|170:136|193:56|88:82,1,175.440001070801,2|8,0:2|0:2,0:0:0:0:
0,151,49050,1,0,0:0:0:0:
101,223,49219,2,0,P|160:284|137:364,1,175.440001070801,2|8,1:2|0:2,0:0:0:0:
24,274,49724,1,2,0:2:0:0:
207,195,49893,2,0,P|250:204|292:218,1,87.7200005354004,2|2,0:2|1:2,0:0:0:0:
411,300,50230,2,0,P|411:318|383:337,1,43.8600002677002,8|0,0:2|0:0,0:0:0:0:
407,377,50399,2,0,P|392:386|361:371,1,43.8600002677002,2|0,0:2|0:0,0:0:0:0:
302,321,50567,6,0,B|207:295|230:375|125:349,1,175.440001070801,2|8,1:2|0:2,0:0:0:0:
230,210,51073,1,2,0:2:0:0:
411,300,51241,2,0,P|449:239|439:172,2,131.580000803101,2|0|2,0:2|0:0|0:2,0:0:0:0:
334,199,51915,2,0,P|324:145|373:78,1,131.580000803101,2|0,1:2|0:0,0:0:0:0:
389,84,52253,2,0,P|428:56|417:-7,1,87.7200005354004,10|0,0:2|0:0,0:0:0:0:
255,69,52590,2,0,P|213:104|130:95,1,131.580000803101,2|2,0:2|0:2,0:0:0:0:
127,78,52928,2,0,P|83:58|34:99,1,87.7200005354004,10|0,0:2|0:0,0:0:0:0:
0,222,53264,5,2,1:2:0:0:
95,184,53433,1,2,0:2:0:0:
161,264,53601,1,10,0:2:0:0:
3,204,53769,5,2,0:2:0:0:
98,167,53938,1,2,0:2:0:0:
164,247,54106,1,2,1:2:0:0:
63,384,54275,2,0,B|142:386|104:340|183:328,1,131.580000803101,10|0,0:2|0:0,0:0:0:0:
202,345,54612,6,0,P|242:364|304:343,1,87.7200005354004,0|0,1:2|0:0,0:0:0:0:
351,261,54949,1,8,0:2:0:0:
424,382,55118,2,0,P|433:339|447:297,1,87.7200005354004,0|2,1:2|0:2,0:0:0:0:
408,159,55455,1,2,1:2:0:0:
502,83,55623,1,8,0:2:0:0:
389,34,55792,1,0,1:2:0:0:
295,111,55960,6,0,B|235:98|235:98|189:130|189:130|133:117,1,175.440001070801,6|8,1:2|0:2,0:0:0:0:
45,31,56466,1,2,0:2:0:0:
1,163,56635,2,0,P|-15:216|13:252,1,87.7200005354004,2|0,0:2|1:2,0:0:0:0:
121,280,56972,2,0,P|137:227|109:191,1,87.7200005354004,8|0,0:2|0:0,0:0:0:0:
21,369,57309,2,0,B|50:354|50:354|193:377,1,175.440001070801,2|8,1:2|0:2,0:0:0:0:
358,283,57814,1,2,0:2:0:0:
217,215,57983,2,1,P|230:256|240:299,1,87.7200005354004,2|2,0:2|1:2,0:0:0:0:
344,384,58320,2,0,P|353:341|367:299,1,87.7200005354004,10|0,0:2|0:0,0:0:0:0:
493,144,58657,6,0,P|444:178|336:150,1,175.440001070801,2|8,1:2|0:2,0:0:0:0:
235,162,59163,1,2,0:2:0:0:
353,47,59331,2,0,B|258:73|281:-7|176:19,1,175.440001070801,2|8,0:2|0:2,0:0:0:0:
144,131,59837,1,0,0:0:0:0:
25,38,60005,2,0,P|52:122|72:207,1,175.440001070801,2|8,1:2|0:2,0:0:0:0:
48,329,60511,1,2,0:2:0:0:
151,274,60679,2,0,P|194:267|230:291,1,87.7200005354004,2|2,0:2|1:2,0:0:0:0:
360,375,61017,2,0,P|380:381|399:372,1,43.8600002677002,10|0,0:2|0:0,0:0:0:0:
386,327,61186,2,0,P|402:312|403:291,1,43.8600002677002,2|0,0:2|0:0,0:0:0:0:
319,260,61354,6,0,B|295:166|375:189|349:94,1,175.440001070801,6|8,1:2|0:2,0:0:0:0:
264,3,61859,1,2,0:2:0:0:
175,127,62028,2,0,P|110:140|47:159,2,131.580000803101,2|2|2,0:2|0:2|0:2,0:0:0:0:
356,74,62702,2,0,P|318:125|340:218,1,131.580000803101,2|0,1:2|0:0,0:0:0:0:
334,222,63039,2,0,P|319:265|282:285,1,87.7200005354004,10|0,0:2|0:0,0:0:0:0:
187,367,63376,2,0,P|148:315|152:250,1,131.580000803101,2|2,0:2|0:2,0:0:0:0:
169,222,63713,2,0,P|154:179|117:159,1,87.7200005354004,10|0,0:2|0:0,0:0:0:0:
0,235,64050,5,2,1:2:0:0:
94,300,64219,1,2,0:2:0:0:
12,384,64387,1,10,0:2:0:0:
9,370,64472,1,2,0:2:0:0:
7,357,64556,1,0,0:0:0:0:
86,189,64724,1,2,0:2:0:0:
187,334,64893,1,2,1:2:0:0:
269,206,65062,2,0,P|226:215|184:229,1,87.7200005354004,10|0,0:2|0:0,0:0:0:0:
324,352,65399,2,0,P|344:266|370:183,1,175.440001070801,2|8,1:2|0:2,0:0:0:0:
433,293,65904,1,2,0:2:0:0:
444,140,66073,2,0,P|402:134|366:158,1,87.7200005354004,8|2,0:2|0:2,0:0:0:0:
428,303,66410,2,0,P|465:327|508:322,1,87.7200005354004,8|0,0:2|0:0,0:0:0:0:
324,268,66747,6,1,P|246:285|171:308,2,158.239994687988,4|8|2,1:2|0:2|0:2,0:0:0:0:
366,24,67758,1,8,0:2:0:0:
439,82,67927,1,2,0:2:0:0:
351,114,68095,2,0,B|254:118|304:42|203:51,1,158.239994687988,0|8,1:2|0:2,0:0:0:0:
7,19,68769,2,0,P|29:94|47:171,1,158.239994687988,2|8,0:2|0:2,0:0:0:0:
38,264,69275,1,2,0:2:0:0:
137,320,69444,6,0,P|93:330|58:348,2,79.1199973439942,0|2|8,1:2|0:2|0:2,0:0:0:0:
241,304,69949,1,2,0:2:0:0:
306,343,70118,1,2,0:2:0:0:
239,379,70286,1,2,0:2:0:0:
318,232,70455,2,0,P|328:188|346:153,2,79.1199973439942,8|2|0,0:2|0:2|1:2,0:0:0:0:
436,151,70960,2,0,P|358:135|285:105,1,158.239994687988,2|2,0:2|0:2,0:0:0:0:
196,59,71466,2,0,P|206:41|222:29,3,39.5599986719971,2|2|2|2,0:2|0:2|0:2|0:2,0:0:0:0:
249,11,71803,6,0,P|273:10|297:6,1,41.28,10|0,0:2|0:0,0:0:0:0:
395,17,72140,6,1,P|383:54|375:93,1,79.1199973439942,12|8,0:2|0:2,0:0:0:0:
305,200,72477,2,1,P|297:161|284:123,1,79.1199973439942,8|8,0:2|0:2,0:0:0:0:
381,284,72814,1,8,0:2:0:0:
381,284,72983,1,8,0:2:0:0:
259,304,73151,1,8,0:2:0:0:
433,187,73320,1,8,0:2:0:0:
512,384,73488,6,0,P|468:359|423:351,1,79.1199973439942,12|8,0:2|0:2,0:0:0:0:
187,335,73826,2,0,P|231:310|276:302,1,79.1199973439942,8|8,0:2|0:2,0:0:0:0:
377,254,74163,1,8,0:2:0:0:
332,384,74331,1,8,0:2:0:0:
252,202,74500,1,8,0:2:0:0:
440,352,74668,1,8,0:2:0:0:
187,335,74837,5,6,1:2:0:0:
152,318,74921,1,2,1:2:0:0:
127,288,75005,1,2,1:2:0:0:
117,250,75089,1,2,1:2:0:0:
119,214,75174,2,1,L|129:176,3,39.5599986719971,2|2|2|2,1:2|1:2|1:2|1:2,0:0:0:0:
95,89,75511,5,2,1:2:0:0:
130,83,75595,1,2,1:2:0:0:
166,76,75680,1,2,1:2:0:0:
202,68,75764,1,2,1:2:0:0:
238,60,75848,2,0,L|278:66,3,39.5599986719971,2|2|2|2,1:2|1:2|1:2|1:2,0:0:0:0:
408,65,76185,6,0,L|413:25,1,39.5599986719971,2|2,1:2|1:2,0:0:0:0:
427,68,76354,2,0,L|432:28,1,39.5599986719971,2|2,1:2|1:2,0:0:0:0:
319,173,76522,6,0,L|314:133,1,39.5599986719971,2|2,1:2|1:2,0:0:0:0:
300,176,76691,2,0,L|295:136,1,39.5599986719971,2|2,1:2|1:2,0:0:0:0:
408,234,76859,5,8,0:2:0:0:
501,279,77028,1,0,1:2:0:0:
306,344,77196,1,8,0:2:0:0:
287,62,77533,5,12,1:2:0:0:
