osu file format v14

[General]
AudioFilename: audio.mp3
AudioLeadIn: 0
PreviewTime: 44753
Countdown: 0
SampleSet: Soft
StackLeniency: 0.5
Mode: 0
LetterboxInBreaks: 0
WidescreenStoryboard: 1

[Editor]
Bookmarks: 2028,12814,23601,33039,34387,43826,45174,55960,66747,72140,74837,77533
DistanceSpacing: 1.2
BeatDivisor: 4
GridSize: 4
TimelineZoom: 2

[Metadata]
Title:K.O.K.O.R.O
TitleUnicode:K.O.K.O.R.O
Artist:Halozy
ArtistUnicode:Halozy
Creator:GanyuMyMommy
Version:Normal
Source:東方地霊殿 ~ Subterranean Animism.
Tags:Soraka -Sylvari Video Game Instrumental Touhou Project 東方Project ZUN Touhou Team Shanghai Alice SA DnB Satori Maiden Third Eye Komeiji KOKORO Stage 4 Boss ハートフェルトファンシー 3rd Eyes Chireiden Earth Spirit Palace TH11 TH 11 すみじゅん sumijun Reitaisai 9 R9 HLZY-0013 Future Love nytrocide_ nytro
BeatmapID:3402359
BeatmapSetID:1666067

[Difficulty]
HPDrainRate:3
CircleSize:3.6
OverallDifficulty:4
ApproachRate:5
SliderMultiplier:1.1
SliderTickRate:1

[Events]
//Background and Video events
0,0,"kokoro bg.jpg",0,0
//Break Periods
//Storyboard Layer 0 (Background)
//Storyboard Layer 1 (Fail)
//Storyboard Layer 2 (Pass)
//Storyboard Layer 3 (Foreground)
//Storyboard Layer 4 (Overlay)
//Storyboard Sound Samples

[TimingPoints]
680,337.078651685393,4,2,1,50,1,0
680,-111.111111111111,4,2,1,50,0,0
2028,-133.333333333333,4,2,1,55,0,0
12814,-133.333333333333,4,2,2,55,0,0
18208,-133.333333333333,4,2,2,60,0,0
20904,-133.333333333333,4,2,2,65,0,0
22927,-133.333333333333,4,2,2,55,0,0
23601,-133.333333333333,4,2,2,70,0,0
33039,-133.333333333333,4,2,2,65,0,0
33545,-133.333333333333,4,2,1,55,0,0
33713,-133.333333333333,4,2,2,65,0,0
34387,-133.333333333333,4,2,2,70,0,0
39781,-133.333333333333,4,2,2,75,0,0
42477,-133.333333333333,4,2,2,80,0,0
43826,-133.333333333333,4,2,2,72,0,0
44500,-133.333333333333,4,2,2,70,0,0
44837,-133.333333333333,4,2,2,68,0,0
45174,-111.111111111111,4,2,2,85,0,1
55623,-111.111111111111,4,2,2,77,0,1
55960,-111.111111111111,4,2,2,85,0,1
66747,-133.333333333333,4,2,2,65,0,0
72140,-133.333333333333,4,2,2,70,0,0
74837,-133.333333333333,4,2,2,72,0,0
76185,-133.333333333333,4,2,2,65,0,0
76859,-133.333333333333,4,2,2,70,0,0
77533,-769.230769230769,4,2,1,50,0,0

[Colours]
Combo1 : 230,200,150
Combo2 : 210,60,60
Combo3 : 90,215,60
Combo4 : 200,90,170

[HitObjects]
328,59,2028,6,0,P|359:34|420:18,1,82.5000031471254,4|8,1:2|0:2,0:0:0:0:
479,77,2702,2,0,L|500:158,1,82.5000031471254,0|8,0:0|0:2,0:0:0:0:
444,238,3376,1,0,1:2:0:0:
495,322,3713,1,8,0:2:0:0:
417,383,4050,2,0,P|369:361|320:356,1,82.5000031471254,2|8,0:2|0:2,0:0:0:0:
241,355,4724,6,0,P|165:383|93:343,1,165.000006294251,0|0,1:2|0:0,0:0:0:0:
51,256,5736,1,8,0:2:0:0:
117,183,6073,2,0,P|162:182|201:193,2,82.5000031471254,0|8|2,1:2|0:2|0:2,0:0:0:0:
27,140,7084,2,0,L|30:91,1,41.2500015735627,8|2,1:2|0:2,0:0:0:0:
54,56,7421,6,0,L|149:37,1,82.5000031471254,0|8,1:2|0:2,0:0:0:0:
221,88,8095,2,0,L|305:102,1,82.5000031471254,0|8,0:0|0:2,0:0:0:0:
385,47,8769,1,0,1:2:0:0:
470,97,9106,1,8,0:2:0:0:
448,195,9444,2,0,L|442:283,1,82.5000031471254,2|8,0:2|0:2,0:0:0:0:
502,356,10118,6,0,P|423:313|334:319,1,165.000006294251,0|0,1:2|0:0,0:0:0:0:
278,381,11129,2,0,L|226:370,1,41.2500015735627,8|2,0:2|0:2,0:0:0:0:
214,329,11466,2,0,B|208:315|208:315|221:228,2,82.5000031471254,0|8|2,1:2|0:2|0:2,0:0:0:0:
126,375,12477,1,8,1:2:0:0:
27,363,12814,6,0,L|8:258,1,82.5000031471254,12|8,0:2|0:2,0:0:0:0:
54,192,13488,2,0,L|41:131,2,41.2500015735627,8|0|8,0:2|1:2|0:2,0:0:0:0:
138,243,14163,2,0,L|243:224,1,82.5000031471254,8|8,0:2|0:2,0:0:0:0:
315,251,14837,2,0,L|376:238,2,41.2500015735627,8|0|8,0:2|1:2|0:2,0:0:0:0:
250,326,15511,5,8,0:2:0:0:
330,384,15848,1,8,0:2:0:0:
424,353,16185,2,0,L|491:367,2,41.2500015735627,8|0|8,0:2|1:2|0:2,0:0:0:0:
388,260,16859,1,8,0:2:0:0:
438,174,17196,1,8,0:2:0:0:
370,102,17533,2,0,L|371:39,2,41.2500015735627,8|0|8,0:2|1:2|0:2,0:0:0:0:
331,131,18039,1,0,0:0:0:0:
331,131,18208,6,0,B|196:116|287:11|134:-1,1,247.500009441376,12|8,0:2|0:2,0:0:0:0:
62,61,19556,2,0,B|25:133|51:208|51:208|91:244|81:300,1,247.500009441376,12|8,0:2|0:2,0:0:0:0:
256,192,20904,12,14,22927,0:2:0:0:
248,83,23601,6,0,P|228:130|233:166,1,82.5000031471254,4|8,1:2|0:2,0:0:0:0:
307,224,24275,2,0,P|327:272|321:308,1,82.5000031471254,2|8,0:2|0:2,0:0:0:0:
254,372,24949,2,0,L|166:350,1,82.5000031471254,0|8,1:2|0:2,0:0:0:0:
77,372,25623,1,2,0:2:0:0:
26,287,25960,2,0,L|33:244,1,41.2500015735627,10|2,0:2|0:2,0:2:0:0:
59,204,26297,6,0,B|46:163|46:163|60:110,1,82.5000031471254,0|8,1:2|0:2,0:0:0:0:
0,43,26972,2,0,B|27:9|27:9|81:-3,1,82.5000031471254,2|8,0:2|0:2,0:0:0:0:
141,63,27646,1,0,1:2:0:0:
223,7,27983,1,8,0:2:0:0:
318,32,28320,2,0,P|344:24|386:16,2,41.2500015735627,2|2|8,0:2|1:2|0:2,0:0:0:0:
279,122,28994,6,0,P|296:148|305:203,1,82.5000031471254,0|8,1:2|0:2,0:0:0:0:
224,254,29668,2,0,P|207:280|198:335,1,82.5000031471254,2|8,0:2|0:2,0:0:0:0:
280,384,30342,2,0,L|365:365,1,82.5000031471254,0|8,1:2|0:2,0:0:0:0:
458,382,31017,1,2,0:2:0:0:
510,298,31354,2,0,L|503:255,1,41.2500015735627,10|2,0:2|0:2,0:2:0:0:
481,212,31691,6,0,B|452:188|451:137|451:137|504:75|504:75|501:24|467:-5,1,247.500009441376,0|8,1:2|0:2,0:0:0:0:
379,32,33039,5,10,0:2:0:0:
284,2,33376,1,10,0:2:0:0:
228,84,33713,2,0,L|237:137,2,41.2500015735627,10|2|10,0:2|1:2|0:2,0:0:0:0:
198,51,34219,1,10,0:2:0:0:
198,51,34387,6,0,P|154:34|113:46,1,82.5000031471254,4|8,1:2|0:2,0:0:0:0:
39,98,35062,2,0,L|-10:88,2,41.2500015735627,2|0|8,0:2|1:2|0:2,0:0:0:0:
92,182,35736,1,0,1:2:0:0:
62,276,36073,1,8,0:2:0:0:
133,344,36410,2,0,L|121:401,2,41.2500015735627,2|0|8,0:2|1:2|0:2,0:0:0:0:
221,298,37084,6,0,B|259:282|259:282|299:298,1,82.5000031471254,0|8,1:2|0:2,0:0:0:0:
384,344,37758,2,0,L|396:401,2,41.2500015735627,2|0|8,0:2|1:2|0:2,0:0:0:0:
425,254,38432,1,0,1:2:0:0:
363,176,38769,1,8,0:2:0:0:
440,114,39106,2,0,L|484:103,2,41.2500015735627,2|2|10,0:2|1:2|0:2,0:0:0:0:
407,84,39612,1,2,0:2:0:0:
407,84,39781,6,0,P|372:70|322:82,1,82.5000031471254,4|0,1:2|1:2,0:0:0:0:
235,45,40455,2,0,L|226:1,2,41.2500015735627,0|2|0,1:2|0:2|1:2,0:0:0:0:
165,115,41129,1,4,1:2:0:0:
211,202,41466,1,0,1:2:0:0:
142,272,41803,2,0,L|133:313,2,41.2500015735627,0|2|0,1:2|0:2|1:2,0:0:0:0:
256,192,42477,12,8,44500,0:2:0:0:
227,225,45174,6,0,B|184:259|235:368|130:386,2,197.99999395752,6|2|2,1:2|0:2|1:2,0:0:0:0:
325,236,46859,1,8,0:2:0:0:
407,181,47196,2,0,L|457:173,2,49.4999984893799,2|2|10,0:2|1:2|0:2,0:0:0:0:
342,105,47871,2,0,B|338:84|324:69|324:69|375:-12|493:39,2,197.99999395752,2|2|2,1:2|0:2|1:2,0:0:0:0:
314,200,49556,2,0,L|307:304,1,98.9999969787599,8|2,0:2|0:2,0:0:0:0:
389,355,50230,5,8,0:2:0:0:
437,347,50399,1,2,0:2:0:0:
466,307,50567,2,0,B|476:281|476:281|461:193,1,98.9999969787599,2|8,1:2|0:2,0:0:0:0:
422,121,51241,2,0,L|431:35,2,74.2499977340699,2|0|2,0:2|0:0|0:2,0:0:0:0:
378,145,51915,5,2,1:2:0:0:
289,99,52253,1,10,0:2:0:0:
243,187,52590,1,2,0:2:0:0:
153,145,52927,1,10,0:2:0:0:
67,195,53264,6,0,P|48:218|38:252,2,49.4999984893799,2|2|10,1:2|0:2|0:2,0:0:0:0:
48,97,53938,2,0,P|18:92|-15:100,2,49.4999984893799,2|2|10,0:2|1:2|0:2,0:0:0:0:
111,20,54612,2,0,B|122:-1|122:-1|270:17|270:17|272:42,1,197.99999395752,0|2,1:2|0:2,0:0:0:0:
283,144,55623,1,8,0:2:0:0:
283,144,55791,1,0,1:2:0:0:
331,158,55960,6,0,B|353:141|377:146|377:146|468:174|433:146|530:171,2,197.99999395752,6|2|2,1:2|0:2|1:2,0:0:0:0:
272,237,57646,1,8,0:2:0:0:
317,325,57983,2,0,P|344:313|387:310,2,49.4999984893799,2|2|10,0:2|1:2|0:2,0:0:0:0:
223,358,58657,2,0,B|175:408|106:374|132:316|30:343,2,197.99999395752,2|2|2,1:2|0:2|1:2,0:0:0:0:
234,259,60342,2,0,P|242:188|257:143,1,98.9999969787599,8|2,0:2|0:2,0:0:0:0:
180,90,61017,5,10,0:2:0:0:
132,78,61185,1,2,0:2:0:0:
89,103,61354,2,0,B|79:125|79:125|93:202,1,98.9999969787599,6|8,1:2|0:2,0:0:0:0:
106,296,62028,2,0,L|96:370,2,74.2499977340699,2|2|2,0:2|0:2|0:2,0:0:0:0:
148,271,62702,5,2,1:2:0:0:
234,318,63039,1,10,0:2:0:0:
307,253,63376,1,2,0:2:0:0:
394,299,63713,1,10,0:2:0:0:
477,246,64050,6,0,L|531:237,2,49.4999984893799,2|2|10,1:2|0:2|0:2,0:0:0:0:
416,171,64724,2,0,L|364:159,2,49.4999984893799,2|2|10,0:2|1:2|0:2,0:0:0:0:
458,145,65230,1,0,0:2:0:0:
458,145,65399,2,0,B|499:115|499:115|511:56,2,98.9999969787599,2|8|8,1:2|0:2|0:2,0:0:0:0:
408,59,66410,1,8,0:2:0:0:
321,11,66747,6,0,P|277:31|221:35,1,82.5000031471254,4|8,1:2|0:2,0:0:0:0:
150,2,67421,1,2,0:2:0:0:
113,94,67758,2,0,P|127:115|134:158,2,41.2500015735627,8|2|0,0:2|0:2|1:2,0:0:0:0:
0,257,68769,6,0,P|39:244|91:243,1,82.5000031471254,2|8,0:2|0:2,0:0:0:0:
119,280,69275,1,2,0:2:0:0:
119,280,69444,2,0,P|161:293|206:294,1,82.5000031471254,0|8,1:2|0:2,0:0:0:0:
230,257,69949,1,2,0:2:0:0:
230,257,70118,2,0,L|238:199,2,41.2500015735627,2|2|8,0:2|0:2|0:2,0:0:0:0:
312,311,70792,1,0,1:2:0:0:
388,248,71129,1,8,0:2:0:0:
473,298,71466,2,0,L|515:287,2,41.2500015735627,2|2|10,0:2|0:2|0:2,0:0:0:0:
400,365,72140,6,0,B|318:350|318:350|284:364|284:364|228:319|161:349,1,247.500009441376,12|8,0:2|0:2,0:0:0:0:
72,310,73488,2,0,P|22:327|6:352,2,82.5000031471254,12|8|8,0:2|0:2|0:2,0:0:0:0:
125,226,74500,1,8,0:2:0:0:
256,192,74837,12,12,77533,1:2:0:0:
