osu file format v14

[General]
AudioFilename: audio.mp3
AudioLeadIn: 0
PreviewTime: 44753
Countdown: 0
SampleSet: Soft
StackLeniency: 0.5
Mode: 0
LetterboxInBreaks: 0
WidescreenStoryboard: 1

[Editor]
Bookmarks: 2028,12814,23601,30258,33039,34387,43826,45174,55960,66747,72140,74837,77533
DistanceSpacing: 1.3
BeatDivisor: 4
GridSize: 4
TimelineZoom: 2

[Metadata]
Title:K.O.K.O.R.O
TitleUnicode:K.O.K.O.R.O
Artist:Halozy
ArtistUnicode:Halozy
Creator:GanyuMyMommy
Version:Hard
Source:東方地霊殿 ~ Subterranean Animism.
Tags:Soraka -Sylvari Video Game Instrumental Touhou Project 東方Project ZUN Touhou Team Shanghai Alice SA DnB Satori Maiden Third Eye Komeiji KOKORO Stage 4 Boss ハートフェルトファンシー 3rd Eyes Chireiden Earth Spirit Palace TH11 TH 11 すみじゅん sumijun Reitaisai 9 R9 HLZY-0013 Future Love nytrocide_ nytro
BeatmapID:3403448
BeatmapSetID:1666067

[Difficulty]
HPDrainRate:4.2
CircleSize:4
OverallDifficulty:5.8
ApproachRate:7.4
SliderMultiplier:1.4
SliderTickRate:1

[Events]
//Background and Video events
0,0,"kokoro bg.jpg",0,0
//Break Periods
//Storyboard Layer 0 (Background)
//Storyboard Layer 1 (Fail)
//Storyboard Layer 2 (Pass)
//Storyboard Layer 3 (Foreground)
//Storyboard Layer 4 (Overlay)
//Storyboard Sound Samples

[TimingPoints]
680,337.078651685393,4,2,1,50,1,0
680,-111.111111111111,4,2,1,50,0,0
2028,-111.111111111111,4,2,1,55,0,0
12814,-111.111111111111,4,2,2,55,0,0
18208,-111.111111111111,4,2,2,60,0,0
20904,-111.111111111111,4,2,2,65,0,0
22927,-111.111111111111,4,2,2,55,0,0
23601,-111.111111111111,4,2,2,70,0,0
33039,-111.111111111111,4,2,2,65,0,0
33545,-111.111111111111,4,2,1,55,0,0
33713,-111.111111111111,4,2,2,65,0,0
34387,-111.111111111111,4,2,2,70,0,0
39781,-111.111111111111,4,2,2,75,0,0
42477,-111.111111111111,4,2,2,80,0,0
43826,-111.111111111111,4,2,2,72,0,0
44500,-111.111111111111,4,2,2,70,0,0
44837,-111.111111111111,4,2,2,68,0,0
45174,-111.111111111111,4,2,2,85,0,1
55623,-111.111111111111,4,2,2,77,0,1
55960,-111.111111111111,4,2,2,85,0,1
66747,-117.647058823529,4,2,2,65,0,0
72140,-117.647058823529,4,2,2,70,0,0
74837,-117.647058823529,4,2,2,72,0,0
76185,-117.647058823529,4,2,2,65,0,0
76859,-117.647058823529,4,2,2,70,0,0
77533,-769.230769230769,4,2,1,50,0,0

[Colours]
Combo1 : 230,200,150
Combo2 : 210,60,60
Combo3 : 90,215,60
Combo4 : 200,90,170

[HitObjects]
256,192,680,12,0,1691,0:0:0:0:
11,119,2028,6,0,P|37:142|127:130,1,125.999996154785,4|8,1:2|0:2,0:0:0:0:
182,78,2533,1,2,0:2:0:0:
264,68,2702,2,0,L|278:-2,2,62.9999980773927,0|0|8,0:0|1:2|0:2,0:0:0:0:
314,132,3208,1,2,0:2:0:0:
268,199,3376,6,0,L|283:333,1,125.999996154785,0|8,1:2|0:2,0:0:0:0:
338,384,3882,1,2,0:2:0:0:
399,330,4050,2,0,L|472:314,1,62.9999980773926,2|0,0:2|1:2,0:0:0:0:
510,251,4387,1,8,0:2:0:0:
490,88,4724,6,0,B|468:65|468:65|367:48,1,125.999996154785,0|8,1:2|0:2,0:0:0:0:
299,17,5230,1,2,0:2:0:0:
246,80,5399,2,0,L|167:65,2,62.9999980773927,0|0|8,0:0|1:2|0:2,0:0:0:0:
300,140,5904,1,2,0:2:0:0:
256,209,6073,6,0,P|240:236|237:284,1,62.9999980773927,0|2,1:2|0:2,0:0:0:0:
260,344,6410,2,0,L|189:366,1,62.9999980773927,8|2,0:2|0:2,0:0:0:0:
126,326,6747,1,2,0:2:0:0:
55,366,6915,1,0,1:2:0:0:
3,302,7084,1,8,1:2:0:0:
28,140,7421,6,0,B|30:81|30:81|89:25,1,125.999996154785,0|8,1:2|0:2,0:0:0:0:
150,74,7927,1,2,0:2:0:0:
229,52,8095,2,0,L|241:-16,2,62.9999980773926,0|0|8,0:0|1:2|0:2,0:0:0:0:
262,127,8601,1,2,0:2:0:0:
339,101,8769,6,0,P|360:72|458:48,1,125.999996154785,0|2,1:2|0:2,0:0:0:0:
509,92,9275,1,2,0:2:0:0:
464,161,9444,2,0,P|455:197|457:237,1,62.9999980773926,2|0,0:2|1:2,0:0:0:0:
503,288,9781,1,8,0:2:0:0:
369,383,10118,6,0,B|347:360|347:360|250:342,1,125.999996154785,0|8,1:2|0:2,0:0:0:0:
174,360,10623,1,2,0:2:0:0:
133,288,10792,2,0,L|141:223,2,62.9999980773926,0|0|8,0:0|1:2|0:2,0:0:0:0:
71,342,11297,1,2,0:2:0:0:
2,298,11466,6,0,L|8:223,1,62.9999980773926,0|2,1:2|0:2,0:0:0:0:
0,153,11803,2,0,L|6:78,1,62.9999980773926,8|2,0:2|0:2,0:0:0:0:
49,21,12140,1,2,0:2:0:0:
122,58,12309,1,0,1:2:0:0:
181,2,12477,1,8,1:2:0:0:
342,31,12814,6,0,L|329:106,1,62.9999980773926,12|0,0:2|0:0,0:0:0:0:
371,164,13151,2,0,L|384:239,1,62.9999980773926,8|0,0:2|0:0,0:0:0:0:
341,298,13488,2,0,B|334:307|334:307|340:379,2,62.9999980773926,8|0|8,0:2|1:2|0:2,0:0:0:0:
232,175,14163,6,0,P|212:147|163:123,1,62.9999980773926,8|0,0:2|0:0,0:0:0:0:
180,49,14500,2,0,P|149:41|118:44,1,62.9999980773926,8|0,0:2|0:0,0:0:0:0:
42,14,14837,1,8,0:2:0:0:
0,84,15005,1,0,1:2:0:0:
39,155,15174,1,8,0:2:0:0:
0,314,15511,6,0,B|23:291|23:291|72:291,1,62.9999980773926,8|0,0:2|0:0,0:0:0:0:
116,340,15848,2,0,B|139:363|139:363|188:363,1,62.9999980773926,8|0,0:2|0:0,0:0:0:0:
242,324,16185,2,0,L|329:316,2,62.9999980773926,8|0|8,0:2|1:2|0:2,0:0:0:0:
385,244,16859,6,0,B|379:230|379:230|385:174,1,62.9999980773926,8|0,0:2|0:0,0:0:0:0:
439,122,17196,2,0,B|445:108|445:108|439:52,1,62.9999980773926,8|0,0:2|0:0,0:0:0:0:
382,2,17533,1,8,0:2:0:0:
300,13,17702,1,0,1:2:0:0:
249,78,17871,1,8,0:2:0:0:
274,239,18208,6,0,L|266:307,1,62.9999980773926,12|8,0:2|0:2,0:0:0:0:
219,368,18545,1,8,0:2:0:0:
219,368,18713,1,8,0:2:0:0:
139,346,18882,2,0,L|131:278,1,62.9999980773926,8|8,0:2|0:2,0:0:0:0:
84,217,19219,1,8,0:2:0:0:
84,217,19387,1,8,0:2:0:0:
115,141,19556,6,0,P|143:123|199:122,1,62.9999980773926,12|8,0:2|0:2,0:0:0:0:
243,157,19893,1,8,0:2:0:0:
311,111,20062,1,8,0:2:0:0:
385,143,20230,2,0,B|418:142|418:142|461:120,2,62.9999980773926,8|8|8,0:2|0:2|0:2,0:0:0:0:
367,223,20736,1,8,0:2:0:0:
422,284,20904,6,0,L|427:330,7,31.4999990386963,6|2|2|2|2|2|2|2,1:2|1:2|1:2|1:2|1:2|1:2|1:2|1:2,0:0:0:0:
391,339,21578,2,0,L|372:381,7,31.4999990386963,2|2|2|2|2|2|2|2,1:2|1:2|1:2|1:2|1:2|1:2|1:2|1:2,0:0:0:0:
336,366,22253,2,0,L|310:384,7,31.4999990386963,2|2|2|2|2|2|2|2,1:2|1:2|1:2|1:2|1:2|1:2|1:2|1:2,0:0:0:0:
269,378,22927,5,14,0:2:0:0:
158,257,23264,1,10,0:2:0:0:
202,99,23601,6,0,L|268:81,1,62.9999980773926,4|0,1:2|0:0,0:0:0:0:
321,25,23938,2,0,L|387:43,1,62.9999980773926,8|2,0:2|0:2,0:0:0:0:
459,14,24275,1,2,0:2:0:0:
512,76,24444,1,0,1:2:0:0:
456,136,24612,2,0,L|449:210,1,62.9999980773926,8|2,0:2|0:2,0:0:0:0:
485,272,24949,6,0,P|451:303|368:283,1,125.999996154785,0|8,1:2|0:2,0:0:0:0:
324,228,25455,1,2,0:2:0:0:
251,265,25623,2,0,L|244:334,2,62.9999980773926,2|2|10,0:2|1:2|0:2,0:0:0:0:
190,209,26129,1,2,0:2:0:0:
116,244,26297,6,0,P|78:247|46:230,1,62.9999980773926,0|2,1:2|0:2,0:0:0:0:
39,156,26635,2,0,P|10:131|0:96,1,62.9999980773926,8|2,0:2|0:2,0:0:0:0:
35,34,26972,1,2,0:2:0:0:
114,13,27140,1,0,1:2:0:0:
181,60,27309,2,0,L|252:52,1,62.9999980773926,8|2,0:2|0:2,0:0:0:0:
316,15,27646,6,0,B|335:41|335:41|316:150,1,125.999996154785,0|8,1:2|0:2,0:0:0:0:
267,197,28151,1,2,0:2:0:0:
316,264,28320,2,0,L|311:337,2,62.9999980773926,2|2|8,0:2|1:2|0:2,0:0:0:0:
385,219,28826,1,2,0:2:0:0:
460,250,28994,6,0,P|473:219|475:171,1,62.9999980773926,0|2,1:2|0:2,0:0:0:0:
512,116,29331,2,0,P|507:84|495:56,1,62.9999980773926,8|2,0:2|0:2,0:0:0:0:
429,7,29668,1,2,0:2:0:0:
359,50,29837,1,0,1:2:0:0:
286,12,30005,2,0,P|235:8|217:17,1,62.9999980773926,8|2,0:2|0:2,0:0:0:0:
167,70,30342,6,0,B|162:79|162:79|184:204,1,125.999996154785,0|8,1:2|0:2,0:0:0:0:
228,260,30848,1,2,0:2:0:0:
219,341,31017,2,0,P|244:362|293:375,2,62.9999980773926,2|2|10,0:2|1:2|0:2,0:0:0:0:
142,369,31522,1,2,0:2:0:0:
73,323,31691,6,0,P|61:276|34:244,1,62.9999980773926,0|2,1:2|0:2,0:0:0:0:
96,194,32028,2,0,P|108:147|135:115,1,62.9999980773926,8|2,0:2|0:2,0:0:0:0:
133,55,32365,1,2,0:2:0:0:
64,10,32533,1,0,1:2:0:0:
19,79,32702,1,8,0:2:0:0:
99,221,33039,6,0,P|148:202|193:199,1,94.499997116089,10|0,0:2|0:0,0:0:0:0:
227,215,33376,1,10,0:2:0:0:
306,183,33545,1,2,0:2:0:0:
306,183,33629,1,2,0:2:0:0:
306,183,33713,2,0,L|324:103,1,62.9999980773926,10|2,0:2|1:2,0:0:0:0:
300,41,34050,1,10,0:2:0:0:
371,0,34219,1,10,0:2:0:0:
451,10,34387,6,0,P|495:35|504:63,1,62.9999980773926,4|2,1:2|0:2,0:0:0:0:
490,125,34724,2,0,P|490:175|470:197,1,62.9999980773926,8|2,0:2|0:2,0:0:0:0:
409,216,35062,2,0,P|365:241|336:235,1,62.9999980773926,2|0,0:2|1:2,0:0:0:0:
289,191,35399,2,0,P|245:166|236:138,1,62.9999980773926,8|2,0:2|0:2,0:0:0:0:
219,77,35736,6,0,B|195:56|195:56|164:51,1,62.9999980773926,0|2,1:2|0:2,0:0:0:0:
99,100,36073,2,0,B|69:109|69:109|50:134,1,62.9999980773926,8|2,0:2|0:2,0:0:0:0:
61,216,36411,2,0,B|54:246|54:246|66:275,1,62.9999980773926,2|0,0:2|1:2,0:0:0:0:
143,308,36748,2,0,B|166:328|166:328|197:333,1,62.9999980773926,8|2,0:2|0:2,0:0:0:0:
270,295,37084,5,0,1:2:0:0:
270,295,37253,1,2,0:2:0:0:
337,341,37421,2,0,L|417:328,1,62.9999980773926,8|2,0:2|0:2,0:0:0:0:
447,265,37758,5,2,0:2:0:0:
447,265,37927,1,0,1:2:0:0:
380,219,38095,2,0,L|300:232,1,62.9999980773926,8|2,0:2|0:2,0:0:0:0:
252,188,38432,5,0,1:2:0:0:
252,188,38601,1,2,0:2:0:0:
185,142,38769,2,0,L|105:155,1,62.9999980773926,8|2,0:2|0:2,0:0:0:0:
75,218,39106,5,2,0:2:0:0:
75,218,39275,1,2,1:2:0:0:
142,264,39443,2,0,L|222:251,1,62.9999980773926,10|2,0:2|0:2,0:0:0:0:
252,188,39781,5,4,1:2:0:0:
319,233,39949,1,2,0:2:0:0:
375,173,40118,2,0,P|365:145|370:100,1,62.9999980773926,0|2,1:2|0:2,0:0:0:0:
411,43,40455,1,0,1:2:0:0:
342,0,40623,1,2,0:2:0:0:
274,46,40792,2,0,L|193:37,1,62.9999980773926,0|2,1:2|0:2,0:0:0:0:
138,0,41129,5,4,1:2:0:0:
68,42,41297,1,2,0:2:0:0:
117,107,41466,1,0,1:2:0:0:
84,182,41635,1,2,0:2:0:0:
107,260,41803,2,0,P|128:295|129:325,1,62.9999980773926,0|2,1:2|0:2,0:0:0:0:
200,358,42140,2,0,P|205:327|223:301,1,62.9999980773926,0|2,1:2|0:2,0:0:0:0:
286,250,42477,6,0,L|281:214,7,31.4999990386963,6|2|2|2|2|2|2|2,1:2|1:2|1:2|1:2|1:2|1:2|1:2|1:2,0:0:0:0:
308,187,43151,2,0,L|313:151,7,31.4999990386963,2|2|2|2|2|2|2|2,1:2|1:2|1:2|1:2|1:2|1:2|1:2|1:2,0:0:0:0:
294,118,43826,2,0,L|289:82,7,31.4999990386963,2|2|2|2|2|2|2|2,1:2|1:2|1:2|1:2|1:2|1:2|1:2|1:2,0:0:0:0:
294,45,44500,1,8,0:2:0:0:
422,146,44837,5,8,0:2:0:0:
477,221,45005,1,0,0:0:0:0:
408,286,45174,2,0,B|358:289|358:289|333:277|333:277|266:282,1,125.999996154785,6|8,1:2|0:2,0:0:0:0:
205,230,45679,1,2,0:2:0:0:
142,301,45848,2,0,L|155:376,2,62.9999980773926,2|0|8,0:2|1:2|0:2,0:0:0:0:
58,159,46522,6,0,B|71:127|111:116|111:116|136:132|173:127,1,125.999996154785,2|8,1:2|0:2,0:0:0:0:
249,86,47028,1,2,0:2:0:0:
320,146,47196,2,0,P|347:130|382:129,1,62.9999980773926,2|2,0:2|1:2,0:0:0:0:
464,167,47533,2,0,L|476:244,1,62.9999980773926,10|2,0:2|0:2,0:0:0:0:
508,318,47871,6,0,B|435:330|465:370|369:383,1,125.999996154785,2|8,1:2|0:2,0:0:0:0:
326,316,48376,1,2,0:2:0:0:
237,348,48545,2,0,P|223:308|223:283,2,62.9999980773926,2|0|8,0:2|1:2|0:2,0:0:0:0:
48,331,49219,6,0,B|58:321|58:321|33:226|33:226|42:216,1,125.999996154785,2|8,1:2|0:2,0:0:0:0:
104,145,49724,1,2,0:2:0:0:
193,175,49893,2,0,L|206:103,1,62.9999980773926,2|2,0:2|1:2,0:0:0:0:
263,39,50230,5,8,0:2:0:0:
354,62,50399,1,2,0:2:0:0:
342,155,50567,2,0,B|359:165|366:189|366:189|338:226|337:273,1,125.999996154785,2|8,1:2|0:2,0:0:0:0:
258,318,51073,1,2,0:2:0:0:
190,252,51241,2,0,P|146:234|99:231,2,94.499997116089,2|0|2,0:2|0:0|0:2,0:0:0:0:
241,332,51915,5,2,1:2:0:0:
230,168,52253,1,10,0:2:0:0:
382,106,52590,1,2,0:2:0:0:
487,231,52927,1,10,0:2:0:0:
401,369,53264,6,0,P|430:380|465:382,2,62.9999980773926,2|2|10,1:2|0:2|0:2,0:0:0:0:
315,329,53769,2,0,P|286:340|250:342,2,62.9999980773926,2|2|2,0:2|0:2|1:2,0:0:0:0:
389,270,54275,1,10,0:2:0:0:
283,113,54612,6,0,B|290:52|290:52|282:42|282:42|275:1|232:-13,1,125.999996154785,0|8,1:2|0:2,0:0:0:0:
161,0,55118,1,0,1:2:0:0:
151,93,55286,2,0,P|136:116|125:154,1,62.9999980773926,2|2,0:2|1:2,0:0:0:0:
44,199,55623,2,0,P|59:222|70:260,1,62.9999980773926,8|0,0:2|1:2,0:0:0:0:
29,341,55960,6,0,P|98:298|161:299,1,125.999996154785,6|8,1:2|0:2,0:0:0:0:
214,355,56466,1,2,0:2:0:0:
286,293,56635,2,0,P|320:276|353:275,2,62.9999980773926,2|0|8,0:2|1:2|0:2,0:0:0:0:
158,153,57309,6,0,P|170:79|215:49,1,125.999996154785,2|8,1:2|0:2,0:0:0:0:
290,97,57814,1,2,0:2:0:0:
356,29,57983,2,0,L|432:15,1,62.9999980773926,2|2,0:2|1:2,0:0:0:0:
498,66,58320,2,0,L|491:148,1,62.9999980773926,10|2,0:2|0:2,0:0:0:0:
505,222,58657,6,0,B|484:219|461:206|461:206|453:209|453:209|420:186|378:202,1,125.999996154785,2|8,1:2|0:2,0:0:0:0:
304,248,59163,1,2,0:2:0:0:
362,322,59331,2,0,L|349:387,2,62.9999980773926,2|0|8,0:2|1:2|0:2,0:0:0:0:
215,202,60005,6,0,B|173:188|173:188|153:192|153:192|137:181|137:181|73:180,1,125.999996154785,2|8,1:2|0:2,0:0:0:0:
11,224,60511,1,2,0:2:0:0:
53,308,60679,2,0,L|135:298,1,62.9999980773926,2|2,0:2|1:2,0:0:0:0:
198,347,61017,5,10,0:2:0:0:
282,304,61185,1,2,0:2:0:0:
360,356,61354,2,0,B|449:345|449:345|481:339|500:306,1,125.999996154785,6|8,1:2|0:2,0:0:0:0:
509,239,61859,1,2,0:2:0:0:
445,168,62028,2,0,B|456:153|456:153|462:63,2,94.499997116089,2|2|2,0:2|0:2|0:2,0:0:0:0:
351,182,62702,5,2,1:2:0:0:
197,121,63040,1,10,0:2:0:0:
92,246,63377,1,2,0:2:0:0:
179,384,63714,1,10,0:2:0:0:
336,345,64051,6,0,P|367:351|395:368,1,62.9999980773926,2|2,1:2|0:2,0:0:0:0:
486,353,64387,2,0,B|514:313|479:301|513:256,1,94.499997116089,10|2,0:2|0:2,0:0:0:0:
487,220,64724,2,0,P|488:187|477:150,2,62.9999980773926,2|2|10,0:2|1:2|0:2,0:0:0:0:
298,197,65399,6,0,P|269:184|227:176,1,62.9999980773926,2|2,1:2|0:2,0:0:0:0:
190,99,65736,2,0,P|160:106|131:118,1,62.9999980773926,8|2,0:2|0:2,0:0:0:0:
95,203,66073,1,8,0:2:0:0:
166,265,66241,1,2,0:2:0:0:
124,349,66410,1,8,0:2:0:0:
298,310,66747,6,0,P|357:326|394:374,2,119.000002269745,4|8|2,1:2|0:2|0:2,0:0:0:0:
292,155,67758,1,8,0:2:0:0:
360,116,67927,1,2,0:2:0:0:
425,159,68095,2,0,B|478:132|478:132|542:143,2,119.000002269745,0|8|2,1:2|0:2|0:2,0:0:0:0:
326,277,69106,5,8,0:2:0:0:
258,315,69275,1,2,0:2:0:0:
190,277,69444,2,0,L|114:266,2,59.5000011348725,0|2|8,1:2|0:2|0:2,0:0:0:0:
224,207,69949,1,2,0:2:0:0:
162,159,70118,2,0,P|148:109|160:87,1,59.5000011348725,2|2,0:2|0:2,0:0:0:0:
209,54,70455,2,0,P|234:8|258:1,2,59.5000011348725,8|2|0,0:2|0:2|1:2,0:0:0:0:
260,111,70960,2,0,B|352:121|334:73|441:84,1,178.500003404617,2|2,0:2|0:2,0:0:0:0:
512,217,71803,1,10,0:2:0:0:
419,341,72140,5,12,0:2:0:0:
349,306,72309,1,8,0:2:0:0:
288,353,72477,2,0,P|257:342|224:343,1,59.5000011348725,8|8,0:2|0:2,0:0:0:0:
170,293,72814,1,8,0:2:0:0:
104,333,72983,1,8,0:2:0:0:
42,287,73151,2,0,L|29:212,1,59.5000011348725,8|8,0:2|0:2,0:0:0:0:
47,152,73488,5,12,0:2:0:0:
98,93,73657,1,8,0:2:0:0:
167,127,73826,1,8,0:2:0:0:
232,86,73994,1,8,0:2:0:0:
306,109,74163,2,0,P|334:118|378:109,1,59.5000011348725,8|8,0:2|0:2,0:0:0:0:
415,57,74500,2,0,P|443:48|487:57,1,59.5000011348725,8|8,0:2|0:2,0:0:0:0:
500,123,74837,6,0,L|497:166,3,29.7500005674362,6|2|2|2,1:2|1:2|1:2|1:2,0:0:0:0:
471,180,75174,2,0,L|477:259,1,59.5000011348725,2|2,1:2|1:2,0:0:0:0:
501,312,75511,6,0,L|458:315,3,29.7500005674362,2|2|2|2,1:2|1:2|1:2|1:2,0:0:0:0:
444,341,75848,2,0,L|365:335,1,59.5000011348725,2|2,1:2|1:2,0:0:0:0:
309,356,76185,6,0,L|305:313,3,29.7500005674362,2|2|2|2,1:2|1:2|1:2|1:2,0:0:0:0:
280,299,76522,2,0,L|286:220,1,59.5000011348725,2|2,1:2|1:2,0:0:0:0:
317,169,76859,1,8,0:2:0:0:
280,100,77028,1,0,1:2:0:0:
203,110,77196,1,8,0:2:0:0:
152,232,77533,5,12,1:2:0:0:
