osu file format v14

[General]
AudioFilename: audio.mp3
AudioLeadIn: 0
PreviewTime: 44753
Countdown: 0
SampleSet: Soft
StackLeniency: 0.5
Mode: 0
LetterboxInBreaks: 0
WidescreenStoryboard: 0

[Editor]
Bookmarks: 2028,12814,23601,33039,34387,43826,45174,55960,66747,72140,74837,77533
DistanceSpacing: 1.2
BeatDivisor: 4
GridSize: 4
TimelineZoom: 2

[Metadata]
Title:K.O.K.O.R.O
TitleUnicode:K.O.K.O.R.O
Artist:Halozy
ArtistUnicode:Halozy
Creator:GanyuMyMommy
Version:Extra Stage
Source:東方地霊殿 ~ Subterranean Animism.
Tags:Soraka -Sylvari Video Game Instrumental Touhou Project 東方Project ZUN Touhou Team Shanghai Alice SA DnB Satori Maiden Third Eye Komeiji KOKORO Stage 4 Boss ハートフェルトファンシー 3rd Eyes Chireiden Earth Spirit Palace TH11 TH 11 すみじゅん sumijun Reitaisai 9 R9 HLZY-0013 Future Love nytrocide_ nytro
BeatmapID:3401538
BeatmapSetID:1666067

[Difficulty]
HPDrainRate:5.6
CircleSize:4.2
OverallDifficulty:8.8
ApproachRate:9.4
SliderMultiplier:1.8
SliderTickRate:1

[Events]
//Background and Video events
0,0,"kokoro bg.jpg",0,0
//Break Periods
//Storyboard Layer 0 (Background)
//Storyboard Layer 1 (Fail)
//Storyboard Layer 2 (Pass)
//Storyboard Layer 3 (Foreground)
//Storyboard Layer 4 (Overlay)
//Storyboard Sound Samples

[TimingPoints]
680,337.078651685393,4,2,1,50,1,0
680,-133.333333333333,4,2,1,50,0,0
2028,-153.846153846153,4,2,1,55,0,0
12814,-117.647058823529,4,2,2,55,0,0
18208,-133.333333333333,4,2,2,60,0,0
20904,-117.647058823529,4,2,2,65,0,0
22927,-117.647058823529,4,2,2,55,0,0
23601,-100,4,2,2,70,0,0
33039,-166.666666666667,4,2,2,65,0,0
33545,-166.666666666667,4,2,1,55,0,0
33713,-105.263157894737,4,2,2,65,0,0
34387,-80.0000000000001,4,2,2,70,0,0
34556,-133.333333333333,4,2,2,70,0,0
34724,-79.9999999999999,4,2,2,70,0,0
34893,-100,4,2,2,70,0,0
35062,-133.333333333333,4,2,2,70,0,0
35230,-100,4,2,2,70,0,0
35736,-133.333333333333,4,2,2,70,0,0
37084,-79.9999999999999,4,2,2,70,0,0
37253,-133.333333333333,4,2,2,70,0,0
37421,-79.9999999999999,4,2,2,70,0,0
37590,-133.333333333333,4,2,2,70,0,0
37758,-80,4,2,2,70,0,0
37927,-100,4,2,2,70,0,0
38095,-133.333333333333,4,2,2,70,0,0
38264,-200,4,2,2,70,0,0
38432,-133.333333333333,4,2,2,70,0,0
39781,-100,4,2,2,75,0,0
42477,-100,4,2,2,80,0,0
43826,-133.333333333333,4,2,2,72,0,0
44163,-111.111111111111,4,2,2,72,0,0
44500,-111.111111111111,4,2,2,70,0,0
44837,-111.111111111111,4,2,2,68,0,0
45174,-66.6666666666667,4,2,2,85,0,1
45511,-133.333333333333,4,2,2,85,0,1
46185,-54.054054054054,4,2,2,85,0,1
46522,-66.6666666666667,4,2,2,85,0,1
46859,-133.333333333333,4,2,2,85,0,1
47533,-54.054054054054,4,2,2,85,0,1
47871,-66.6666666666667,4,2,2,85,0,1
48208,-133.333333333333,4,2,2,85,0,1
48882,-66.6666666666667,4,2,2,85,0,1
49556,-133.333333333333,4,2,2,85,0,1
50567,-66.6666666666667,4,2,2,85,0,1
50904,-133.333333333333,4,2,2,85,0,1
51915,-66.6666666666667,4,2,2,85,0,1
52253,-80,4,2,2,85,0,1
52927,-66.6666666666667,4,2,2,85,0,1
54612,-60.6060606060606,4,2,2,85,0,1
54949,-133.333333333333,4,2,2,85,0,1
55455,-100,4,2,2,85,0,1
55623,-100,4,2,2,77,0,1
55960,-66.6666666666667,4,2,2,85,0,1
56297,-133.333333333333,4,2,2,85,0,1
56972,-66.6666666666667,4,2,2,85,0,1
57646,-133.333333333333,4,2,2,85,0,1
58320,-54.054054054054,4,2,2,85,0,1
58657,-66.6666666666667,4,2,2,85,0,1
58994,-133.333333333333,4,2,2,85,0,1
59668,-54.054054054054,4,2,2,85,0,1
60005,-66.6666666666667,4,2,2,85,0,1
60342,-133.333333333333,4,2,2,85,0,1
61354,-66.6666666666667,4,2,2,85,0,1
61691,-133.333333333333,4,2,2,85,0,1
62702,-66.6666666666667,4,2,2,85,0,1
63039,-79.9999999999999,4,2,2,85,0,1
63376,-133.333333333333,4,2,2,85,0,1
63713,-66.6666666666667,4,2,2,85,0,1
64050,-105.263157894737,4,2,2,85,0,1
65062,-95.2380952380952,4,2,2,85,0,1
65399,-60.6060606060606,4,2,2,85,0,1
65736,-100,4,2,2,85,0,1
66747,-133.333333333333,4,2,2,65,0,0
71803,-222.222222222221,4,2,2,65,0,0
72140,-100,4,2,2,70,0,0
74837,-95.2380952380951,4,2,2,72,0,0
76185,-95.2380952380951,4,2,2,65,0,0
76522,-86.9565217391304,4,2,2,65,0,0
76859,-86.9565217391304,4,2,2,70,0,0
77533,-769.230769230769,4,2,1,50,0,0

[Colours]
Combo1 : 230,200,150
Combo2 : 210,60,60
Combo3 : 90,215,60
Combo4 : 200,90,170

[HitObjects]
256,192,680,12,0,1859,0:0:0:0:
241,332,2028,6,0,P|258:307|266:255,1,58.4999973220827,4|2,1:2|0:2,0:0:0:0:
337,241,2365,2,0,P|323:213|282:180,1,58.4999973220827,8|2,0:2|0:2,0:0:0:0:
487,347,2702,6,0,P|456:349|407:330,1,58.4999973220826,0|0,0:0|1:2,0:0:0:0:
360,384,3039,2,0,P|343:358|335:306,1,58.4999973220827,8|2,0:2|0:2,0:0:0:0:
209,165,3376,6,0,L|129:173,1,58.4999973220826,0|2,1:2|0:2,0:0:0:0:
191,243,3713,2,0,L|111:251,1,58.4999973220826,8|2,0:2|0:2,0:0:0:0:
391,115,4050,6,0,L|471:123,1,58.4999973220826,2|0,0:2|1:2,0:0:0:0:
409,193,4387,2,0,L|489:201,1,58.4999973220826,8|2,0:2|0:2,0:0:0:0:
174,47,4724,6,0,B|156:24|156:24|126:21,1,58.4999973220826,0|2,1:2|0:2,0:0:0:0:
71,82,5062,2,0,B|42:86|42:86|25:110,1,58.4999973220826,8|2,0:2|0:2,0:0:0:0:
49,188,5399,2,0,B|38:215|38:215|50:241,1,58.4999973220826,0|0,0:0|1:2,0:0:0:0:
130,260,5736,2,0,B|147:282|147:282|177:285,1,58.4999973220826,8|2,0:2|0:2,0:0:0:0:
232,226,6073,6,0,B|307:214,1,58.4999973220826,0|2,1:2|0:2,0:0:0:0:
64,328,6410,2,0,B|6:318,1,58.4999973220826,8|2,0:2|0:2,0:0:0:0:
150,383,6747,5,2,0:2:0:0:
130,260,6915,1,0,1:2:0:0:
286,204,7084,6,0,L|281:247,1,29.2499986610413,8|2,1:2|0:2,0:0:0:0:
273,308,7253,1,2,0:2:0:0:
357,361,7421,6,0,P|391:335|413:328,1,58.4999973220826,0|2,1:2|0:2,0:0:0:0:
417,243,7758,2,0,P|459:248|479:259,1,58.4999973220826,8|2,0:2|0:2,0:0:0:0:
203,384,8095,6,0,P|169:358|147:351,1,58.4999973220826,0|0,0:0|1:2,0:0:0:0:
143,266,8432,2,0,P|100:271|80:282,1,58.4999973220826,8|2,0:2|0:2,0:0:0:0:
223,161,8769,6,0,L|233:229,1,58.4999973220826,0|2,1:2|0:2,0:0:0:0:
311,185,9106,2,0,L|321:253,1,58.4999973220826,8|2,0:2|0:2,0:0:0:0:
125,97,9444,6,0,L|115:165,1,58.4999973220826,2|0,0:2|1:2,0:0:0:0:
37,121,9781,2,0,L|27:189,1,58.4999973220826,8|2,0:2|0:2,0:0:0:0:
184,20,10118,6,0,B|205:-1|205:-1|233:0,1,58.4999973220826,0|2,1:2|0:2,0:0:0:0:
305,45,10455,2,0,B|334:44|334:44|354:66,1,58.4999973220826,8|2,0:2|0:2,0:0:0:0:
372,148,10792,2,0,B|393:168|393:168|392:197,1,58.4999973220826,0|0,0:0|1:2,0:0:0:0:
347,269,11129,2,0,B|347:298|347:298|325:318,1,58.4999973220826,8|2,0:2|0:2,0:0:0:0:
244,336,11466,6,0,B|232:255,1,58.4999973220826,0|2,1:2|0:2,0:0:0:0:
426,327,11803,2,0,B|417:384,1,58.4999973220826,8|2,0:2|0:2,0:0:0:0:
284,197,12140,5,2,0:2:0:0:
152,259,12309,1,0,1:2:0:0:
269,99,12477,6,0,L|310:116,1,29.2499986610413,8|2,1:2|0:2,0:0:0:0:
379,145,12646,1,2,0:2:0:0:
102,159,12814,6,0,L|22:174,1,76.5000014591217,12|0,0:2|0:0,0:0:0:0:
91,53,13151,2,0,L|171:68,1,76.5000014591217,8|0,0:2|0:0,0:0:0:0:
284,134,13488,1,8,0:2:0:0:
296,110,13657,1,0,1:2:0:0:
245,0,13826,1,8,0:2:0:0:
201,282,14163,6,0,P|218:316|229:352,1,76.5000014591217,8|0,0:2|0:0,0:0:0:0:
354,290,14500,2,0,P|365:253|382:219,1,76.5000014591217,8|0,0:2|0:0,0:0:0:0:
468,158,14837,1,8,0:2:0:0:
492,170,15005,1,0,1:2:0:0:
512,319,15174,1,8,0:2:0:0:
378,92,15511,6,0,B|343:78|343:78|287:88,1,76.5000014591217,8|0,0:2|0:0,0:0:0:0:
102,159,15848,2,0,B|140:165|140:165|175:151,1,76.5000014591217,8|0,0:2|0:0,0:0:0:0:
200,7,16185,1,8,0:2:0:0:
212,31,16354,1,0,1:2:0:0:
266,209,16522,2,0,L|256:296,1,76.5000014591217,8|0,0:2|0:0,0:0:0:0:
126,384,16859,6,0,P|100:361|45:341,1,76.5000014591217,8|0,0:2|0:0,0:0:0:0:
334,343,17196,2,0,P|360:320|415:300,1,76.5000014591217,8|0,0:2|0:0,0:0:0:0:
170,289,17533,1,8,0:2:0:0:
158,265,17702,1,0,1:2:0:0:
212,31,17871,2,0,B|236:1|236:1|258:31,1,76.5000014591217,8|0,0:2|0:0,0:0:0:0:
329,319,18208,5,12,0:2:0:0:
430,279,18376,1,8,0:2:0:0:
213,136,18545,5,8,0:2:0:0:
253,237,18713,1,8,0:2:0:0:
396,19,18882,5,8,0:2:0:0:
294,60,19050,1,8,0:2:0:0:
512,202,19219,5,8,0:2:0:0:
471,101,19387,1,8,0:2:0:0:
253,237,19556,5,12,0:2:0:0:
430,279,19724,1,8,0:2:0:0:
213,136,19893,5,8,0:2:0:0:
171,313,20062,1,8,0:2:0:0:
314,96,20230,5,8,0:2:0:0:
137,54,20399,1,8,0:2:0:0:
354,197,20567,5,8,0:2:0:0:
396,20,20736,1,8,0:2:0:0:
253,237,20904,5,6,1:2:0:0:
218,252,20988,1,2,1:2:0:0:
180,250,21073,1,2,1:2:0:0:
148,230,21157,1,2,1:2:0:0:
129,198,21241,1,2,1:2:0:0:
94,182,21326,1,2,1:2:0:0:
56,184,21410,1,2,1:2:0:0:
24,204,21494,1,2,1:2:0:0:
5,236,21578,5,2,1:2:0:0:
22,258,21663,1,2,1:2:0:0:
36,283,21747,1,2,1:2:0:0:
46,310,21831,1,2,1:2:0:0:
51,338,21915,5,2,1:2:0:0:
42,347,22000,1,2,1:2:0:0:
35,358,22084,1,2,1:2:0:0:
28,368,22168,1,2,1:2:0:0:
22,378,22253,5,2,1:2:0:0:
29,333,22337,1,2,1:2:0:0:
36,288,22421,1,2,1:2:0:0:
43,243,22505,1,2,1:2:0:0:
50,197,22590,1,2,1:2:0:0:
57,152,22674,1,2,1:2:0:0:
64,107,22758,1,2,1:2:0:0:
71,62,22842,1,2,1:2:0:0:
78,16,22927,6,0,P|46:-4|9:0,1,76.5000014591217,14|2,0:2|1:2,0:0:0:0:
212,80,23264,2,0,P|249:83|280:62,1,76.5000014591217,10|0,0:2|0:0,0:0:0:0:
165,193,23601,6,0,L|196:343,1,135,4|0,1:2|0:0,0:0:0:0:
277,384,23938,1,8,0:2:0:0:
388,287,24106,1,2,0:2:0:0:
388,287,24191,1,2,0:2:0:0:
388,287,24275,2,0,L|326:275,1,45,2|0,0:2|0:0,0:0:0:0:
282,164,24444,2,0,L|344:152,1,45,0|0,1:2|0:0,0:0:0:0:
458,212,24612,1,8,0:2:0:0:
281,357,24781,1,2,0:2:0:0:
203,121,24949,6,0,P|185:107|140:98,1,45,0|0,1:2|0:0,0:0:0:0:
94,159,25118,2,0,P|71:161|51:170,1,45,2|0,0:2|0:0,0:0:0:0:
309,34,25286,6,0,P|327:20|372:11,1,45,8|0,0:2|0:0,0:0:0:0:
418,72,25455,2,0,P|440:74|460:83,1,45,2|0,0:2|0:0,0:0:0:0:
455,179,25623,5,2,0:2:0:0:
458,212,25708,1,2,0:2:0:0:
462,246,25792,1,2,1:2:0:0:
466,279,25876,1,2,0:2:0:0:
470,313,25960,1,10,0:2:0:0:
260,252,26129,1,2,0:2:0:0:
369,372,26297,6,0,L|379:306,1,45,0|0,1:2|0:0,0:0:0:0:
285,381,26466,2,0,L|295:315,1,45,2|0,0:2|0:0,0:0:0:0:
167,273,26635,6,0,L|173:317,1,45,8|0,0:2|0:0,0:0:0:0:
83,264,26803,2,0,L|89:308,1,45,2|2,0:2|0:2,0:0:0:0:
31,369,26972,5,2,0:2:0:0:
135,169,27140,1,0,1:2:0:0:
37,384,27309,1,8,0:2:0:0:
0,194,27477,1,2,0:2:0:0:
167,273,27646,6,0,P|224:237|269:232,1,90,0|2,1:2|0:2,0:0:0:0:
375,327,27983,1,8,0:2:0:0:
331,175,28151,1,2,0:2:0:0:
335,141,28236,1,2,0:2:0:0:
340,108,28320,1,2,0:2:0:0:
345,74,28404,1,2,0:2:0:0:
350,41,28488,6,0,L|355:-3,1,45,2|0,1:2|0:0,0:0:0:0:
219,76,28657,2,0,L|224:120,1,45,8|0,0:2|0:0,0:0:0:0:
101,73,28826,2,0,L|106:28,1,45,2|0,0:2|0:0,0:0:0:0:
0,154,28994,6,0,P|61:167|115:225,1,135,0|0,1:2|0:0,0:0:0:0:
120,295,29331,1,8,0:2:0:0:
245,232,29500,1,2,0:2:0:0:
245,232,29584,1,2,0:2:0:0:
245,232,29668,2,0,L|302:222,1,45,2|0,0:2|0:0,0:0:0:0:
340,347,29837,2,0,L|283:337,1,45,0|0,1:2|0:0,0:0:0:0:
191,384,30005,1,8,0:2:0:0:
335,141,30174,1,2,0:2:0:0:
426,384,30342,6,0,B|440:366|440:366|462:361,1,45,0|0,1:2|0:0,0:0:0:0:
495,281,30511,2,0,B|517:278|517:278|536:290,1,45,2|0,0:2|0:0,0:0:0:0:
456,149,30679,6,0,L|452:209,1,45,8|0,0:2|0:0,0:0:0:0:
369,268,30848,2,0,L|372:224,1,45,2|0,0:2|0:0,0:0:0:0:
335,141,31017,5,2,0:2:0:0:
308,120,31101,1,2,0:2:0:0:
278,105,31185,1,2,1:2:0:0:
245,96,31269,1,2,0:2:0:0:
212,95,31354,1,10,0:2:0:0:
314,0,31522,1,2,0:2:0:0:
110,39,31691,6,0,B|96:57|96:57|73:61,1,45,0|0,1:2|0:0,0:0:0:0:
41,142,31859,2,0,B|18:144|18:144|0:132,1,45,2|0,0:2|0:0,0:0:0:0:
79,267,32028,6,0,L|83:207,1,45,8|0,0:2|0:0,0:0:0:0:
171,174,32196,2,0,L|168:218,1,45,2|2,0:2|0:2,0:0:0:0:
242,285,32365,5,2,0:2:0:0:
30,354,32533,1,0,1:2:0:0:
265,188,32702,6,0,L|414:211,1,135,8|0,0:2|0:0,0:0:0:0:
484,177,33039,6,0,L|493:246,1,53.9999983520508,10|0,0:2|0:0,0:0:0:0:
419,362,33376,2,0,L|425:308,1,53.9999983520508,10|2,0:2|0:2,0:0:0:0:
381,116,33713,5,10,0:2:0:0:
380,89,33797,1,0,0:0:0:0:
390,64,33882,1,2,1:2:0:0:
408,44,33966,1,0,0:0:0:0:
432,32,34050,2,0,L|474:25,1,42.7499988584519,10|0,0:2|0:0,0:0:0:0:
287,81,34219,2,0,L|244:74,1,42.7499988584519,10|0,0:2|0:0,0:0:0:0:
142,24,34387,6,0,L|152:102,1,56.25,4|0,1:2|0:0,0:0:0:0:
221,218,34556,2,0,L|187:216,1,33.7500012874604,2|0,0:2|0:0,0:0:0:0:
15,151,34724,6,0,B|34:130|34:130|88:120,1,56.25,8|0,0:2|0:0,0:0:0:0:
46,302,34893,2,0,B|23:297|23:297|-6:263,1,45,2|0,0:2|0:0,0:0:0:0:
162,200,35062,2,0,B|167:216|167:216|161:231,1,33.7500012874604,2|0,0:2|0:0,0:0:0:0:
151,370,35230,6,0,L|137:320,1,45,0|0,1:2|0:0,0:0:0:0:
278,292,35399,2,0,L|265:335,1,45,8|0,0:2|0:0,0:0:0:0:
405,370,35567,2,0,L|392:326,1,45,2|0,0:2|0:0,0:0:0:0:
396,187,35736,5,0,1:2:0:0:
508,265,35904,1,2,0:2:0:0:
404,104,36073,5,8,0:2:0:0:
512,112,36241,1,2,0:2:0:0:
346,38,36410,5,2,0:2:0:0:
424,0,36578,1,0,1:2:0:0:
272,131,36747,5,8,0:2:0:0:
194,93,36915,1,2,0:2:0:0:
312,222,37084,6,0,P|328:252|327:293,1,56.25,0|0,1:2|0:0,0:0:0:0:
258,31,37253,2,0,P|260:14|269:0,1,33.7500012874604,2|0,0:2|0:0,0:0:0:0:
200,188,37421,6,0,P|182:216|146:236,1,56.25,8|0,0:2|0:0,0:0:0:0:
346,38,37590,2,0,P|361:32|378:32,1,33.7500012874604,2|0,0:2|0:0,0:0:0:0:
106,94,37758,6,0,L|45:79,1,56.25,2|0,0:2|0:0,0:0:0:0:
13,197,37927,2,0,L|73:182,1,45,0|0,1:2|0:0,0:0:0:0:
85,290,38095,2,0,L|24:275,1,33.7500012874604,8|0,0:2|0:0,0:0:0:0:
24,365,38264,2,0,L|54:357,1,22.5,2|0,0:2|0:0,0:0:0:0:
200,188,38432,5,0,1:2:0:0:
178,324,38601,1,2,0:2:0:0:
272,131,38769,5,8,0:2:0:0:
319,348,38938,1,2,0:2:0:0:
89,177,39106,6,0,L|45:187,1,33.7500012874604,2|0,0:2|0:0,0:0:0:0:
174,37,39275,6,0,L|135:13,1,33.7500012874604,2|0,1:2|0:0,0:0:0:0:
337,40,39444,6,0,L|326:-3,1,33.7500012874604,10|0,0:2|0:0,0:0:0:0:
450,157,39612,6,0,L|462:113,1,33.7500012874604,2|0,0:2|0:0,0:0:0:0:
405,313,39781,5,4,1:2:0:0:
272,131,39949,1,2,0:2:0:0:
290,318,40118,5,0,1:2:0:0:
268,116,40286,1,2,0:2:0:0:
200,269,40455,5,0,1:2:0:0:
272,101,40623,1,2,0:2:0:0:
151,189,40792,5,0,1:2:0:0:
282,90,40960,1,2,0:2:0:0:
82,61,41129,5,4,1:2:0:0:
107,272,41297,1,2,0:2:0:0:
189,112,41466,5,0,1:2:0:0:
113,287,41635,1,2,0:2:0:0:
248,200,41803,5,0,1:2:0:0:
110,302,41972,1,2,0:2:0:0:
253,296,42140,5,0,1:2:0:0:
99,313,42309,1,2,0:2:0:0:
237,189,42477,5,6,1:2:0:0:
274,178,42562,1,2,1:2:0:0:
313,185,42646,1,2,1:2:0:0:
345,207,42730,1,2,1:2:0:0:
364,241,42814,1,2,1:2:0:0:
391,268,42899,1,2,1:2:0:0:
427,281,42983,1,2,1:2:0:0:
467,278,43067,1,2,1:2:0:0:
500,258,43151,5,2,1:2:0:0:
487,233,43236,1,2,1:2:0:0:
481,205,43320,1,2,1:2:0:0:
482,177,43404,1,2,1:2:0:0:
490,150,43488,5,2,1:2:0:0:
500,130,43573,1,2,1:2:0:0:
507,108,43657,1,2,1:2:0:0:
508,86,43741,1,2,1:2:0:0:
506,64,43826,6,0,L|499:34,1,16.8750006437302,2|0,1:2|0:0,0:0:0:0:
476,35,43910,2,0,L|455:12,1,16.8750006437302,2|0,1:2|0:0,0:0:0:0:
435,24,43994,2,0,L|406:14,1,16.8750006437302,2|0,1:2|0:0,0:0:0:0:
393,34,44078,2,0,L|363:40,1,16.8750006437302,2|0,1:2|0:0,0:0:0:0:
364,74,44163,6,0,L|343:51,1,20.2499993820191,2|0,1:2|0:0,0:0:0:0:
325,88,44247,2,0,L|318:58,1,20.2499993820191,2|0,1:2|0:0,0:0:0:0:
284,80,44331,2,0,L|293:51,1,20.2499993820191,2|0,1:2|0:0,0:0:0:0:
252,52,44415,2,0,L|274:31,1,20.2499993820191,2|0,1:2|0:0,0:0:0:0:
238,12,44500,5,8,0:2:0:0:
90,94,44668,1,0,1:2:0:0:
269,207,44837,5,8,0:2:0:0:
274,178,45005,1,0,0:0:0:0:
175,181,45174,6,0,B|141:304|237:250|207:373,1,202.500007724762,6|0,1:2|0:0,0:0:0:0:
307,300,45511,6,0,P|316:289|341:284,1,33.7500012874604,8|0,0:2|0:0,0:0:0:0:
397,209,45679,1,2,0:2:0:0:
414,206,45764,1,2,0:2:0:0:
431,209,45848,2,0,P|448:213|460:225,1,33.7500012874604,2|0,0:2|0:0,0:0:0:0:
512,384,46017,1,0,1:2:0:0:
403,316,46185,6,0,P|308:290|146:278,1,249.749999047279,8|0,0:2|0:0,0:0:0:0:
80,207,46522,6,0,B|18:184|105:89|229:136|163:192,1,202.500007724762,2|0,1:2|0:0,0:0:0:0:
64,342,46859,6,0,P|58:325|50:311,1,33.7500012874604,8|0,0:2|0:0,0:0:0:0:
123,83,47028,2,0,P|114:97|109:113,1,33.7500012874604,2|0,0:2|0:0,0:0:0:0:
143,279,47196,1,2,0:2:0:0:
0,103,47365,1,2,1:2:0:0:
274,178,47533,6,0,B|299:175|311:152|311:152|305:115|305:115|312:89|341:86|341:86|413:98|413:98|391:102|376:122,1,249.749999047279,10|0,0:2|0:0,0:0:0:0:
373,234,47871,6,0,P|294:175|186:140,1,202.500007724762,2|0,1:2|0:0,0:0:0:0:
100,145,48208,6,0,P|106:129|109:112,1,33.7500012874604,8|0,0:2|0:0,0:0:0:0:
298,0,48376,1,2,0:2:0:0:
293,16,48460,1,2,0:2:0:0:
291,33,48545,2,0,P|293:49|300:65,1,33.7500012874604,2|0,0:2|0:0,0:0:0:0:
450,183,48713,1,0,1:2:0:0:
204,48,48882,6,0,B|157:41|157:41|122:0|122:0|81:30|81:30|30:26,1,202.500007724762,8|0,0:2|0:0,0:0:0:0:
67,160,49219,6,0,B|46:130|46:130|109:112|109:112|165:146|165:146|138:169,1,202.500007724762,2|0,1:2|0:0,0:0:0:0:
94,258,49556,6,0,L|100:311,1,33.7500012874604,8|0,0:2|0:0,0:0:0:0:
267,245,49724,1,2,0:2:0:0:
268,228,49808,1,2,0:2:0:0:
270,211,49893,2,0,L|273:177,1,33.7500012874604,2|2,0:2|0:2,0:0:0:0:
415,303,50062,1,2,1:2:0:0:
203,331,50230,5,8,0:2:0:0:
450,183,50399,1,2,0:2:0:0:
323,372,50567,6,0,P|312:300|271:172,1,202.500007724762,2|0,1:2|0:0,0:0:0:0:
298,85,50904,6,0,P|284:75|268:67,1,33.7500012874604,8|0,0:2|0:0,0:0:0:0:
195,14,51072,1,2,0:2:0:0:
176,14,51156,1,2,0:2:0:0:
160,22,51241,2,0,P|146:31|135:44,1,33.7500012874604,2|0,0:2|0:0,0:0:0:0:
27,83,51410,5,2,1:2:0:0:
44,91,51494,2,0,P|57:100|68:113,1,33.7500012874604,0|10,0:0|0:2,0:0:0:0:
143,178,51663,1,0,0:0:0:0:
139,196,51747,2,0,P|133:210|123:224,1,33.7500012874604,2|0,0:2|0:0,0:0:0:0:
17,289,51915,6,0,B|131:282|79:377|219:358,1,202.500007724762,2|0,1:2|0:0,0:0:0:0:
392,279,52253,2,0,P|317:306|285:393,1,168.75,10|0,0:2|0:0,0:0:0:0:
232,276,52590,2,0,P|222:245|199:218,1,56.25,2|2,0:2|0:2,0:0:0:0:
328,163,52758,2,0,P|308:186|301:213,1,56.25,2|2,1:2|0:2,0:0:0:0:
277,86,52927,6,0,B|184:75|184:75|179:66|179:66|81:54,1,202.500007724762,10|0,0:2|0:0,0:0:0:0:
0,75,53264,5,2,1:2:0:0:
81,165,53432,1,2,0:2:0:0:
43,279,53601,1,10,0:2:0:0:
223,176,53769,5,2,0:2:0:0:
162,109,53937,1,2,0:2:0:0:
190,23,54106,1,2,1:2:0:0:
317,86,54275,6,0,B|365:163|449:118|449:118|422:101|420:57,1,202.500007724762,10|0,0:2|0:0,0:0:0:0:
367,0,54612,6,0,P|331:100|307:257,1,222.75000212431,0|0,1:2|0:0,0:0:0:0:
370,294,54949,2,0,L|404:283,1,33.7500012874604,8|0,0:2|0:0,0:0:0:0:
280,373,55118,2,0,L|247:362,2,33.7500012874604,0|0|2,1:2|0:0|0:2,0:0:0:0:
506,372,55455,5,2,1:2:0:0:
196,300,55623,1,8,0:2:0:0:
439,211,55792,1,0,1:2:0:0:
223,176,55960,6,0,B|104:167|164:261|33:244,1,202.500007724762,6|0,1:2|0:0,0:0:0:0:
56,119,56297,6,0,L|63:157,1,33.7500012874604,8|0,0:2|0:0,0:0:0:0:
189,333,56466,1,2,0:2:0:0:
193,317,56550,1,2,0:2:0:0:
196,300,56635,2,0,L|203:262,1,33.7500012874604,2|0,0:2|0:0,0:0:0:0:
297,118,56803,1,0,1:2:0:0:
354,302,56972,6,0,B|342:321|342:321|408:366|408:366|423:290|423:290|401:282,1,202.500007724762,8|0,0:2|0:0,0:0:0:0:
434,165,57309,6,0,B|422:145|422:145|464:137|485:103|485:103|478:144|503:176|503:176|481:184,1,202.500007724762,2|0,1:2|0:0,0:0:0:0:
316,212,57646,6,0,L|255:201,1,33.7500012874604,8|0,0:2|0:0,0:0:0:0:
373,50,57814,2,0,L|434:39,1,33.7500012874604,2|0,0:2|0:0,0:0:0:0:
512,284,57983,1,2,0:2:0:0:
297,118,58151,1,2,1:2:0:0:
396,340,58320,6,0,B|420:332|423:306|423:306|404:225|404:225|408:202|430:194|430:194|481:184|481:184|470:191|464:205,1,249.749999047279,10|0,0:2|0:0,0:0:0:0:
300,315,58657,6,0,P|224:271|93:245,1,202.500007724762,2|0,1:2|0:0,0:0:0:0:
28,280,58994,6,0,P|22:264|19:247,1,33.7500012874604,8|0,0:2|0:0,0:0:0:0:
205,162,59162,1,2,0:2:0:0:
216,175,59246,1,2,0:2:0:0:
223,190,59331,2,0,P|226:205|225:223,1,33.7500012874604,2|0,0:2|0:0,0:0:0:0:
101,335,59499,1,0,1:2:0:0:
101,79,59668,6,0,B|164:84|164:84|213:55|213:55|254:93|254:93|327:104,1,249.749999047279,8|0,0:2|0:0,0:0:0:0:
464,43,60005,6,0,P|410:124|381:235,1,202.500007724762,2|0,1:2|0:0,0:0:0:0:
434,308,60342,6,0,P|450:302|467:299,1,33.7500012874604,8|0,0:2|0:0,0:0:0:0:
284,210,60510,1,2,0:2:0:0:
271,199,60594,1,2,0:2:0:0:
256,192,60679,2,0,P|240:188|222:189,1,33.7500012874604,2|2,0:2|0:2,0:0:0:0:
112,245,60848,1,2,1:2:0:0:
304,369,61017,5,10,0:2:0:0:
326,103,61185,1,2,0:2:0:0:
199,308,61354,6,0,P|289:253|412:220,1,202.500007724762,6|0,1:2|0:0,0:0:0:0:
488,144,61691,6,0,P|474:134|458:126,1,33.7500012874604,8|0,0:2|0:0,0:0:0:0:
385,73,61859,1,2,0:2:0:0:
366,73,61943,1,2,0:2:0:0:
350,81,62028,2,0,P|336:90|325:103,1,33.7500012874604,2|0,0:2|0:0,0:0:0:0:
223,189,62197,5,0,1:2:0:0:
205,183,62281,2,0,P|192:174|181:161,1,33.7500012874604,2|8,0:2|0:2,0:0:0:0:
115,96,62449,1,0,0:0:0:0:
116,77,62533,2,0,P|121:62|131:48,1,33.7500012874604,2|0,0:2|0:0,0:0:0:0:
239,31,62702,6,0,B|150:38|150:38|136:23|136:23|28:32,1,202.500007724762,2|0,1:2|0:0,0:0:0:0:
2,114,63039,2,0,B|34:154|34:154|-3:275,1,168.75,10|0,0:2|0:0,0:0:0:0:
82,328,63376,2,0,L|88:361,1,33.7500012874604,2|2,0:2|0:2,0:0:0:0:
189,280,63545,2,0,L|182:313,1,33.7500012874604,2|2,1:2|0:2,0:0:0:0:
285,306,63713,6,0,B|440:337|440:337|406:303,1,202.500007724762,10|0,0:2|0:0,0:0:0:0:
342,220,64050,5,2,1:2:0:0:
512,153,64219,1,2,0:2:0:0:
262,152,64387,1,10,0:2:0:0:
262,152,64472,2,0,L|164:173,1,85.4999977169037,2|2,0:2|0:2,0:0:0:0:
82,230,64724,5,2,0:2:0:0:
265,302,64893,1,2,1:2:0:0:
134,94,65062,2,0,B|103:69|104:32|104:32|97:68|63:87,1,141.749995674133,10|0,0:2|0:0,0:0:0:0:
0,138,65399,6,0,P|83:99|219:57,1,222.75000212431,2|0,1:2|0:0,0:0:0:0:
315,60,65736,6,0,B|341:50|341:21|341:21|327:46|314:51,1,90,8|2,0:2|0:2,0:0:0:0:
199,209,66073,5,8,0:2:0:0:
388,166,66241,1,2,0:2:0:0:
134,94,66410,1,8,0:2:0:0:
494,10,66747,5,4,1:2:0:0:
450,188,67084,6,0,P|424:174|384:165,1,67.5000025749208,8|0,0:2|0:0,0:0:0:0:
343,239,67421,2,0,P|310:246|280:261,1,67.5000025749208,2|0,0:2|0:0,0:0:0:0:
225,365,67758,5,8,0:2:0:0:
137,181,67927,1,2,0:2:0:0:
284,273,68095,6,0,P|310:259|350:250,1,67.5000025749208,0|0,1:2|0:0,0:0:0:0:
391,324,68432,2,0,P|423:331|453:346,1,67.5000025749208,8|0,0:2|0:0,0:0:0:0:
502,276,68769,2,0,P|508:227|518:192,1,67.5000025749208,2|0,0:2|0:0,0:0:0:0:
393,85,69106,5,8,0:2:0:0:
418,181,69275,1,2,0:2:0:0:
462,10,69444,5,0,1:2:0:0:
300,77,69612,1,2,0:2:0:0:
487,114,69781,1,8,0:2:0:0:
503,103,69949,5,2,0:2:0:0:
258,0,70118,1,2,0:2:0:0:
339,233,70286,1,2,0:2:0:0:
400,103,70455,5,8,0:2:0:0:
393,85,70623,1,2,0:2:0:0:
259,164,70792,1,0,1:2:0:0:
486,204,70960,5,2,0:2:0:0:
332,251,71129,1,8,0:2:0:0:
339,233,71297,1,2,0:2:0:0:
259,164,71466,5,2,0:2:0:0:
241,139,71550,1,2,0:2:0:0:
212,149,71634,1,2,0:2:0:0:
212,177,71719,1,2,0:2:0:0:
241,187,71803,2,0,P|247:207|252:243,1,40.4999987640381,10|0,0:2|0:0,0:0:0:0:
195,287,72140,5,12,0:2:0:0:
97,251,72309,1,8,0:2:0:0:
346,250,72477,5,8,0:2:0:0:
310,348,72646,1,8,0:2:0:0:
309,99,72814,5,8,0:2:0:0:
407,135,72983,1,8,0:2:0:0:
158,136,73151,5,8,0:2:0:0:
194,38,73320,1,8,0:2:0:0:
101,230,73488,5,12,0:2:0:0:
138,381,73657,1,8,0:2:0:0:
158,136,73825,5,8,0:2:0:0:
7,173,73994,1,8,0:2:0:0:
252,193,74163,5,8,0:2:0:0:
215,42,74331,1,8,0:2:0:0:
195,287,74500,5,8,0:2:0:0:
346,250,74668,1,8,0:2:0:0:
101,230,74837,5,6,1:2:0:0:
72,247,74921,1,2,1:2:0:0:
49,272,75005,1,2,1:2:0:0:
35,302,75089,1,2,1:2:0:0:
29,336,75174,5,2,1:2:0:0:
47,292,75258,1,2,1:2:0:0:
53,245,75342,1,2,1:2:0:0:
48,199,75426,1,2,1:2:0:0:
32,155,75511,5,2,1:2:0:0:
7,122,75595,1,2,1:2:0:0:
1,81,75679,1,2,1:2:0:0:
14,42,75763,1,2,1:2:0:0:
43,14,75848,1,2,1:2:0:0:
83,3,75932,1,2,1:2:0:0:
123,11,76016,1,2,1:2:0:0:
155,37,76100,1,2,1:2:0:0:
171,74,76185,6,0,L|158:104,1,23.6249992790222,2|0,1:2|0:0,0:0:0:0:
189,117,76269,2,0,L|192:149,1,23.6249992790222,2|0,1:2|0:0,0:0:0:0:
226,145,76354,2,0,L|245:171,1,23.6249992790222,2|0,1:2|0:0,0:0:0:0:
272,150,76438,2,0,L|301:162,1,23.6249992790222,2|0,1:2|0:0,0:0:0:0:
314,132,76523,6,0,L|360:126,1,25.8750004935265,2|0,1:2|0:0,0:0:0:0:
340,85,76606,2,0,L|382:102,1,25.8750004935265,2|0,1:2|0:0,0:0:0:0:
386,57,76691,2,0,L|414:93,1,25.8750004935265,2|0,1:2|0:0,0:0:0:0:
439,55,76775,2,0,L|445:100,1,25.8750004935265,2|0,1:2|0:0,0:0:0:0:
485,79,76859,5,8,0:2:0:0:
337,280,77028,1,0,1:2:0:0:
261,25,77196,1,8,0:2:0:0:
494,355,77533,5,12,1:2:0:0:
