osu file format v14

[General]
AudioFilename: audio.mp3
AudioLeadIn: 0
PreviewTime: 44753
Countdown: 0
SampleSet: Soft
StackLeniency: 0.5
Mode: 0
LetterboxInBreaks: 0
WidescreenStoryboard: 1

[Editor]
Bookmarks: 2028,12814,23601,33039,34387,43826,45174,55960,66747,72140,74837,77533
DistanceSpacing: 1.2
BeatDivisor: 4
GridSize: 4
TimelineZoom: 2

[Metadata]
Title:K.O.K.O.R.O
TitleUnicode:K.O.K.O.R.O
Artist:Halozy
ArtistUnicode:Halozy
Creator:GanyuMyMommy
Version:Easy
Source:東方地霊殿 ~ Subterranean Animism.
Tags:Soraka -Sylvari Video Game Instrumental Touhou Project 東方Project ZUN Touhou Team Shanghai Alice SA DnB Satori Maiden Third Eye Komeiji KOKORO Stage 4 Boss ハートフェルトファンシー 3rd Eyes Chireiden Earth Spirit Palace TH11 TH 11 すみじゅん sumijun Reitaisai 9 R9 HLZY-0013 Future Love nytrocide_ nytro
BeatmapID:3401645
BeatmapSetID:1666067

[Difficulty]
HPDrainRate:2
CircleSize:2.6
OverallDifficulty:3
ApproachRate:4
SliderMultiplier:0.799999999999999
SliderTickRate:1

[Events]
//Background and Video events
0,0,"kokoro bg.jpg",0,0
//Break Periods
//Storyboard Layer 0 (Background)
//Storyboard Layer 1 (Fail)
//Storyboard Layer 2 (Pass)
//Storyboard Layer 3 (Foreground)
//Storyboard Layer 4 (Overlay)
//Storyboard Sound Samples

[TimingPoints]
680,337.078651685393,4,2,1,50,1,0
680,-111.111111111111,4,2,1,50,0,0
2028,-111.111111111111,4,2,1,55,0,0
12814,-111.111111111111,4,2,2,55,0,0
18208,-111.111111111111,4,2,2,60,0,0
20904,-111.111111111111,4,2,2,65,0,0
22927,-111.111111111111,4,2,2,55,0,0
23601,-111.111111111111,4,2,2,70,0,0
33039,-111.111111111111,4,2,2,60,0,0
33545,-111.111111111111,4,2,1,55,0,0
33713,-111.111111111111,4,2,2,65,0,0
34387,-111.111111111111,4,2,2,70,0,0
39781,-111.111111111111,4,2,2,75,0,0
42477,-111.111111111111,4,2,2,80,0,0
43826,-111.111111111111,4,2,2,72,0,0
44500,-111.111111111111,4,2,2,70,0,0
44837,-111.111111111111,4,2,2,68,0,0
45174,-100,4,2,2,85,0,1
55623,-100,4,2,2,77,0,1
55960,-100,4,2,2,85,0,1
66747,-111.111111111111,4,2,2,65,0,0
71803,-105.263157894737,4,2,2,65,0,0
72140,-105.263157894737,4,2,2,70,0,0
74837,-105.263157894737,4,2,2,72,0,0
76185,-105.263157894737,4,2,2,65,0,0
76859,-105.263157894737,4,2,2,70,0,0
77533,-769.230769230769,4,2,1,50,0,0

[Colours]
Combo1 : 230,200,150
Combo2 : 210,60,60
Combo3 : 90,215,60
Combo4 : 200,90,170

[HitObjects]
35,118,2028,6,0,P|95:85|177:76,1,143.999995605469,4|0,1:2|0:0,0:0:0:0:
342,75,3376,2,0,P|413:83|476:117,1,143.999995605469,0|2,1:2|0:2,0:0:0:0:
454,289,4724,2,0,L|469:370,2,71.9999978027344,0|8|0,1:2|0:2|0:0,0:0:0:0:
402,219,5736,1,8,0:2:0:0:
323,254,6073,2,0,P|262:281|185:260,1,143.999995605469,0|2,1:2|0:2,0:0:0:0:
45,358,7421,6,0,L|30:213,1,143.999995605469,0|0,1:2|0:0,0:0:0:0:
164,105,8769,2,0,L|149:248,1,143.999995605469,0|2,1:2|0:2,0:0:0:0:
278,363,10118,2,0,L|350:382,2,71.9999978027344,0|8|0,1:2|0:2|0:0,0:0:0:0:
235,287,11129,1,8,0:2:0:0:
280,213,11466,2,0,P|262:147|189:113,1,143.999995605469,0|2,1:2|0:2,0:0:0:0:
50,24,12814,6,0,P|21:24|-16:49,2,71.9999978027344,12|8|8,0:2|0:2|0:2,0:0:0:0:
66,196,14163,2,0,P|51:221|54:265,2,71.9999978027344,8|8|8,0:2|0:2|0:2,0:0:0:0:
179,65,15511,2,0,B|255:57|239:112|314:107,1,143.999995605469,8|8,0:2|0:2,0:0:0:0:
386,63,16522,1,8,0:2:0:0:
440,130,16859,2,0,L|521:121,2,71.9999978027344,8|8|8,0:2|0:2|0:2,0:0:0:0:
429,302,18208,6,0,P|377:275|275:277,1,143.999995605469,12|8,0:2|0:2,0:0:0:0:
229,330,19219,1,8,0:2:0:0:
144,311,19556,2,0,P|132:233|88:152,1,143.999995605469,12|8,0:2|0:2,0:0:0:0:
46,110,20567,1,8,0:2:0:0:
109,50,20904,6,0,B|189:42|248:118|202:144|261:221|349:204,1,287.999991210937,6|2,1:2|1:2,0:0:0:0:
496,169,22927,1,14,0:2:0:0:
512,84,23264,1,10,0:2:0:0:
462,13,23601,6,0,P|401:3|329:61,1,143.999995605469,4|2,1:2|0:2,0:0:0:0:
315,131,24612,1,8,0:2:0:0:
230,115,24949,2,0,L|140:107,2,71.9999978027344,0|8|2,1:2|0:2|0:2,0:0:0:0:
377,204,26297,6,0,P|426:253|406:351,1,143.999995605469,0|2,1:2|0:2,0:0:0:0:
345,357,27309,1,8,0:2:0:0:
267,318,27646,2,0,L|273:226,2,71.9999978027344,0|8|2,1:2|0:2|0:2,0:0:0:0:
98,356,28994,6,0,B|84:300|84:300|89:272|89:272|76:210,1,143.999995605469,0|2,1:2|0:2,0:0:0:0:
19,151,30005,1,8,0:2:0:0:
72,83,30342,2,0,P|115:60|144:61,2,71.9999978027344,0|8|2,1:2|0:2|0:2,0:0:0:0:
216,178,31691,6,0,P|303:227|434:198,1,215.999993408203,0|8,1:2|0:2,0:0:0:0:
470,145,33039,1,10,0:2:0:0:
337,22,33713,1,10,0:2:0:0:
255,51,34050,1,10,0:2:0:0:
184,0,34387,6,0,B|113:10|113:10|42:83,1,143.999995605469,4|2,1:2|0:2,0:0:0:0:
29,141,35399,1,8,0:2:0:0:
67,218,35736,2,0,L|44:316,2,71.9999978027344,0|8|2,1:2|0:2|0:2,0:0:0:0:
150,197,36747,1,8,0:2:0:0:
195,270,37084,6,0,B|269:248|267:303|349:275,1,143.999995605469,0|2,1:2|0:2,0:0:0:0:
403,331,38095,1,8,0:2:0:0:
462,268,38432,2,0,P|489:253|536:244,2,71.9999978027344,0|8|2,1:2|0:2|0:2,0:0:0:0:
396,211,39444,1,10,0:2:0:0:
449,143,39781,6,0,B|460:96|460:96|411:10|315:46,1,215.999993408203,4|0,1:2|1:2,0:0:0:0:
246,94,41129,2,0,B|158:84|158:84|118:93|118:93|62:80|60:28,1,215.999993408203,4|0,1:2|1:2,0:0:0:0:
256,192,42477,12,2,43826,1:2:0:0:
136,360,45174,6,0,P|44:362|-6:305,2,160,6|2|2,1:2|0:2|1:2,0:0:0:0:
201,289,46859,1,8,0:2:0:0:
294,265,47196,1,2,0:2:0:0:
478,326,47871,2,0,P|509:264|484:174,1,160,2|2,1:2|0:2,0:0:0:0:
400,141,48882,1,8,0:2:0:0:
354,56,49219,1,2,1:2:0:0:
68,89,50230,5,8,0:2:0:0:
106,176,50567,2,0,B|148:160|148:160|267:188,2,160,2|2|2,1:2|0:2|1:2,0:0:0:0:
39,245,52253,1,10,0:2:0:0:
61,338,52590,1,2,0:2:0:0:
247,290,53264,2,0,P|284:275|339:283,2,79.9999999999999,2|10|2,1:2|0:2|0:2,0:0:0:0:
423,365,54612,2,0,L|513:344,1,79.9999999999999,0|8,1:2|0:2,0:0:0:0:
412,176,55623,5,8,0:2:0:0:
327,129,55960,2,0,L|148:163,2,160,6|2|2,1:2|0:2|1:2,0:0:0:0:
375,45,57646,1,8,0:2:0:0:
468,21,57983,1,2,0:2:0:0:
480,212,58657,2,0,P|443:348|440:349,1,160,2|2,1:2|0:2,0:0:0:0:
351,344,59668,1,8,0:2:0:0:
278,281,60005,1,2,1:2:0:0:
8,381,61017,1,10,0:2:0:0:
8,285,61354,6,0,B|-7:220|-7:220|20:103,2,160,6|2|2,1:2|0:2|1:2,0:0:0:0:
103,288,63039,1,10,0:2:0:0:
168,357,63376,1,2,0:2:0:0:
350,296,64050,2,0,L|446:317,2,79.9999999999999,2|10|2,1:2|0:2|0:2,0:0:0:0:
247,133,65399,2,0,L|151:154,2,79.9999999999999,2|8|8,1:2|0:2|0:2,0:0:0:0:
410,77,66747,6,0,P|416:125|444:173,2,71.9999978027344,4|8|2,1:2|0:2|0:2,0:0:0:0:
358,7,67758,1,8,0:2:0:0:
274,28,68095,2,0,P|200:26|149:93,1,143.999995605469,0|2,1:2|0:2,0:0:0:0:
145,159,69106,1,8,0:2:0:0:
196,228,69444,2,0,L|175:352,2,107.999996704102,0|2|8,1:2|0:2|0:2,0:0:0:0:
279,204,70792,1,0,1:2:0:0:
10,257,71803,5,10,0:2:0:0:
55,335,72140,2,0,B|91:301|148:319|148:319|186:383|270:374,1,227.999993911743,12|8,0:2|0:2,0:0:0:0:
318,308,73488,2,0,P|325:246|376:162,1,151.999995941162,12|8,0:2|0:2,0:0:0:0:
445,119,74500,1,8,0:2:0:0:
256,192,74837,12,12,77533,1:2:0:0:
