osu file format v14

[General]
AudioFilename: audio.mp3
AudioLeadIn: 0
PreviewTime: 44753
Countdown: 0
SampleSet: Soft
StackLeniency: 0.3
Mode: 0
LetterboxInBreaks: 0
WidescreenStoryboard: 1

[Editor]
Bookmarks: 2028,12814,23601,33039,34387,43826,45174,55960,66747,72140,74837,77533
DistanceSpacing: 1
BeatDivisor: 4
GridSize: 4
TimelineZoom: 2

[Metadata]
Title:K.O.K.O.R.O
TitleUnicode:K.O.K.O.R.O
Artist:Halozy
ArtistUnicode:Halozy
Creator:GanyuMyMommy
Version:-Sylvari's Lunatic
Source:東方地霊殿 ~ Subterranean Animism.
Tags:Soraka -Sylvari Video Game Instrumental Touhou Project 東方Project ZUN Touhou Team Shanghai Alice SA DnB Satori Maiden Third Eye Komeiji KOKORO Stage 4 Boss ハートフェルトファンシー 3rd Eyes Chireiden Earth Spirit Palace TH11 TH 11 すみじゅん sumijun Reitaisai 9 R9 HLZY-0013 Future Love nytrocide_ nytro
BeatmapID:3407339
BeatmapSetID:1666067

[Difficulty]
HPDrainRate:5
CircleSize:5
OverallDifficulty:8
ApproachRate:8.5
SliderMultiplier:1.8
SliderTickRate:1

[Events]
//Background and Video events
0,0,"kokoro bg.jpg",0,0
//Break Periods
//Storyboard Layer 0 (Background)
//Storyboard Layer 1 (Fail)
//Storyboard Layer 2 (Pass)
//Storyboard Layer 3 (Foreground)
//Storyboard Layer 4 (Overlay)
//Storyboard Sound Samples

[TimingPoints]
680,337.078651685393,4,2,1,30,1,0
680,-100,4,2,1,30,0,0
2028,-153.846153846153,4,2,1,45,0,0
12814,-117.647058823529,4,2,2,50,0,0
18208,-133.333333333333,4,2,2,55,0,0
20904,-117.647058823529,4,2,2,65,0,0
22253,-66.6666666666667,4,2,2,65,0,0
22927,-100,4,2,2,55,0,0
23601,-100,4,2,2,70,0,0
31691,-66.6666666666667,4,2,2,70,0,0
33039,-100,4,2,2,65,0,0
33545,-100,4,2,1,55,0,0
33713,-133.333333333333,4,2,2,65,0,0
34387,-133.333333333333,4,2,2,70,0,0
39781,-100,4,2,2,75,0,0
42477,-100,4,2,2,80,0,0
43826,-66.6666666666667,4,2,2,72,0,0
44163,-111.111111111111,4,2,2,72,0,0
44500,-111.111111111111,4,2,2,70,0,0
44837,-111.111111111111,4,2,2,68,0,0
45174,-66.6666666666667,4,2,2,85,0,1
49219,-133.333333333333,4,2,2,85,0,1
50567,-66.6666666666667,4,2,2,85,0,1
55623,-66.6666666666667,4,2,2,77,0,1
55960,-66.6666666666667,4,2,2,85,0,1
60005,-133.333333333333,4,2,2,85,0,1
61353,-66.6666666666667,4,2,2,85,0,1
66747,-133.333333333333,4,2,2,60,0,0
72140,-133.333333333333,4,2,2,70,0,0
74837,-133.333333333333,4,2,2,75,0,0
76185,-66.6666666666667,4,2,2,72,0,0
76859,-100,4,2,2,70,0,0
77533,-294.117647058824,4,2,1,60,0,0

[Colours]
Combo1 : 230,200,150
Combo2 : 210,60,60
Combo3 : 90,215,60
Combo4 : 200,90,170

[HitObjects]
256,192,511,12,0,1859,0:0:0:0:
142,66,2028,6,0,P|128:100|127:122,1,58.4999973220826,4|0,1:2|0:0,0:0:0:0:
237,120,2365,2,0,P|251:154|252:176,1,58.4999973220826,8|0,0:2|0:0,0:0:0:0:
132,214,2702,1,0,0:0:0:0:
241,267,2871,1,0,1:2:0:0:
241,267,2955,1,0,0:0:0:0:
241,267,3039,2,0,P|277:262|296:251,1,58.4999973220826,8|0,0:2|0:0,0:0:0:0:
338,166,3376,5,0,1:2:0:0:
464,373,3713,1,8,0:2:0:0:
471,291,3882,1,0,0:0:0:0:
475,209,4050,2,0,L|479:148,1,58.4999973220826,0|0,0:0|1:2,0:0:0:0:
397,101,4387,2,0,L|401:40,1,58.4999973220826,8|0,0:2|0:0,0:0:0:0:
238,32,4724,6,0,P|196:34|176:44,1,58.4999973220826,0|0,1:2|0:0,0:0:0:0:
126,117,5062,2,0,P|84:115|64:105,1,58.4999973220826,8|0,0:2|0:0,0:0:0:0:
140,205,5399,1,0,0:0:0:0:
240,190,5567,1,0,1:2:0:0:
126,117,5736,2,0,P|92:107|66:109,1,58.4999973220826,8|0,0:2|0:0,0:0:0:0:
17,26,6073,5,0,1:2:0:0:
8,218,6410,1,8,0:2:0:0:
85,242,6578,1,0,0:0:0:0:
164,262,6747,2,0,L|173:321,1,58.4999973220826,0|0,0:0|1:2,0:0:0:0:
240,190,7084,2,0,L|249:131,1,58.4999973220826,8|0,1:2|0:0,0:0:0:0:
333,25,7421,6,0,P|347:59|348:81,1,58.4999973220826,0|0,1:2|0:0,0:0:0:0:
465,89,7758,2,0,P|453:124|440:141,1,58.4999973220826,8|0,0:2|0:0,0:0:0:0:
354,188,8095,1,0,0:0:0:0:
474,264,8264,1,0,1:2:0:0:
474,264,8348,1,0,0:0:0:0:
474,264,8432,2,0,P|469:300|458:319,1,58.4999973220826,8|0,0:2|0:0,0:0:0:0:
361,375,8769,5,0,1:2:0:0:
354,188,9106,1,8,0:2:0:0:
272,195,9275,1,0,0:0:0:0:
190,204,9443,2,0,L|186:143,1,58.4999973220826,0|0,0:0|1:2,0:0:0:0:
114,278,9780,2,0,L|117:336,1,58.4999973220826,8|0,0:2|0:0,0:0:0:0:
46,185,10117,6,0,P|48:143|58:123,1,58.4999973220826,0|0,1:2|0:0,0:0:0:0:
179,56,10455,2,0,P|181:26|171:0,1,58.4999973220826,8|0,0:2|0:0,0:0:0:0:
296,65,10792,1,0,0:0:0:0:
260,133,10960,1,0,1:2:0:0:
179,56,11129,2,0,P|169:22|171:-4,1,58.4999973220826,8|0,0:2|0:0,0:0:0:0:
331,0,11466,5,0,1:2:0:0:
485,170,11803,1,8,0:2:0:0:
417,218,11971,1,0,0:0:0:0:
348,262,12140,2,0,L|339:321,1,58.4999973220826,0|0,0:0|1:2,0:0:0:0:
290,181,12477,2,0,L|281:122,1,58.4999973220826,8|0,1:2|0:0,0:0:0:0:
153,25,12814,6,0,L|73:18,1,76.5000014591217,12|0,0:2|0:0,0:0:0:0:
147,89,13151,2,0,L|65:81,1,76.5000014591217,8|0,0:2|0:0,0:0:0:0:
140,154,13488,1,8,0:2:0:0:
57,179,13657,1,0,1:2:0:0:
134,219,13826,1,8,0:2:0:0:
89,295,14163,6,0,L|81:371,1,76.5000014591217,8|0,0:2|0:0,0:0:0:0:
153,301,14500,1,8,0:2:0:0:
180,365,14668,1,0,0:0:0:0:
218,308,14837,1,8,0:2:0:0:
258,247,15005,1,0,1:2:0:0:
286,314,15175,1,8,0:2:0:0:
359,359,15511,6,0,L|439:366,1,76.5000014591217,8|0,0:2|0:0,0:0:0:0:
365,295,15848,2,0,L|447:303,1,76.5000014591217,8|0,0:2|0:0,0:0:0:0:
372,230,16185,1,8,0:2:0:0:
455,205,16354,1,0,1:2:0:0:
378,165,16523,1,8,0:2:0:0:
423,89,16860,6,0,L|431:13,1,76.5000014591217,8|0,0:2|0:0,0:0:0:0:
359,83,17197,1,8,0:2:0:0:
332,19,17365,1,0,0:0:0:0:
294,76,17534,1,8,0:2:0:0:
254,137,17702,1,0,1:2:0:0:
226,70,17872,1,8,0:2:0:0:
0,200,18208,5,12,0:2:0:0:
9,265,18376,1,8,0:2:0:0:
56,156,18545,1,8,0:2:0:0:
74,287,18713,1,8,0:2:0:0:
119,183,18882,5,8,0:2:0:0:
130,252,19050,1,8,0:2:0:0:
186,207,19219,6,0,L|260:197,1,67.5000025749208,8|8,0:2|0:2,0:0:0:0:
287,287,19556,6,0,L|220:296,1,67.5000025749208,12|8,0:2|0:2,0:0:0:0:
341,240,19893,5,8,0:2:0:0:
352,310,20061,1,8,0:2:0:0:
401,200,20230,5,8,0:2:0:0:
419,331,20398,1,8,0:2:0:0:
468,225,20567,1,8,0:2:0:0:
480,293,20735,1,8,0:2:0:0:
478,160,20904,5,4,1:2:0:0:
478,155,20988,1,2,1:2:0:0:
479,150,21072,1,2,1:2:0:0:
479,145,21156,1,2,1:2:0:0:
480,141,21241,1,2,1:2:0:0:
480,136,21325,1,2,1:2:0:0:
481,131,21409,1,2,1:2:0:0:
481,126,21493,1,2,1:2:0:0:
482,122,21578,1,2,1:2:0:0:
482,117,21662,1,2,1:2:0:0:
483,112,21746,1,2,1:2:0:0:
484,107,21830,1,2,1:2:0:0:
484,103,21915,1,2,1:2:0:0:
485,98,22000,1,2,1:2:0:0:
485,93,22083,1,2,1:2:0:0:
486,88,22168,1,2,1:2:0:0:
487,81,22253,6,0,L|491:45,14,33.7500012874604,2|0|2|0|2|0|2|0|2|0|2|0|2|0|2,1:2|0:0|1:2|0:0|1:2|0:0|1:2|0:0|1:2|0:0|1:2|0:0|1:2|0:0|1:2,0:0:0:0:
473,12,22927,6,0,L|366:22,1,90,14|2,0:2|1:2,0:0:0:0:
301,92,23264,2,0,L|206:100,1,90,10|0,0:2|0:0,0:0:0:0:
103,29,23601,5,4,1:2:0:0:
36,102,23769,1,0,0:0:0:0:
172,165,23938,1,8,0:2:0:0:
135,99,24106,1,2,0:2:0:0:
60,205,24275,2,0,P|46:253|74:314,1,90,2|0,0:2|1:2,0:0:0:0:
143,286,24528,1,0,0:0:0:0:
143,286,24612,2,0,P|189:305|233:301,1,90,8|2,0:2|0:2,0:0:0:0:
305,192,24949,5,0,1:2:0:0:
430,376,25286,1,8,0:2:0:0:
440,286,25455,1,2,0:2:0:0:
447,196,25623,2,0,L|456:105,1,90,2|2,0:2|1:2,0:0:0:0:
331,101,25960,2,0,L|343:5,1,90,10|2,0:2|0:2,0:0:0:0:
169,11,26297,6,0,L|181:101,1,90,0|2,1:2|0:2,0:0:0:0:
42,201,26635,1,8,0:2:0:0:
110,146,26803,1,2,0:2:0:0:
52,284,26972,1,2,0:2:0:0:
185,190,27140,1,0,1:2:0:0:
185,190,27224,1,0,0:0:0:0:
185,190,27309,2,0,P|228:211|253:247,1,90,8|2,0:2|0:2,0:0:0:0:
255,381,27646,5,0,1:2:0:0:
476,226,27983,1,8,0:2:0:0:
393,189,28151,1,2,0:2:0:0:
312,148,28320,2,0,L|299:43,1,90,2|2,0:2|1:2,0:0:0:0:
476,8,28657,2,0,L|466:104,1,90,8|2,0:2|0:2,0:0:0:0:
476,226,28994,5,0,1:2:0:0:
330,252,29162,1,2,0:2:0:0:
393,189,29331,1,8,0:2:0:0:
467,312,29499,1,2,0:2:0:0:
309,333,29668,2,0,P|270:313|245:265,1,90,2|0,0:2|1:2,0:0:0:0:
268,188,29921,1,0,0:0:0:0:
268,188,30005,2,0,P|222:169|178:173,1,90,8|2,0:2|0:2,0:0:0:0:
97,260,30342,5,0,1:2:0:0:
0,58,30679,1,8,0:2:0:0:
88,41,30848,1,2,0:2:0:0:
175,21,31016,2,0,L|263:3,1,90,2|2,0:2|1:2,0:0:0:0:
360,78,31354,2,0,L|448:95,1,90,10|2,0:2|0:2,0:0:0:0:
467,214,31691,6,0,L|480:245,30,33.7500012874604,0|0|0|0|2|0|0|0|8|0|0|0|2|0|2|0|2|0|0|0|0|0|0|0|8|0|0|0|2|0|0,1:2|0:0|0:0|0:0|0:2|0:0|0:0|0:0|0:2|0:0|0:0|0:0|0:2|0:0|0:2|0:0|0:2|0:0|0:0|0:0|1:2|0:0|0:0|0:0|0:2|0:0|0:0|0:0|0:2|0:0|0:0,0:0:0:0:
476,281,33039,6,0,L|375:299,1,90,10|0,0:2|0:0,0:0:0:0:
307,366,33376,2,0,L|206:347,1,90,10|2,0:2|0:2,0:0:0:0:
142,301,33713,5,2,1:2:0:0:
142,296,33797,1,2,1:2:0:0:
141,291,33881,1,2,1:2:0:0:
141,286,33966,1,2,1:2:0:0:
140,281,34050,1,2,1:2:0:0:
140,276,34134,1,2,1:2:0:0:
139,271,34218,1,2,1:2:0:0:
139,266,34303,1,2,1:2:0:0:
138,261,34387,5,4,1:2:0:0:
255,237,34556,1,2,0:2:0:0:
137,255,34724,1,8,0:2:0:0:
254,231,34893,1,2,0:2:0:0:
63,212,35062,5,2,0:2:0:0:
255,225,35230,1,0,1:2:0:0:
63,204,35399,1,8,0:2:0:0:
256,218,35567,1,2,0:2:0:0:
58,117,35736,6,0,L|54:44,1,67.5000025749208,0|2,1:2|0:2,0:0:0:0:
216,10,36073,2,0,L|219:77,1,67.5000025749208,8|2,0:2|0:2,0:0:0:0:
31,136,36410,6,0,L|27:63,1,67.5000025749208,2|0,0:2|1:2,0:0:0:0:
238,0,36747,2,0,L|241:67,1,67.5000025749208,8|2,0:2|0:2,0:0:0:0:
335,208,37084,5,0,1:2:0:0:
344,95,37253,1,2,0:2:0:0:
343,210,37421,1,8,0:2:0:0:
352,97,37590,1,2,0:2:0:0:
370,289,37758,5,2,0:2:0:0:
365,99,37927,1,0,1:2:0:0:
378,291,38095,1,8,0:2:0:0:
373,101,38264,1,2,0:2:0:0:
462,318,38432,6,0,L|478:385,1,67.5000025749208,0|2,1:2|0:2,0:0:0:0:
293,272,38769,2,0,L|277:339,1,67.5000025749208,8|2,0:2|0:2,0:0:0:0:
226,193,39106,5,2,1:2:0:0:
225,188,39190,1,2,1:2:0:0:
225,184,39274,1,2,1:2:0:0:
224,180,39358,1,2,1:2:0:0:
224,176,39443,1,2,1:2:0:0:
223,172,39527,1,2,1:2:0:0:
223,167,39611,1,2,1:2:0:0:
222,163,39695,1,2,1:2:0:0:
222,159,39781,5,4,1:2:0:0:
96,156,39949,1,2,0:2:0:0:
220,150,40117,1,0,1:2:0:0:
87,145,40286,1,2,0:2:0:0:
218,138,40455,1,0,1:2:0:0:
79,137,40624,1,2,0:2:0:0:
215,123,40792,1,0,1:2:0:0:
70,129,40960,1,2,0:2:0:0:
212,108,41129,5,4,1:2:0:0:
327,38,41297,1,2,0:2:0:0:
210,98,41466,1,0,1:2:0:0:
329,30,41635,1,2,0:2:0:0:
209,91,41803,1,0,1:2:0:0:
331,23,41972,1,2,0:2:0:0:
207,85,42140,1,0,1:2:0:0:
333,17,42309,1,2,0:2:0:0:
461,82,42477,5,6,1:2:0:0:
461,87,42561,1,2,1:2:0:0:
462,93,42645,1,2,1:2:0:0:
462,98,42729,1,2,1:2:0:0:
463,104,42814,1,2,1:2:0:0:
464,109,42898,1,2,1:2:0:0:
464,115,42982,1,2,1:2:0:0:
465,121,43066,1,2,1:2:0:0:
466,126,43151,1,2,1:2:0:0:
466,132,43235,1,2,1:2:0:0:
467,137,43319,1,2,1:2:0:0:
468,143,43403,1,2,1:2:0:0:
468,149,43488,1,2,1:2:0:0:
469,154,43572,1,2,1:2:0:0:
469,160,43656,1,2,1:2:0:0:
470,165,43741,1,2,1:2:0:0:
472,174,43826,6,0,L|475:208,16,33.7500012874604,6|0|2|0|2|0|2|0|2|0|2|0|2|0|2|0|8,1:2|0:0|1:2|0:0|1:2|0:0|1:2|0:0|1:2|0:0|1:2|0:0|1:2|0:0|1:2|0:0|0:2,0:0:0:0:
378,351,44837,5,8,0:2:0:0:
251,354,45005,1,0,0:0:0:0:
127,350,45174,6,0,P|68:232|91:100,2,270.000010299683,4|8|2,1:2|0:2|0:2,0:0:0:0:
279,271,46017,1,0,1:2:0:0:
137,206,46185,2,0,P|167:278|216:325,1,135.000005149842,8|2,0:2|0:2,0:0:0:0:
345,370,46522,6,0,P|344:299|363:211,1,135.000005149842,0|2,1:2|0:2,0:0:0:0:
492,247,46775,1,0,0:0:0:0:
492,247,46859,2,0,P|493:176|474:88,1,135.000005149842,8|2,0:2|0:2,0:0:0:0:
290,147,47196,1,2,0:2:0:0:
418,47,47365,1,2,1:2:0:0:
236,68,47533,2,0,L|93:94,1,135.000005149842,10|2,0:2|0:2,0:0:0:0:
53,293,47871,6,0,P|90:205|24:43,2,270.000010299683,0|8|2,1:2|0:2|0:2,0:0:0:0:
166,384,48713,1,0,1:2:0:0:
156,165,48882,2,0,P|151:248|127:304,1,135.000005149842,8|2,0:2|0:2,0:0:0:0:
270,227,49219,5,0,1:2:0:0:
401,269,49387,1,2,0:2:0:0:
274,205,49556,2,0,L|239:191,1,33.7500012874604,8|0,0:2|0:0,0:0:0:0:
413,251,49724,2,0,L|459:267,1,33.7500012874604,2|2,0:2|0:2,0:0:0:0:
302,326,49893,5,2,0:2:0:0:
375,128,50062,1,2,1:2:0:0:
302,326,50230,1,8,0:2:0:0:
340,227,50398,1,2,0:2:0:0:
375,128,50567,6,0,P|346:80|263:30,1,135.000005149842,0|2,1:2|0:2,0:0:0:0:
165,30,50820,1,0,0:0:0:0:
165,30,50904,2,0,P|108:66|71:122,1,135.000005149842,8|2,0:2|0:2,0:0:0:0:
99,282,51241,5,2,0:2:0:0:
99,282,51326,1,0,0:0:0:0:
249,206,51494,1,0,0:0:0:0:
249,206,51578,1,8,0:2:0:0:
64,190,51747,1,2,0:2:0:0:
216,323,51915,6,0,L|348:281,1,135.000005149842,0|2,1:2|0:2,0:0:0:0:
296,61,52253,2,0,L|164:103,1,135.000005149842,8|2,0:2|0:2,0:0:0:0:
387,232,52590,2,0,L|345:100,1,135.000005149842,2|2,0:2|1:2,0:0:0:0:
125,152,52927,2,0,L|167:284,1,135.000005149842,10|2,0:2|0:2,0:0:0:0:
297,330,53264,5,0,1:2:0:0:
415,338,53432,1,2,0:2:0:0:
477,242,53601,1,8,0:2:0:0:
293,347,53769,5,2,0:2:0:0:
423,352,53937,1,2,0:2:0:0:
495,245,54106,1,0,1:2:0:0:
363,235,54275,5,8,0:2:0:0:
363,235,54612,5,0,1:2:0:0:
256,192,54696,12,8,55623,0:2:0:0:
271,71,55960,6,0,P|153:12|21:35,2,270.000010299683,4|8|2,1:2|0:2|0:2,0:0:0:0:
251,227,56803,1,0,1:2:0:0:
365,65,56971,2,0,P|346:138|275:172,1,135.000005149842,8|2,0:2|0:2,0:0:0:0:
167,370,57308,6,0,P|168:299|149:211,1,135.000005149842,0|2,1:2|0:2,0:0:0:0:
41,132,57561,1,0,0:0:0:0:
41,132,57645,2,0,P|40:203|59:291,1,135.000005149842,8|2,0:2|0:2,0:0:0:0:
201,308,57982,1,2,0:2:0:0:
194,145,58151,1,2,1:2:0:0:
320,337,58320,2,0,L|463:363,1,135.000005149842,10|2,0:2|0:2,0:0:0:0:
463,183,58657,6,0,P|375:220|213:154,2,270.000010299683,0|8|2,1:2|0:2|0:2,0:0:0:0:
379,21,59499,1,0,1:2:0:0:
211,54,59668,2,0,P|242:97|320:148,1,135.000005149842,8|2,0:2|0:2,0:0:0:0:
284,343,60005,5,0,1:2:0:0:
242,212,60173,1,2,0:2:0:0:
306,339,60342,2,0,L|321:378,1,33.7500012874604,8|0,0:2|0:0,0:0:0:0:
260,200,60510,2,0,L|232:123,1,67.5000025749208,2|2,0:2|0:2,0:0:0:0:
383,238,60848,5,2,1:2:0:0:
185,311,61017,1,8,0:2:0:0:
284,273,61184,1,2,0:2:0:0:
383,238,61353,6,0,P|384:181|342:94,1,135.000005149842,4|2,1:2|0:2,0:0:0:0:
263,37,61606,1,0,0:0:0:0:
263,37,61690,2,0,P|195:38|135:67,1,135.000005149842,8|2,0:2|0:2,0:0:0:0:
13,107,62027,5,2,0:2:0:0:
13,107,62112,1,0,0:0:0:0:
163,183,62280,1,0,0:0:0:0:
163,183,62364,1,8,0:2:0:0:
0,225,62533,1,2,0:2:0:0:
167,282,62702,6,0,L|296:323,1,135.000005149842,0|2,1:2|0:2,0:0:0:0:
344,101,63039,2,0,L|216:61,1,135.000005149842,8|2,0:2|0:2,0:0:0:0:
346,280,63376,2,0,L|387:152,1,135.000005149842,2|2,0:2|1:2,0:0:0:0:
165,103,63713,2,0,L|125:232,1,135.000005149842,10|2,0:2|0:2,0:0:0:0:
296,323,64050,5,0,1:2:0:0:
414,331,64218,1,2,0:2:0:0:
476,235,64387,1,8,0:2:0:0:
476,235,64472,1,0,0:0:0:0:
494,238,64723,5,2,0:2:0:0:
422,345,64892,1,0,1:2:0:0:
289,343,65062,1,8,0:2:0:0:
289,343,65399,5,0,1:2:0:0:
256,192,65483,12,8,66410,0:2:0:0:
47,336,66747,6,0,P|46:273|76:198,1,135.000005149842,4|8,1:2|0:2,0:0:0:0:
84,90,67421,2,0,P|125:95|161:92,1,67.5000025749208,2|0,0:2|0:0,0:0:0:0:
255,33,67758,1,8,0:2:0:0:
294,126,67927,1,2,0:2:0:0:
236,214,68095,6,0,P|225:261|231:298,1,67.5000025749208,0|0,1:2|0:0,0:0:0:0:
328,284,68432,2,0,P|363:317|398:330,1,67.5000025749208,8|0,0:2|0:0,0:0:0:0:
475,294,68769,1,2,0:2:0:0:
290,185,69106,5,8,0:2:0:0:
309,88,69275,1,2,0:2:0:0:
290,185,69444,5,0,1:2:0:0:
259,92,69612,1,2,0:2:0:0:
169,44,69781,1,8,0:2:0:0:
290,185,69949,5,2,0:2:0:0:
215,120,70117,1,2,0:2:0:0:
114,124,70286,1,2,0:2:0:0:
290,185,70455,5,8,0:2:0:0:
192,166,70623,1,2,0:2:0:0:
107,220,70792,1,0,1:2:0:0:
226,279,70960,6,0,P|215:328|139:385,1,135.000005149842,2|2,0:2|0:2,0:0:0:0:
11,373,71466,5,2,0:2:0:0:
10,368,71550,1,2,0:2:0:0:
9,364,71634,1,2,0:2:0:0:
8,360,71718,1,2,0:2:0:0:
6,355,71803,2,0,L|9:282,1,67.5000025749208,10|0,0:2|0:0,0:0:0:0:
23,150,72140,5,12,0:2:0:0:
160,178,72309,1,8,0:2:0:0:
23,150,72477,1,8,0:2:0:0:
160,178,72646,1,8,0:2:0:0:
23,150,72814,1,8,0:2:0:0:
178,87,72983,5,8,0:2:0:0:
160,178,73151,1,8,0:2:0:0:
141,263,73320,1,8,0:2:0:0:
297,206,73488,5,12,0:2:0:0:
160,178,73657,1,8,0:2:0:0:
297,206,73825,1,8,0:2:0:0:
160,178,73994,1,8,0:2:0:0:
297,206,74162,1,8,0:2:0:0:
160,178,74331,1,8,0:2:0:0:
316,116,74500,5,8,0:2:0:0:
279,292,74668,1,8,0:2:0:0:
438,233,74837,5,6,1:2:0:0:
438,228,74921,1,2,1:2:0:0:
439,224,75005,1,2,1:2:0:0:
440,220,75089,1,2,1:2:0:0:
441,216,75174,1,2,1:2:0:0:
442,212,75258,1,2,1:2:0:0:
443,208,75342,1,2,1:2:0:0:
444,204,75426,1,2,1:2:0:0:
444,199,75511,1,2,1:2:0:0:
445,195,75595,1,2,1:2:0:0:
446,191,75679,1,2,1:2:0:0:
447,187,75764,1,2,1:2:0:0:
448,183,75848,1,2,1:2:0:0:
449,179,75932,1,2,1:2:0:0:
450,175,76016,1,2,1:2:0:0:
450,171,76101,1,2,1:2:0:0:
451,168,76185,6,0,L|459:136,14,33.7500012874604,2|0|2|0|2|0|2|0|2|0|2|0|2|0|2,1:2|0:0|1:2|0:0|1:2|0:0|1:2|0:0|1:2|0:0|1:2|0:0|1:2|0:0|1:2,0:0:0:0:
432,104,76859,6,0,L|323:95,1,90,8|0,0:2|1:2,0:0:0:0:
269,15,77196,2,0,L|175:37,1,90,8|0,0:2|0:0,0:0:0:0:
258,245,77533,5,12,1:2:0:0:
