osu file format v14

[General]
AudioFilename: audio.mp3
AudioLeadIn: 0
PreviewTime: 221932
Countdown: 1
SampleSet: Soft
StackLeniency: 0.7
Mode: 0
LetterboxInBreaks: 0
WidescreenStoryboard: 0

[Editor]
Bookmarks: 1354,12452,23550,33781,45747,67943,79041,101238,123434,134533,145111,145284,145631,156729,178926,201122,212221,222799,223319,245515,267712,289908,301007
DistanceSpacing: 6
BeatDivisor: 4
GridSize: 4
TimelineZoom: 2.1

[Metadata]
Title:Genryuu Kaiko
TitleUnicode:源流懐古
Artist:Halozy
ArtistUnicode:Halozy
Creator:Pandano
Version:Divine Scythe
Source:東方Project
Tags:touhou komachi onozuka ほたる hotaru すみじゅん sumijun くまりす kumarisu 東方花映塚 彼岸帰航 higan retour ~ riverside view 小野塚 小町
BeatmapID:1311906
BeatmapSetID:622264

[Difficulty]
HPDrainRate:5.2
CircleSize:3.9
OverallDifficulty:6.9
ApproachRate:8.8
SliderMultiplier:2.1
SliderTickRate:1

[Events]
//Background and Video events
0,0,"Onozuka.Komachi.full.978050.jpg",0,0
//Break Periods
//Storyboard Layer 0 (Background)
//Storyboard Layer 1 (Fail)
//Storyboard Layer 2 (Pass)
//Storyboard Layer 3 (Foreground)
//Storyboard Sound Samples

[TimingPoints]
1354,346.820809248555,4,2,1,40,1,0
1354,-100,4,1,1,40,0,0
11585,-200,4,2,1,40,0,0
12452,-100,4,2,1,40,0,0
23203,-55.5555555555556,4,2,1,40,0,0
23550,-100,4,2,1,40,0,0
66556,-200,4,2,1,40,0,0
67596,-100,4,2,1,40,0,0
78695,-55.5555555555556,4,2,1,40,0,0
79041,-83.3333333333333,4,2,1,40,0,1
89793,-100,4,2,1,40,0,0
90140,-83.3333333333333,4,2,1,40,0,1
100891,-50,4,2,1,40,0,0
101238,-100,4,2,1,40,0,0
144244,-200,4,2,1,40,0,0
145111,-100,4,2,1,40,0,0
156382,-55.5555555555556,4,2,1,40,0,0
156729,-83.3333333333333,4,2,1,40,0,1
167481,-100,4,2,1,40,0,0
167827,-83.3333333333333,4,2,1,40,0,1
178579,-50,4,2,1,40,0,1
178926,-125,4,1,1,40,0,0
179012,-125,4,1,1,10,0,0
190024,-125,4,1,1,40,0,0
190111,-125,4,1,1,10,0,0
201122,-100,4,2,1,40,0,0
222972,-55.5555555555556,4,2,1,40,0,0
223319,-76.9230769230769,4,2,1,40,0,1
234070,-100,4,2,1,40,0,0
234417,-83.3333333333333,4,2,1,40,0,1
245169,-200,4,2,1,40,0,0
245515,-83.3333333333333,4,2,1,40,0,1
267365,-50,4,2,1,40,0,1
267712,-100,4,2,1,40,0,0
289908,-71.4285714285714,4,2,1,40,0,1
295458,-71.4285714285714,4,2,1,50,0,1
296151,-71.4285714285714,4,2,1,60,0,1
296845,-71.4285714285714,4,2,1,70,0,1
298234,-71.4285714285714,4,2,1,80,0,1
299619,-71.4285714285714,4,2,1,90,0,1
300660,-71.4285714285714,4,2,1,40,0,1
300747,-71.4285714285714,4,2,1,55,0,1
300833,-71.4285714285714,4,2,1,70,0,1
300920,-71.4285714285714,4,1,1,85,0,1
301007,-100,4,1,1,100,0,0
301354,-100,4,2,1,36,0,0
301700,-100,4,2,1,32,0,0
302047,-100,4,2,1,28,0,0
302394,-100,4,2,1,24,0,0
302741,-100,4,2,1,20,0,0
303088,-100,4,2,1,16,0,0
303434,-100,4,2,1,12,0,0
303781,-100,4,2,1,8,0,0
304128,-100,4,2,1,5,0,0
304475,-100,4,2,1,5,0,0
304822,-100,4,2,1,5,0,0
305169,-100,4,2,1,5,0,0

[Colours]
Combo1 : 0,151,151
Combo2 : 0,128,255
Combo3 : 132,0,132
Combo4 : 255,51,51

[HitObjects]
192,160,1354,6,0,P|132:133|104:70,1,105,6|0,0:0|0:0,0:0:0:0:
212,44,1700,1,0,0:0:0:0:
310,125,1874,2,0,B|323:184|292:233|292:233|343:213|363:152,1,210
462,146,2394,2,0,P|439:90|401:62,1,105
261,41,2741,6,0,P|204:48|141:109,1,105
244,143,3088,1,0,0:0:0:0:
65,39,3261,2,0,B|44:89|77:144|77:144|68:204|119:246,1,210
176,312,3781,1,0,0:0:0:0:
484,200,4475,5,0,0:0:0:0:
395,268,4648,1,0,0:0:0:0:
294,205,4822,2,0,P|330:168|380:152,1,105
194,166,5169,2,0,P|158:203|109:220,1,105
107,88,5515,2,0,P|216:55|305:138,1,210
371,183,6036,2,0,P|286:222|186:148,1,210
304,8,6556,1,0,0:0:0:0:
429,157,6903,6,0,P|375:130|350:83,1,105,6|0,0:0|0:0,0:0:0:0:
456,48,7249,1,0,0:0:0:0:
508,228,7423,2,0,B|461:275|464:348|464:348|428:316|368:336,1,210
304,268,7943,2,0,P|346:229|351:153,1,105
240,96,8290,6,0,P|240:152|288:192,1,105
344,44,8637,1,0,0:0:0:0:
176,20,8810,2,0,B|140:91|140:91|137:148|137:148|100:220,1,210
344,264,9330,1,0,0:0:0:0:
239,158,9677,5,0,0:0:0:0:
344,264,9851,1,0,0:0:0:0:
500,140,10197,5,2,0:0:0:0:
232,344,10544,5,2,0:0:0:0:
344,264,10718,1,0,0:0:0:0:
364,124,10891,1,2,0:0:0:0:
220,24,11064,6,0,P|256:100|288:20,1,210
256,52,11585,2,0,B|230:118|281:148|251:206|251:206|229:191|244:139,1,210
344,88,12452,5,4,0:0:0:0:
428,176,12625,1,0,0:0:0:0:
364,276,12799,1,8,0:0:0:0:
240,264,12972,2,0,P|183:261|117:295,1,105
239,158,13319,1,0,0:0:0:0:
364,276,13492,2,0,P|352:204|368:160,1,105,8|0,0:0|0:0,0:0:0:0:
408,60,13839,5,0,0:0:0:0:
296,96,14012,1,0,0:0:0:0:
180,52,14186,1,8,0:0:0:0:
124,156,14359,2,0,P|152:216|128:280,1,105
48,224,14706,1,0,0:0:0:0:
264,193,14880,2,0,B|301:186|330:198|330:198|355:190|355:190|392:213|427:200,1,157.5,8|0,0:0|0:0,0:0:0:0:
472,192,15226,1,0,0:0:0:0:
244,276,15573,5,8,0:0:0:0:
192,364,15747,1,0,0:0:0:0:
348,299,15920,2,0,P|347:240|300:184,1,105
200,69,16267,2,0,P|194:121|215:168,1,105,8|0,0:0|0:0,0:0:0:0:
423,229,16614,2,0,P|396:132|300:103,1,210,0|8,0:0|0:0,0:0:0:0:
323,201,17134,2,0,P|397:138|349:8,1,210
252,28,17654,2,0,P|196:64|124:52,1,105,8|0,0:0|0:0,0:0:0:0:
80,148,18001,5,0,0:0:0:0:
152,236,18174,1,0,0:0:0:0:
40,256,18348,1,8,0:0:0:0:
208,328,18521,2,0,P|252:272|248:200,1,105
192,136,18868,1,0,0:0:0:0:
300,64,19041,2,0,P|360:100|420:84,1,105,8|0,0:0|0:0,0:0:0:0:
488,184,19388,5,0,0:0:0:0:
376,236,19562,1,0,0:0:0:0:
428,344,19735,1,8,0:0:0:0:
260,280,19908,2,0,L|280:148,1,105
364,48,20255,1,0,0:0:0:0:
212,68,20429,2,0,B|174:87|174:87|143:86|143:86|96:104,1,105,8|0,0:0|0:0,0:0:0:0:
80,196,20775,5,0,0:0:0:0:
192,256,20949,1,0,0:0:0:0:
408,200,21296,5,2,0:0:0:0:
48,324,21643,5,2,0:0:0:0:
192,256,21816,1,0,0:0:0:0:
276,112,21989,1,2,0:0:0:0:
328,352,22163,5,0,0:0:0:0:
192,256,22336,1,0,0:0:0:0:
156,80,22510,1,8,0:0:0:0:
286,163,22683,2,8,L|270:87,4,52.5
428,268,23203,6,0,L|388:68,1,188.999994232178,2|0,0:0|0:0,0:0:0:0:
248,32,23550,6,0,P|204:68|192:128,1,105,4|0,0:0|0:0,0:0:0:0:
216,296,23897,1,8,0:0:0:0:
284,224,24070,2,0,P|241:197|154:226,1,105
108,264,24417,1,0,0:0:0:0:
288,360,24590,2,0,L|424:328,1,105,8|0,0:0|0:0,0:0:0:0:
359,228,24937,5,0,0:0:0:0:
419,125,25111,1,0,0:0:0:0:
332,44,25284,1,8,0:0:0:0:
205,44,25458,2,0,P|186:97|104:130,1,105
112,36,25804,1,0,0:0:0:0:
264,124,25978,2,0,B|284:172|284:172|256:208|256:208|240:288,1,157.5,8|0,0:0|0:0,0:0:0:0:
234,328,26325,1,0,0:0:0:0:
417,287,26671,6,0,P|437:223|417:167,2,105,8|0|0,0:0|0:0|0:0,0:0:0:0:
308,228,27192,1,0,0:0:0:0:
205,291,27365,2,0,P|159:305|96:292,1,105,8|0,0:0|0:0,0:0:0:0:
144,96,27712,2,0,B|111:0|83:108|130:121|130:121|160:148|154:194,1,210,0|8,0:0|0:0,0:0:0:0:
73,323,28232,2,0,B|106:420|134:311|87:298|87:298|57:271|64:226,1,210
196,256,28752,2,0,P|260:272|323:255,1,105,8|0,0:0|0:0,0:0:0:0:
400,208,29099,5,0,0:0:0:0:
284,136,29273,1,0,0:0:0:0:
320,344,29446,1,8,0:0:0:0:
400,208,29619,2,0,P|420:120|396:64,1,105
288,31,29966,1,0,0:0:0:0:
140,68,30140,2,0,L|152:212,1,105,8|0,0:0|0:0,0:0:0:0:
112,312,30486,5,0,0:0:0:0:
32,224,30660,1,0,0:0:0:0:
228,180,30833,1,8,0:0:0:0:
140,68,31007,2,0,B|181:79|213:54|213:54|247:67|247:67|278:51|278:51|318:70|368:54,1,210
424,144,31527,2,0,P|408:216|432:280,1,105,8|0,0:0|0:0,0:0:0:0:
284,376,31874,5,0,0:0:0:0:
312,228,32047,1,0,0:0:0:0:
132,97,32394,5,2,0:0:0:0:
457,191,32741,5,2,0:0:0:0:
312,228,32914,1,0,0:0:0:0:
214,325,33088,1,2,0:0:0:0:
71,210,33261,6,0,B|125:176|122:117|122:117|186:127|220:69,1,210
283,153,33781,2,0,B|229:187|232:246|232:246|168:236|134:294,1,210
60,356,34301,1,0,0:0:0:0:
232,344,34475,1,0,0:0:0:0:
404,328,34648,6,0,P|460:280|464:224,2,105,4|0|8,0:0|0:0|0:0,0:0:0:0:
312,236,35169,2,0,B|291:196|291:196|305:100,1,105
376,32,35515,1,0,0:0:0:0:
232,48,35689,2,0,P|168:64|108:48,1,105,8|0,0:0|0:0,0:0:0:0:
40,140,36036,5,0,0:0:0:0:
136,208,36209,1,0,0:0:0:0:
88,320,36382,1,8,0:0:0:0:
248,262,36556,2,0,B|295:242|333:260|333:260|273:191|352:151|345:229,1,210
260,96,37076,2,0,B|215:98|186:135|186:135|161:168|107:170,1,157.5,8|0,0:0|0:0,0:0:0:0:
59,166,37423,1,0,0:0:0:0:
184,312,37770,5,8,0:0:0:0:
64,340,37943,1,0,0:0:0:0:
172,192,38117,2,0,B|220:148|220:148|300:132,1,105
392,76,38463,2,0,P|376:148|404:204,1,105,8|0,0:0|0:0,0:0:0:0:
360,288,38810,6,0,B|281:336|227:255|144:308,1,210,0|8,0:0|0:0,0:0:0:0:
152,168,39330,2,0,B|231:216|285:135|368:188,1,210
448,232,39851,1,8,0:0:0:0:
296,48,40197,5,0,0:0:0:0:
416,56,40371,1,0,0:0:0:0:
348,152,40544,1,8,0:0:0:0:
472,168,40718,2,0,P|464:232|432:296,1,105
324,280,41064,1,0,0:0:0:0:
232,344,41238,2,0,P|144:328|96:344,1,105,8|0,0:0|0:0,0:0:0:0:
52,220,41585,5,0,0:0:0:0:
156,144,41758,1,0,0:0:0:0:
264,60,41932,1,8,0:0:0:0:
112,56,42105,2,0,L|0:36,1,105
156,144,42452,1,0,0:0:0:0:
208,232,42625,2,0,L|311:250,1,105,8|0,0:0|0:0,0:0:0:0:
456,116,42972,5,0,0:0:0:0:
340,76,43145,1,0,0:0:0:0:
268,328,43492,5,2,0:0:0:0:
408,208,43839,5,2,0:0:0:0:
340,76,44012,1,0,0:0:0:0:
184,52,44186,1,2,0:0:0:0:
408,208,44359,6,8,P|332:196|268:212,2,105
428,308,44880,2,8,L|455:352,4,52.5
288,288,45400,1,0,0:0:0:0:
235,295,45486,1,0,0:0:0:0:
183,302,45573,1,0,0:0:0:0:
131,309,45660,1,0,0:0:0:0:
80,316,45747,1,6,0:0:0:0:
180,180,46093,6,0,L|48:196,2,105,8|0|0,0:0|0:0|0:0,0:0:0:0:
260,96,46614,1,0,0:0:0:0:
372,120,46787,2,0,P|392:188|360:248,1,105,8|0,0:0|0:0,0:0:0:0:
304,300,47134,2,0,L|92:360,1,210,0|8,0:0|0:0,0:0:0:0:
56,272,47654,2,0,L|258:214,1,210
338,134,48174,2,0,P|368:188|349:269,1,105,8|0,0:0|0:0,0:0:0:0:
292,328,48521,6,0,P|212:308|152:328,1,105
96,256,48868,1,8,0:0:0:0:
96,256,49041,2,0,B|81:209|104:180|104:180|84:80|165:95|128:152,1,210
196,224,49562,2,0,P|272:244|324:216,1,105,8|0,0:0|0:0,0:0:0:0:
416,92,49908,2,0,B|376:73|339:97|339:97|286:68|258:122|173:69,1,210,0|8,0:0|0:0,0:0:0:0:
88,116,50429,2,0,B|63:157|63:157|80:248,1,105
160,296,50775,5,0,0:0:0:0:
200,180,50949,1,8,0:0:0:0:
73,213,51122,1,0,0:0:0:0:
280,272,51296,2,0,B|304:255|337:264|337:264|355:237|416:228,1,105
452,148,51643,5,8,0:0:0:0:
376,56,51816,1,0,0:0:0:0:
291,145,51989,2,0,P|256:100|248:46,1,105
123,117,52336,2,0,P|158:162|166:216,1,105,8|0,0:0|0:0,0:0:0:0:
208,312,52683,2,0,B|280:288|280:288|332:248|332:248|412:224,1,210,0|8,0:0|0:0,0:0:0:0:
329,135,53203,2,0,B|263:154|263:154|211:194|211:194|139:218,1,210
48,160,53723,2,0,P|94:118|165:113,1,105,8|0,0:0|0:0,0:0:0:0:
244,92,54070,6,0,P|332:92|384:60,1,105
448,140,54417,1,8,0:0:0:0:
448,140,54590,2,0,B|412:277|412:277|392:241|351:238,1,210
252,194,55111,2,0,P|248:266|288:330,1,105,8|0,0:0|0:0,0:0:0:0:
152,344,55458,6,0,B|140:268|64:240|64:240|112:240|148:196,1,210,0|8,0:0|0:0,0:0:0:0:
202,69,55978,2,0,B|181:100|109:131|109:131|156:123|198:161,1,210
316,112,56498,1,8,0:0:0:0:
432,56,56671,1,0,0:0:0:0:
472,184,56845,1,2,0:0:0:0:
360,288,57192,6,0,P|416:308|452:364,2,105,8|0|0,0:0|0:0|0:0,0:0:0:0:
236,288,57712,1,0,0:0:0:0:
110,312,57885,2,0,B|100:247|143:273|114:172,1,105,8|0,0:0|0:0,0:0:0:0:
62,120,58232,2,0,B|110:93|143:100|143:100|163:73|163:73|217:86|252:59,1,210,0|8,0:0|0:0,0:0:0:0:
388,76,58752,2,0,P|324:112|416:136,1,210
476,220,59273,2,0,L|456:332,1,105,8|0,0:0|0:0,0:0:0:0:
324,356,59619,6,0,L|344:236,1,105
272,152,59966,1,8,0:0:0:0:
272,152,60140,2,0,B|226:175|220:232|220:232|212:204|168:176|134:244|194:246,1,210
200,344,60660,2,0,P|139:337|88:285,1,105,8|0,0:0|0:0,0:0:0:0:
48,220,61007,6,0,B|68:138|68:138|134:158|139:67|224:116,1,210,0|8,0:0|0:0,0:0:0:0:
281,55,61527,2,0,B|298:98|294:127|270:164|270:164|298:187|334:179|334:179|328:157|346:119,1,210
408,68,62047,1,8,0:0:0:0:
488,152,62221,1,0,0:0:0:0:
408,288,62394,1,0,0:0:0:0:
184,248,62741,6,0,L|200:360,2,105,8|0|0,0:0|0:0|0:0,0:0:0:0:
104,156,63261,1,0,0:0:0:0:
192,60,63434,2,0,P|292:80|328:56,1,105,8|0,0:0|0:0,0:0:0:0:
424,60,63781,2,0,B|446:167|446:167|420:272,1,210,0|8,0:0|0:0,0:0:0:0:
333,337,64301,2,0,B|287:321|277:291|277:291|245:327|208:321|183:298|199:248|245:271,1,210
312,200,64822,2,0,P|248:160|192:168,1,105,8|0,0:0|0:0,0:0:0:0:
100,212,65169,6,0,L|124:76,1,105
200,32,65515,1,8,0:0:0:0:
200,32,65689,2,0,B|254:57|308:29|308:29|334:80|412:88,1,210
460,184,66209,1,8,0:0:0:0:
294,228,66556,6,0,B|345:208|382:253|364:328|311:327|276:309|276:309|252:322|227:325|196:303,1,262.5,0|8,0:0|0:0,0:0:0:0:
456,312,67596,1,8,0:0:0:0:
424,104,67943,5,4,0:0:0:0:
308,168,68117,1,0,0:0:0:0:
316,184,68203,1,0,0:0:0:0:
324,200,68290,2,0,L|204:232,1,105,8|0,0:0|0:0,0:0:0:0:
224,16,68637,5,0,0:0:0:0:
104,72,68810,1,0,0:0:0:0:
100,88,68897,1,0,0:0:0:0:
96,104,68984,2,0,L|216:128,1,105,8|0,0:0|0:0,0:0:0:0:
285,200,69330,6,0,P|314:156|315:105,1,105
371,233,69677,2,0,L|371:125,1,105,8|0,0:0|0:0,0:0:0:0:
456,204,70024,2,0,P|427:160|426:109,1,105
402,322,70371,1,8,0:0:0:0:
402,322,70458,1,0,0:0:0:0:
402,322,70544,1,0,0:0:0:0:
248,340,70718,6,0,L|108:316,1,105
64,256,71064,2,0,L|200:228,1,105,8|0,0:0|0:0,0:0:0:0:
248,156,71411,2,0,L|104:136,1,105
72,56,71758,1,8,0:0:0:0:
72,56,71932,2,0,P|152:36|204:48,1,105
288,32,72278,1,0,0:0:0:0:
340,136,72452,1,8,0:0:0:0:
444,64,72625,1,0,0:0:0:0:
480,212,72799,1,0,0:0:0:0:
440,364,72972,5,0,0:0:0:0:
364,248,73145,1,8,0:0:0:0:
364,248,73232,1,0,0:0:0:0:
364,248,73319,1,0,0:0:0:0:
244,272,73492,6,0,P|140:332|188:224,1,315,4|0,0:0|0:0,0:0:0:0:
275,147,74186,1,0,0:0:0:0:
168,108,74359,1,0,0:0:0:0:
312,248,74533,1,0,0:0:0:0:
344,64,74706,1,0,0:0:0:0:
160,16,74880,2,0,P|96:40|100:172,1,210,4|0,0:0|0:0,0:0:0:0:
172,200,75400,2,0,P|256:147|238:50,1,210,4|0,0:0|0:0,0:0:0:0:
364,28,75920,2,0,B|384:67|384:67|364:172,1,105,8|0,0:0|0:0,0:0:0:0:
444,268,76267,6,0,P|344:240|256:288,1,210,4|0,0:0|0:0,0:0:0:0:
144,336,76787,1,0,0:0:0:0:
72,248,76960,2,0,P|64:140|144:72,1,210,4|0,0:0|0:0,0:0:0:0:
220,148,77481,1,0,0:0:0:0:
361,184,77654,6,8,P|371:132|339:86,2,105
220,148,78174,2,8,L|224:188,8,26.25,8|0|8|0|8|0|8|0|8,0:0|0:0|0:0|0:0|0:0|0:0|0:0|0:0|0:0,0:0:0:0:
406,35,78695,6,0,P|450:123|437:213,1,188.999994232178,2|0,0:0|0:0,0:0:0:0:
272,284,79041,5,4,0:0:0:0:
176,224,79215,2,0,P|164:300|188:360,2,125.999996154785,0|8|0,0:0|0:0|0:0,0:0:0:0:
264,152,79735,1,0,0:0:0:0:
364,200,79908,2,0,P|376:131|350:72,2,125.999996154785,0|8|0,0:0|0:0|0:0,0:0:0:0:
272,264,80429,1,0,0:0:0:0:
152,264,80602,2,0,P|76:272|20:312,2,125.999996154785,0|8|0,0:0|0:0|0:0,0:0:0:0:
272,264,81122,2,0,P|384:252|424:216,1,125.999996154785
372,128,81469,2,0,P|260:140|220:176,1,125.999996154785,8|0,0:0|0:0,0:0:0:0:
168,64,81816,5,0,0:0:0:0:
84,240,81989,1,0,0:0:0:0:
60,132,82163,1,8,0:0:0:0:
232,260,82336,1,0,0:0:0:0:
251,145,82510,1,0,0:0:0:0:
96,344,82683,1,0,0:0:0:0:
84,240,82856,1,8,0:0:0:0:
288,348,83030,1,0,0:0:0:0:
388,228,83203,6,0,P|392:144|448:100,1,125.999996154785
280,160,83550,2,0,L|280:28,1,125.999996154785,8|0,0:0|0:0,0:0:0:0:
168,32,83897,2,0,L|168:180,1,125.999996154785
72,212,84244,2,0,P|140:268|208:268,1,125.999996154785,8|0,0:0|0:0,0:0:0:0:
296,264,84590,5,0,0:0:0:0:
412,212,84764,2,0,P|368:144|300:120,1,125.999996154785,0|8,0:0|0:0,0:0:0:0:
208,172,85111,1,0,0:0:0:0:
268,36,85284,1,0,0:0:0:0:
112,60,85458,2,0,P|80:120|12:156,1,125.999996154785,0|8,0:0|0:0,0:0:0:0:
72,264,85804,1,0,0:0:0:0:
212,220,85978,1,0,0:0:0:0:
332,296,86151,1,0,0:0:0:0:
456,244,86325,2,0,P|468:332|432:384,1,125.999996154785,8|0,0:0|0:0,0:0:0:0:
328,168,86671,2,0,P|316:80|352:28,1,125.999996154785
192,28,87018,2,0,P|208:112|160:188,1,125.999996154785,8|0,0:0|0:0,0:0:0:0:
80,248,87365,5,0,0:0:0:0:
64,120,87538,1,0,0:0:0:0:
276,260,87712,1,8,0:0:0:0:
176,352,87885,1,0,0:0:0:0:
284,124,88059,1,0,0:0:0:0:
360,224,88232,1,0,0:0:0:0:
116,236,88406,1,8,0:0:0:0:
168,128,88579,2,0,P|200:48|256:16,1,125.999996154785
380,36,88926,6,0,L|364:112,1,62.9999980773926,8|0,0:0|0:0,0:0:0:0:
445,264,89099,2,0,L|465:180,1,62.9999980773926,8|0,0:0|0:0,0:0:0:0:
308,332,89273,6,0,L|388:348,1,62.9999980773926,8|0,0:0|0:0,0:0:0:0:
192,240,89446,2,0,L|96:260,1,62.9999980773926,8|0,0:0|0:0,0:0:0:0:
328,168,89619,2,0,L|408:184,1,62.9999980773926,8|0,0:0|0:0,0:0:0:0:
136,104,89793,1,8,0:0:0:0:
272,40,89966,1,2,0:0:0:0:
452,32,90140,5,4,0:0:0:0:
460,204,90313,2,0,L|436:344,2,125.999996154785,0|8|0,0:0|0:0|0:0,0:0:0:0:
344,116,90833,1,0,0:0:0:0:
200,96,91007,2,0,P|112:104|40:80,2,125.999996154785,0|8|0,0:0|0:0|0:0,0:0:0:0:
360,32,91527,1,0,0:0:0:0:
388,212,91700,2,0,P|392:264|368:360,2,125.999996154785,0|8|0,0:0|0:0|0:0,0:0:0:0:
264,128,92221,2,0,B|194:117|194:117|96:136,1,125.999996154785
136,248,92567,2,0,B|206:259|206:259|304:240,1,125.999996154785,8|0,0:0|0:0,0:0:0:0:
336,238,92914,5,0,0:0:0:0:
461,300,93088,1,0,0:0:0:0:
328,183,93261,1,8,0:0:0:0:
495,191,93434,1,0,0:0:0:0:
297,136,93608,1,0,0:0:0:0:
483,78,93781,1,0,0:0:0:0:
250,104,93955,1,8,0:0:0:0:
396,0,94128,1,0,0:0:0:0:
200,88,94301,6,0,P|122:80|44:121,1,125.999996154785
296,200,94648,2,0,P|312:268|280:340,1,125.999996154785,8|0,0:0|0:0,0:0:0:0:
219,165,94995,2,0,P|155:193|116:262,1,125.999996154785
360,152,95342,2,0,P|429:178|481:263,1,125.999996154785,8|0,0:0|0:0,0:0:0:0:
344,280,95689,5,0,0:0:0:0:
228,328,95862,2,0,L|96:348,1,125.999996154785,0|8,0:0|0:0,0:0:0:0:
32,180,96209,1,0,0:0:0:0:
144,232,96382,1,0,0:0:0:0:
236,144,96556,2,0,P|324:148|392:128,1,125.999996154785,0|8,0:0|0:0,0:0:0:0:
472,100,96903,1,0,0:0:0:0:
448,220,97076,6,0,P|371:243|306:206,1,125.999996154785
196,68,97423,2,0,P|273:45|338:82,1,125.999996154785,8|0,0:0|0:0,0:0:0:0:
172,216,97770,2,0,P|95:239|30:202,1,125.999996154785
104,60,98117,1,8,0:0:0:0:
256,192,98290,5,0,0:0:0:0:
256,192,98377,12,0,99677,0:0:0:0:
254,86,99851,5,8,0:0:0:0:
165,246,100024,1,8,0:0:0:0:
348,243,100197,1,8,0:0:0:0:
254,86,100371,6,8,L|254:9,1,62.9999980773926
165,246,100544,2,8,L|88:292,1,62.9999980773926
348,243,100718,2,8,L|420:288,1,62.9999980773926
242,156,100891,6,0,P|244:228|260:154,1,210,2|0,0:0|0:0,0:0:0:0:
188,76,101238,6,0,B|148:64|148:64|64:64,1,105,4|0,0:0|0:0,0:0:0:0:
28,164,101585,1,8,0:0:0:0:
144,300,101758,2,0,B|139:238|139:238|164:172,1,105
256,128,102105,1,0,0:0:0:0:
392,152,102278,2,0,P|460:104|480:52,1,105,8|0,0:0|0:0,0:0:0:0:
312,240,102625,6,0,P|312:320|356:376,1,105
428,276,102972,1,8,0:0:0:0:
200,324,103145,2,0,B|141:338|141:338|64:328,1,105
88,176,103492,1,0,0:0:0:0:
196,236,103666,2,0,P|212:160|184:92,1,105,8|0,0:0|0:0,0:0:0:0:
268,32,104012,2,0,P|355:49|402:37,1,105
480,124,104359,6,0,L|464:260,2,105,8|0|0,0:0|0:0|0:0,0:0:0:0:
369,46,104880,1,0,0:0:0:0:
364,161,105053,2,0,P|303:141|263:76,1,105,8|0,0:0|0:0,0:0:0:0:
220,200,105400,2,0,B|236:268|263:316|263:316|212:299|204:240,1,210,0|8,0:0|0:0,0:0:0:0:
96,184,105920,2,0,B|80:116|53:68|53:68|104:85|112:144,1,210
164,280,106440,1,8,0:0:0:0:
68,360,106614,1,0,0:0:0:0:
296,352,106787,6,0,L|408:332,1,105
340,240,107134,1,8,0:0:0:0:
260,152,107307,2,0,L|216:288,1,105
340,240,107654,1,0,0:0:0:0:
455,232,107827,2,0,L|399:128,1,105,8|0,0:0|0:0,0:0:0:0:
300,56,108174,6,0,P|204:80|168:56,1,105
80,32,108521,1,8,0:0:0:0:
64,164,108695,2,0,L|100:280,1,105
208,360,109041,1,0,0:0:0:0:
248,220,109215,2,0,L|216:119,1,105,8|0,0:0|0:0,0:0:0:0:
320,24,109562,5,0,0:0:0:0:
392,148,109735,1,0,0:0:0:0:
300,348,110082,5,2,0:0:0:0:
484,260,110429,5,2,0:0:0:0:
392,148,110603,1,0,0:0:0:0:
244,100,110776,1,2,0:0:0:0:
110,168,110949,6,0,B|108:194|125:211|125:211|99:224|80:247|80:247|110:251|139:243|139:243|133:272|153:296,1,210
268,288,111469,2,0,B|281:273|275:244|275:244|304:252|334:248|334:248|315:225|289:212|289:212|306:195|304:169,1,210
268,40,111989,1,0,0:0:0:0:
268,48,112163,1,0,0:0:0:0:
268,56,112336,6,0,P|216:76|144:60,1,105,4|0,0:0|0:0,0:0:0:0:
344,124,112683,1,8,0:0:0:0:
376,224,112856,2,0,P|440:240|488:224,1,105
320,312,113203,1,0,0:0:0:0:
224,356,113377,2,0,P|152:360|96:332,1,105,8|0,0:0|0:0,0:0:0:0:
64,232,113723,5,0,0:0:0:0:
176,144,113897,1,0,0:0:0:0:
192,248,114070,1,8,0:0:0:0:
72,88,114244,2,0,P|128:40|172:28,1,105
264,76,114590,1,0,0:0:0:0:
360,148,114764,2,0,P|436:184|488:168,1,105,8|0,0:0|0:0,0:0:0:0:
336,260,115111,2,0,P|280:312|272:368,1,105
136,248,115458,5,8,0:0:0:0:
104,344,115631,1,0,0:0:0:0:
248,212,115804,2,0,L|220:104,1,105
48,64,116151,2,0,P|108:120|160:116,1,105,8|0,0:0|0:0,0:0:0:0:
334,34,116498,2,0,B|351:75|341:120|341:120|359:116|359:116|345:177|352:233,1,210,0|8,0:0|0:0,0:0:0:0:
252,336,117018,2,0,P|190:284|272:280,1,210
380,304,117538,2,0,P|434:330|499:318,1,105,8|0,0:0|0:0,0:0:0:0:
248,172,117885,6,0,P|195:136|123:135,1,105
40,168,118232,1,8,0:0:0:0:
116,264,118406,2,0,P|188:304|248:296,1,105
336,280,118752,1,0,0:0:0:0:
248,172,118926,2,0,P|248:100|224:56,1,105,8|0,0:0|0:0,0:0:0:0:
139,33,119273,6,0,P|215:69|271:65,1,105
352,112,119619,1,8,0:0:0:0:
424,200,119793,2,0,B|432:240|432:240|408:348,1,105
232,348,120140,1,0,0:0:0:0:
288,232,120313,2,0,B|275:192|275:192|292:108,1,105,8|0,0:0|0:0,0:0:0:0:
136,40,120660,5,0,0:0:0:0:
172,176,120833,1,0,0:0:0:0:
452,260,121180,5,2,0:0:0:0:
76,288,121527,5,2,0:0:0:0:
172,176,121700,1,0,0:0:0:0:
320,108,121874,1,2,0:0:0:0:
476,136,122047,6,8,P|479:70|444:18,2,105
356,216,122567,2,8,L|292:208,4,52.5
192,48,123088,1,0,0:0:0:0:
184,86,123174,1,0,0:0:0:0:
176,125,123261,1,0,0:0:0:0:
169,163,123348,1,0,0:0:0:0:
161,202,123434,1,6,0:0:0:0:
400,296,123781,6,0,L|432:168,2,105,8|0|0,0:0|0:0|0:0,0:0:0:0:
284,348,124301,1,0,0:0:0:0:
192,260,124475,2,0,P|108:264|56:304,1,105,8|0,0:0|0:0,0:0:0:0:
40,152,124822,2,0,P|104:96|112:48,1,105
224,52,125169,1,8,0:0:0:0:
324,136,125342,2,0,L|292:280,1,105
192,328,125689,1,0,0:0:0:0:
388,316,125862,2,0,B|448:291|448:291|492:236,1,105,8|0,0:0|0:0,0:0:0:0:
476,208,126122,1,0,0:0:0:0:
472,152,126209,6,0,P|404:80|368:76,1,105
264,28,126556,1,8,0:0:0:0:
316,176,126729,2,0,P|232:180|172:156,1,105
148,48,127076,1,0,0:0:0:0:
112,72,127163,1,0,0:0:0:0:
92,104,127249,6,0,P|91:178|120:227,1,105,8|0,0:0|0:0,0:0:0:0:
140,228,127510,1,0,0:0:0:0:
180,248,127596,2,0,P|219:286|226:344,1,105
348,340,127943,1,8,0:0:0:0:
424,260,128117,2,0,P|440:176|428:124,1,105
356,60,128463,1,0,0:0:0:0:
264,124,128637,5,8,0:0:0:0:
227,139,128723,1,0,0:0:0:0:
188,144,128810,1,0,0:0:0:0:
149,140,128897,1,0,0:0:0:0:
112,120,128984,2,0,P|108:177|40:236,1,105
208,284,129330,6,0,P|245:326|294:342,2,105,8|0|0,0:0|0:0|0:0,0:0:0:0:
288,176,129851,1,0,0:0:0:0:
400,248,130024,2,0,P|424:176|408:112,1,105,8|0,0:0|0:0,0:0:0:0:
352,40,130371,6,0,P|280:56|220:32,1,105
104,40,130718,1,8,0:0:0:0:
180,132,130891,2,0,B|192:176|192:176|180:248,1,105
104,320,131238,1,0,0:0:0:0:
284,312,131411,2,0,L|412:296,1,105,8|0,0:0|0:0,0:0:0:0:
368,256,131671,1,0,0:0:0:0:
348,216,131758,6,0,P|280:184|256:124,1,105
276,32,132105,1,8,0:0:0:0:
412,56,132278,2,0,P|452:132|432:192,1,105
416,252,132625,1,0,0:0:0:0:
328,348,132799,2,0,P|248:328|164:344,1,157.5,8|0,0:0|0:0,0:0:0:0:
112,328,133145,2,0,P|156:252|104:132,1,210,0|8,0:0|0:0,0:0:0:0:
61,62,133666,2,0,B|108:33|156:44|185:73|185:73|215:115|252:112,1,210
340,216,134186,5,8,0:0:0:0:
365,185,134272,1,0,0:0:0:0:
380,149,134359,1,0,0:0:0:0:
384,110,134446,1,0,0:0:0:0:
376,68,134533,6,0,P|324:120|260:128,1,105
148,80,134880,2,0,P|140:140|176:212,1,105
276,260,135226,2,0,P|212:312|152:316,1,105
400,292,135573,2,0,P|464:228|464:184,1,105
376,96,135920,6,0,L|368:212,1,105
244,188,136267,2,0,L|252:64,1,105
144,40,136614,2,0,L|32:80,1,105
36,192,136960,2,0,L|152:248,1,105
176,260,137221,1,0,0:0:0:0:
224,280,137307,6,0,P|292:288|356:248,1,105
441,235,137654,2,0,P|400:176|352:156,1,105
157,105,138001,2,0,P|197:136|262:135,1,105
448,88,138348,2,0,P|368:56|312:64,1,105
220,56,138695,6,0,L|188:208,1,105
280,340,139041,2,0,L|308:224,1,105
80,208,139388,2,0,L|192:236,1,105
432,176,139735,2,0,L|320:148,1,105
276,136,139995,1,0,0:0:0:0:
224,120,140082,5,4,0:0:0:0:
340,304,140429,2,0,L|456:332,2,105
232,240,140949,1,0,0:0:0:0:
112,272,141122,2,0,P|60:224|36:148,1,105
96,80,141469,6,0,B|151:72|151:72|196:82|196:82|245:57|268:104|332:65,1,210,4|0,0:0|0:0,0:0:0:0:
432,184,141989,2,0,B|377:192|377:192|332:182|332:182|283:207|260:160|196:199,1,210
104,256,142510,1,0,0:0:0:0:
220,336,142683,1,0,0:0:0:0:
256,328,142770,1,0,0:0:0:0:
292,320,142856,6,0,L|416:296,1,105,4|0,0:0|0:0,0:0:0:0:
336,200,143203,1,0,0:0:0:0:
392,60,143377,1,0,0:0:0:0:
356,68,143464,1,0,0:0:0:0:
320,76,143550,6,0,L|196:100,1,105,4|0,0:0|0:0,0:0:0:0:
108,178,143897,1,0,0:0:0:0:
104,212,143983,1,0,0:0:0:0:
112,246,144070,1,0,0:0:0:0:
130,276,144157,1,0,0:0:0:0:
163,296,144244,6,0,B|185:266|235:247|274:274|274:274|306:274|337:262|356:223,1,210,4|0,0:0|0:0,0:0:0:0:
280,192,145111,5,8,0:0:0:0:
231,340,145284,1,8,0:0:0:0:
476,280,145631,5,4,0:0:0:0:
424,156,145804,1,0,0:0:0:0:
416,132,145891,1,0,0:0:0:0:
408,108,145978,2,0,L|296:140,1,105,8|0,0:0|0:0,0:0:0:0:
96,212,146325,5,0,0:0:0:0:
128,96,146498,1,0,0:0:0:0:
136,72,146585,1,0,0:0:0:0:
144,48,146672,2,0,L|256:80,1,105,8|0,0:0|0:0,0:0:0:0:
304,228,147018,6,0,P|351:180|350:132,1,105
444,264,147365,2,0,P|384:256|317:291,1,105,8|0,0:0|0:0,0:0:0:0:
412,140,147712,2,0,P|423:185|476:218,1,105
448,56,148059,1,8,0:0:0:0:
400,44,148145,1,0,0:0:0:0:
356,56,148232,1,0,0:0:0:0:
224,120,148406,6,0,L|112:168,1,105
76,288,148752,2,0,L|172:246,1,105,8|0,0:0|0:0,0:0:0:0:
304,304,149099,2,0,L|192:352,1,105
296,192,149446,1,8,0:0:0:0:
296,192,149619,2,0,P|360:200|412:264,1,105
488,148,149966,1,0,0:0:0:0:
364,24,150140,1,8,0:0:0:0:
476,40,150313,1,0,0:0:0:0:
316,120,150486,1,0,0:0:0:0:
136,104,150660,1,0,0:0:0:0:
136,104,150833,6,0,L|64:40,2,52.5,8|0|0,0:0|0:0|0:0,0:0:0:0:
204,248,151180,6,0,B|254:241|254:241|279:262|279:262|328:254|328:254|341:227|341:227|410:212|410:212|424:160|424:160|368:172,1,315,4|0,0:0|0:0,0:0:0:0:
286,164,151874,1,0,0:0:0:0:
160,136,152047,1,0,0:0:0:0:
364,64,152221,1,0,0:0:0:0:
328,272,152394,1,0,0:0:0:0:
160,136,152567,2,0,B|154:197|184:255|237:264|237:264|219:238|220:212,1,210,4|0,0:0|0:0,0:0:0:0:
392,180,153088,2,0,B|398:119|368:61|315:52|315:52|333:78|332:104,1,210,4|0,0:0|0:0,0:0:0:0:
336,268,153608,2,0,P|280:320|216:332,1,105
147,232,153955,6,0,B|97:268|97:268|100:211|118:172|173:133,1,210,4|0,0:0|0:0,0:0:0:0:
118,39,154475,1,0,0:0:0:0:
232,88,154648,2,0,B|263:43|302:25|359:22|359:22|323:72,1,210,4|0,0:0|0:0,0:0:0:0:
272,212,155169,1,0,0:0:0:0:
388,160,155342,6,8,L|408:292,2,105
180,204,155862,2,0,L|172:248,8,26.25,8|0|8|0|8|0|8|0|8,0:0|0:0|0:0|0:0|0:0|0:0|0:0|0:0|0:0,0:0:0:0:
456,304,156382,6,0,L|472:52,1,188.999994232178,2|0,0:0|0:0,0:0:0:0:
260,52,156729,5,4,0:0:0:0:
196,120,156903,2,0,L|60:112,2,125.999996154785,0|8|0,0:0|0:0|0:0,0:0:0:0:
268,192,157423,1,0,0:0:0:0:
352,256,157596,2,0,L|488:248,2,125.999996154785,0|8|0,0:0|0:0|0:0,0:0:0:0:
252,304,158117,1,0,0:0:0:0:
152,348,158290,2,0,L|16:332,2,125.999996154785,0|8|0,0:0|0:0|0:0,0:0:0:0:
360,344,158810,2,0,P|376:248|352:188,1,125.999996154785
196,116,159157,2,0,P|268:156|340:152,1,125.999996154785,8|0,0:0|0:0,0:0:0:0:
384,88,159504,5,0,0:0:0:0:
472,284,159677,1,0,0:0:0:0:
472,100,159851,1,8,0:0:0:0:
383,292,160024,1,0,0:0:0:0:
216,80,160197,1,0,0:0:0:0:
296,304,160371,1,0,0:0:0:0:
296,92,160544,1,8,0:0:0:0:
212,316,160718,1,0,0:0:0:0:
116,40,160891,6,0,L|96:192,1,125.999996154785
284,288,161238,2,0,L|300:163,1,125.999996154785,8|0,0:0|0:0,0:0:0:0:
188,216,161585,2,0,L|168:368,1,125.999996154785
396,184,161932,2,0,L|412:59,1,125.999996154785,8|0,0:0|0:0,0:0:0:0:
256,64,162278,5,0,0:0:0:0:
120,128,162452,2,0,P|176:180|240:188,1,125.999996154785,0|8,0:0|0:0,0:0:0:0:
348,156,162799,1,0,0:0:0:0:
448,80,162972,1,0,0:0:0:0:
440,264,163145,2,0,P|340:296|280:272,1,125.999996154785,0|8,0:0|0:0,0:0:0:0:
144,248,163492,1,0,0:0:0:0:
216,356,163666,1,0,0:0:0:0:
264,216,163839,2,0,L|284:88,2,125.999996154785,0|8|0,0:0|0:0|0:0,0:0:0:0:
380,92,164359,2,0,P|420:144|484:164,1,125.999996154785
364,232,164706,1,8,0:0:0:0:
424,348,164880,1,0,0:0:0:0:
272,336,165053,5,0,0:0:0:0:
160,296,165226,1,0,0:0:0:0:
28,328,165400,1,8,0:0:0:0:
160,212,165573,1,0,0:0:0:0:
320,268,165747,1,0,0:0:0:0:
160,132,165920,1,0,0:0:0:0:
0,220,166093,1,8,0:0:0:0:
160,56,166267,2,0,P|237:69|309:61,1,125.999996154785
392,116,166614,6,0,L|384:184,1,62.9999980773926,8|0,0:0|0:0,0:0:0:0:
460,248,166787,2,0,L|452:328,1,62.9999980773926,8|0,0:0|0:0,0:0:0:0:
324,336,166960,6,0,L|232:332,1,62.9999980773926,8|0,0:0|0:0,0:0:0:0:
220,252,167134,2,0,L|120:248,1,62.9999980773926,8|0,0:0|0:0,0:0:0:0:
100,164,167307,2,0,L|12:160,1,62.9999980773926,8|0,0:0|0:0,0:0:0:0:
16,100,167481,1,8,0:0:0:0:
212,40,167654,1,2,0:0:0:0:
424,108,167827,5,4,0:0:0:0:
344,252,168001,2,0,L|324:380,2,125.999996154785,0|8|0,0:0|0:0|0:0,0:0:0:0:
248,92,168521,1,0,0:0:0:0:
144,240,168695,2,0,L|184:392,2,125.999996154785,0|8|0,0:0|0:0|0:0,0:0:0:0:
64,64,169215,1,0,0:0:0:0:
248,92,169388,2,0,L|408:120,2,125.999996154785,0|8|0,0:0|0:0|0:0,0:0:0:0:
24,232,169908,2,0,B|57:294|57:294|136:336,1,125.999996154785
216,244,170255,2,0,B|183:182|183:182|104:140,1,125.999996154785,8|0,0:0|0:0,0:0:0:0:
96,52,170602,5,0,0:0:0:0:
248,136,170775,1,0,0:0:0:0:
192,28,170948,1,8,0:0:0:0:
316,152,171122,1,0,0:0:0:0:
288,24,171296,1,0,0:0:0:0:
372,196,171469,1,0,0:0:0:0:
376,52,171643,1,8,0:0:0:0:
424,248,171816,1,0,0:0:0:0:
252,64,171989,6,0,P|160:56|88:80,1,125.999996154785
323,249,172336,2,0,P|330:172|307:105,1,125.999996154785,8|0,0:0|0:0,0:0:0:0:
141,305,172683,2,0,P|208:318|284:287,1,125.999996154785
79,128,173030,2,0,P|67:189|93:271,1,125.999996154785,8|0,0:0|0:0,0:0:0:0:
208,172,173377,5,0,0:0:0:0:
332,112,173550,2,0,P|396:144|464:132,1,125.999996154785,0|8,0:0|0:0,0:0:0:0:
416,248,173897,1,0,0:0:0:0:
476,340,174070,1,0,0:0:0:0:
328,324,174244,2,0,P|244:324|164:344,1,125.999996154785,0|8,0:0|0:0,0:0:0:0:
100,276,174590,1,0,0:0:0:0:
76,160,174764,6,0,P|136:112|212:100,1,125.999996154785
256,280,175111,2,0,L|256:144,1,125.999996154785,8|0,0:0|0:0,0:0:0:0:
436,160,175458,2,0,P|376:112|300:100,1,125.999996154785
216,16,175804,1,8,0:0:0:0:
136,192,175978,5,0,0:0:0:0:
256,192,176064,12,0,177365,0:0:0:0:
112,96,177538,5,8,0:0:0:0:
370,96,177712,1,8,0:0:0:0:
241,319,177885,1,8,0:0:0:0:
112,96,178059,6,8,L|184:96,1,62.9999980773926
370,96,178232,2,8,L|332:168,1,62.9999980773926
241,319,178406,2,8,L|188:240,1,62.9999980773926
215,21,178579,6,0,P|200:114|243:17,1,315,2|0,0:0|0:0,0:0:0:0:
236,72,178926,6,0,B|247:116|234:164|189:184|189:184|144:166|99:204|100:266|160:289|205:274|216:214|216:214|276:163|326:253|382:240|409:162|356:135|321:190,1,588,4|0,0:0|0:0,0:0:0:0:
229,325,180313,2,0,B|149:370|23:323|6:216|66:105|166:110|166:110|207:122|239:97|239:97|266:104|266:104|289:81|328:79,1,588
364,16,181700,6,0,B|413:51|402:128|354:158|354:158|379:198|366:230|374:279|374:279|341:240|296:226|292:177|292:177|219:200|210:89|113:115,1,588
107,40,183088,2,0,B|60:74|53:136|100:177|100:177|56:181|9:223|9:223|75:211|144:218|174:236|174:236|151:296|200:355|259:346,1,588
331,352,184475,6,0,B|325:289|287:268|249:267|249:267|307:254|353:266|389:300|389:300|373:225|401:179|401:179|267:190|476:51|254:177|312:65,1,588
183,121,185862,2,0,B|201:79|201:79|149:22|149:22|99:136|99:136|149:191|149:191|114:272|114:272|25:289|25:289|71:197,1,588
245,14,187249,6,0,B|289:67|289:67|246:159|246:159|294:128|337:120|375:146|375:146|445:102|525:146|520:267|464:313|366:296|326:208|326:208|293:209|281:248|236:253|236:253|288:281|288:281|313:313|348:340|408:348|408:348|319:363|291:309|227:309|200:367|157:359|126:315,1,1260
58,236,190024,6,0,B|89:202|95:128|51:58|51:58|134:109|219:82|219:82|268:31|358:26|434:81,1,588,6|0,0:0|0:0,0:0:0:0:
454,148,191411,2,0,B|423:182|417:256|461:326|461:326|378:275|293:302|293:302|244:353|154:358|78:303,1,588
92,224,192799,6,0,B|149:271|218:275|252:237|252:237|307:211|356:216|356:216|357:167|381:125|381:125|293:178|245:89|198:252|101:214|62:109|78:44|140:-3|221:-3|257:76|257:76|343:83|356:15|474:16|494:147|425:230,1,1260
413,312,195573,6,0,B|368:319|336:295|336:295|305:326|276:320|254:344|254:344|231:319|197:324|167:294|167:294|132:334|86:308|69:250|80:208|130:164|221:171|236:262,1,588
99,72,196960,2,0,B|144:65|176:89|176:89|207:58|236:64|258:40|258:40|281:65|315:60|345:90|345:90|380:50|426:76|443:134|432:176|382:220|291:213|276:122,1,588
256,272,198348,6,0,B|225:308|161:338|92:330|92:330|109:279|155:218|253:195|253:195|405:215|437:259|432:338|432:338|336:346|298:295|294:157|343:122|382:82|349:-2|252:-32|164:9|152:91|178:146|254:108,1,1260
404,32,201122,5,0,0:0:0:0:
448,160,201296,1,0,0:0:0:0:
488,292,201469,1,0,0:0:0:0:
404,32,201643,6,0,L|360:108,1,52.5
448,160,201816,2,0,L|404:236,1,52.5
488,292,201989,2,0,L|444:368,1,52.5
432,376,202163,1,0,0:0:0:0:
292,328,202336,1,0,0:0:0:0:
154,271,202510,5,0,0:0:0:0:
253,211,202683,1,0,0:0:0:0:
152,156,202856,1,0,0:0:0:0:
154,271,203030,6,0,L|120:344,1,52.5
253,211,203203,2,0,L|340:208,1,52.5
152,156,203377,2,0,L|112:92,1,52.5
92,64,203550,1,0,0:0:0:0:
256,92,203723,1,0,0:0:0:0:
420,64,203897,5,0,0:0:0:0:
332,344,204244,1,0,0:0:0:0:
232,308,204417,2,0,L|168:332,1,52.5
248,208,204590,2,0,L|184:232,1,52.5
264,104,204764,2,0,L|200:128,1,52.5
160,144,204937,1,0,0:0:0:0:
464,192,205284,5,0,0:0:0:0:
346,249,205458,2,0,L|367:299,1,52.5
245,265,205631,2,0,L|245:325,1,52.5
147,239,205804,2,0,L|119:299,1,52.5
85,169,205978,2,0,L|1:201,1,52.5
72,84,206151,2,0,L|4:68,1,52.5
64,20,206325,1,0,0:0:0:0:
229,65,206498,1,0,0:0:0:0:
402,126,206671,5,0,0:0:0:0:
248,192,206845,1,0,0:0:0:0:
382,293,207018,1,0,0:0:0:0:
402,126,207192,6,0,L|328:156,1,52.5
248,192,207365,2,0,L|316:244,1,52.5
382,293,207538,2,0,L|396:216,1,52.5
396,192,207712,1,0,0:0:0:0:
324,68,207885,1,0,0:0:0:0:
172,68,208059,5,0,0:0:0:0:
100,188,208232,1,0,0:0:0:0:
152,312,208406,1,0,0:0:0:0:
172,68,208579,6,0,L|232:100,1,52.5
100,188,208752,2,0,L|192:188,1,52.5
152,312,208926,2,0,L|232:276,1,52.5
248,268,209099,1,0,0:0:0:0:
259,160,209273,1,0,0:0:0:0:
272,56,209446,5,0,0:0:0:0:
384,120,209619,1,0,0:0:0:0:
448,240,209793,1,0,0:0:0:0:
272,56,209966,6,0,L|252:132,1,52.5
384,120,210140,2,0,L|328:176,1,52.5
448,240,210313,2,0,L|372:244,1,52.5
344,244,210486,1,0,0:0:0:0:
216,176,210660,1,0,0:0:0:0:
140,292,210833,5,0,0:0:0:0:
256,192,210920,12,0,212047,0:0:0:0:
140,64,212221,5,4,0:0:0:0:
256,100,212394,1,0,0:0:0:0:
372,64,212567,1,8,0:0:0:0:
140,64,212741,6,0,L|88:132,1,52.5
256,100,212914,2,0,L|256:172,1,52.5
372,64,213088,2,0,L|424:132,1,52.5
440,148,213261,1,8,0:0:0:0:
440,252,213434,1,0,0:0:0:0:
372,324,213608,5,0,0:0:0:0:
256,288,213781,1,0,0:0:0:0:
140,324,213955,1,8,0:0:0:0:
372,324,214128,6,0,L|424:256,1,52.5
256,288,214301,2,0,L|256:216,1,52.5
140,324,214475,2,0,L|88:256,1,52.5
76,244,214648,1,8,0:0:0:0:
188,164,214822,1,0,0:0:0:0:
24,88,214995,5,0,0:0:0:0:
184,48,215169,1,0,0:0:0:0:
356,80,215342,1,8,0:0:0:0:
24,88,215515,6,0,L|112:88,1,52.5
184,48,215689,2,0,L|260:48,1,52.5
356,80,215862,2,0,L|432:80,1,52.5
464,80,216036,1,8,0:0:0:0:
444,220,216209,1,0,0:0:0:0:
312,192,216382,5,0,0:0:0:0:
240,296,216556,2,0,L|184:336,1,52.5
84,248,216729,2,0,L|132:292,1,52.5,8|0,0:0|0:0,0:0:0:0:
224,192,216903,2,0,L|168:232,1,52.5
76,128,217076,2,0,L|124:172,1,52.5
224,88,217249,2,0,L|168:128,1,52.5
144,56,217423,1,8,0:0:0:0:
256,176,217770,5,8,0:0:0:0:
353,59,218117,1,8,0:0:0:0:
470,157,218463,1,8,0:0:0:0:
372,273,218810,1,8,0:0:0:0:
369,226,218984,1,8,0:0:0:0:
365,174,219157,5,8,0:0:0:0:
236,44,219504,1,8,0:0:0:0:
106,174,219851,1,8,0:0:0:0:
236,304,220197,1,8,0:0:0:0:
352,336,220371,1,8,0:0:0:0:
460,272,220544,5,8,0:0:0:0:
312,164,220718,1,8,0:0:0:0:
420,180,220891,1,8,0:0:0:0:
232,236,221064,1,8,0:0:0:0:
148,304,221238,2,8,P|104:248|104:232,1,52.5
88,192,221411,2,8,P|85:149|104:104,1,52.5
128,68,221585,2,8,P|165:36|206:33,1,52.5
258,21,221758,2,8,P|306:21|340:37,1,52.5
400,60,221932,5,8,0:0:0:0:
480,284,222105,1,8,0:0:0:0:
240,216,222278,1,8,0:0:0:0:
80,52,222452,2,0,L|60:16,8,26.25,8|0|8|0|8|0|8|0|8,0:0|0:0|0:0|0:0|0:0|0:0|0:0|0:0|0:0,0:0:0:0:
158,312,222972,6,0,P|289:315|415:223,1,283.499991348267,2|0,0:0|0:0,0:0:0:0:
424,176,223319,6,0,P|332:212|260:180,1,136.499993751526,4|0,0:0|0:0,0:0:0:0:
220,112,223666,2,0,P|128:104|60:140,1,136.499993751526,8|0,0:0|0:0,0:0:0:0:
72,264,224012,2,0,P|152:304|240:304,1,136.499993751526,8|0,0:0|0:0,0:0:0:0:
324,272,224359,2,0,P|392:236|488:248,1,136.499993751526,8|0,0:0|0:0,0:0:0:0:
332,68,224706,6,0,P|420:108|476:88,1,136.499993751526,8|0,0:0|0:0,0:0:0:0:
100,40,225053,2,0,P|76:128|100:212,1,136.499993751526,8|0,0:0|0:0,0:0:0:0:
216,340,225400,2,0,P|240:236|216:152,1,136.499993751526,8|0,0:0|0:0,0:0:0:0:
332,68,225747,2,0,P|420:108|476:88,1,136.499993751526,8|0,0:0|0:0,0:0:0:0:
424,280,226093,5,8,0:0:0:0:
188,224,226267,1,0,0:0:0:0:
352,144,226440,1,8,0:0:0:0:
272,352,226614,1,0,0:0:0:0:
96,152,226787,1,8,0:0:0:0:
336,244,226960,1,0,0:0:0:0:
64,336,227134,1,8,0:0:0:0:
224,76,227307,1,0,0:0:0:0:
352,324,227481,6,0,B|394:295|394:295|417:258|417:258|464:232,1,136.499993751526,8|0,0:0|0:0,0:0:0:0:
156,268,227827,2,0,B|114:239|114:239|91:202|91:202|44:176,1,136.499993751526,8|0,0:0|0:0,0:0:0:0:
352,168,228174,2,0,B|394:139|394:139|417:102|417:102|464:76,1,136.499993751526,8|0,0:0|0:0,0:0:0:0:
156,104,228521,2,0,B|114:75|114:75|91:38|91:38|44:12,1,136.499993751526,8|0,0:0|0:0,0:0:0:0:
364,60,228868,5,8,0:0:0:0:
260,192,229041,1,0,0:0:0:0:
268,208,229128,1,0,0:0:0:0:
276,224,229215,1,8,0:0:0:0:
464,200,229388,1,0,0:0:0:0:
356,308,229562,2,0,P|288:340|220:324,1,136.499993751526,8|0,0:0|0:0,0:0:0:0:
108,252,229908,2,0,P|152:160|120:92,1,136.499993751526,8|0,0:0|0:0,0:0:0:0:
248,36,230255,5,8,0:0:0:0:
432,144,230429,1,0,0:0:0:0:
424,172,230515,1,0,0:0:0:0:
416,196,230602,1,8,0:0:0:0:
204,268,230775,1,0,0:0:0:0:
299,178,230949,2,0,P|328:255|315:342,1,136.499993751526,8|0,0:0|0:0,0:0:0:0:
165,160,231296,2,0,P|157:101|178:28,1,136.499993751526,8|0,0:0|0:0,0:0:0:0:
300,40,231643,5,8,0:0:0:0:
272,176,231816,1,0,0:0:0:0:
420,88,231989,1,8,0:0:0:0:
276,228,232163,1,0,0:0:0:0:
484,188,232336,1,8,0:0:0:0:
260,276,232510,1,0,0:0:0:0:
496,312,232683,1,8,0:0:0:0:
228,320,232856,2,0,P|120:328|64:288,1,136.499993751526,0|8,0:0|0:0,0:0:0:0:
52,192,233203,6,0,L|64:120,1,68.2499968757631,8|0,0:0|0:0,0:0:0:0:
176,60,233377,2,0,L|160:152,1,68.2499968757631,8|0,0:0|0:0,0:0:0:0:
268,204,233550,6,0,L|256:276,1,68.2499968757631,8|0,0:0|0:0,0:0:0:0:
376,120,233723,2,0,L|392:36,1,68.2499968757631,8|0,0:0|0:0,0:0:0:0:
448,228,233897,2,0,L|432:312,1,68.2499968757631,8|0,0:0|0:0,0:0:0:0:
500,88,234070,1,8,0:0:0:0:
304,24,234244,1,2,0:0:0:0:
112,112,234417,5,4,0:0:0:0:
88,300,234590,2,0,P|184:268|240:296,1,125.999996154785,0|8,0:0|0:0,0:0:0:0:
348,324,234937,1,0,0:0:0:0:
267,188,235111,1,8,0:0:0:0:
416,64,235284,1,0,0:0:0:0:
420,207,235458,2,0,P|366:168|329:108,1,125.999996154785,8|0,0:0|0:0,0:0:0:0:
220,56,235804,5,8,0:0:0:0:
72,204,235978,1,0,0:0:0:0:
92,84,236151,1,8,0:0:0:0:
232,248,236325,1,0,0:0:0:0:
140,316,236498,2,0,P|56:348|-8:336,1,125.999996154785,8|0,0:0|0:0,0:0:0:0:
328,184,236845,2,0,P|404:168|472:196,1,125.999996154785,8|0,0:0|0:0,0:0:0:0:
200,132,237192,5,8,0:0:0:0:
336,48,237365,1,0,0:0:0:0:
184,208,237538,1,8,0:0:0:0:
84,36,237712,1,0,0:0:0:0:
252,184,237885,1,8,0:0:0:0:
32,236,238059,1,0,0:0:0:0:
268,116,238232,1,8,0:0:0:0:
276,348,238406,1,0,0:0:0:0:
216,200,238579,6,0,P|160:124|160:56,1,125.999996154785,8|0,0:0|0:0,0:0:0:0:
360,260,238926,2,0,P|444:252|492:208,1,125.999996154785,8|0,0:0|0:0,0:0:0:0:
152,260,239273,2,0,P|68:252|20:208,1,125.999996154785,8|0,0:0|0:0,0:0:0:0:
296,200,239619,2,0,P|352:124|352:56,1,125.999996154785,8|0,0:0|0:0,0:0:0:0:
168,40,239966,5,8,0:0:0:0:
96,148,240140,2,0,L|132:288,1,125.999996154785,0|8,0:0|0:0,0:0:0:0:
308,308,240486,1,0,0:0:0:0:
415,199,240660,2,0,P|363:157|275:159,1,125.999996154785,8|0,0:0|0:0,0:0:0:0:
132,164,241007,1,8,0:0:0:0:
153,321,241180,1,0,0:0:0:0:
308,308,241354,6,0,B|286:340|286:340|268:240,1,125.999996154785,8|0,0:0|0:0,0:0:0:0:
132,164,241700,2,0,B|117:127|117:127|210:168,1,125.999996154785,8|0,0:0|0:0,0:0:0:0:
324,88,242047,2,0,B|362:83|362:83|298:162,1,125.999996154785,8|0,0:0|0:0,0:0:0:0:
172,24,242394,1,8,0:0:0:0:
256,192,242567,5,0,0:0:0:0:
256,192,242741,12,0,243955,0:0:0:0:
132,284,244128,5,4,0:0:0:0:
254,63,244475,1,4,0:0:0:0:
383,279,244822,1,4,0:0:0:0:
252,192,245169,2,0,B|249:163|249:163|256:138|256:138|252:109,1,78.75
254,63,245515,6,0,P|320:48|400:88,1,125.999996154785,4|0,0:0|0:0,0:0:0:0:
493,97,245862,1,8,0:0:0:0:
400,184,246036,2,0,L|376:316,1,125.999996154785
256,328,246382,1,0,0:0:0:0:
144,248,246556,2,0,P|112:176|128:104,1,125.999996154785,8|0,0:0|0:0,0:0:0:0:
216,40,246903,6,0,B|286:38|286:38|388:72,1,125.999996154785
96,68,247249,1,8,0:0:0:0:
184,148,247423,2,0,B|242:188|242:188|292:272,1,125.999996154785
64,48,247770,1,0,0:0:0:0:
64,192,247943,2,0,B|70:264|70:264|48:344,1,125.999996154785,8|0,0:0|0:0,0:0:0:0:
184,329,248290,2,0,B|221:322|243:329|243:329|264:321|264:321|302:331|338:307,1,125.999996154785
344,192,248637,5,8,0:0:0:0:
432,304,248810,1,0,0:0:0:0:
468,156,248984,2,0,P|432:84|376:56,1,125.999996154785
264,80,249330,2,0,P|196:128|116:120,1,125.999996154785,8|0,0:0|0:0,0:0:0:0:
216,224,249677,2,0,B|263:263|315:238|315:238|360:255|360:255|405:229|460:250,1,251.999992309571,0|8,0:0|0:0,0:0:0:0:
456,368,250197,2,0,B|409:329|357:354|357:354|312:337|312:337|267:363|212:342,1,251.999992309571
68,368,250718,1,8,0:0:0:0:
132,264,250891,1,0,0:0:0:0:
72,144,251064,6,0,B|98:99|121:88|121:88|161:90|200:56,1,125.999996154785
276,144,251411,1,8,0:0:0:0:
388,48,251585,2,0,B|404:84|404:84|392:200,1,125.999996154785
472,272,251932,1,0,0:0:0:0:
340,304,252105,2,0,B|269:302|269:302|176:332,1,125.999996154785,8|0,0:0|0:0,0:0:0:0:
125,238,252452,6,0,P|73:233|130:211,1,125.999996154785
264,208,252799,1,8,0:0:0:0:
134,127,252972,2,0,P|125:70|163:121,1,125.999996154785
292,236,253319,1,0,0:0:0:0:
248,72,253492,2,0,P|276:24|284:76,1,125.999996154785,8|0,0:0|0:0,0:0:0:0:
420,128,253839,6,0,P|428:208|464:248,1,125.999996154785
344,328,254186,2,0,P|272:324|208:360,1,125.999996154785,8|0,0:0|0:0,0:0:0:0:
72,272,254533,1,0,0:0:0:0:
208,232,254706,2,0,P|272:156|168:184,1,251.999992309571,0|8,0:0|0:0,0:0:0:0:
64,112,255226,1,8,0:0:0:0:
196,32,255400,6,0,L|300:40,1,62.9999980773926,8|0,0:0|0:0,0:0:0:0:
352,96,255573,2,0,L|424:120,1,62.9999980773926,8|0,0:0|0:0,0:0:0:0:
452,228,255747,6,0,L|464:304,1,62.9999980773926,8|0,0:0|0:0,0:0:0:0:
328,312,255920,2,0,L|280:368,1,62.9999980773926,8|0,0:0|0:0,0:0:0:0:
168,288,256093,2,0,L|64:296,1,62.9999980773926,8|0,0:0|0:0,0:0:0:0:
36,256,256267,1,8,0:0:0:0:
136,88,256440,1,2,0:0:0:0:
280,200,256614,6,0,P|360:172|388:108,1,125.999996154785,4|0,0:0|0:0,0:0:0:0:
274,72,256960,1,8,0:0:0:0:
404,248,257134,2,0,P|464:312|504:320,1,125.999996154785
484,164,257481,1,0,0:0:0:0:
268,276,257654,2,0,P|200:303|129:303,1,125.999996154785,8|0,0:0|0:0,0:0:0:0:
96,196,258001,6,0,L|140:68,1,125.999996154785
28,56,258348,1,8,0:0:0:0:
244,172,258521,2,0,L|203:291,1,125.999996154785
96,196,258868,1,0,0:0:0:0:
388,152,259041,2,0,L|432:24,1,125.999996154785,8|0,0:0|0:0,0:0:0:0:
264,64,259388,1,0,0:0:0:0:
328,224,259562,1,0,0:0:0:0:
476,336,259735,5,8,0:0:0:0:
288,348,259908,1,0,0:0:0:0:
104,312,260082,2,0,P|92:224|124:160,1,125.999996154785
216,80,260429,2,0,P|224:160|196:232,1,125.999996154785,8|0,0:0|0:0,0:0:0:0:
360,184,260775,2,0,P|400:260|404:160,1,251.999992309571,0|8,0:0|0:0,0:0:0:0:
338,130,261296,2,0,P|329:35|392:108,1,251.999992309571
264,212,261816,1,8,0:0:0:0:
324,328,261989,1,0,0:0:0:0:
184,320,262163,6,0,P|104:280|76:208,1,125.999996154785
76,160,262510,1,8,0:0:0:0:
232,40,262683,2,0,P|204:128|144:148,1,125.999996154785
304,200,263030,1,0,0:0:0:0:
408,96,263203,2,0,P|444:172|500:184,1,125.999996154785,8|0,0:0|0:0,0:0:0:0:
448,300,263550,6,0,L|296:332,1,125.999996154785
124,268,263897,1,8,0:0:0:0:
384,236,264070,2,0,L|240:228,1,125.999996154785
68,192,264417,1,0,0:0:0:0:
336,156,264590,2,0,L|200:124,1,125.999996154785,8|0,0:0|0:0,0:0:0:0:
64,84,264937,6,0,B|101:69|119:40|119:40|156:58|202:34,1,125.999996154785
341,45,265284,2,0,B|370:60|404:42|404:42|415:74|448:84,1,125.999996154785,8|0,0:0|0:0,0:0:0:0:
256,196,265631,1,0,0:0:0:0:
158,259,265804,2,0,P|138:188|180:102,1,125.999996154785,0|8,0:0|0:0,0:0:0:0:
368,196,266151,1,0,0:0:0:0:
136,96,266325,5,8,0:0:0:0:
256,304,266498,1,8,0:0:0:0:
376,96,266671,1,8,0:0:0:0:
136,96,266845,6,8,P|99:75|46:73,1,62.9999980773926
256,304,267018,2,8,P|261:348|296:384,1,62.9999980773926
376,96,267192,2,8,P|415:99|464:71,1,62.9999980773926
256,176,267365,6,0,B|215:187|255:217|286:209|296:172|250:122|250:122|263:103|263:103|251:81|251:81|255:49,1,210,2|0,0:0|0:0,0:0:0:0:
156,32,267712,6,0,P|104:84|92:156,1,105,4|0,0:0|0:0,0:0:0:0:
151,293,268059,1,8,0:0:0:0:
210,217,268232,2,0,P|125:201|52:295,1,210
256,296,268752,2,0,L|372:288,1,105,8|0,0:0|0:0,0:0:0:0:
416,184,269099,6,0,L|288:168,1,105
208,92,269446,1,8,0:0:0:0:
72,56,269619,2,0,B|82:137|82:137|123:184|123:184|136:260,1,210
224,316,270140,2,0,P|300:296|368:308,1,105,8|0,0:0|0:0,0:0:0:0:
436,316,270486,1,0,0:0:0:0:
436,112,270833,5,8,0:0:0:0:
328,64,271007,1,0,0:0:0:0:
220,112,271180,1,0,0:0:0:0:
328,64,271354,1,0,0:0:0:0:
293,194,271527,2,0,P|244:228|169:234,1,105,8|0,0:0|0:0,0:0:0:0:
88,292,271874,2,0,L|108:64,1,210,0|8,0:0|0:0,0:0:0:0:
216,28,272394,2,0,L|200:252,1,210
192,336,272914,1,8,0:0:0:0:
328,348,273088,1,0,0:0:0:0:
432,248,273261,6,0,P|452:168|432:116,1,105
348,28,273608,1,8,0:0:0:0:
272,148,273781,2,0,B|204:175|204:175|131:175|131:175|52:144,1,210
120,61,274301,2,0,B|156:42|156:42|188:42|188:42|226:65,1,105,8|0,0:0|0:0,0:0:0:0:
304,124,274648,6,0,P|376:132|424:104,1,105
348,28,274995,1,8,0:0:0:0:
215,59,275169,2,0,P|199:131|287:247,1,210
376,264,275689,2,0,P|436:296|472:352,1,105,8|0,0:0|0:0,0:0:0:0:
236,344,276036,5,0,0:0:0:0:
256,212,276209,1,0,0:0:0:0:
70,31,276556,5,2,0:0:0:0:
396,88,276903,5,2,0:0:0:0:
256,212,277076,1,0,0:0:0:0:
64,252,277249,1,2,0:0:0:0:
113,86,277423,2,0,B|181:160|243:80|309:130,1,210
400,228,277943,2,0,P|347:220|395:310,1,210
496,252,278463,1,0,0:0:0:0:
480,128,278637,1,0,0:0:0:0:
376,52,278810,6,0,P|300:52|236:76,1,105,4|0,0:0|0:0,0:0:0:0:
108,40,279157,1,8,0:0:0:0:
175,160,279330,2,0,B|141:182|96:186|57:166|57:166|88:204|90:253,1,210
184,320,279851,2,0,P|236:308|300:324,1,105,8|0,0:0|0:0,0:0:0:0:
412,280,280197,6,0,P|400:200|404:152,1,105
220,140,280544,1,8,0:0:0:0:
308,48,280718,2,0,P|316:152|308:272,1,210
140,241,281238,2,0,P|126:138|137:27,1,210,8|0,0:0|0:0,0:0:0:0:
250,79,281758,1,0,0:0:0:0:
373,36,281932,5,8,0:0:0:0:
452,137,282105,1,0,0:0:0:0:
369,237,282278,1,0,0:0:0:0:
256,200,282452,1,0,0:0:0:0:
256,200,282625,2,0,P|168:204|128:228,1,105,8|0,0:0|0:0,0:0:0:0:
168,329,282972,2,0,B|212:300|260:297|311:318|311:318|338:293|332:221,1,210,0|8,0:0|0:0,0:0:0:0:
296,128,283492,2,0,B|252:157|204:160|153:139|153:139|126:164|132:236,1,210
68,308,284012,1,8,0:0:0:0:
13,209,284186,1,0,0:0:0:0:
72,108,284359,6,0,P|128:60|192:64,1,105
260,108,284706,1,8,0:0:0:0:
404,48,284880,2,0,P|376:120|468:216,1,210
396,312,285400,2,0,P|328:304|272:332,1,105,8|0,0:0|0:0,0:0:0:0:
152,316,285747,6,0,L|172:188,1,105
256,100,286093,1,8,0:0:0:0:
104,48,286267,2,0,L|68:260,1,210
237,291,286787,2,0,L|257:179,1,105,8|0,0:0|0:0,0:0:0:0:
388,88,287134,5,0,0:0:0:0:
256,188,287307,1,0,0:0:0:0:
36,48,287654,5,2,0:0:0:0:
444,280,288001,5,2,0:0:0:0:
256,188,288174,1,0,0:0:0:0:
68,280,288348,1,2,0:0:0:0:
252,360,288521,6,8,L|124:360,2,105
296,208,289041,1,8,0:0:0:0:
297,234,289127,1,8,0:0:0:0:
302,259,289214,1,8,0:0:0:0:
311,284,289301,1,8,0:0:0:0:
323,308,289387,1,8,0:0:0:0:
220,168,289562,6,8,L|264:168,1,26.25
231,134,289648,2,8,L|272:128,1,26.25
233,99,289735,2,8,L|272:88,1,26.25
226,66,289822,2,8,L|260:44,1,26.25
212,40,289908,6,0,P|159:56|217:66,1,146.999995513916,6|0,0:0|0:0,0:0:0:0:
300,40,290255,2,0,P|353:56|295:66,1,146.999995513916,8|0,0:0|0:0,0:0:0:0:
192,136,290602,6,0,P|139:152|197:162,1,146.999995513916,8|0,0:0|0:0,0:0:0:0:
320,136,290949,2,0,P|373:152|315:162,1,146.999995513916,8|0,0:0|0:0,0:0:0:0:
176,224,291296,6,0,P|123:240|181:250,1,146.999995513916,8|0,0:0|0:0,0:0:0:0:
336,224,291643,2,0,P|389:240|331:250,1,146.999995513916,8|0,0:0|0:0,0:0:0:0:
156,324,291989,6,0,P|103:340|161:350,1,146.999995513916,8|0,0:0|0:0,0:0:0:0:
356,324,292336,2,0,P|409:340|351:350,1,146.999995513916,8|0,0:0|0:0,0:0:0:0:
144,264,292683,6,0,P|90:246|143:228,1,146.999995513916,8|0,0:0|0:0,0:0:0:0:
368,264,293030,2,0,P|421:246|368:228,1,146.999995513916,8|0,0:0|0:0,0:0:0:0:
128,176,293377,6,0,P|74:158|127:140,1,146.999995513916,8|0,0:0|0:0,0:0:0:0:
384,176,293723,2,0,P|437:158|384:140,1,146.999995513916,8|0,0:0|0:0,0:0:0:0:
104,88,294070,6,0,P|50:70|103:52,1,146.999995513916,8|0,0:0|0:0,0:0:0:0:
408,88,294417,2,0,P|461:70|408:52,1,146.999995513916,8|0,0:0|0:0,0:0:0:0:
256,156,294764,6,0,B|297:134|217:93|199:178|314:212|227:273,1,146.999995513916,8|0,0:0|0:0,0:0:0:0:
177,350,295111,1,0,0:0:0:0:
165,304,295197,1,0,0:0:0:0:
135,270,295284,1,0,0:0:0:0:
97,249,295371,1,0,0:0:0:0:
48,240,295458,6,0,B|61:188|61:188|77:169|77:169|71:146|71:146|82:98,1,146.999995513916,6|0,0:0|0:0,0:0:0:0:
348,56,295804,2,0,B|337:99|337:99|343:122|343:122|327:141|327:141|314:193,1,146.999995513916,8|0,0:0|0:0,0:0:0:0:
160,60,296151,6,0,B|170:103|170:103|164:126|164:126|180:145|180:145|193:197,1,146.999995513916,8|0,0:0|0:0,0:0:0:0:
472,240,296498,2,0,B|459:188|459:188|443:169|443:169|449:146|449:146|438:98,1,146.999995513916,8|0,0:0|0:0,0:0:0:0:
160,60,296845,6,0,B|149:103|149:103|155:126|155:126|139:145|139:145|126:197,1,146.999995513916,8|0,0:0|0:0,0:0:0:0:
352,60,297192,2,0,B|362:103|362:103|356:126|356:126|372:145|372:145|385:197,1,146.999995513916,8|0,0:0|0:0,0:0:0:0:
156,284,297538,6,0,B|112:294|112:294|89:288|89:288|70:304|70:304|18:317,1,146.999995513916,8|0,0:0|0:0,0:0:0:0:
356,284,297885,2,0,B|399:294|399:294|422:288|422:288|441:304|441:304|493:317,1,146.999995513916,8|0,0:0|0:0,0:0:0:0:
184,156,298232,6,0,B|146:149|135:111|135:111|84:129|79:57|136:86,1,146.999995513916,8|0,0:0|0:0,0:0:0:0:
328,156,298579,2,0,B|366:149|377:111|377:111|428:129|433:57|376:86,1,146.999995513916,8|0,0:0|0:0,0:0:0:0:
128,240,298926,6,0,B|150:207|78:212|96:263|96:263|58:274|51:312,1,146.999995513916,8|0,0:0|0:0,0:0:0:0:
384,240,299273,2,0,B|361:207|433:212|415:263|415:263|453:274|460:312,1,146.999995513916,8|0,0:0|0:0,0:0:0:0:
218,301,299619,6,0,P|150:239|145:153,1,146.999995513916,8|0,0:0|0:0,0:0:0:0:
377,185,299966,2,0,P|355:254|298:297,1,146.999995513916,8|0,0:0|0:0,0:0:0:0:
183,108,300313,2,0,P|255:85|352:136,1,146.999995513916,8|0,0:0|0:0,0:0:0:0:
296,176,300660,5,8,0:0:0:0:
228,220,300747,1,8,0:0:0:0:
216,176,300833,1,8,0:0:0:0:
282,221,300920,1,8,0:0:0:0:
256,192,301007,5,6,0:0:0:0:
256,192,301093,12,0,306556,0:0:0:0:
