osu file format v14

[General]
AudioFilename: audio.mp3
AudioLeadIn: 0
PreviewTime: 223235
Countdown: 1
SampleSet: Normal
StackLeniency: 0.7
Mode: 1
LetterboxInBreaks: 0
WidescreenStoryboard: 1

[Editor]
DistanceSpacing: 1.9
BeatDivisor: 4
GridSize: 32
TimelineZoom: 1.799999

[Metadata]
Title:Genryuu Kaiko
TitleUnicode:源流懐古
Artist:Halozy
ArtistUnicode:Halozy
Creator:Axer
Version:Oni Torrent
Source:東方花映塚 ~ Phantasmagoria of Flower View.
Tags:Jpop J-pop Pop Electronic Video Game Japanese 東方project Touhou Project ほたる Hotaru すみじゅん Sumijun くまりす Kumarisu 彼岸帰航 ~ Riverside View Higan Retour ~ Riverside View 小野塚 小町 Komachi Onozuka Cosmic Armonica おのづか こまち ZUN Team Shanghai Alice 上海アリス幻樂団 Comiket 79 c79 HLZY-0006 comic market コミケ79 コミックマーケット79 th09
BeatmapID:4251719
BeatmapSetID:640120

[Difficulty]
HPDrainRate:6
CircleSize:2
OverallDifficulty:5
ApproachRate:5
SliderMultiplier:1.5
SliderTickRate:1

[Events]
//Background and Video events
0,0,"bg.jpg",0,0
//Break Periods
2,179398,200186
//Storyboard Layer 0 (Background)
//Storyboard Layer 1 (Fail)
//Storyboard Layer 2 (Pass)
//Storyboard Layer 3 (Foreground)
//Storyboard Layer 4 (Overlay)
//Storyboard Sound Samples

[TimingPoints]
231,346.820809248555,4,1,0,60,1,8
1618,346.820809248555,4,1,0,60,1,0
1618,-153.846153846154,4,1,0,60,0,0
12542,-133.333333333333,4,1,0,75,0,0
18264,-133.32219,4,1,0,75,0,0
18437,-131.42197,4,1,0,75,0,0
18611,-129.56465,4,1,0,75,0,0
18784,-127.769325,4,1,0,75,0,0
19131,-124.314224,4,1,0,75,0,0
19304,-122.66051,4,1,0,75,0,0
19564,-120.25632,4,1,0,75,0,0
19651,-119.47275,4,1,0,75,0,0
19825,-117.93583,4,1,0,75,0,0
19998,-116.446465,4,1,0,75,0,0
20171,-114.99423,4,1,0,75,0,0
20518,-112.18792,4,1,0,75,0,0
20692,-110.83166,4,1,0,75,0,0
21038,-108.229866,4,1,0,75,0,0
21212,-106.96708,4,1,0,75,0,0
21299,-106.34667,4,1,0,75,0,0
21385,-105.74042,4,1,0,75,0,0
21559,-104.53473,4,1,0,75,0,0
21906,-102.21055,4,1,0,75,0,0
22079,-101.08998,4,1,0,75,0,0
22252,-99.99373,4,1,0,75,0,0
22424,-90.9090909090909,4,1,0,80,0,0
22597,-93.7443663241392,4,1,0,80,0,0
22771,-96.7801972827098,4,1,0,80,0,0
22944,-100,4,1,0,80,0,0
23031,-101.701545081166,4,1,0,80,0,0
23204,-105.263157894737,4,1,0,80,0,0
23291,-107.150216361014,4,1,0,80,0,0
23378,-109.106168694922,4,1,0,80,0,0
23464,-111.111111111111,4,1,0,80,0,0
23814,-100,4,1,0,90,0,0
44620,-90.9090909090909,4,1,0,80,0,0
44794,-93.7584436638746,4,1,0,80,0,0
44967,-96.7741935483871,4,1,0,80,0,0
45141,-100.009607070804,4,1,0,80,0,0
45227,-101.68994822702,4,1,0,80,0,0
45401,-105.268480129437,4,1,0,80,0,0
45487,-107.131830811979,4,1,0,80,0,0
45574,-109.085193335429,4,1,0,80,0,0
45661,-111.111111111111,4,1,0,80,0,0
46011,-125.0451325918,4,1,0,80,0,0
56241,-125.04514,4,1,0,80,0,0
56588,-119.285324,4,1,0,81,0,0
56674,-117.89933,4,1,0,82,0,0
56761,-116.51359,4,1,0,83,0,0
56934,-113.80629,4,1,0,84,0,0
57108,-111.14677,4,1,0,85,0,0
66733,-90.9329603427339,4,1,0,100,0,0
66993,-111.14677,4,1,0,75,0,0
68120,-100,4,1,0,90,0,0
73756,-95.2380952380952,4,1,0,90,0,0
75144,-90.9090909090909,4,1,0,90,0,0
76531,-86.9565217391304,4,1,0,90,0,0
77221,-83.3333333333333,4,1,0,90,0,0
77568,-86.2068965517241,4,1,0,90,0,0
77655,-86.9587008821171,4,1,0,90,0,0
77742,-87.7237334411973,4,1,0,90,0,0
77828,-88.493318371927,4,1,0,90,0,0
77915,-89.2857142857143,4,1,0,90,0,0
78262,-92.5925925925926,4,1,0,90,0,0
78435,-94.3344932579382,4,1,0,90,0,0
78609,-96.1538461538461,4,1,0,90,0,0
78695,-97.079230080573,4,1,0,90,0,0
78782,-98.0336761215957,4,1,0,90,0,0
78869,-99.0070760100434,4,1,0,90,0,0
78956,-100,4,1,0,90,0,0
79305,-90.9090909090909,4,1,0,95,0,1
100115,-90.9090909090909,4,1,0,80,0,0
100458,-96.7621883141049,4,1,0,80,0,0
100632,-100,4,1,0,80,0,0
100719,-101.701545081166,4,1,0,80,0,0
100892,-105.263157894737,4,1,0,80,0,0
100979,-107.150216361014,4,1,0,80,0,0
101065,-109.083280889448,4,1,0,80,0,0
101152,-111.111111111111,4,1,0,80,0,0
101502,-100,4,1,0,90,0,0
112252,-100,4,1,0,90,0,0
112599,-95.2380952380952,4,1,0,90,0,0
122308,-90.9090909090909,4,1,0,80,0,0
122482,-93.7584436638746,4,1,0,80,0,0
122655,-96.7741935483871,4,1,0,80,0,0
122828,-99.9903947747575,4,1,0,80,0,0
122915,-101.68994822702,4,1,0,80,0,0
123088,-105.247194419169,4,1,0,80,0,0
123175,-107.131830811979,4,1,0,80,0,0
123262,-109.085193335429,4,1,0,80,0,0
123349,-111.111111111111,4,1,0,80,0,0
123525,-125.0451325918,4,1,0,80,0,0
133929,-125.04514,4,1,0,81,0,0
134275,-131.87047,4,1,0,82,0,0
134449,-135.44238,4,1,0,83,0,0
134536,-137.26447,4,1,0,84,0,0
134622,-139.08969,4,1,0,85,0,0
134709,-140.96083,4,1,0,86,0,0
134796,-142.85715,4,1,0,90,0,0
139476,-142.857142857143,4,1,0,90,0,0
139823,-138.886663996796,4,1,0,90,0,0
139909,-137.936520563201,4,1,0,90,0,0
139996,-136.988465792384,4,1,0,90,0,0
140169,-135.14145429039,4,1,0,90,0,0
140343,-133.333333333333,4,1,0,90,0,0
141733,-125,4,1,0,90,0,0
143120,-117.647058823529,4,1,0,90,0,0
143811,-111.111111111111,4,1,0,90,0,0
144158,-100,4,1,0,90,0,0
144245,-97.5541186393028,4,1,0,90,0,0
144331,-95.2511666209168,4,1,0,90,0,0
144418,-93.029490616622,4,1,0,90,0,0
144486,-90.9090909090909,4,1,0,100,0,0
144680,-111.14677,4,1,0,75,0,0
145808,-100,4,1,0,90,0,0
151443,-95.2380952380952,4,1,0,90,0,0
152831,-90.9090909090909,4,1,0,90,0,0
154218,-86.9565217391304,4,1,0,90,0,0
154891,-83.3333333333333,4,1,0,90,0,0
155238,-86.2068965517241,4,1,0,90,0,0
155325,-86.9587008821171,4,1,0,90,0,0
155412,-87.7237334411973,4,1,0,90,0,0
155498,-88.493318371927,4,1,0,90,0,0
155585,-89.2857142857143,4,1,0,90,0,0
155932,-92.5925925925926,4,1,0,90,0,0
156105,-94.3344932579382,4,1,0,90,0,0
156279,-96.1538461538461,4,1,0,90,0,0
156365,-97.079230080573,4,1,0,90,0,0
156452,-98.0336761215957,4,1,0,90,0,0
156539,-99.0070760100434,4,1,0,90,0,0
156626,-100,4,1,0,90,0,0
156993,-90.9090909090909,4,1,0,95,0,1
177802,-90.9090909090909,4,1,0,80,0,0
178146,-96.7741935483871,4,1,0,80,0,0
178320,-100.009607070804,4,1,0,80,0,0
178406,-101.68994822702,4,1,0,80,0,0
178580,-105.268480129437,4,1,0,80,0,0
178667,-107.153885743695,4,1,0,80,0,0
178753,-109.085193335429,4,1,0,80,0,0
178843,359.281437125749,4,1,0,80,1,8
178843,-107.257546563905,4,1,0,80,0,8
179116,-125,4,1,0,60,0,0
179198,327.868852459016,4,1,0,100,1,0
179198,-125,4,1,0,60,0,0
179279,-125,4,1,0,5,0,0
179771,341.880341880342,4,1,0,5,1,8
180284,370.37037037037,4,1,0,5,1,8
180654,338.028169014085,4,1,0,5,1,8
181161,339.943342776204,4,1,0,5,1,8
181671,362.537764350453,4,1,0,5,1,8
182033,342.368045649073,4,1,0,5,1,8
182375,332.871012482663,4,1,0,5,1,8
182708,364.741641337386,4,1,0,5,1,8
183072,344.827586206897,4,1,0,5,1,8
183416,344.827586206897,4,1,0,5,1,8
184452,359.281437125749,4,1,0,5,1,8
184811,345.821325648415,4,1,0,5,1,8
185330,341.394025604552,4,1,0,5,1,8
185842,372.670807453416,4,1,0,5,1,8
186214,338.028169014085,4,1,0,5,1,8
186721,339.943342776204,4,1,0,5,1,8
187231,340.909090909091,4,1,0,5,1,8
187571,340.909090909091,4,1,0,5,1,8
187914,356.612184249629,4,1,0,5,1,8
188270,357.142857142857,4,1,0,5,1,8
188627,348.837209302326,5,1,0,5,1,8
188975,348.837209302326,4,1,0,5,1,8
190370,341.880341880342,4,1,0,5,1,8
190882,338.028169014085,4,1,0,5,1,8
191388,371.517027863777,4,1,0,5,1,8
191759,330.578512396694,4,1,0,5,1,8
192254,351.906158357771,4,1,0,5,1,8
192782,355.029585798817,4,1,0,5,1,8
193137,345.323741007194,4,1,0,5,1,8
193482,329.67032967033,4,1,0,5,1,8
193811,355.029585798817,4,1,0,5,1,8
194166,357.142857142857,4,1,0,5,1,8
194523,343.839541547278,4,1,0,5,1,8
195554,360.36036036036,4,1,0,5,1,8
195914,343.839541547278,4,1,0,5,1,8
196430,340.425531914894,4,1,0,5,1,8
196940,357.142857142857,4,1,0,5,1,8
197297,346.820809248555,4,1,0,5,1,8
197817,340.425531914894,4,1,0,5,1,8
198327,346.820809248555,4,1,0,5,1,8
198673,348.837209302326,4,1,0,5,1,8
199021,352.941176470588,4,1,0,5,1,8
199373,340.909090909091,4,1,0,5,1,8
199894,346.820809248555,4,1,0,5,1,8
200085,346.820809248555,4,1,0,5,1,8
201298,-133.333333333333,4,1,0,75,0,0
201386,346.820809248555,4,1,0,75,1,0
201386,-133.333333333333,4,1,0,75,0,0
211095,-133.33333,4,1,0,75,0,0
211356,-129.7933,4,1,0,75,0,0
211442,-128.64757,4,1,0,75,0,0
211616,-126.36029,4,1,0,75,0,0
211876,-123.018074,4,1,0,75,0,0
211963,-121.91957,4,1,0,75,0,0
212136,-119.76427,4,1,0,75,0,0
212309,-117.64706,4,1,0,75,0,0
212484,-111.111111111111,4,1,0,85,0,0
218377,-112.677200536171,4,1,0,85,0,0
218724,-114.288068556361,4,1,0,85,0,0
219070,-115.940817520689,4,1,0,85,0,0
219417,-117.647058823529,4,1,0,85,0,0
219764,-119.404269972452,4,1,0,85,0,0
220111,-121.214769499672,4,1,0,85,0,0
220458,-125,4,1,0,85,0,0
220804,-119.060697610547,4,1,0,85,0,0
220978,-116.282188841202,4,1,0,85,0,0
221151,-113.645300825796,4,1,0,85,0,0
221325,-111.111111111111,4,1,0,85,0,0
221672,-106.38036809816,4,1,0,85,0,0
221845,-104.169169770515,4,1,0,85,0,0
222018,-102.04802259887,4,1,0,85,0,0
222105,-101.013631597344,4,1,0,85,0,0
222192,-100,4,1,0,85,0,0
222365,-101.691600664907,4,1,0,85,0,0
222539,-103.45170595842,4,1,0,85,0,0
222712,-105.263157894737,4,1,0,85,0,0
222885,-107.139177912846,4,1,0,85,0,0
222972,-108.108108108108,4,1,0,85,0,0
223059,-109.094723591734,4,1,0,85,0,0
223146,-110.099513021385,4,1,0,85,0,0
223232,-111.111111111111,4,1,0,85,0,0
223582,-90.9090909090909,4,1,0,95,0,1
244391,-90.90909,4,1,0,95,0,0
244735,-96.7741935483871,4,1,0,95,0,0
244909,-100.009607070804,4,1,0,95,0,0
244995,-101.68994822702,4,1,0,95,0,0
245169,-105.268480129437,4,1,0,95,0,0
245255,-107.131830811979,4,1,0,95,0,0
245342,-109.085193335429,4,1,0,95,0,0
245429,-111.111111111111,4,1,0,95,0,0
245779,-90.90909,4,1,0,95,0,1
266588,-90.9090909090909,4,1,0,80,0,0
266932,-96.7801972827098,4,1,0,80,0,0
267105,-100,4,1,0,80,0,0
267192,-101.701545081166,4,1,0,80,0,0
267365,-105.263157894737,4,1,0,80,0,0
267452,-107.150216361014,4,1,0,80,0,0
267539,-109.106168694922,4,1,0,80,0,0
267625,-111.111111111111,4,1,0,80,0,0
267975,-100,4,1,0,90,0,0
278726,-100,4,1,0,90,0,0
279073,-95.2380952380952,4,1,0,90,0,0
288781,-90.9090909090909,4,1,0,90,0,0
288955,-93.7584436638746,4,1,0,80,0,0
289128,-96.7741935483871,4,1,0,80,0,0
289302,-100.009607070804,4,1,0,80,0,0
289388,-101.68994822702,4,1,0,80,0,0
289562,-105.268480129437,4,1,0,80,0,0
289648,-107.131830811979,4,1,0,80,0,0
289735,-109.085193335429,4,1,0,80,0,0
289822,-111.111111111111,4,1,0,80,0,0
290085,-100,4,1,0,100,0,0
290172,-100,4,1,0,100,0,1
295026,-100,4,1,0,100,0,1
295200,-96.5250965250965,4,1,0,100,0,1
295286,-94.8676596148373,4,1,0,100,0,1
295373,-93.214019388516,4,1,0,100,0,1
295460,-91.6002564807182,4,1,0,100,0,1
295546,-90.0333123255605,4,1,0,100,0,1
295633,-88.4799150592816,4,1,0,100,0,1
295720,-86.9565217391304,4,1,0,100,0,1
298495,-80,4,1,0,100,0,1
299883,-74.0740740740741,4,1,0,100,0,1
300575,-74.0740740740741,4,1,0,100,0,1
300749,-72.1292556260819,4,1,0,100,0,1
300835,-71.1895778458034,4,1,0,100,0,1
300922,-70.2543206407194,4,1,0,100,0,1
301009,-69.3337031130833,4,1,0,100,0,1
301095,-68.4369011771147,4,1,0,100,0,1
301182,-67.5447483958122,4,1,0,100,0,1
301227,-66.6666666666667,4,1,0,60,0,1
301270,-66.6666666666667,4,1,0,60,0,0

[HitObjects]
256,192,1618,5,4,0:0:0:0:
256,192,2138,1,0,0:0:0:0:
256,192,2658,1,8,0:0:0:0:
256,192,3005,1,0,0:0:0:0:
256,192,3525,1,8,0:0:0:0:
256,192,4045,1,0,0:0:0:0:
256,192,4739,1,0,0:0:0:0:
256,192,4912,1,0,0:0:0:0:
256,192,5086,1,8,0:0:0:0:
256,192,5433,1,0,0:0:0:0:
256,192,5779,1,8,0:0:0:0:
256,192,6300,1,0,0:0:0:0:
256,192,6820,1,0,0:0:0:0:
256,192,7167,1,8,0:0:0:0:
256,192,7687,1,0,0:0:0:0:
256,192,8207,1,8,0:0:0:0:
256,192,8554,1,0,0:0:0:0:
256,192,9074,1,8,0:0:0:0:
256,192,9594,1,0,0:0:0:0:
256,192,9941,1,8,0:0:0:0:
256,192,10115,1,0,0:0:0:0:
256,192,10461,1,8,0:0:0:0:
256,192,10808,1,0,0:0:0:0:
256,192,10982,1,8,0:0:0:0:
256,192,11155,1,8,0:0:0:0:
256,192,11328,1,0,0:0:0:0:
256,192,11849,1,8,0:0:0:0:
256,192,12716,1,4,0:0:0:0:
256,192,12889,1,0,0:0:0:0:
256,192,13063,1,8,0:0:0:0:
256,192,13236,1,0,0:0:0:0:
256,192,13583,1,0,0:0:0:0:
256,192,13756,1,8,0:0:0:0:
256,192,14103,1,0,0:0:0:0:
256,192,14450,1,8,0:0:0:0:
256,192,14623,1,0,0:0:0:0:
256,192,14970,1,0,0:0:0:0:
256,192,15144,1,8,0:0:0:0:
256,192,15490,1,0,0:0:0:0:
256,192,15837,1,8,0:0:0:0:
256,192,16011,1,8,0:0:0:0:
256,192,16097,1,8,0:0:0:0:
256,192,16184,1,0,0:0:0:0:
256,192,16357,1,0,0:0:0:0:
256,192,16531,1,8,0:0:0:0:
256,192,16878,1,0,0:0:0:0:
256,192,17224,1,8,0:0:0:0:
256,192,17398,1,0,0:0:0:0:
256,192,17745,1,0,0:0:0:0:
256,192,17918,1,8,0:0:0:0:
256,192,18265,1,0,0:0:0:0:
256,192,18438,1,0,0:0:0:0:
256,192,18612,1,8,0:0:0:0:
256,192,18785,1,0,0:0:0:0:
256,192,19132,1,0,0:0:0:0:
256,192,19305,1,8,0:0:0:0:
256,192,19652,1,0,0:0:0:0:
256,192,19999,1,8,0:0:0:0:
256,192,20172,1,0,0:0:0:0:
256,192,20519,1,0,0:0:0:0:
256,192,20693,1,8,0:0:0:0:
256,192,21039,1,8,0:0:0:0:
256,192,21213,1,8,0:0:0:0:
256,192,21300,1,8,0:0:0:0:
256,192,21386,1,0,0:0:0:0:
256,192,21560,1,8,0:0:0:0:
256,192,21907,1,0,0:0:0:0:
256,192,22080,1,8,0:0:0:0:
256,192,22253,1,8,0:0:0:0:
256,192,22427,1,4,0:0:0:0:
256,192,22774,1,8,0:0:0:0:
256,192,22947,1,0,0:0:0:0:
256,192,23034,1,8,0:0:0:0:
256,192,23207,1,8,0:0:0:0:
256,192,23294,1,0,0:0:0:0:
256,192,23381,1,0,0:0:0:0:
256,192,23467,1,8,0:0:0:0:
256,192,23814,1,4,0:0:0:0:
256,192,23987,1,8,0:0:0:0:
256,192,24074,1,0,0:0:0:0:
256,192,24161,1,0,0:0:0:0:
256,192,24334,1,8,0:0:0:0:
256,192,24508,1,0,0:0:0:0:
256,192,24681,1,0,0:0:0:0:
256,192,24854,1,8,0:0:0:0:
256,192,24941,1,8,0:0:0:0:
256,192,25028,1,0,0:0:0:0:
256,192,25201,1,8,0:0:0:0:
256,192,25375,1,0,0:0:0:0:
256,192,25461,1,0,0:0:0:0:
256,192,25635,1,0,0:0:0:0:
256,192,25722,1,8,0:0:0:0:
256,192,25895,1,0,0:0:0:0:
256,192,26068,1,8,0:0:0:0:
256,192,26155,1,0,0:0:0:0:
256,192,26242,1,8,0:0:0:0:
256,192,26415,1,0,0:0:0:0:
256,192,26589,1,8,0:0:0:0:
256,192,26935,1,8,0:0:0:0:
256,192,27109,1,8,0:0:0:0:
256,192,27196,1,8,0:0:0:0:
256,192,27282,1,0,0:0:0:0:
256,192,27456,1,0,0:0:0:0:
256,192,27629,1,8,0:0:0:0:
256,192,27802,1,0,0:0:0:0:
256,192,27976,1,8,0:0:0:0:
256,192,28063,1,8,0:0:0:0:
256,192,28149,1,8,0:0:0:0:
256,192,28323,1,0,0:0:0:0:
256,192,28496,1,8,0:0:0:0:
256,192,28583,1,8,0:0:0:0:
256,192,28670,1,0,0:0:0:0:
256,192,28843,1,0,0:0:0:0:
256,192,29016,1,8,0:0:0:0:
256,192,29363,1,0,0:0:0:0:
256,192,29537,1,8,0:0:0:0:
256,192,29623,1,0,0:0:0:0:
256,192,29710,1,0,0:0:0:0:
256,192,29883,1,8,0:0:0:0:
256,192,30057,1,0,0:0:0:0:
256,192,30230,1,0,0:0:0:0:
256,192,30317,1,0,0:0:0:0:
256,192,30404,1,8,0:0:0:0:
256,192,30577,1,0,0:0:0:0:
256,192,30750,1,8,0:0:0:0:
256,192,30924,1,0,0:0:0:0:
256,192,31011,1,0,0:0:0:0:
256,192,31184,1,0,0:0:0:0:
256,192,31271,1,8,0:0:0:0:
256,192,31444,1,0,0:0:0:0:
256,192,31618,1,8,0:0:0:0:
256,192,31704,1,0,0:0:0:0:
256,192,31791,1,8,0:0:0:0:
256,192,32138,1,0,0:0:0:0:
256,192,32224,1,0,0:0:0:0:
256,192,32311,1,8,0:0:0:0:
256,192,32485,1,0,0:0:0:0:
256,192,32658,1,8,0:0:0:0:
256,192,32745,1,0,0:0:0:0:
256,192,32831,1,0,0:0:0:0:
256,192,33005,1,8,0:0:0:0:
256,192,33091,1,0,0:0:0:0:
256,192,33178,1,8,0:0:0:0:
256,192,33265,1,8,0:0:0:0:
256,192,33352,1,0,0:0:0:0:
256,192,33525,1,8,0:0:0:0:
256,192,33698,1,8,0:0:0:0:
256,192,33872,1,0,0:0:0:0:
256,192,34045,1,8,0:0:0:0:
256,192,34132,1,8,0:0:0:0:
256,192,34219,1,0,0:0:0:0:
256,192,34392,1,0,0:0:0:0:
256,192,34565,1,8,0:0:0:0:
256,192,34652,1,8,0:0:0:0:
256,192,34739,1,8,0:0:0:0:
256,192,34912,1,4,0:0:0:0:
256,192,35259,1,0,0:0:0:0:
256,192,35433,1,8,0:0:0:0:
256,192,35606,1,0,0:0:0:0:
256,192,35779,1,0,0:0:0:0:
256,192,35866,1,0,0:0:0:0:
256,192,35953,1,8,0:0:0:0:
256,192,36126,1,0,0:0:0:0:
256,192,36300,1,8,0:0:0:0:
256,192,36473,1,0,0:0:0:0:
256,192,36560,1,0,0:0:0:0:
256,192,36733,1,0,0:0:0:0:
256,192,36820,1,8,0:0:0:0:
256,192,36993,1,0,0:0:0:0:
256,192,37167,1,8,0:0:0:0:
256,192,37253,1,0,0:0:0:0:
256,192,37340,1,8,0:0:0:0:
256,192,37513,1,0,0:0:0:0:
256,192,37687,1,8,0:0:0:0:
256,192,38034,1,8,0:0:0:0:
256,192,38207,1,8,0:0:0:0:
256,192,38294,1,8,0:0:0:0:
256,192,38381,1,0,0:0:0:0:
256,192,38554,1,0,0:0:0:0:
256,192,38727,1,8,0:0:0:0:
256,192,38901,1,0,0:0:0:0:
256,192,39074,1,8,0:0:0:0:
256,192,39161,1,8,0:0:0:0:
256,192,39248,1,8,0:0:0:0:
256,192,39421,1,0,0:0:0:0:
256,192,39594,1,8,0:0:0:0:
256,192,39681,1,8,0:0:0:0:
256,192,39768,1,0,0:0:0:0:
256,192,39941,1,0,0:0:0:0:
256,192,40115,1,8,0:0:0:0:
256,192,40461,1,0,0:0:0:0:
256,192,40635,1,8,0:0:0:0:
256,192,40722,1,0,0:0:0:0:
256,192,40808,1,0,0:0:0:0:
256,192,40982,1,8,0:0:0:0:
256,192,41155,1,0,0:0:0:0:
256,192,41328,1,0,0:0:0:0:
256,192,41415,1,0,0:0:0:0:
256,192,41502,1,8,0:0:0:0:
256,192,41675,1,0,0:0:0:0:
256,192,41849,1,8,0:0:0:0:
256,192,42022,1,0,0:0:0:0:
256,192,42109,1,0,0:0:0:0:
256,192,42282,1,0,0:0:0:0:
256,192,42369,1,8,0:0:0:0:
256,192,42542,1,0,0:0:0:0:
256,192,42716,1,8,0:0:0:0:
256,192,42802,1,0,0:0:0:0:
256,192,42889,1,8,0:0:0:0:
256,192,42976,1,8,0:0:0:0:
256,192,43063,1,0,0:0:0:0:
256,192,43236,1,8,0:0:0:0:
256,192,43323,1,0,0:0:0:0:
256,192,43409,1,8,0:0:0:0:
256,192,43583,1,0,0:0:0:0:
256,192,43756,1,8,0:0:0:0:
256,192,43843,1,0,0:0:0:0:
256,192,43930,1,0,0:0:0:0:
256,192,44103,1,8,0:0:0:0:
256,192,44190,1,0,0:0:0:0:
256,192,44276,1,8,0:0:0:0:
256,192,44623,1,0,0:0:0:0:
256,192,44797,1,0,0:0:0:0:
256,192,44970,1,8,0:0:0:0:
256,192,45144,1,0,0:0:0:0:
256,192,45230,1,8,0:0:0:0:
256,192,45404,1,8,0:0:0:0:
256,192,45490,1,0,0:0:0:0:
256,192,45577,1,0,0:0:0:0:
256,192,45664,1,8,0:0:0:0:
256,192,46011,1,4,0:0:0:0:
256,192,46357,1,8,0:0:0:0:
256,192,46531,1,8,0:0:0:0:
256,192,46704,1,0,0:0:0:0:
256,192,47051,1,8,0:0:0:0:
256,192,47398,1,0,0:0:0:0:
256,192,47745,1,8,0:0:0:0:
256,192,47918,1,0,0:0:0:0:
256,192,48265,1,0,0:0:0:0:
256,192,48438,1,8,0:0:0:0:
256,192,48785,1,0,0:0:0:0:
256,192,49132,1,8,0:0:0:0:
256,192,49305,1,8,0:0:0:0:
256,192,49652,1,0,0:0:0:0:
256,192,49826,1,8,0:0:0:0:
256,192,50172,1,0,0:0:0:0:
256,192,50519,1,8,0:0:0:0:
256,192,50693,1,0,0:0:0:0:
256,192,51039,1,0,0:0:0:0:
256,192,51213,1,8,0:0:0:0:
256,192,51386,1,8,0:0:0:0:
256,192,51560,1,0,0:0:0:0:
256,192,51907,1,0,0:0:0:0:
256,192,52080,1,8,0:0:0:0:
256,192,52253,1,0,0:0:0:0:
256,192,52600,1,8,0:0:0:0:
256,192,52947,1,0,0:0:0:0:
256,192,53294,1,8,0:0:0:0:
256,192,53467,1,0,0:0:0:0:
256,192,53814,1,0,0:0:0:0:
256,192,53987,1,8,0:0:0:0:
256,192,54334,1,0,0:0:0:0:
256,192,54681,1,8,0:0:0:0:
256,192,54854,1,0,0:0:0:0:
256,192,55201,1,8,0:0:0:0:
256,192,55375,1,8,0:0:0:0:
256,192,55722,1,0,0:0:0:0:
256,192,55895,1,0,0:0:0:0:
256,192,56068,1,8,0:0:0:0:
256,192,56242,1,0,0:0:0:0:
256,192,56589,1,0,0:0:0:0:
256,192,56675,1,0,0:0:0:0:
256,192,56762,1,8,0:0:0:0:
256,192,56935,1,8,0:0:0:0:
256,192,57109,1,4,0:0:0:0:
256,192,57456,1,8,0:0:0:0:
256,192,57629,1,8,0:0:0:0:
256,192,57802,1,0,0:0:0:0:
256,192,57976,1,0,0:0:0:0:
256,192,58149,1,8,0:0:0:0:
256,192,58496,1,0,0:0:0:0:
256,192,58670,1,0,0:0:0:0:
256,192,58843,1,8,0:0:0:0:
256,192,59016,1,0,0:0:0:0:
256,192,59363,1,0,0:0:0:0:
256,192,59537,1,8,0:0:0:0:
256,192,59710,1,8,0:0:0:0:
256,192,59883,1,0,0:0:0:0:
256,192,60057,1,0,0:0:0:0:
256,192,60230,1,8,0:0:0:0:
256,192,60404,1,0,0:0:0:0:
256,192,60750,1,0,0:0:0:0:
256,192,60924,1,8,0:0:0:0:
256,192,61097,1,0,0:0:0:0:
256,192,61271,1,8,0:0:0:0:
256,192,61444,1,8,0:0:0:0:
256,192,61618,1,0,0:0:0:0:
256,192,61791,1,8,0:0:0:0:
256,192,62138,1,0,0:0:0:0:
256,192,62311,1,8,0:0:0:0:
256,192,62485,1,8,0:0:0:0:
256,192,62658,1,0,0:0:0:0:
256,192,63005,1,8,0:0:0:0:
256,192,63178,1,0,0:0:0:0:
256,192,63352,1,8,0:0:0:0:
256,192,63525,1,0,0:0:0:0:
256,192,63698,1,8,0:0:0:0:
256,192,64045,1,0,0:0:0:0:
256,192,64219,1,8,0:0:0:0:
256,192,64392,1,0,0:0:0:0:
256,192,64565,1,8,0:0:0:0:
256,192,64912,1,0,0:0:0:0:
256,192,65086,1,8,0:0:0:0:
256,192,65259,1,8,0:0:0:0:
256,192,65433,1,0,0:0:0:0:
256,192,65606,1,0,0:0:0:0:
256,192,65779,1,8,0:0:0:0:
256,192,65953,1,0,0:0:0:0:
256,192,66300,1,0,0:0:0:0:
256,192,66473,1,8,0:0:0:0:
256,192,66646,1,8,0:0:0:0:
256,192,66820,1,4,0:0:0:0:
256,192,67687,1,0,0:0:0:0:
256,192,67860,1,8,0:0:0:0:
256,192,68207,1,4,0:0:0:0:
256,192,68381,1,0,0:0:0:0:
256,192,68467,1,0,0:0:0:0:
256,192,68554,1,8,0:0:0:0:
256,192,68727,1,0,0:0:0:0:
256,192,68901,1,0,0:0:0:0:
256,192,69074,1,8,0:0:0:0:
256,192,69161,1,0,0:0:0:0:
256,192,69248,1,8,0:0:0:0:
256,192,69421,1,0,0:0:0:0:
256,192,69594,1,8,0:0:0:0:
256,192,69768,1,0,0:0:0:0:
256,192,69854,1,0,0:0:0:0:
256,192,69941,1,8,0:0:0:0:
256,192,70115,1,0,0:0:0:0:
256,192,70288,1,8,0:0:0:0:
256,192,70375,1,8,0:0:0:0:
256,192,70461,1,0,0:0:0:0:
256,192,70635,1,8,0:0:0:0:
256,192,70982,1,8,0:0:0:0:
256,192,71155,1,0,0:0:0:0:
256,192,71242,1,0,0:0:0:0:
256,192,71328,1,8,0:0:0:0:
256,192,71502,1,0,0:0:0:0:
256,192,71675,1,8,0:0:0:0:
256,192,71762,1,8,0:0:0:0:
256,192,71935,1,0,0:0:0:0:
256,192,72022,1,8,0:0:0:0:
256,192,72196,1,8,0:0:0:0:
256,192,72369,1,0,0:0:0:0:
256,192,72542,1,8,0:0:0:0:
256,192,72629,1,8,0:0:0:0:
256,192,72716,1,0,0:0:0:0:
256,192,72889,1,8,0:0:0:0:
256,192,73063,1,0,0:0:0:0:
256,192,73149,1,0,0:0:0:0:
256,192,73236,1,0,0:0:0:0:
256,192,73409,1,8,0:0:0:0:
256,192,73583,1,0,0:0:0:0:
256,192,73756,1,12,0:0:0:0:
256,192,74103,1,8,0:0:0:0:
256,192,74276,1,0,0:0:0:0:
256,192,74450,1,8,0:0:0:0:
256,192,74537,1,8,0:0:0:0:
256,192,74623,1,0,0:0:0:0:
256,192,74797,1,8,0:0:0:0:
256,192,74970,1,8,0:0:0:0:
256,192,75144,1,4,0:0:0:0:
256,192,75490,1,0,0:0:0:0:
256,192,75664,1,8,0:0:0:0:
256,192,75837,1,0,0:0:0:0:
256,192,76011,1,8,0:0:0:0:
256,192,76097,1,8,0:0:0:0:
256,192,76184,1,0,0:0:0:0:
256,192,76357,1,8,0:0:0:0:
256,192,76531,1,4,0:0:0:0:
256,192,76878,1,0,0:0:0:0:
256,192,77051,1,0,0:0:0:0:
256,192,77224,1,12,0:0:0:0:
256,192,77571,1,0,0:0:0:0:
256,192,77658,1,0,0:0:0:0:
256,192,77745,1,8,0:0:0:0:
256,192,77918,1,4,0:0:0:0:
256,192,78265,1,8,0:0:0:0:
256,192,78438,1,0,0:0:0:0:
256,192,78612,1,8,0:0:0:0:
256,192,78698,1,0,0:0:0:0:
256,192,78785,1,8,0:0:0:0:
256,192,78872,1,0,0:0:0:0:
256,192,78959,1,8,0:0:0:0:
256,192,79305,1,12,0:0:0:0:
256,192,79652,1,8,0:0:0:0:
256,192,79826,1,0,0:0:0:0:
256,192,79999,1,0,0:0:0:0:
256,192,80086,1,0,0:0:0:0:
256,192,80172,1,8,0:0:0:0:
256,192,80259,1,0,0:0:0:0:
256,192,80346,1,8,0:0:0:0:
256,192,80519,1,0,0:0:0:0:
256,192,80693,1,8,0:0:0:0:
256,192,80866,1,8,0:0:0:0:
256,192,80953,1,8,0:0:0:0:
256,192,81039,1,0,0:0:0:0:
256,192,81213,1,0,0:0:0:0:
256,192,81386,1,8,0:0:0:0:
256,192,81473,1,0,0:0:0:0:
256,192,81646,1,0,0:0:0:0:
256,192,81733,1,8,0:0:0:0:
256,192,81907,1,0,0:0:0:0:
256,192,82080,1,8,0:0:0:0:
256,192,82253,1,0,0:0:0:0:
256,192,82340,1,0,0:0:0:0:
256,192,82427,1,8,0:0:0:0:
256,192,82600,1,8,0:0:0:0:
256,192,82774,1,0,0:0:0:0:
256,192,82860,1,0,0:0:0:0:
256,192,82947,1,8,0:0:0:0:
256,192,83034,1,8,0:0:0:0:
256,192,83120,1,0,0:0:0:0:
256,192,83294,1,8,0:0:0:0:
256,192,83467,1,0,0:0:0:0:
256,192,83814,1,8,0:0:0:0:
256,192,83987,1,8,0:0:0:0:
256,192,84074,1,8,0:0:0:0:
256,192,84161,1,0,0:0:0:0:
256,192,84334,1,0,0:0:0:0:
256,192,84508,1,8,0:0:0:0:
256,192,84854,1,0,0:0:0:0:
256,192,85028,1,0,0:0:0:0:
256,192,85115,1,0,0:0:0:0:
256,192,85201,1,8,0:0:0:0:
256,192,85375,1,0,0:0:0:0:
256,192,85548,1,8,0:0:0:0:
256,192,85635,1,8,0:0:0:0:
256,192,85722,1,0,0:0:0:0:
256,192,85808,1,0,0:0:0:0:
256,192,85895,1,8,0:0:0:0:
256,192,86068,1,0,0:0:0:0:
256,192,86242,1,8,0:0:0:0:
256,192,86415,1,8,0:0:0:0:
256,192,86502,1,0,0:0:0:0:
256,192,86589,1,8,0:0:0:0:
256,192,86762,1,0,0:0:0:0:
256,192,86935,1,8,0:0:0:0:
256,192,87022,1,8,0:0:0:0:
256,192,87196,1,0,0:0:0:0:
256,192,87282,1,8,0:0:0:0:
256,192,87456,1,8,0:0:0:0:
256,192,87629,1,0,0:0:0:0:
256,192,87976,1,8,0:0:0:0:
256,192,88149,1,0,0:0:0:0:
256,192,88236,1,0,0:0:0:0:
256,192,88323,1,8,0:0:0:0:
256,192,88409,1,8,0:0:0:0:
256,192,88496,1,0,0:0:0:0:
256,192,88670,1,8,0:0:0:0:
256,192,88843,1,8,0:0:0:0:
256,192,89190,1,8,0:0:0:0:
256,192,89276,1,0,0:0:0:0:
256,192,89363,1,8,0:0:0:0:
256,192,89537,1,0,0:0:0:0:
256,192,89710,1,8,0:0:0:0:
256,192,89883,1,0,0:0:0:0:
256,192,89970,1,0,0:0:0:0:
256,192,90057,1,8,0:0:0:0:
256,192,90144,1,8,0:0:0:0:
256,192,90230,1,0,0:0:0:0:
256,192,90404,1,12,0:0:0:0:
256,192,90750,1,8,0:0:0:0:
256,192,90924,1,0,0:0:0:0:
256,192,91097,1,0,0:0:0:0:
256,192,91184,1,0,0:0:0:0:
256,192,91271,1,8,0:0:0:0:
256,192,91357,1,0,0:0:0:0:
256,192,91444,1,8,0:0:0:0:
256,192,91618,1,0,0:0:0:0:
256,192,91791,1,8,0:0:0:0:
256,192,91964,1,8,0:0:0:0:
256,192,92051,1,8,0:0:0:0:
256,192,92138,1,0,0:0:0:0:
256,192,92311,1,0,0:0:0:0:
256,192,92485,1,8,0:0:0:0:
256,192,92571,1,0,0:0:0:0:
256,192,92745,1,0,0:0:0:0:
256,192,92831,1,8,0:0:0:0:
256,192,93005,1,0,0:0:0:0:
256,192,93178,1,8,0:0:0:0:
256,192,93352,1,0,0:0:0:0:
256,192,93438,1,0,0:0:0:0:
256,192,93525,1,8,0:0:0:0:
256,192,93698,1,8,0:0:0:0:
256,192,93872,1,0,0:0:0:0:
256,192,93959,1,0,0:0:0:0:
256,192,94045,1,8,0:0:0:0:
256,192,94132,1,8,0:0:0:0:
256,192,94219,1,0,0:0:0:0:
256,192,94392,1,8,0:0:0:0:
256,192,94565,1,0,0:0:0:0:
256,192,94912,1,8,0:0:0:0:
256,192,95086,1,8,0:0:0:0:
256,192,95172,1,8,0:0:0:0:
256,192,95259,1,0,0:0:0:0:
256,192,95433,1,0,0:0:0:0:
256,192,95606,1,8,0:0:0:0:
256,192,95953,1,0,0:0:0:0:
256,192,96126,1,0,0:0:0:0:
256,192,96213,1,0,0:0:0:0:
256,192,96300,1,8,0:0:0:0:
256,192,96473,1,0,0:0:0:0:
256,192,96646,1,8,0:0:0:0:
256,192,96733,1,8,0:0:0:0:
256,192,96820,1,0,0:0:0:0:
256,192,96907,1,0,0:0:0:0:
256,192,96993,1,8,0:0:0:0:
256,192,97167,1,0,0:0:0:0:
256,192,97340,1,8,0:0:0:0:
256,192,97513,1,0,0:0:0:0:
256,192,97600,1,0,0:0:0:0:
256,192,97687,1,8,0:0:0:0:
256,192,97860,1,0,0:0:0:0:
256,192,98034,1,8,0:0:0:0:
256,192,98120,1,8,0:0:0:0:
256,192,98294,1,0,0:0:0:0:
256,192,98381,1,8,0:0:0:0:
256,192,98554,1,8,0:0:0:0:
256,192,98727,1,0,0:0:0:0:
256,192,99074,1,8,0:0:0:0:
256,192,99248,1,0,0:0:0:0:
256,192,99334,1,0,0:0:0:0:
256,192,99421,1,8,0:0:0:0:
256,192,99508,1,8,0:0:0:0:
256,192,99594,1,0,0:0:0:0:
256,192,99768,1,8,0:0:0:0:
256,192,100115,1,4,0:0:0:0:
256,192,100461,1,8,0:0:0:0:
256,192,100635,1,0,0:0:0:0:
256,192,100722,1,8,0:0:0:0:
256,192,100895,1,8,0:0:0:0:
256,192,100982,1,0,0:0:0:0:
256,192,101068,1,0,0:0:0:0:
256,192,101155,1,8,0:0:0:0:
256,192,101502,1,4,0:0:0:0:
256,192,101675,1,8,0:0:0:0:
256,192,101762,1,0,0:0:0:0:
256,192,101849,1,0,0:0:0:0:
256,192,102022,1,8,0:0:0:0:
256,192,102196,1,0,0:0:0:0:
256,192,102369,1,0,0:0:0:0:
256,192,102542,1,8,0:0:0:0:
256,192,102629,1,8,0:0:0:0:
256,192,102716,1,0,0:0:0:0:
256,192,102889,1,8,0:0:0:0:
256,192,103063,1,0,0:0:0:0:
256,192,103149,1,0,0:0:0:0:
256,192,103323,1,0,0:0:0:0:
256,192,103409,1,8,0:0:0:0:
256,192,103583,1,0,0:0:0:0:
256,192,103756,1,8,0:0:0:0:
256,192,103843,1,0,0:0:0:0:
256,192,103930,1,8,0:0:0:0:
256,192,104103,1,0,0:0:0:0:
256,192,104276,1,8,0:0:0:0:
256,192,104623,1,8,0:0:0:0:
256,192,104797,1,8,0:0:0:0:
256,192,104883,1,8,0:0:0:0:
256,192,104970,1,0,0:0:0:0:
256,192,105144,1,0,0:0:0:0:
256,192,105317,1,8,0:0:0:0:
256,192,105490,1,0,0:0:0:0:
256,192,105664,1,8,0:0:0:0:
256,192,105750,1,8,0:0:0:0:
256,192,105837,1,8,0:0:0:0:
256,192,106011,1,0,0:0:0:0:
256,192,106184,1,8,0:0:0:0:
256,192,106271,1,8,0:0:0:0:
256,192,106357,1,0,0:0:0:0:
256,192,106531,1,0,0:0:0:0:
256,192,106704,1,8,0:0:0:0:
256,192,107051,1,0,0:0:0:0:
256,192,107224,1,8,0:0:0:0:
256,192,107311,1,0,0:0:0:0:
256,192,107398,1,0,0:0:0:0:
256,192,107571,1,8,0:0:0:0:
256,192,107745,1,0,0:0:0:0:
256,192,107918,1,0,0:0:0:0:
256,192,108005,1,0,0:0:0:0:
256,192,108091,1,8,0:0:0:0:
256,192,108265,1,0,0:0:0:0:
256,192,108438,1,8,0:0:0:0:
256,192,108612,1,0,0:0:0:0:
256,192,108698,1,0,0:0:0:0:
256,192,108872,1,0,0:0:0:0:
256,192,108959,1,8,0:0:0:0:
256,192,109132,1,0,0:0:0:0:
256,192,109305,1,8,0:0:0:0:
256,192,109392,1,0,0:0:0:0:
256,192,109479,1,8,0:0:0:0:
256,192,109826,1,0,0:0:0:0:
256,192,109912,1,0,0:0:0:0:
256,192,109999,1,8,0:0:0:0:
256,192,110172,1,0,0:0:0:0:
256,192,110346,1,8,0:0:0:0:
256,192,110433,1,0,0:0:0:0:
256,192,110519,1,0,0:0:0:0:
256,192,110693,1,8,0:0:0:0:
256,192,110779,1,0,0:0:0:0:
256,192,110866,1,8,0:0:0:0:
256,192,110953,1,8,0:0:0:0:
256,192,111039,1,0,0:0:0:0:
256,192,111213,1,8,0:0:0:0:
256,192,111386,1,8,0:0:0:0:
256,192,111560,1,0,0:0:0:0:
256,192,111733,1,8,0:0:0:0:
256,192,111820,1,8,0:0:0:0:
256,192,111907,1,0,0:0:0:0:
256,192,112080,1,0,0:0:0:0:
256,192,112253,1,8,0:0:0:0:
256,192,112600,1,4,0:0:0:0:
256,192,112774,1,8,0:0:0:0:
256,192,112860,1,0,0:0:0:0:
256,192,112947,1,0,0:0:0:0:
256,192,113120,1,8,0:0:0:0:
256,192,113294,1,0,0:0:0:0:
256,192,113467,1,0,0:0:0:0:
256,192,113641,1,8,0:0:0:0:
256,192,113727,1,8,0:0:0:0:
256,192,113814,1,0,0:0:0:0:
256,192,113987,1,8,0:0:0:0:
256,192,114161,1,0,0:0:0:0:
256,192,114248,1,8,0:0:0:0:
256,192,114334,1,0,0:0:0:0:
256,192,114421,1,0,0:0:0:0:
256,192,114508,1,8,0:0:0:0:
256,192,114681,1,0,0:0:0:0:
256,192,114854,1,8,0:0:0:0:
256,192,114941,1,0,0:0:0:0:
256,192,115028,1,8,0:0:0:0:
256,192,115201,1,0,0:0:0:0:
256,192,115375,1,8,0:0:0:0:
256,192,115722,1,8,0:0:0:0:
256,192,115895,1,8,0:0:0:0:
256,192,115982,1,8,0:0:0:0:
256,192,116068,1,0,0:0:0:0:
256,192,116242,1,0,0:0:0:0:
256,192,116415,1,8,0:0:0:0:
256,192,116589,1,0,0:0:0:0:
256,192,116762,1,8,0:0:0:0:
256,192,116849,1,8,0:0:0:0:
256,192,116935,1,8,0:0:0:0:
256,192,117109,1,0,0:0:0:0:
256,192,117196,1,0,0:0:0:0:
256,192,117282,1,8,0:0:0:0:
256,192,117369,1,8,0:0:0:0:
256,192,117456,1,0,0:0:0:0:
256,192,117629,1,0,0:0:0:0:
256,192,117802,1,8,0:0:0:0:
256,192,118149,1,0,0:0:0:0:
256,192,118323,1,8,0:0:0:0:
256,192,118409,1,0,0:0:0:0:
256,192,118496,1,0,0:0:0:0:
256,192,118670,1,8,0:0:0:0:
256,192,118843,1,0,0:0:0:0:
256,192,119016,1,0,0:0:0:0:
256,192,119103,1,0,0:0:0:0:
256,192,119190,1,8,0:0:0:0:
256,192,119363,1,0,0:0:0:0:
256,192,119537,1,8,0:0:0:0:
256,192,119710,1,0,0:0:0:0:
256,192,119797,1,8,0:0:0:0:
256,192,119883,1,0,0:0:0:0:
256,192,119970,1,0,0:0:0:0:
256,192,120057,1,8,0:0:0:0:
256,192,120230,1,0,0:0:0:0:
256,192,120404,1,8,0:0:0:0:
256,192,120490,1,0,0:0:0:0:
256,192,120577,1,8,0:0:0:0:
256,192,120924,1,0,0:0:0:0:
256,192,121011,1,0,0:0:0:0:
256,192,121097,1,8,0:0:0:0:
256,192,121271,1,0,0:0:0:0:
256,192,121444,1,8,0:0:0:0:
256,192,121531,1,0,0:0:0:0:
256,192,121618,1,0,0:0:0:0:
256,192,121791,1,8,0:0:0:0:
256,192,121878,1,0,0:0:0:0:
256,192,121964,1,8,0:0:0:0:
256,192,122311,1,0,0:0:0:0:
256,192,122485,1,0,0:0:0:0:
256,192,122658,1,8,0:0:0:0:
256,192,122831,1,0,0:0:0:0:
256,192,122918,1,8,0:0:0:0:
256,192,123091,1,8,0:0:0:0:
256,192,123178,1,0,0:0:0:0:
256,192,123265,1,0,0:0:0:0:
256,192,123352,1,8,0:0:0:0:
256,192,123698,1,4,0:0:0:0:
256,192,124045,1,8,0:0:0:0:
256,192,124219,1,8,0:0:0:0:
256,192,124392,1,0,0:0:0:0:
256,192,124739,1,8,0:0:0:0:
256,192,125086,1,0,0:0:0:0:
256,192,125433,1,8,0:0:0:0:
256,192,125606,1,0,0:0:0:0:
256,192,125953,1,0,0:0:0:0:
256,192,126126,1,8,0:0:0:0:
256,192,126300,1,8,0:0:0:0:
256,192,126386,1,8,0:0:0:0:
256,192,126473,1,0,0:0:0:0:
256,192,126820,1,8,0:0:0:0:
256,192,126993,1,8,0:0:0:0:
256,192,127340,1,0,0:0:0:0:
256,192,127513,1,8,0:0:0:0:
256,192,127687,1,0,0:0:0:0:
256,192,127774,1,0,0:0:0:0:
256,192,127860,1,8,0:0:0:0:
256,192,128207,1,0,0:0:0:0:
256,192,128381,1,8,0:0:0:0:
256,192,128727,1,0,0:0:0:0:
256,192,128814,1,0,0:0:0:0:
256,192,128901,1,8,0:0:0:0:
256,192,129074,1,8,0:0:0:0:
256,192,129161,1,8,0:0:0:0:
256,192,129248,1,0,0:0:0:0:
256,192,129594,1,0,0:0:0:0:
256,192,129768,1,8,0:0:0:0:
256,192,129941,1,0,0:0:0:0:
256,192,130115,1,0,0:0:0:0:
256,192,130288,1,8,0:0:0:0:
256,192,130635,1,0,0:0:0:0:
256,192,130982,1,8,0:0:0:0:
256,192,131155,1,0,0:0:0:0:
256,192,131502,1,0,0:0:0:0:
256,192,131675,1,8,0:0:0:0:
256,192,131849,1,8,0:0:0:0:
256,192,131935,1,8,0:0:0:0:
256,192,132022,1,0,0:0:0:0:
256,192,132369,1,8,0:0:0:0:
256,192,132542,1,0,0:0:0:0:
256,192,132889,1,0,0:0:0:0:
256,192,133063,1,8,0:0:0:0:
256,192,133236,1,0,0:0:0:0:
256,192,133323,1,0,0:0:0:0:
256,192,133409,1,8,0:0:0:0:
256,192,133756,1,8,0:0:0:0:
256,192,133930,1,8,0:0:0:0:
256,192,134276,1,0,0:0:0:0:
256,192,134450,1,8,0:0:0:0:
256,192,134623,1,8,0:0:0:0:
256,192,134797,1,4,0:0:0:0:
256,192,135144,1,8,0:0:0:0:
256,192,135317,1,8,0:0:0:0:
256,192,135490,1,0,0:0:0:0:
256,192,135664,1,0,0:0:0:0:
256,192,135837,1,8,0:0:0:0:
256,192,136011,1,0,0:0:0:0:
256,192,136184,1,8,0:0:0:0:
256,192,136531,1,8,0:0:0:0:
256,192,136704,1,8,0:0:0:0:
256,192,137051,1,0,0:0:0:0:
256,192,137224,1,8,0:0:0:0:
256,192,137398,1,0,0:0:0:0:
256,192,137485,1,0,0:0:0:0:
256,192,137571,1,8,0:0:0:0:
256,192,137918,1,0,0:0:0:0:
256,192,138091,1,8,0:0:0:0:
256,192,138438,1,0,0:0:0:0:
256,192,138612,1,8,0:0:0:0:
256,192,138785,1,0,0:0:0:0:
256,192,138872,1,0,0:0:0:0:
256,192,138959,1,8,0:0:0:0:
256,192,139305,1,8,0:0:0:0:
256,192,139479,1,8,0:0:0:0:
256,192,139826,1,0,0:0:0:0:
256,192,139912,1,0,0:0:0:0:
256,192,139999,1,8,0:0:0:0:
256,192,140172,1,8,0:0:0:0:
256,192,140346,1,4,0:0:0:0:
256,192,140693,1,8,0:0:0:0:
256,192,140866,1,8,0:0:0:0:
256,192,141039,1,0,0:0:0:0:
256,192,141213,1,0,0:0:0:0:
256,192,141386,1,8,0:0:0:0:
256,192,141560,1,0,0:0:0:0:
256,192,141733,1,12,0:0:0:0:
256,192,142080,1,0,0:0:0:0:
256,192,142253,1,8,0:0:0:0:
256,192,142600,1,0,0:0:0:0:
256,192,142774,1,8,0:0:0:0:
256,192,142947,1,8,0:0:0:0:
256,192,143120,1,4,0:0:0:0:
256,192,143467,1,8,0:0:0:0:
256,192,143814,1,4,0:0:0:0:
256,192,144161,1,8,0:0:0:0:
256,192,144248,1,8,0:0:0:0:
256,192,144334,1,8,0:0:0:0:
256,192,144508,1,4,0:0:0:0:
256,192,145375,1,0,0:0:0:0:
256,192,145548,1,8,0:0:0:0:
256,192,145895,1,4,0:0:0:0:
256,192,146068,1,0,0:0:0:0:
256,192,146155,1,0,0:0:0:0:
256,192,146242,1,8,0:0:0:0:
256,192,146415,1,0,0:0:0:0:
256,192,146589,1,0,0:0:0:0:
256,192,146762,1,8,0:0:0:0:
256,192,146849,1,0,0:0:0:0:
256,192,146935,1,8,0:0:0:0:
256,192,147109,1,0,0:0:0:0:
256,192,147282,1,8,0:0:0:0:
256,192,147456,1,0,0:0:0:0:
256,192,147542,1,0,0:0:0:0:
256,192,147629,1,8,0:0:0:0:
256,192,147802,1,0,0:0:0:0:
256,192,147976,1,8,0:0:0:0:
256,192,148063,1,8,0:0:0:0:
256,192,148149,1,0,0:0:0:0:
256,192,148323,1,8,0:0:0:0:
256,192,148670,1,8,0:0:0:0:
256,192,148843,1,0,0:0:0:0:
256,192,148930,1,0,0:0:0:0:
256,192,149016,1,8,0:0:0:0:
256,192,149190,1,0,0:0:0:0:
256,192,149363,1,8,0:0:0:0:
256,192,149450,1,8,0:0:0:0:
256,192,149623,1,0,0:0:0:0:
256,192,149710,1,8,0:0:0:0:
256,192,149883,1,8,0:0:0:0:
256,192,150057,1,0,0:0:0:0:
256,192,150230,1,8,0:0:0:0:
256,192,150317,1,8,0:0:0:0:
256,192,150404,1,0,0:0:0:0:
256,192,150577,1,8,0:0:0:0:
256,192,150750,1,0,0:0:0:0:
256,192,150837,1,0,0:0:0:0:
256,192,150924,1,0,0:0:0:0:
256,192,151097,1,8,0:0:0:0:
256,192,151271,1,0,0:0:0:0:
256,192,151444,1,12,0:0:0:0:
256,192,151791,1,8,0:0:0:0:
256,192,151964,1,0,0:0:0:0:
256,192,152138,1,8,0:0:0:0:
256,192,152224,1,8,0:0:0:0:
256,192,152311,1,0,0:0:0:0:
256,192,152485,1,8,0:0:0:0:
256,192,152658,1,8,0:0:0:0:
256,192,152831,1,4,0:0:0:0:
256,192,153178,1,0,0:0:0:0:
256,192,153352,1,8,0:0:0:0:
256,192,153525,1,0,0:0:0:0:
256,192,153698,1,8,0:0:0:0:
256,192,153785,1,8,0:0:0:0:
256,192,153872,1,0,0:0:0:0:
256,192,154045,1,8,0:0:0:0:
256,192,154219,1,4,0:0:0:0:
256,192,154565,1,0,0:0:0:0:
256,192,154739,1,0,0:0:0:0:
256,192,154912,1,12,0:0:0:0:
256,192,155259,1,0,0:0:0:0:
256,192,155346,1,0,0:0:0:0:
256,192,155433,1,8,0:0:0:0:
256,192,155606,1,4,0:0:0:0:
256,192,155953,1,8,0:0:0:0:
256,192,156126,1,0,0:0:0:0:
256,192,156300,1,8,0:0:0:0:
256,192,156386,1,0,0:0:0:0:
256,192,156473,1,8,0:0:0:0:
256,192,156560,1,0,0:0:0:0:
256,192,156646,1,8,0:0:0:0:
256,192,156993,1,12,0:0:0:0:
256,192,157340,1,0,0:0:0:0:
256,192,157513,1,8,0:0:0:0:
256,192,157687,1,0,0:0:0:0:
256,192,157774,1,0,0:0:0:0:
256,192,157860,1,0,0:0:0:0:
256,192,157947,1,0,0:0:0:0:
256,192,158034,1,8,0:0:0:0:
256,192,158207,1,0,0:0:0:0:
256,192,158381,1,8,0:0:0:0:
256,192,158554,1,0,0:0:0:0:
256,192,158641,1,0,0:0:0:0:
256,192,158727,1,8,0:0:0:0:
256,192,158901,1,0,0:0:0:0:
256,192,159074,1,8,0:0:0:0:
256,192,159161,1,8,0:0:0:0:
256,192,159334,1,8,0:0:0:0:
256,192,159421,1,0,0:0:0:0:
256,192,159594,1,8,0:0:0:0:
256,192,159768,1,0,0:0:0:0:
256,192,159941,1,8,0:0:0:0:
256,192,160028,1,8,0:0:0:0:
256,192,160115,1,0,0:0:0:0:
256,192,160288,1,8,0:0:0:0:
256,192,160461,1,0,0:0:0:0:
256,192,160548,1,0,0:0:0:0:
256,192,160635,1,8,0:0:0:0:
256,192,160722,1,8,0:0:0:0:
256,192,160808,1,0,0:0:0:0:
256,192,160982,1,8,0:0:0:0:
256,192,161155,1,0,0:0:0:0:
256,192,161502,1,8,0:0:0:0:
256,192,161675,1,8,0:0:0:0:
256,192,161762,1,8,0:0:0:0:
256,192,161849,1,0,0:0:0:0:
256,192,162022,1,0,0:0:0:0:
256,192,162196,1,8,0:0:0:0:
256,192,162542,1,0,0:0:0:0:
256,192,162716,1,8,0:0:0:0:
256,192,162802,1,8,0:0:0:0:
256,192,162889,1,0,0:0:0:0:
256,192,163063,1,8,0:0:0:0:
256,192,163236,1,0,0:0:0:0:
256,192,163323,1,0,0:0:0:0:
256,192,163409,1,0,0:0:0:0:
256,192,163496,1,0,0:0:0:0:
256,192,163583,1,8,0:0:0:0:
256,192,163756,1,0,0:0:0:0:
256,192,163930,1,8,0:0:0:0:
256,192,164103,1,8,0:0:0:0:
256,192,164190,1,0,0:0:0:0:
256,192,164276,1,8,0:0:0:0:
256,192,164450,1,0,0:0:0:0:
256,192,164623,1,8,0:0:0:0:
256,192,164710,1,0,0:0:0:0:
256,192,164883,1,0,0:0:0:0:
256,192,164970,1,8,0:0:0:0:
256,192,165144,1,8,0:0:0:0:
256,192,165317,1,0,0:0:0:0:
256,192,165664,1,8,0:0:0:0:
256,192,165837,1,0,0:0:0:0:
256,192,165924,1,0,0:0:0:0:
256,192,166011,1,8,0:0:0:0:
256,192,166097,1,8,0:0:0:0:
256,192,166184,1,0,0:0:0:0:
256,192,166357,1,8,0:0:0:0:
256,192,166531,1,8,0:0:0:0:
256,192,166878,1,0,0:0:0:0:
256,192,166964,1,0,0:0:0:0:
256,192,167051,1,8,0:0:0:0:
256,192,167224,1,8,0:0:0:0:
256,192,167398,1,0,0:0:0:0:
256,192,167571,1,8,0:0:0:0:
256,192,167658,1,0,0:0:0:0:
256,192,167745,1,8,0:0:0:0:
256,192,167831,1,8,0:0:0:0:
256,192,167918,1,0,0:0:0:0:
256,192,168091,1,12,0:0:0:0:
256,192,168438,1,0,0:0:0:0:
256,192,168612,1,8,0:0:0:0:
256,192,168785,1,0,0:0:0:0:
256,192,168872,1,0,0:0:0:0:
256,192,168959,1,0,0:0:0:0:
256,192,169045,1,0,0:0:0:0:
256,192,169132,1,8,0:0:0:0:
256,192,169305,1,0,0:0:0:0:
256,192,169479,1,8,0:0:0:0:
256,192,169652,1,8,0:0:0:0:
256,192,169739,1,8,0:0:0:0:
256,192,169826,1,0,0:0:0:0:
256,192,169999,1,8,0:0:0:0:
256,192,170172,1,0,0:0:0:0:
256,192,170259,1,0,0:0:0:0:
256,192,170433,1,8,0:0:0:0:
256,192,170519,1,0,0:0:0:0:
256,192,170693,1,8,0:0:0:0:
256,192,170866,1,0,0:0:0:0:
256,192,171039,1,8,0:0:0:0:
256,192,171126,1,8,0:0:0:0:
256,192,171213,1,0,0:0:0:0:
256,192,171386,1,8,0:0:0:0:
256,192,171560,1,0,0:0:0:0:
256,192,171646,1,0,0:0:0:0:
256,192,171733,1,8,0:0:0:0:
256,192,171820,1,8,0:0:0:0:
256,192,171907,1,0,0:0:0:0:
256,192,172080,1,8,0:0:0:0:
256,192,172253,1,0,0:0:0:0:
256,192,172600,1,8,0:0:0:0:
256,192,172774,1,8,0:0:0:0:
256,192,172860,1,8,0:0:0:0:
256,192,172947,1,0,0:0:0:0:
256,192,173120,1,0,0:0:0:0:
256,192,173294,1,8,0:0:0:0:
256,192,173641,1,0,0:0:0:0:
256,192,173814,1,8,0:0:0:0:
256,192,173901,1,8,0:0:0:0:
256,192,173987,1,0,0:0:0:0:
256,192,174161,1,8,0:0:0:0:
256,192,174334,1,0,0:0:0:0:
256,192,174421,1,0,0:0:0:0:
256,192,174508,1,0,0:0:0:0:
256,192,174594,1,0,0:0:0:0:
256,192,174681,1,8,0:0:0:0:
256,192,174854,1,0,0:0:0:0:
256,192,175028,1,8,0:0:0:0:
256,192,175201,1,0,0:0:0:0:
256,192,175288,1,0,0:0:0:0:
256,192,175375,1,8,0:0:0:0:
256,192,175548,1,8,0:0:0:0:
256,192,175722,1,0,0:0:0:0:
256,192,175808,1,0,0:0:0:0:
256,192,175982,1,8,0:0:0:0:
256,192,176068,1,0,0:0:0:0:
256,192,176242,1,8,0:0:0:0:
256,192,176415,1,0,0:0:0:0:
256,192,176762,1,8,0:0:0:0:
256,192,176935,1,0,0:0:0:0:
256,192,177022,1,0,0:0:0:0:
256,192,177109,1,8,0:0:0:0:
256,192,177196,1,8,0:0:0:0:
256,192,177282,1,0,0:0:0:0:
256,192,177456,1,8,0:0:0:0:
256,192,177802,1,4,0:0:0:0:
256,192,178149,1,8,0:0:0:0:
256,192,178323,1,0,0:0:0:0:
256,192,178409,1,8,0:0:0:0:
256,192,178583,1,8,0:0:0:0:
256,192,178670,1,0,0:0:0:0:
256,192,178756,1,0,0:0:0:0:
256,192,178843,1,8,0:0:0:0:
256,192,179198,1,4,0:0:0:0:
256,192,201386,5,0,0:0:0:0:
256,192,201732,1,8,0:0:0:0:
256,192,201906,1,0,0:0:0:0:
256,192,202253,1,8,0:0:0:0:
256,192,202426,1,8,0:0:0:0:
256,192,202773,1,0,0:0:0:0:
256,192,203120,1,8,0:0:0:0:
256,192,203293,1,0,0:0:0:0:
256,192,203640,1,0,0:0:0:0:
256,192,203813,1,8,0:0:0:0:
256,192,203987,1,8,0:0:0:0:
256,192,204160,1,0,0:0:0:0:
256,192,204507,1,8,0:0:0:0:
256,192,204680,1,8,0:0:0:0:
256,192,204854,1,0,0:0:0:0:
256,192,205027,1,0,0:0:0:0:
256,192,205201,1,8,0:0:0:0:
256,192,205547,1,8,0:0:0:0:
256,192,205894,1,0,0:0:0:0:
256,192,206068,1,8,0:0:0:0:
256,192,206414,1,8,0:0:0:0:
256,192,206588,1,8,0:0:0:0:
256,192,206935,1,0,0:0:0:0:
256,192,207281,1,8,0:0:0:0:
256,192,207455,1,0,0:0:0:0:
256,192,207802,1,8,0:0:0:0:
256,192,207975,1,8,0:0:0:0:
256,192,208322,1,0,0:0:0:0:
256,192,208669,1,8,0:0:0:0:
256,192,208842,1,0,0:0:0:0:
256,192,209189,1,8,0:0:0:0:
256,192,209362,1,8,0:0:0:0:
256,192,209536,1,8,0:0:0:0:
256,192,209709,1,0,0:0:0:0:
256,192,210056,1,8,0:0:0:0:
256,192,210229,1,0,0:0:0:0:
256,192,210576,1,0,0:0:0:0:
256,192,210750,1,8,0:0:0:0:
256,192,210923,1,0,0:0:0:0:
256,192,211096,1,8,0:0:0:0:
256,192,211443,1,0,0:0:0:0:
256,192,211617,1,8,0:0:0:0:
256,192,211964,1,0,0:0:0:0:
256,192,212137,1,8,0:0:0:0:
256,192,212484,1,4,0:0:0:0:
256,192,212831,1,8,0:0:0:0:
256,192,213004,1,0,0:0:0:0:
256,192,213351,1,0,0:0:0:0:
256,192,213524,1,8,0:0:0:0:
256,192,213871,1,0,0:0:0:0:
256,192,214218,1,8,0:0:0:0:
256,192,214391,1,0,0:0:0:0:
256,192,214738,1,8,0:0:0:0:
256,192,214825,1,8,0:0:0:0:
256,192,214912,1,8,0:0:0:0:
256,192,215085,1,8,0:0:0:0:
256,192,215258,1,0,0:0:0:0:
256,192,215605,1,8,0:0:0:0:
256,192,215779,1,8,0:0:0:0:
256,192,215952,1,0,0:0:0:0:
256,192,216125,1,0,0:0:0:0:
256,192,216299,1,8,0:0:0:0:
256,192,216646,1,8,0:0:0:0:
256,192,216819,1,0,0:0:0:0:
256,192,216906,1,0,0:0:0:0:
256,192,216992,1,0,0:0:0:0:
256,192,217166,1,8,0:0:0:0:
256,192,217339,1,0,0:0:0:0:
256,192,217426,1,0,0:0:0:0:
256,192,217513,1,0,0:0:0:0:
256,192,217686,1,8,0:0:0:0:
256,192,217859,1,8,0:0:0:0:
256,192,218033,1,0,0:0:0:0:
256,192,218380,1,8,0:0:0:0:
256,192,218727,1,0,0:0:0:0:
256,192,219073,1,8,0:0:0:0:
256,192,219420,1,0,0:0:0:0:
256,192,219767,1,8,0:0:0:0:
256,192,220114,1,0,0:0:0:0:
256,192,220461,1,8,0:0:0:0:
256,192,220807,1,0,0:0:0:0:
256,192,220981,1,0,0:0:0:0:
256,192,221154,1,8,0:0:0:0:
256,192,221328,1,8,0:0:0:0:
256,192,221675,1,0,0:0:0:0:
256,192,221848,1,8,0:0:0:0:
256,192,222021,1,8,0:0:0:0:
256,192,222108,1,8,0:0:0:0:
256,192,222195,1,0,0:0:0:0:
256,192,222368,1,0,0:0:0:0:
256,192,222542,1,8,0:0:0:0:
256,192,222715,1,0,0:0:0:0:
256,192,222888,1,8,0:0:0:0:
256,192,222975,1,0,0:0:0:0:
256,192,223062,1,8,0:0:0:0:
256,192,223149,1,0,0:0:0:0:
256,192,223235,1,8,0:0:0:0:
256,192,223582,1,12,0:0:0:0:
256,192,223929,1,8,0:0:0:0:
256,192,224016,1,8,0:0:0:0:
256,192,224102,1,0,0:0:0:0:
256,192,224276,1,0,0:0:0:0:
256,192,224362,1,0,0:0:0:0:
256,192,224449,1,8,0:0:0:0:
256,192,224536,1,0,0:0:0:0:
256,192,224622,1,8,0:0:0:0:
256,192,224796,1,0,0:0:0:0:
256,192,224883,1,0,0:0:0:0:
256,192,224969,1,8,0:0:0:0:
256,192,225143,1,0,0:0:0:0:
256,192,225229,1,0,0:0:0:0:
256,192,225403,1,0,0:0:0:0:
256,192,225490,1,8,0:0:0:0:
256,192,225663,1,0,0:0:0:0:
256,192,225836,1,8,0:0:0:0:
256,192,225923,1,0,0:0:0:0:
256,192,226010,1,8,0:0:0:0:
256,192,226183,1,0,0:0:0:0:
256,192,226357,1,8,0:0:0:0:
256,192,226443,1,8,0:0:0:0:
256,192,226530,1,0,0:0:0:0:
256,192,226617,1,0,0:0:0:0:
256,192,226703,1,8,0:0:0:0:
256,192,226877,1,8,0:0:0:0:
256,192,227050,1,0,0:0:0:0:
256,192,227137,1,0,0:0:0:0:
256,192,227224,1,8,0:0:0:0:
256,192,227310,1,8,0:0:0:0:
256,192,227397,1,0,0:0:0:0:
256,192,227570,1,8,0:0:0:0:
256,192,227744,1,0,0:0:0:0:
256,192,228091,1,8,0:0:0:0:
256,192,228264,1,8,0:0:0:0:
256,192,228351,1,8,0:0:0:0:
256,192,228438,1,0,0:0:0:0:
256,192,228611,1,0,0:0:0:0:
256,192,228784,1,8,0:0:0:0:
256,192,229131,1,0,0:0:0:0:
256,192,229305,1,0,0:0:0:0:
256,192,229391,1,0,0:0:0:0:
256,192,229478,1,8,0:0:0:0:
256,192,229565,1,8,0:0:0:0:
256,192,229651,1,0,0:0:0:0:
256,192,229825,1,8,0:0:0:0:
256,192,229912,1,8,0:0:0:0:
256,192,229998,1,0,0:0:0:0:
256,192,230085,1,0,0:0:0:0:
256,192,230172,1,8,0:0:0:0:
256,192,230345,1,0,0:0:0:0:
256,192,230432,1,0,0:0:0:0:
256,192,230518,1,8,0:0:0:0:
256,192,230692,1,0,0:0:0:0:
256,192,230779,1,0,0:0:0:0:
256,192,230952,1,0,0:0:0:0:
256,192,231039,1,8,0:0:0:0:
256,192,231212,1,8,0:0:0:0:
256,192,231299,1,8,0:0:0:0:
256,192,231386,1,0,0:0:0:0:
256,192,231472,1,0,0:0:0:0:
256,192,231559,1,8,0:0:0:0:
256,192,231732,1,8,0:0:0:0:
256,192,231906,1,0,0:0:0:0:
256,192,232253,1,8,0:0:0:0:
256,192,232426,1,0,0:0:0:0:
256,192,232513,1,0,0:0:0:0:
256,192,232599,1,8,0:0:0:0:
256,192,232686,1,8,0:0:0:0:
256,192,232773,1,0,0:0:0:0:
256,192,232946,1,8,0:0:0:0:
256,192,233120,1,8,0:0:0:0:
256,192,233466,1,8,0:0:0:0:
256,192,233553,1,0,0:0:0:0:
256,192,233640,1,8,0:0:0:0:
256,192,233813,1,0,0:0:0:0:
256,192,233987,1,8,0:0:0:0:
256,192,234160,1,0,0:0:0:0:
256,192,234247,1,0,0:0:0:0:
256,192,234333,1,8,0:0:0:0:
256,192,234420,1,8,0:0:0:0:
256,192,234507,1,0,0:0:0:0:
256,192,234680,1,12,0:0:0:0:
256,192,235027,1,8,0:0:0:0:
256,192,235114,1,8,0:0:0:0:
256,192,235201,1,0,0:0:0:0:
256,192,235374,1,0,0:0:0:0:
256,192,235461,1,0,0:0:0:0:
256,192,235547,1,8,0:0:0:0:
256,192,235634,1,0,0:0:0:0:
256,192,235721,1,8,0:0:0:0:
256,192,235894,1,0,0:0:0:0:
256,192,235981,1,0,0:0:0:0:
256,192,236068,1,8,0:0:0:0:
256,192,236241,1,0,0:0:0:0:
256,192,236328,1,0,0:0:0:0:
256,192,236501,1,0,0:0:0:0:
256,192,236588,1,8,0:0:0:0:
256,192,236761,1,0,0:0:0:0:
256,192,236935,1,8,0:0:0:0:
256,192,237021,1,0,0:0:0:0:
256,192,237108,1,8,0:0:0:0:
256,192,237281,1,0,0:0:0:0:
256,192,237455,1,8,0:0:0:0:
256,192,237542,1,8,0:0:0:0:
256,192,237628,1,0,0:0:0:0:
256,192,237715,1,0,0:0:0:0:
256,192,237802,1,8,0:0:0:0:
256,192,237975,1,8,0:0:0:0:
256,192,238149,1,0,0:0:0:0:
256,192,238235,1,0,0:0:0:0:
256,192,238322,1,8,0:0:0:0:
256,192,238409,1,8,0:0:0:0:
256,192,238495,1,0,0:0:0:0:
256,192,238669,1,8,0:0:0:0:
256,192,238842,1,0,0:0:0:0:
256,192,239189,1,8,0:0:0:0:
256,192,239362,1,8,0:0:0:0:
256,192,239449,1,8,0:0:0:0:
256,192,239536,1,0,0:0:0:0:
256,192,239709,1,0,0:0:0:0:
256,192,239883,1,8,0:0:0:0:
256,192,240229,1,0,0:0:0:0:
256,192,240403,1,0,0:0:0:0:
256,192,240490,1,0,0:0:0:0:
256,192,240576,1,8,0:0:0:0:
256,192,240750,1,0,0:0:0:0:
256,192,240923,1,8,0:0:0:0:
256,192,241010,1,8,0:0:0:0:
256,192,241096,1,0,0:0:0:0:
256,192,241183,1,0,0:0:0:0:
256,192,241270,1,8,0:0:0:0:
256,192,241443,1,0,0:0:0:0:
256,192,241617,1,8,0:0:0:0:
256,192,241790,1,0,0:0:0:0:
256,192,241877,1,0,0:0:0:0:
256,192,241964,1,8,0:0:0:0:
256,192,242137,1,0,0:0:0:0:
256,192,242310,1,8,0:0:0:0:
256,192,242397,1,8,0:0:0:0:
256,192,242570,1,0,0:0:0:0:
256,192,242657,1,8,0:0:0:0:
256,192,242831,1,8,0:0:0:0:
256,192,243004,1,0,0:0:0:0:
256,192,243351,1,8,0:0:0:0:
256,192,243524,1,0,0:0:0:0:
256,192,243611,1,0,0:0:0:0:
256,192,243698,1,8,0:0:0:0:
256,192,243784,1,8,0:0:0:0:
256,192,243871,1,0,0:0:0:0:
256,192,244044,1,8,0:0:0:0:
256,192,244391,1,4,0:0:0:0:
256,192,244738,1,8,0:0:0:0:
256,192,244912,1,0,0:0:0:0:
256,192,244998,1,8,0:0:0:0:
256,192,245172,1,8,0:0:0:0:
256,192,245258,1,0,0:0:0:0:
256,192,245345,1,0,0:0:0:0:
256,192,245432,1,8,0:0:0:0:
256,192,245779,1,12,0:0:0:0:
256,192,246125,1,0,0:0:0:0:
256,192,246299,1,8,0:0:0:0:
256,192,246386,1,0,0:0:0:0:
256,192,246472,1,0,0:0:0:0:
256,192,246646,1,8,0:0:0:0:
256,192,246819,1,8,0:0:0:0:
256,192,246906,1,8,0:0:0:0:
256,192,246992,1,0,0:0:0:0:
256,192,247166,1,8,0:0:0:0:
256,192,247339,1,0,0:0:0:0:
256,192,247426,1,0,0:0:0:0:
256,192,247513,1,0,0:0:0:0:
256,192,247686,1,8,0:0:0:0:
256,192,247773,1,8,0:0:0:0:
256,192,247859,1,0,0:0:0:0:
256,192,248033,1,8,0:0:0:0:
256,192,248206,1,8,0:0:0:0:
256,192,248293,1,0,0:0:0:0:
256,192,248380,1,0,0:0:0:0:
256,192,248553,1,8,0:0:0:0:
256,192,248900,1,8,0:0:0:0:
256,192,248987,1,8,0:0:0:0:
256,192,249073,1,0,0:0:0:0:
256,192,249160,1,0,0:0:0:0:
256,192,249247,1,8,0:0:0:0:
256,192,249420,1,0,0:0:0:0:
256,192,249594,1,8,0:0:0:0:
256,192,249680,1,8,0:0:0:0:
256,192,249767,1,0,0:0:0:0:
256,192,249940,1,8,0:0:0:0:
256,192,250027,1,0,0:0:0:0:
256,192,250114,1,0,0:0:0:0:
256,192,250287,1,8,0:0:0:0:
256,192,250461,1,0,0:0:0:0:
256,192,250547,1,0,0:0:0:0:
256,192,250634,1,0,0:0:0:0:
256,192,250807,1,8,0:0:0:0:
256,192,250981,1,0,0:0:0:0:
256,192,251328,1,8,0:0:0:0:
256,192,251501,1,0,0:0:0:0:
256,192,251588,1,0,0:0:0:0:
256,192,251675,1,0,0:0:0:0:
256,192,251848,1,8,0:0:0:0:
256,192,251935,1,0,0:0:0:0:
256,192,252021,1,0,0:0:0:0:
256,192,252195,1,8,0:0:0:0:
256,192,252368,1,8,0:0:0:0:
256,192,252455,1,8,0:0:0:0:
256,192,252542,1,0,0:0:0:0:
256,192,252715,1,8,0:0:0:0:
256,192,252888,1,0,0:0:0:0:
256,192,252975,1,0,0:0:0:0:
256,192,253062,1,0,0:0:0:0:
256,192,253235,1,8,0:0:0:0:
256,192,253322,1,8,0:0:0:0:
256,192,253409,1,8,0:0:0:0:
256,192,253582,1,0,0:0:0:0:
256,192,253755,1,8,0:0:0:0:
256,192,254102,1,8,0:0:0:0:
256,192,254276,1,0,0:0:0:0:
256,192,254362,1,0,0:0:0:0:
256,192,254449,1,8,0:0:0:0:
256,192,254622,1,0,0:0:0:0:
256,192,254796,1,8,0:0:0:0:
256,192,254883,1,8,0:0:0:0:
256,192,255056,1,0,0:0:0:0:
256,192,255143,1,8,0:0:0:0:
256,192,255316,1,8,0:0:0:0:
256,192,255403,1,8,0:0:0:0:
256,192,255490,1,0,0:0:0:0:
256,192,255663,1,0,0:0:0:0:
256,192,255836,1,8,0:0:0:0:
256,192,256010,1,0,0:0:0:0:
256,192,256183,1,8,0:0:0:0:
256,192,256270,1,0,0:0:0:0:
256,192,256357,1,8,0:0:0:0:
256,192,256530,1,0,0:0:0:0:
256,192,256703,1,0,0:0:0:0:
256,192,256877,1,12,0:0:0:0:
256,192,257224,1,0,0:0:0:0:
256,192,257397,1,8,0:0:0:0:
256,192,257484,1,0,0:0:0:0:
256,192,257570,1,0,0:0:0:0:
256,192,257744,1,8,0:0:0:0:
256,192,257917,1,8,0:0:0:0:
256,192,258004,1,8,0:0:0:0:
256,192,258091,1,0,0:0:0:0:
256,192,258264,1,8,0:0:0:0:
256,192,258438,1,0,0:0:0:0:
256,192,258524,1,0,0:0:0:0:
256,192,258611,1,0,0:0:0:0:
256,192,258784,1,8,0:0:0:0:
256,192,258871,1,8,0:0:0:0:
256,192,258958,1,0,0:0:0:0:
256,192,259131,1,8,0:0:0:0:
256,192,259305,1,8,0:0:0:0:
256,192,259391,1,0,0:0:0:0:
256,192,259478,1,0,0:0:0:0:
256,192,259651,1,8,0:0:0:0:
256,192,259998,1,8,0:0:0:0:
256,192,260085,1,8,0:0:0:0:
256,192,260172,1,0,0:0:0:0:
256,192,260258,1,0,0:0:0:0:
256,192,260345,1,8,0:0:0:0:
256,192,260518,1,0,0:0:0:0:
256,192,260692,1,8,0:0:0:0:
256,192,260779,1,8,0:0:0:0:
256,192,260865,1,0,0:0:0:0:
256,192,261039,1,8,0:0:0:0:
256,192,261125,1,0,0:0:0:0:
256,192,261212,1,0,0:0:0:0:
256,192,261386,1,8,0:0:0:0:
256,192,261559,1,0,0:0:0:0:
256,192,261646,1,0,0:0:0:0:
256,192,261732,1,0,0:0:0:0:
256,192,261906,1,8,0:0:0:0:
256,192,262079,1,0,0:0:0:0:
256,192,262426,1,8,0:0:0:0:
256,192,262599,1,0,0:0:0:0:
256,192,262686,1,0,0:0:0:0:
256,192,262773,1,0,0:0:0:0:
256,192,262946,1,8,0:0:0:0:
256,192,263033,1,0,0:0:0:0:
256,192,263120,1,0,0:0:0:0:
256,192,263293,1,8,0:0:0:0:
256,192,263466,1,8,0:0:0:0:
256,192,263553,1,8,0:0:0:0:
256,192,263640,1,0,0:0:0:0:
256,192,263813,1,8,0:0:0:0:
256,192,263987,1,0,0:0:0:0:
256,192,264073,1,0,0:0:0:0:
256,192,264160,1,0,0:0:0:0:
256,192,264333,1,8,0:0:0:0:
256,192,264420,1,8,0:0:0:0:
256,192,264507,1,8,0:0:0:0:
256,192,264680,1,0,0:0:0:0:
256,192,264854,1,8,0:0:0:0:
256,192,265201,1,8,0:0:0:0:
256,192,265374,1,0,0:0:0:0:
256,192,265461,1,0,0:0:0:0:
256,192,265547,1,8,0:0:0:0:
256,192,265721,1,0,0:0:0:0:
256,192,265894,1,8,0:0:0:0:
256,192,265981,1,8,0:0:0:0:
256,192,266154,1,0,0:0:0:0:
256,192,266241,1,8,0:0:0:0:
256,192,266414,1,8,0:0:0:0:
256,192,266588,1,4,0:0:0:0:
256,192,266935,1,8,0:0:0:0:
256,192,267108,1,0,0:0:0:0:
256,192,267195,1,8,0:0:0:0:
256,192,267368,1,8,0:0:0:0:
256,192,267455,1,0,0:0:0:0:
256,192,267542,1,0,0:0:0:0:
256,192,267628,1,8,0:0:0:0:
256,192,267975,1,4,0:0:0:0:
256,192,268149,1,8,0:0:0:0:
256,192,268235,1,0,0:0:0:0:
256,192,268322,1,0,0:0:0:0:
256,192,268495,1,8,0:0:0:0:
256,192,268669,1,0,0:0:0:0:
256,192,268842,1,0,0:0:0:0:
256,192,269016,1,8,0:0:0:0:
256,192,269102,1,8,0:0:0:0:
256,192,269189,1,0,0:0:0:0:
256,192,269362,1,8,0:0:0:0:
256,192,269536,1,0,0:0:0:0:
256,192,269622,1,0,0:0:0:0:
256,192,269796,1,0,0:0:0:0:
256,192,269883,1,8,0:0:0:0:
256,192,270056,1,0,0:0:0:0:
256,192,270229,1,8,0:0:0:0:
256,192,270316,1,0,0:0:0:0:
256,192,270403,1,8,0:0:0:0:
256,192,270576,1,0,0:0:0:0:
256,192,270750,1,8,0:0:0:0:
256,192,271096,1,8,0:0:0:0:
256,192,271270,1,8,0:0:0:0:
256,192,271357,1,8,0:0:0:0:
256,192,271443,1,0,0:0:0:0:
256,192,271617,1,0,0:0:0:0:
256,192,271790,1,8,0:0:0:0:
256,192,271964,1,0,0:0:0:0:
256,192,272137,1,8,0:0:0:0:
256,192,272224,1,8,0:0:0:0:
256,192,272310,1,8,0:0:0:0:
256,192,272484,1,0,0:0:0:0:
256,192,272657,1,8,0:0:0:0:
256,192,272744,1,8,0:0:0:0:
256,192,272831,1,0,0:0:0:0:
256,192,273004,1,0,0:0:0:0:
256,192,273177,1,8,0:0:0:0:
256,192,273524,1,0,0:0:0:0:
256,192,273698,1,8,0:0:0:0:
256,192,273784,1,0,0:0:0:0:
256,192,273871,1,0,0:0:0:0:
256,192,274044,1,8,0:0:0:0:
256,192,274218,1,0,0:0:0:0:
256,192,274391,1,0,0:0:0:0:
256,192,274478,1,0,0:0:0:0:
256,192,274565,1,8,0:0:0:0:
256,192,274738,1,0,0:0:0:0:
256,192,274912,1,8,0:0:0:0:
256,192,275085,1,0,0:0:0:0:
256,192,275172,1,0,0:0:0:0:
256,192,275345,1,0,0:0:0:0:
256,192,275432,1,8,0:0:0:0:
256,192,275605,1,0,0:0:0:0:
256,192,275779,1,8,0:0:0:0:
256,192,275865,1,0,0:0:0:0:
256,192,275952,1,8,0:0:0:0:
256,192,276299,1,0,0:0:0:0:
256,192,276386,1,0,0:0:0:0:
256,192,276472,1,8,0:0:0:0:
256,192,276646,1,0,0:0:0:0:
256,192,276819,1,8,0:0:0:0:
256,192,276906,1,0,0:0:0:0:
256,192,276992,1,0,0:0:0:0:
256,192,277166,1,8,0:0:0:0:
256,192,277253,1,0,0:0:0:0:
256,192,277339,1,8,0:0:0:0:
256,192,277426,1,8,0:0:0:0:
256,192,277513,1,0,0:0:0:0:
256,192,277686,1,8,0:0:0:0:
256,192,277859,1,8,0:0:0:0:
256,192,278033,1,0,0:0:0:0:
256,192,278206,1,8,0:0:0:0:
256,192,278293,1,8,0:0:0:0:
256,192,278380,1,0,0:0:0:0:
256,192,278553,1,0,0:0:0:0:
256,192,278727,1,8,0:0:0:0:
256,192,279073,1,4,0:0:0:0:
256,192,279247,1,8,0:0:0:0:
256,192,279333,1,0,0:0:0:0:
256,192,279420,1,0,0:0:0:0:
256,192,279594,1,8,0:0:0:0:
256,192,279767,1,0,0:0:0:0:
256,192,279940,1,0,0:0:0:0:
256,192,280114,1,8,0:0:0:0:
256,192,280201,1,8,0:0:0:0:
256,192,280287,1,0,0:0:0:0:
256,192,280461,1,8,0:0:0:0:
256,192,280634,1,0,0:0:0:0:
256,192,280721,1,8,0:0:0:0:
256,192,280807,1,0,0:0:0:0:
256,192,280894,1,0,0:0:0:0:
256,192,280981,1,8,0:0:0:0:
256,192,281154,1,0,0:0:0:0:
256,192,281328,1,8,0:0:0:0:
256,192,281414,1,0,0:0:0:0:
256,192,281501,1,8,0:0:0:0:
256,192,281675,1,0,0:0:0:0:
256,192,281848,1,8,0:0:0:0:
256,192,282195,1,8,0:0:0:0:
256,192,282368,1,8,0:0:0:0:
256,192,282455,1,8,0:0:0:0:
256,192,282542,1,0,0:0:0:0:
256,192,282715,1,0,0:0:0:0:
256,192,282888,1,8,0:0:0:0:
256,192,283062,1,0,0:0:0:0:
256,192,283235,1,8,0:0:0:0:
256,192,283322,1,8,0:0:0:0:
256,192,283409,1,8,0:0:0:0:
256,192,283582,1,0,0:0:0:0:
256,192,283669,1,0,0:0:0:0:
256,192,283755,1,8,0:0:0:0:
256,192,283842,1,8,0:0:0:0:
256,192,283929,1,0,0:0:0:0:
256,192,284102,1,0,0:0:0:0:
256,192,284276,1,8,0:0:0:0:
256,192,284622,1,0,0:0:0:0:
256,192,284796,1,8,0:0:0:0:
256,192,284883,1,0,0:0:0:0:
256,192,284969,1,0,0:0:0:0:
256,192,285143,1,8,0:0:0:0:
256,192,285316,1,0,0:0:0:0:
256,192,285490,1,0,0:0:0:0:
256,192,285576,1,0,0:0:0:0:
256,192,285663,1,8,0:0:0:0:
256,192,285836,1,0,0:0:0:0:
256,192,286010,1,8,0:0:0:0:
256,192,286183,1,0,0:0:0:0:
256,192,286270,1,8,0:0:0:0:
256,192,286357,1,0,0:0:0:0:
256,192,286443,1,0,0:0:0:0:
256,192,286530,1,8,0:0:0:0:
256,192,286703,1,0,0:0:0:0:
256,192,286877,1,8,0:0:0:0:
256,192,286964,1,0,0:0:0:0:
256,192,287050,1,8,0:0:0:0:
256,192,287397,1,0,0:0:0:0:
256,192,287484,1,0,0:0:0:0:
256,192,287570,1,8,0:0:0:0:
256,192,287744,1,0,0:0:0:0:
256,192,287917,1,8,0:0:0:0:
256,192,288004,1,0,0:0:0:0:
256,192,288091,1,0,0:0:0:0:
256,192,288264,1,8,0:0:0:0:
256,192,288351,1,0,0:0:0:0:
256,192,288438,1,8,0:0:0:0:
256,192,288784,1,0,0:0:0:0:
256,192,288958,1,0,0:0:0:0:
256,192,289131,1,8,0:0:0:0:
256,192,289305,1,0,0:0:0:0:
256,192,289391,1,8,0:0:0:0:
256,192,289565,1,8,0:0:0:0:
256,192,289651,1,0,0:0:0:0:
256,192,289738,1,0,0:0:0:0:
256,192,289825,1,8,0:0:0:0:
256,192,290172,1,12,0:0:0:0:
256,192,290345,1,0,0:0:0:0:
256,192,290518,1,8,0:0:0:0:
256,192,290865,1,8,0:0:0:0:
256,192,291039,1,0,0:0:0:0:
256,192,291212,1,8,0:0:0:0:
256,192,291559,1,8,0:0:0:0:
256,192,291732,1,0,0:0:0:0:
256,192,291906,1,8,0:0:0:0:
256,192,292253,1,8,0:0:0:0:
256,192,292426,1,0,0:0:0:0:
256,192,292599,1,8,0:0:0:0:
256,192,292946,1,8,0:0:0:0:
256,192,293120,1,0,0:0:0:0:
256,192,293293,1,8,0:0:0:0:
256,192,293640,1,8,0:0:0:0:
256,192,293813,1,0,0:0:0:0:
256,192,293987,1,8,0:0:0:0:
256,192,294333,1,8,0:0:0:0:
256,192,294507,1,0,0:0:0:0:
256,192,294680,1,8,0:0:0:0:
256,192,295027,1,8,0:0:0:0:
256,192,295201,1,0,0:0:0:0:
256,192,295374,1,8,0:0:0:0:
256,192,295461,1,8,0:0:0:0:
256,192,295547,1,0,0:0:0:0:
256,192,295634,1,0,0:0:0:0:
256,192,295721,1,8,0:0:0:0:
256,192,295894,1,0,0:0:0:0:
256,192,296068,1,8,0:0:0:0:
256,192,296414,1,8,0:0:0:0:
256,192,296588,1,0,0:0:0:0:
256,192,296761,1,8,0:0:0:0:
256,192,297108,1,8,0:0:0:0:
256,192,297281,1,0,0:0:0:0:
256,192,297455,1,8,0:0:0:0:
256,192,297802,1,8,0:0:0:0:
256,192,297975,1,0,0:0:0:0:
256,192,298149,1,8,0:0:0:0:
256,192,298495,1,8,0:0:0:0:
256,192,298669,1,0,0:0:0:0:
256,192,298842,1,8,0:0:0:0:
256,192,299189,1,8,0:0:0:0:
256,192,299362,1,0,0:0:0:0:
256,192,299536,1,8,0:0:0:0:
256,192,299883,1,8,0:0:0:0:
256,192,300056,1,0,0:0:0:0:
256,192,300229,1,8,0:0:0:0:
256,192,300576,1,8,0:0:0:0:
256,192,300750,1,0,0:0:0:0:
256,192,300923,1,8,0:0:0:0:
256,192,301010,1,8,0:0:0:0:
256,192,301096,1,8,0:0:0:0:
256,192,301183,1,8,0:0:0:0:
256,192,301270,1,4,0:0:0:0:
