osu file format v14

[General]
AudioFilename: audio.mp3
AudioLeadIn: 0
PreviewTime: 223235
Countdown: 1
SampleSet: Normal
StackLeniency: 0.7
Mode: 1
LetterboxInBreaks: 0
WidescreenStoryboard: 0

[Editor]
DistanceSpacing: 1.9
BeatDivisor: 8
GridSize: 32
TimelineZoom: 1.799999

[Metadata]
Title:Genryuu Kaiko
TitleUnicode:源流懐古
Artist:Halozy
ArtistUnicode:Halozy
Creator:Axer
Version:Higan Torrent
Source:東方花映塚 ~ Phantasmagoria of Flower View.
Tags:Jpop J-pop Pop Electronic Video Game Japanese 東方project Touhou Project ほたる Hotaru すみじゅん Sumijun くまりす Kumarisu 彼岸帰航 ~ Riverside View Higan Retour ~ Riverside View 小野塚 小町 Komachi Onozuka Cosmic Armonica おのづか こまち ZUN Team Shanghai Alice 上海アリス幻樂団 Comiket 79 c79 HLZY-0006 comic market コミケ79 コミックマーケット79 th09
BeatmapID:1357453
BeatmapSetID:640120

[Difficulty]
HPDrainRate:5
CircleSize:2
OverallDifficulty:6
ApproachRate:5
SliderMultiplier:1.6
SliderTickRate:1

[Events]
//Background and Video events
0,0,"bg.jpg",0,0
//Break Periods
2,179398,200186
//Storyboard Layer 0 (Background)
//Storyboard Layer 1 (Fail)
//Storyboard Layer 2 (Pass)
//Storyboard Layer 3 (Foreground)
//Storyboard Layer 4 (Overlay)
//Storyboard Sound Samples

[TimingPoints]
231,346.820809248555,4,1,0,60,1,8
1618,346.820809248555,4,1,0,60,1,0
1618,-153.846153846154,4,1,0,60,0,0
12542,-133.333333333333,4,1,0,75,0,0
18264,-133.32219,4,1,0,75,0,0
18437,-131.42197,4,1,0,75,0,0
18611,-129.56465,4,1,0,75,0,0
18784,-127.769325,4,1,0,75,0,0
19131,-124.314224,4,1,0,75,0,0
19304,-122.66051,4,1,0,75,0,0
19564,-120.25632,4,1,0,75,0,0
19651,-119.47275,4,1,0,75,0,0
19825,-117.93583,4,1,0,75,0,0
19998,-116.446465,4,1,0,75,0,0
20171,-114.99423,4,1,0,75,0,0
20518,-112.18792,4,1,0,75,0,0
20692,-110.83166,4,1,0,75,0,0
21038,-108.229866,4,1,0,75,0,0
21212,-106.96708,4,1,0,75,0,0
21299,-106.34667,4,1,0,75,0,0
21385,-105.74042,4,1,0,75,0,0
21559,-104.53473,4,1,0,75,0,0
21906,-102.21055,4,1,0,75,0,0
22079,-101.08998,4,1,0,75,0,0
22252,-99.99373,4,1,0,75,0,0
22426,-83.333336,4,1,0,80,0,0
22599,-86.95289,4,1,0,80,0,0
22773,-90.925,4,1,0,80,0,0
22946,-95.2512,4,1,0,80,0,0
23033,-97.586174,4,1,0,80,0,0
23119,-100.009636,4,1,0,80,0,0
23206,-102.58689,4,1,0,80,0,0
23293,-105.3005,4,1,0,80,0,0
23380,-108.16157,4,1,0,80,0,0
23466,-111.14677,4,1,0,80,0,0
23814,-100,4,1,0,90,0,0
44623,-83.333336,4,1,0,80,0,0
44796,-86.95289,4,1,0,80,0,0
44970,-90.925,4,1,0,80,0,0
45143,-95.2512,4,1,0,80,0,0
45230,-97.586174,4,1,0,80,0,0
45316,-100.009636,4,1,0,80,0,0
45403,-102.58689,4,1,0,80,0,0
45490,-105.3005,4,1,0,80,0,0
45577,-108.16157,4,1,0,80,0,0
45663,-111.14677,4,1,0,80,0,0
46011,-125.0451325918,4,1,0,80,0,0
56241,-125.04514,4,1,0,80,0,0
56588,-119.285324,4,1,0,81,0,0
56674,-117.89933,4,1,0,82,0,0
56761,-116.51359,4,1,0,83,0,0
56934,-113.80629,4,1,0,84,0,0
57108,-111.14677,4,1,0,85,0,0
66733,-83.3533898491489,4,1,0,100,0,0
66993,-111.14677,4,1,0,75,0,0
68120,-100,4,1,0,90,0,0
73756,-95.2380952380952,4,1,0,90,0,0
75144,-90.9090909090909,4,1,0,90,0,0
76531,-86.9565217391304,4,1,0,90,0,0
77224,-83.3333333333333,4,1,0,90,0,0
77570,-76.93762,4,1,0,90,0,0
77628,-77.78576,4,1,0,90,0,0
77686,-78.643234,4,1,0,90,0,0
77744,-79.51018,4,1,0,90,0,0
77801,-80.371475,4,1,0,90,0,0
77859,-81.25747,4,1,0,90,0,0
77917,-82.15321,4,1,0,90,0,0
78090,-84.884125,4,1,0,90,0,0
78264,-87.72238,4,1,0,90,0,0
78437,-90.63841,4,1,0,90,0,0
78524,-92.14128,4,1,0,90,0,0
78611,-93.66908,4,1,0,90,0,0
78669,-94.70166,4,1,0,90,0,0
78726,-95.727516,4,1,0,90,0,0
78784,-96.78278,4,1,0,90,0,0
78842,-97.84969,4,1,0,90,0,0
78900,-98.92835,4,1,0,90,0,0
78958,-100.018906,4,1,0,90,0,0
79305,-90.9090909090909,4,1,0,95,0,1
100115,-83.333336,4,1,0,80,0,0
100283,-86.95289,4,1,0,80,0,0
100457,-90.925,4,1,0,80,0,0
100630,-95.2512,4,1,0,80,0,0
100717,-97.586174,4,1,0,80,0,0
100803,-100.009636,4,1,0,80,0,0
100890,-102.58689,4,1,0,80,0,0
100977,-105.3005,4,1,0,80,0,0
101064,-108.16157,4,1,0,80,0,0
101150,-111.14677,4,1,0,80,0,0
101502,-100,4,1,0,90,0,0
112252,-100,4,1,0,90,0,0
112339,-97.63196,4,1,0,90,0,0
112426,-95.32,4,1,0,90,0,0
112512,-93.08842,4,1,0,90,0,0
112599,-90.88405,4,1,0,90,0,0
122289,-83.333336,4,1,0,80,0,0
122462,-86.95289,4,1,0,80,0,0
122636,-90.925,4,1,0,80,0,0
122809,-95.2512,4,1,0,80,0,0
122896,-97.586174,4,1,0,80,0,0
122982,-100.009636,4,1,0,80,0,0
123069,-102.58689,4,1,0,80,0,0
123156,-105.3005,4,1,0,80,0,0
123243,-108.16157,4,1,0,80,0,0
123329,-111.14677,4,1,0,80,0,0
123525,-125.0451325918,4,1,0,80,0,0
133929,-125.04514,4,1,0,81,0,0
134275,-131.87047,4,1,0,82,0,0
134449,-135.44238,4,1,0,83,0,0
134536,-137.26447,4,1,0,84,0,0
134622,-139.08969,4,1,0,85,0,0
134709,-140.96083,4,1,0,86,0,0
134796,-142.85715,4,1,0,90,0,0
139649,-142.857142857143,4,1,0,90,0,0
139823,-140.343781597573,4,1,0,90,0,0
139909,-139.133921411387,4,1,0,90,0,0
139996,-137.931034482759,4,1,0,90,0,0
140169,-135.599843688941,4,1,0,90,0,0
140256,-134.457037682844,4,1,0,90,0,0
140343,-133.333333333333,4,1,0,90,0,0
141733,-125,4,1,0,90,0,0
143120,-117.647058823529,4,1,0,90,0,0
143814,-111.111111111111,4,1,0,90,0,0
144160,-105.23644,4,1,0,90,0,0
144247,-100.13085,4,1,0,90,0,0
144333,-95.32743,4,1,0,90,0,0
144420,-90.70257,4,1,0,90,0,0
144486,-83.3533898491489,4,1,0,100,0,0
144680,-111.14677,4,1,0,75,0,0
145808,-100,4,1,0,90,0,0
151443,-95.2380952380952,4,1,0,90,0,0
152831,-90.9090909090909,4,1,0,90,0,0
154218,-86.9565217391304,4,1,0,90,0,0
154911,-83.3333333333333,4,1,0,90,0,0
155257,-76.93762,4,1,0,90,0,0
155315,-77.78576,4,1,0,90,0,0
155373,-78.643234,4,1,0,90,0,0
155431,-79.51018,4,1,0,90,0,0
155488,-80.371475,4,1,0,90,0,0
155546,-81.25747,4,1,0,90,0,0
155604,-82.15321,4,1,0,90,0,0
155777,-84.884125,4,1,0,90,0,0
155951,-87.72238,4,1,0,90,0,0
156124,-90.63841,4,1,0,90,0,0
156211,-92.14128,4,1,0,90,0,0
156298,-93.66908,4,1,0,90,0,0
156356,-94.70166,4,1,0,90,0,0
156413,-95.727516,4,1,0,90,0,0
156471,-96.78278,4,1,0,90,0,0
156529,-97.84969,4,1,0,90,0,0
156587,-98.92835,4,1,0,90,0,0
156645,-100.018906,4,1,0,90,0,0
156993,-90.9090909090909,4,1,0,95,0,1
177802,-83.333336,4,1,0,80,0,0
177970,-86.95289,4,1,0,80,0,0
178144,-90.925,4,1,0,80,0,0
178317,-95.2512,4,1,0,80,0,0
178404,-97.586174,4,1,0,80,0,0
178490,-100.009636,4,1,0,80,0,0
178577,-102.58689,4,1,0,80,0,0
178664,-105.3005,4,1,0,80,0,0
178751,-108.16157,4,1,0,80,0,0
178843,359.281437125749,4,1,0,80,1,8
178843,-107.52688172043,4,1,0,80,0,0
179116,-125,4,1,0,60,0,0
179198,327.868852459016,4,1,0,100,1,0
179198,-125,4,1,0,60,0,0
179279,-125,4,1,0,5,0,0
179771,341.880341880342,4,1,0,5,1,8
180284,370.37037037037,4,1,0,5,1,8
180654,338.028169014085,4,1,0,5,1,8
181161,339.943342776204,4,1,0,5,1,8
181671,362.537764350453,4,1,0,5,1,8
182033,342.368045649073,4,1,0,5,1,8
182375,332.871012482663,4,1,0,5,1,8
182708,364.741641337386,4,1,0,5,1,8
183072,344.827586206897,4,1,0,5,1,8
183416,344.827586206897,4,1,0,5,1,8
184452,359.281437125749,4,1,0,5,1,8
184811,345.821325648415,4,1,0,5,1,8
185330,341.394025604552,4,1,0,5,1,8
185842,372.670807453416,4,1,0,5,1,8
186214,338.028169014085,4,1,0,5,1,8
186721,339.943342776204,4,1,0,5,1,8
187231,340.909090909091,4,1,0,5,1,8
187571,340.909090909091,4,1,0,5,1,8
187914,356.612184249629,4,1,0,5,1,8
188270,357.142857142857,4,1,0,5,1,8
188627,348.837209302326,5,1,0,5,1,8
188975,348.837209302326,4,1,0,5,1,8
190370,341.880341880342,4,1,0,5,1,8
190882,338.028169014085,4,1,0,5,1,8
191388,371.517027863777,4,1,0,5,1,8
191759,330.578512396694,4,1,0,5,1,8
192254,351.906158357771,4,1,0,5,1,8
192782,355.029585798817,4,1,0,5,1,8
193137,345.323741007194,4,1,0,5,1,8
193482,329.67032967033,4,1,0,5,1,8
193811,355.029585798817,4,1,0,5,1,8
194166,357.142857142857,4,1,0,5,1,8
194523,343.839541547278,4,1,0,5,1,8
195554,360.36036036036,4,1,0,5,1,8
195914,343.839541547278,4,1,0,5,1,8
196430,340.425531914894,4,1,0,5,1,8
196940,357.142857142857,4,1,0,5,1,8
197297,346.820809248555,4,1,0,5,1,8
197817,340.425531914894,4,1,0,5,1,8
198327,346.820809248555,4,1,0,5,1,8
198673,348.837209302326,4,1,0,5,1,8
199021,352.941176470588,4,1,0,5,1,8
199373,340.909090909091,4,1,0,5,1,8
199894,346.820809248555,4,1,0,5,1,8
200085,346.820809248555,4,1,0,5,1,8
201298,-133.333333333333,4,1,0,75,0,0
201386,346.820809248555,4,1,0,75,1,0
201386,-133.333333333333,4,1,0,75,0,0
211095,-133.33333,4,1,0,75,0,0
211356,-129.7933,4,1,0,75,0,0
211442,-128.64757,4,1,0,75,0,0
211616,-126.36029,4,1,0,75,0,0
211876,-123.018074,4,1,0,75,0,0
211963,-121.91957,4,1,0,75,0,0
212136,-119.76427,4,1,0,75,0,0
212309,-117.64706,4,1,0,75,0,0
212484,-111.111111111111,4,1,0,85,0,0
218032,-111.111115,4,1,0,85,0,0
218379,-114.04435,4,1,0,85,0,0
218726,-117.05501,4,1,0,85,0,0
219072,-120.13614,4,1,0,85,0,0
219419,-123.307625,4,1,0,85,0,0
219766,-126.562836,4,1,0,85,0,0
220113,-129.90399,4,1,0,85,0,0
220460,-133.33333,4,1,0,85,0,0
220806,-124.96732,4,1,0,85,0,0
220980,-119.40946,4,1,0,85,0,0
221153,-114.1286,4,1,0,85,0,0
221327,-109.052795,4,1,0,85,0,0
221500,-104.22995,4,1,0,85,0,0
221674,-99.594376,4,1,0,85,0,0
221847,-95.18984,4,1,0,85,0,0
221934,-93.048996,4,1,0,85,0,0
222020,-90.98009,4,1,0,85,0,0
222107,-88.93394,4,1,0,85,0,0
222194,-86.954315,4,1,0,85,0,0
222367,-90.57711,4,1,0,85,0,0
222541,-94.3731,4,1,0,85,0,0
222714,-98.304985,4,1,0,85,0,0
222801,-100.34378,4,1,0,85,0,0
222887,-102.40069,4,1,0,85,0,0
222945,-103.81166,4,1,0,85,0,0
223003,-105.242065,4,1,0,85,0,0
223061,-106.69219,4,1,0,85,0,0
223119,-108.16231,4,1,0,85,0,0
223176,-109.6268,4,1,0,85,0,0
223234,-111.13733,4,1,0,85,0,0
223582,-86.9565217391304,4,1,0,95,0,1
244391,-90.90909,4,1,0,95,0,0
244564,-94.01306,4,1,0,95,0,0
244737,-97.20426,4,1,0,95,0,0
244911,-100.52317,4,1,0,95,0,0
244997,-102.20516,4,1,0,95,0,0
245084,-103.935356,4,1,0,95,0,0
245257,-107.463356,4,1,0,95,0,0
245344,-109.282555,4,1,0,95,0,0
245431,-111.132545,4,1,0,95,0,0
245779,-90.90909,4,1,0,95,0,1
245951,-89.889824,4,1,0,95,0,1
246038,-89.38584,4,1,0,95,0,1
246124,-88.893166,4,1,0,95,0,1
246211,-88.40025,4,1,0,95,0,1
246298,-87.91278,4,1,0,95,0,1
246385,-87.43066,4,1,0,95,0,1
246471,-86.95925,4,1,0,95,0,1
246558,-86.4875,4,1,0,95,0,1
246645,-86.02084,4,1,0,95,0,1
246731,-85.56447,4,1,0,95,0,1
246818,-85.10769,4,1,0,95,0,1
246905,-84.65576,4,1,0,95,0,1
246991,-84.21372,4,1,0,95,0,1
247078,-83.77121,4,1,0,95,0,1
247165,-83.33856,4,1,0,95,0,1
247252,-83.794655,4,1,0,95,0,1
247338,-84.247955,4,1,0,95,0,1
247425,-84.70902,4,1,0,95,0,1
247512,-85.172615,4,1,0,95,0,1
247598,-85.63337,4,1,0,95,0,1
247685,-86.10201,4,1,0,95,0,1
247772,-86.57323,4,1,0,95,0,1
247858,-87.041565,4,1,0,95,0,1
247945,-87.517914,4,1,0,95,0,1
248032,-87.99688,4,1,0,95,0,1
248119,-88.478455,4,1,0,95,0,1
248205,-88.9571,4,1,0,95,0,1
248292,-89.44394,4,1,0,95,0,1
248379,-89.933426,4,1,0,95,0,1
248465,-90.419945,4,1,0,95,0,1
248552,-90.914795,4,1,0,95,0,1
248639,-91.43046,4,1,0,95,0,1
248726,-91.95783,4,1,0,95,0,1
248812,-92.48515,4,1,0,95,0,1
248899,-93.02482,4,1,0,95,0,1
248986,-93.5708,4,1,0,95,0,1
249072,-94.11685,4,1,0,95,0,1
249159,-94.675766,4,1,0,95,0,1
249246,-95.24136,4,1,0,95,0,1
249332,-95.807144,4,1,0,95,0,1
249419,-96.38638,4,1,0,95,0,1
249506,-96.972664,4,1,0,95,0,1
249593,-97.56612,4,1,0,95,0,1
249679,-98.15995,4,1,0,95,0,1
249766,-98.76807,4,1,0,95,0,1
249853,-99.38377,4,1,0,95,0,1
249939,-99.99313,4,1,0,95,0,1
250026,-99.39755,4,1,0,95,0,1
250113,-98.80551,4,1,0,95,0,1
250200,-98.217,4,1,0,95,0,1
250286,-97.63871,4,1,0,95,0,1
250373,-97.057144,4,1,0,95,0,1
250460,-96.47905,4,1,0,95,0,1
250546,-95.91097,4,1,0,95,0,1
250633,-95.33971,4,1,0,95,0,1
250720,-94.77185,4,1,0,95,0,1
250806,-94.21383,4,1,0,95,0,1
250893,-93.652664,4,1,0,95,0,1
250980,-93.09485,4,1,0,95,0,1
251067,-92.54035,4,1,0,95,0,1
251153,-91.99548,4,1,0,95,0,1
251240,-91.447525,4,1,0,95,0,1
251327,-90.90284,4,1,0,95,0,1
251413,-90.39953,4,1,0,95,0,1
251500,-89.889824,4,1,0,95,0,1
251587,-89.38584,4,1,0,95,0,1
251674,-88.88747,4,1,0,95,0,1
251760,-88.40025,4,1,0,95,0,1
251847,-87.91278,4,1,0,95,0,1
251934,-87.43066,4,1,0,95,0,1
252020,-86.95925,4,1,0,95,0,1
252107,-86.4875,4,1,0,95,0,1
252194,-86.02084,4,1,0,95,0,1
252280,-85.56447,4,1,0,95,0,1
252367,-85.10769,4,1,0,95,0,1
252454,-84.65576,4,1,0,95,0,1
252541,-84.20862,4,1,0,95,0,1
252627,-83.77121,4,1,0,95,0,1
252714,-83.32853,4,1,0,95,0,1
252801,-82.91121,4,1,0,95,0,1
252887,-82.50073,4,1,0,95,0,1
252974,-82.087555,4,1,0,95,0,1
253061,-81.67646,4,1,0,95,0,1
253148,-81.26742,4,1,0,95,0,1
253234,-80.86508,4,1,0,95,0,1
253321,-80.4601,4,1,0,95,0,1
253408,-80.057144,4,1,0,95,0,1
253494,-79.660805,4,1,0,95,0,1
253581,-79.261856,4,1,0,95,0,1
253668,-78.8649,4,1,0,95,0,1
253754,-78.474464,4,1,0,95,0,1
253841,-78.08146,4,1,0,95,0,1
253928,-77.690414,4,1,0,95,0,1
254015,-77.30133,4,1,0,95,0,1
254101,-76.91864,4,1,0,95,0,1
254188,-77.34948,4,1,0,95,0,1
254275,-77.780624,4,1,0,95,0,1
254361,-78.21157,4,1,0,95,0,1
254448,-78.65241,4,1,0,95,0,1
254535,-79.09825,4,1,0,95,0,1
254621,-79.54397,4,1,0,95,0,1
254708,-80,4,1,0,95,0,1
254795,-80.461296,4,1,0,95,0,1
254882,-80.92795,4,1,0,95,0,1
254968,-81.39457,4,1,0,95,0,1
255055,-81.87214,4,1,0,95,0,1
255142,-82.35534,4,1,0,95,0,1
255228,-82.838615,4,1,0,95,0,1
255315,-83.34088,4,1,0,95,0,1
255402,-83.99988,4,1,0,95,0,1
255489,-84.66408,4,1,0,95,0,1
255575,-85.325806,4,1,0,95,0,1
255662,-86.000496,4,1,0,95,0,1
255749,-86.68051,4,1,0,95,0,1
255835,-87.358,4,1,0,95,0,1
255922,-88.04877,4,1,0,95,0,1
256009,-88.74498,4,1,0,95,0,1
256095,-89.43861,4,1,0,95,0,1
256182,-90.14581,4,1,0,95,0,1
256269,-90.85861,4,1,0,95,0,1
256356,-91.57705,4,1,0,95,0,1
256442,-92.29281,4,1,0,95,0,1
256529,-93.02259,4,1,0,95,0,1
256616,-93.758125,4,1,0,95,0,1
256702,-94.49094,4,1,0,95,0,1
256789,-95.2381,4,1,0,95,0,1
256876,-90.90909,4,1,0,95,0,1
257048,-89.889824,4,1,0,95,0,1
257135,-89.38584,4,1,0,95,0,1
257221,-88.893166,4,1,0,95,0,1
257308,-88.40025,4,1,0,95,0,1
257395,-87.91278,4,1,0,95,0,1
257482,-87.43066,4,1,0,95,0,1
257568,-86.95925,4,1,0,95,0,1
257655,-86.4875,4,1,0,95,0,1
257742,-86.02084,4,1,0,95,0,1
257828,-85.56447,4,1,0,95,0,1
257915,-85.10769,4,1,0,95,0,1
258002,-84.65576,4,1,0,95,0,1
258088,-84.21372,4,1,0,95,0,1
258175,-83.77121,4,1,0,95,0,1
258262,-83.33856,4,1,0,95,0,1
258349,-83.794655,4,1,0,95,0,1
258435,-84.247955,4,1,0,95,0,1
258522,-84.70902,4,1,0,95,0,1
258609,-85.172615,4,1,0,95,0,1
258695,-85.63337,4,1,0,95,0,1
258782,-86.10201,4,1,0,95,0,1
258869,-86.57323,4,1,0,95,0,1
258955,-87.041565,4,1,0,95,0,1
259042,-87.517914,4,1,0,95,0,1
259129,-87.99688,4,1,0,95,0,1
259216,-88.478455,4,1,0,95,0,1
259302,-88.9571,4,1,0,95,0,1
259389,-89.44394,4,1,0,95,0,1
259476,-89.933426,4,1,0,95,0,1
259562,-90.419945,4,1,0,95,0,1
259649,-90.914795,4,1,0,95,0,1
259736,-91.43046,4,1,0,95,0,1
259823,-91.95783,4,1,0,95,0,1
259909,-92.48515,4,1,0,95,0,1
259996,-93.02482,4,1,0,95,0,1
260083,-93.5708,4,1,0,95,0,1
260169,-94.11685,4,1,0,95,0,1
260256,-94.675766,4,1,0,95,0,1
260343,-95.24136,4,1,0,95,0,1
260429,-95.807144,4,1,0,95,0,1
260516,-96.38638,4,1,0,95,0,1
260603,-96.972664,4,1,0,95,0,1
260690,-97.56612,4,1,0,95,0,1
260776,-98.15995,4,1,0,95,0,1
260863,-98.76807,4,1,0,95,0,1
260950,-99.38377,4,1,0,95,0,1
261036,-99.99313,4,1,0,95,0,1
261123,-99.39755,4,1,0,95,0,1
261210,-98.80551,4,1,0,95,0,1
261297,-98.217,4,1,0,95,0,1
261383,-97.63871,4,1,0,95,0,1
261470,-97.057144,4,1,0,95,0,1
261557,-96.47905,4,1,0,95,0,1
261643,-95.91097,4,1,0,95,0,1
261730,-95.33971,4,1,0,95,0,1
261817,-94.77185,4,1,0,95,0,1
261903,-94.21383,4,1,0,95,0,1
261990,-93.652664,4,1,0,95,0,1
262077,-93.09485,4,1,0,95,0,1
262164,-92.54035,4,1,0,95,0,1
262250,-91.99548,4,1,0,95,0,1
262337,-91.447525,4,1,0,95,0,1
262424,-90.90284,4,1,0,95,0,1
262510,-90.39953,4,1,0,95,0,1
262597,-89.889824,4,1,0,95,0,1
262684,-89.38584,4,1,0,95,0,1
262771,-88.88747,4,1,0,95,0,1
262857,-88.40025,4,1,0,95,0,1
262944,-87.91278,4,1,0,95,0,1
263031,-87.43066,4,1,0,95,0,1
263117,-86.95925,4,1,0,95,0,1
263204,-86.4875,4,1,0,95,0,1
263291,-86.02084,4,1,0,95,0,1
263377,-85.56447,4,1,0,95,0,1
263464,-85.10769,4,1,0,95,0,1
263551,-84.65576,4,1,0,95,0,1
263638,-84.20862,4,1,0,95,0,1
263724,-83.77121,4,1,0,95,0,1
263811,-83.32853,4,1,0,95,0,1
263898,-82.91121,4,1,0,95,0,1
263984,-82.50073,4,1,0,95,0,1
264071,-82.087555,4,1,0,95,0,1
264158,-81.67646,4,1,0,95,0,1
264245,-81.26742,4,1,0,95,0,1
264331,-80.86508,4,1,0,95,0,1
264418,-80.4601,4,1,0,95,0,1
264505,-80.057144,4,1,0,95,0,1
264591,-79.660805,4,1,0,95,0,1
264678,-79.261856,4,1,0,95,0,1
264765,-78.8649,4,1,0,95,0,1
264851,-78.474464,4,1,0,95,0,1
264938,-78.08146,4,1,0,95,0,1
265025,-77.690414,4,1,0,95,0,1
265112,-77.30133,4,1,0,95,0,1
265198,-76.91864,4,1,0,95,0,1
265285,-77.34948,4,1,0,95,0,1
265372,-77.780624,4,1,0,95,0,1
265458,-78.21157,4,1,0,95,0,1
265545,-78.65241,4,1,0,95,0,1
265632,-79.09825,4,1,0,95,0,1
265718,-79.54397,4,1,0,95,0,1
265805,-80,4,1,0,95,0,1
265892,-80.461296,4,1,0,95,0,1
265979,-80.92795,4,1,0,95,0,1
266065,-81.39457,4,1,0,95,0,1
266152,-81.87214,4,1,0,95,0,1
266239,-82.35534,4,1,0,95,0,1
266325,-82.838615,4,1,0,95,0,1
266412,-83.34088,4,1,0,95,0,1
266588,-80,4,1,0,80,0,0
266760,-84.49327,4,1,0,80,0,0
266934,-89.26712,4,1,0,80,0,0
267107,-94.28091,4,1,0,80,0,0
267194,-96.90774,4,1,0,80,0,0
267280,-99.576294,4,1,0,80,0,0
267367,-102.350655,4,1,0,80,0,0
267454,-105.202324,4,1,0,80,0,0
267541,-108.13344,4,1,0,80,0,0
267627,-111.111115,4,1,0,80,0,0
267975,-100,4,1,0,90,0,0
278726,-100,4,1,0,90,0,0
278813,-97.63196,4,1,0,90,0,0
278900,-95.32,4,1,0,90,0,0
278986,-93.08842,4,1,0,90,0,0
279073,-90.88405,4,1,0,90,0,0
288783,-83.333336,4,1,0,80,0,0
288956,-86.95289,4,1,0,80,0,0
289130,-90.925,4,1,0,80,0,0
289303,-95.2512,4,1,0,80,0,0
289390,-97.586174,4,1,0,80,0,0
289476,-100.009636,4,1,0,80,0,0
289563,-102.58689,4,1,0,80,0,0
289650,-105.3005,4,1,0,80,0,0
289737,-108.16157,4,1,0,80,0,0
289823,-111.14677,4,1,0,80,0,0
290085,-83.3333333333333,4,1,0,100,0,0
290172,-83.3333333333333,4,1,0,100,0,1
295026,-83.333336,4,1,0,100,0,1
295200,-80.90843,4,1,0,100,0,1
295286,-79.7361,4,1,0,100,0,1
295373,-78.56742,4,1,0,100,0,1
295460,-77.41587,4,1,0,100,0,1
295546,-76.29414,4,1,0,100,0,1
295633,-75.1759,4,1,0,100,0,1
295720,-74.074066,4,1,0,100,0,1
298495,-66.6666666666667,4,1,0,100,0,1
299883,-60.6060606060606,4,1,0,100,0,1
300575,-60.606056,4,1,0,100,0,1
300749,-59.298218,4,1,0,100,0,1
300835,-58.66228,4,1,0,100,0,1
300922,-58.025887,4,1,0,100,0,1
301009,-57.39639,4,1,0,100,0,1
301095,-56.780846,4,1,0,100,0,1
301182,-56.164864,4,1,0,100,0,1
301227,-55.555557,4,1,0,60,0,1
301270,-55.555557,4,1,0,60,0,0

[HitObjects]
256,192,1618,5,4,0:0:0:0:
256,192,2138,1,0,0:0:0:0:
256,192,2658,1,8,0:0:0:0:
256,192,3005,1,0,0:0:0:0:
256,192,3525,1,8,0:0:0:0:
256,192,4045,1,0,0:0:0:0:
256,192,4739,1,0,0:0:0:0:
256,192,4912,1,0,0:0:0:0:
256,192,5086,1,8,0:0:0:0:
256,192,5433,1,0,0:0:0:0:
256,192,5779,1,8,0:0:0:0:
256,192,6300,1,0,0:0:0:0:
256,192,6820,1,0,0:0:0:0:
256,192,7167,1,8,0:0:0:0:
256,192,7687,1,0,0:0:0:0:
256,192,8207,1,8,0:0:0:0:
256,192,8554,1,0,0:0:0:0:
256,192,9074,1,8,0:0:0:0:
256,192,9594,1,0,0:0:0:0:
256,192,9941,1,8,0:0:0:0:
256,192,10115,1,0,0:0:0:0:
256,192,10461,1,8,0:0:0:0:
256,192,10808,1,0,0:0:0:0:
256,192,10982,1,8,0:0:0:0:
256,192,11155,1,8,0:0:0:0:
256,192,11328,1,0,0:0:0:0:
256,192,11849,1,8,0:0:0:0:
256,192,12716,1,4,0:0:0:0:
256,192,12889,1,0,0:0:0:0:
256,192,13063,1,8,0:0:0:0:
256,192,13236,1,0,0:0:0:0:
256,192,13583,1,0,0:0:0:0:
256,192,13756,1,8,0:0:0:0:
256,192,14016,1,8,0:0:0:0:
256,192,14103,1,0,0:0:0:0:
256,192,14276,1,0,0:0:0:0:
256,192,14450,1,8,0:0:0:0:
256,192,14623,1,0,0:0:0:0:
256,192,14970,1,0,0:0:0:0:
256,192,15144,1,8,0:0:0:0:
256,192,15490,1,0,0:0:0:0:
256,192,15837,1,8,0:0:0:0:
256,192,16011,1,8,0:0:0:0:
256,192,16097,1,8,0:0:0:0:
256,192,16184,1,0,0:0:0:0:
256,192,16357,1,0,0:0:0:0:
256,192,16531,1,8,0:0:0:0:
256,192,16878,1,0,0:0:0:0:
256,192,17138,1,0,0:0:0:0:
256,192,17224,1,8,0:0:0:0:
256,192,17398,1,0,0:0:0:0:
256,192,17745,1,0,0:0:0:0:
256,192,17918,1,8,0:0:0:0:
256,192,18265,1,0,0:0:0:0:
256,192,18438,1,0,0:0:0:0:
256,192,18612,1,8,0:0:0:0:
256,192,18785,1,0,0:0:0:0:
256,192,19132,1,0,0:0:0:0:
256,192,19305,1,8,0:0:0:0:
256,192,19565,1,8,0:0:0:0:
256,192,19652,1,0,0:0:0:0:
256,192,19826,1,0,0:0:0:0:
256,192,19999,1,8,0:0:0:0:
256,192,20172,1,0,0:0:0:0:
256,192,20519,1,0,0:0:0:0:
256,192,20693,1,8,0:0:0:0:
256,192,21039,1,8,0:0:0:0:
256,192,21213,1,8,0:0:0:0:
256,192,21300,1,8,0:0:0:0:
256,192,21386,1,0,0:0:0:0:
256,192,21560,1,8,0:0:0:0:
256,192,21907,1,0,0:0:0:0:
256,192,22080,1,8,0:0:0:0:
256,192,22253,1,8,0:0:0:0:
256,192,22427,1,4,0:0:0:0:
256,192,22600,1,0,0:0:0:0:
256,192,22774,1,8,0:0:0:0:
256,192,22947,1,0,0:0:0:0:
256,192,23034,1,8,0:0:0:0:
256,192,23120,1,0,0:0:0:0:
256,192,23207,1,8,0:0:0:0:
256,192,23294,1,0,0:0:0:0:
256,192,23381,1,0,0:0:0:0:
256,192,23467,1,8,0:0:0:0:
256,192,23814,1,4,0:0:0:0:
256,192,23987,1,8,0:0:0:0:
256,192,24074,1,0,0:0:0:0:
256,192,24161,1,0,0:0:0:0:
256,192,24334,1,8,0:0:0:0:
256,192,24508,1,0,0:0:0:0:
256,192,24681,1,0,0:0:0:0:
256,192,24768,1,0,0:0:0:0:
256,192,24854,1,8,0:0:0:0:
256,192,24941,1,8,0:0:0:0:
256,192,25028,1,0,0:0:0:0:
256,192,25201,1,8,0:0:0:0:
256,192,25375,1,0,0:0:0:0:
256,192,25461,1,0,0:0:0:0:
256,192,25635,1,0,0:0:0:0:
256,192,25722,1,8,0:0:0:0:
256,192,25895,1,0,0:0:0:0:
256,192,26068,1,8,0:0:0:0:
256,192,26155,1,0,0:0:0:0:
256,192,26242,1,8,0:0:0:0:
256,192,26328,1,8,0:0:0:0:
256,192,26415,1,0,0:0:0:0:
256,192,26589,1,8,0:0:0:0:
256,192,26762,1,0,0:0:0:0:
256,192,26935,1,8,0:0:0:0:
256,192,27109,1,8,0:0:0:0:
256,192,27196,1,8,0:0:0:0:
256,192,27282,1,0,0:0:0:0:
256,192,27456,1,0,0:0:0:0:
256,192,27629,1,8,0:0:0:0:
256,192,27802,1,0,0:0:0:0:
256,192,27976,1,8,0:0:0:0:
256,192,28063,1,8,0:0:0:0:
256,192,28149,1,8,0:0:0:0:
256,192,28236,1,8,0:0:0:0:
256,192,28323,1,0,0:0:0:0:
256,192,28496,1,8,0:0:0:0:
256,192,28583,1,8,0:0:0:0:
256,192,28670,1,0,0:0:0:0:
256,192,28756,1,0,0:0:0:0:
256,192,28843,1,0,0:0:0:0:
256,192,29016,1,8,0:0:0:0:
256,192,29190,1,8,0:0:0:0:
256,192,29363,1,0,0:0:0:0:
256,192,29537,1,8,0:0:0:0:
256,192,29623,1,0,0:0:0:0:
256,192,29710,1,0,0:0:0:0:
256,192,29883,1,8,0:0:0:0:
256,192,30057,1,0,0:0:0:0:
256,192,30230,1,0,0:0:0:0:
256,192,30317,1,0,0:0:0:0:
256,192,30404,1,8,0:0:0:0:
256,192,30490,1,8,0:0:0:0:
256,192,30577,1,0,0:0:0:0:
256,192,30750,1,8,0:0:0:0:
256,192,30924,1,0,0:0:0:0:
256,192,31011,1,0,0:0:0:0:
256,192,31184,1,0,0:0:0:0:
256,192,31271,1,8,0:0:0:0:
256,192,31444,1,0,0:0:0:0:
256,192,31618,1,8,0:0:0:0:
256,192,31704,1,0,0:0:0:0:
256,192,31791,1,8,0:0:0:0:
256,192,31878,1,8,0:0:0:0:
256,192,31964,1,0,0:0:0:0:
256,192,32138,1,8,0:0:0:0:
256,192,32224,1,0,0:0:0:0:
256,192,32311,1,8,0:0:0:0:
256,192,32485,1,0,0:0:0:0:
256,192,32658,1,8,0:0:0:0:
256,192,32745,1,0,0:0:0:0:
256,192,32831,1,0,0:0:0:0:
256,192,33005,1,8,0:0:0:0:
256,192,33091,1,0,0:0:0:0:
256,192,33178,1,8,0:0:0:0:
256,192,33265,1,8,0:0:0:0:
256,192,33352,1,0,0:0:0:0:
256,192,33438,1,0,0:0:0:0:
256,192,33525,1,8,0:0:0:0:
256,192,33698,1,8,0:0:0:0:
256,192,33872,1,0,0:0:0:0:
256,192,34045,1,8,0:0:0:0:
256,192,34132,1,8,0:0:0:0:
256,192,34219,1,0,0:0:0:0:
256,192,34392,1,0,0:0:0:0:
256,192,34565,1,8,0:0:0:0:
256,192,34652,1,8,0:0:0:0:
256,192,34739,1,8,0:0:0:0:
256,192,34826,1,8,0:0:0:0:
256,192,34912,1,4,0:0:0:0:
256,192,35086,1,8,0:0:0:0:
256,192,35172,1,0,0:0:0:0:
256,192,35259,1,0,0:0:0:0:
256,192,35433,1,8,0:0:0:0:
256,192,35606,1,0,0:0:0:0:
256,192,35779,1,0,0:0:0:0:
256,192,35866,1,0,0:0:0:0:
256,192,35953,1,8,0:0:0:0:
256,192,36039,1,8,0:0:0:0:
256,192,36126,1,0,0:0:0:0:
256,192,36300,1,8,0:0:0:0:
256,192,36473,1,0,0:0:0:0:
256,192,36560,1,0,0:0:0:0:
256,192,36733,1,0,0:0:0:0:
256,192,36820,1,8,0:0:0:0:
256,192,36993,1,0,0:0:0:0:
256,192,37167,1,8,0:0:0:0:
256,192,37253,1,0,0:0:0:0:
256,192,37340,1,8,0:0:0:0:
256,192,37427,1,8,0:0:0:0:
256,192,37513,1,0,0:0:0:0:
256,192,37687,1,8,0:0:0:0:
256,192,37860,1,0,0:0:0:0:
256,192,38034,1,8,0:0:0:0:
256,192,38207,1,8,0:0:0:0:
256,192,38294,1,8,0:0:0:0:
256,192,38381,1,0,0:0:0:0:
256,192,38554,1,0,0:0:0:0:
256,192,38727,1,8,0:0:0:0:
256,192,38901,1,0,0:0:0:0:
256,192,39074,1,8,0:0:0:0:
256,192,39161,1,8,0:0:0:0:
256,192,39248,1,8,0:0:0:0:
256,192,39334,1,8,0:0:0:0:
256,192,39421,1,0,0:0:0:0:
256,192,39594,1,8,0:0:0:0:
256,192,39681,1,8,0:0:0:0:
256,192,39768,1,0,0:0:0:0:
256,192,39854,1,0,0:0:0:0:
256,192,39941,1,0,0:0:0:0:
256,192,40115,1,8,0:0:0:0:
256,192,40288,1,8,0:0:0:0:
256,192,40461,1,0,0:0:0:0:
256,192,40635,1,8,0:0:0:0:
256,192,40722,1,0,0:0:0:0:
256,192,40808,1,0,0:0:0:0:
256,192,40982,1,8,0:0:0:0:
256,192,41155,1,0,0:0:0:0:
256,192,41328,1,0,0:0:0:0:
256,192,41415,1,0,0:0:0:0:
256,192,41502,1,8,0:0:0:0:
256,192,41589,1,8,0:0:0:0:
256,192,41675,1,0,0:0:0:0:
256,192,41849,1,8,0:0:0:0:
256,192,42022,1,0,0:0:0:0:
256,192,42109,1,0,0:0:0:0:
256,192,42282,1,0,0:0:0:0:
256,192,42369,1,8,0:0:0:0:
256,192,42542,1,0,0:0:0:0:
256,192,42716,1,8,0:0:0:0:
256,192,42802,1,0,0:0:0:0:
256,192,42889,1,8,0:0:0:0:
256,192,42976,1,8,0:0:0:0:
256,192,43063,1,0,0:0:0:0:
256,192,43236,1,8,0:0:0:0:
256,192,43323,1,0,0:0:0:0:
256,192,43409,1,8,0:0:0:0:
256,192,43583,1,0,0:0:0:0:
256,192,43756,1,8,0:0:0:0:
256,192,43843,1,0,0:0:0:0:
256,192,43930,1,0,0:0:0:0:
256,192,44103,1,8,0:0:0:0:
256,192,44190,1,0,0:0:0:0:
256,192,44276,1,8,0:0:0:0:
256,192,44363,1,0,0:0:0:0:
256,192,44450,1,8,0:0:0:0:
256,192,44623,1,0,0:0:0:0:
256,192,44797,1,0,0:0:0:0:
256,192,44970,1,8,0:0:0:0:
256,192,45144,1,0,0:0:0:0:
256,192,45230,1,8,0:0:0:0:
256,192,45317,1,0,0:0:0:0:
256,192,45404,1,8,0:0:0:0:
256,192,45490,1,0,0:0:0:0:
256,192,45577,1,0,0:0:0:0:
256,192,45664,1,8,0:0:0:0:
256,192,46011,1,4,0:0:0:0:
256,192,46357,1,8,0:0:0:0:
256,192,46531,1,8,0:0:0:0:
256,192,46704,1,0,0:0:0:0:
256,192,47051,1,8,0:0:0:0:
256,192,47398,1,0,0:0:0:0:
256,192,47745,1,8,0:0:0:0:
256,192,47918,1,0,0:0:0:0:
256,192,48265,1,0,0:0:0:0:
256,192,48438,1,8,0:0:0:0:
256,192,48785,1,0,0:0:0:0:
256,192,49132,1,8,0:0:0:0:
256,192,49305,1,8,0:0:0:0:
256,192,49652,1,0,0:0:0:0:
256,192,49826,1,8,0:0:0:0:
256,192,50172,1,0,0:0:0:0:
256,192,50519,1,8,0:0:0:0:
256,192,50693,1,0,0:0:0:0:
256,192,51039,1,0,0:0:0:0:
256,192,51213,1,8,0:0:0:0:
256,192,51386,1,8,0:0:0:0:
256,192,51560,1,0,0:0:0:0:
256,192,51907,1,0,0:0:0:0:
256,192,52080,1,8,0:0:0:0:
256,192,52253,1,0,0:0:0:0:
256,192,52600,1,8,0:0:0:0:
256,192,52947,1,0,0:0:0:0:
256,192,53294,1,8,0:0:0:0:
256,192,53467,1,0,0:0:0:0:
256,192,53814,1,0,0:0:0:0:
256,192,53987,1,8,0:0:0:0:
256,192,54334,1,0,0:0:0:0:
256,192,54681,1,8,0:0:0:0:
256,192,54854,1,0,0:0:0:0:
256,192,55201,1,8,0:0:0:0:
256,192,55375,1,8,0:0:0:0:
256,192,55722,1,0,0:0:0:0:
256,192,55895,1,0,0:0:0:0:
256,192,56068,1,8,0:0:0:0:
256,192,56242,1,0,0:0:0:0:
256,192,56589,1,0,0:0:0:0:
256,192,56675,1,0,0:0:0:0:
256,192,56762,1,8,0:0:0:0:
256,192,56935,1,8,0:0:0:0:
256,192,57109,1,4,0:0:0:0:
256,192,57456,1,8,0:0:0:0:
256,192,57629,1,8,0:0:0:0:
256,192,57802,1,0,0:0:0:0:
256,192,57976,1,0,0:0:0:0:
256,192,58149,1,8,0:0:0:0:
256,192,58496,1,0,0:0:0:0:
256,192,58670,1,0,0:0:0:0:
256,192,58843,1,8,0:0:0:0:
256,192,59016,1,0,0:0:0:0:
256,192,59363,1,0,0:0:0:0:
256,192,59537,1,8,0:0:0:0:
256,192,59710,1,8,0:0:0:0:
256,192,59883,1,0,0:0:0:0:
256,192,60057,1,0,0:0:0:0:
256,192,60230,1,8,0:0:0:0:
256,192,60404,1,0,0:0:0:0:
256,192,60750,1,0,0:0:0:0:
256,192,60924,1,8,0:0:0:0:
256,192,61097,1,0,0:0:0:0:
256,192,61271,1,8,0:0:0:0:
256,192,61444,1,8,0:0:0:0:
256,192,61618,1,0,0:0:0:0:
256,192,61791,1,8,0:0:0:0:
256,192,62138,1,0,0:0:0:0:
256,192,62311,1,8,0:0:0:0:
256,192,62485,1,8,0:0:0:0:
256,192,62658,1,0,0:0:0:0:
256,192,63005,1,8,0:0:0:0:
256,192,63178,1,0,0:0:0:0:
256,192,63352,1,8,0:0:0:0:
256,192,63525,1,0,0:0:0:0:
256,192,63698,1,8,0:0:0:0:
256,192,64045,1,0,0:0:0:0:
256,192,64219,1,8,0:0:0:0:
256,192,64392,1,0,0:0:0:0:
256,192,64565,1,8,0:0:0:0:
256,192,64912,1,0,0:0:0:0:
256,192,65086,1,8,0:0:0:0:
256,192,65259,1,8,0:0:0:0:
256,192,65433,1,0,0:0:0:0:
256,192,65606,1,0,0:0:0:0:
256,192,65779,1,8,0:0:0:0:
256,192,65953,1,0,0:0:0:0:
256,192,66300,1,0,0:0:0:0:
256,192,66473,1,8,0:0:0:0:
256,192,66646,1,8,0:0:0:0:
256,192,66820,1,4,0:0:0:0:
256,192,67687,1,0,0:0:0:0:
256,192,67860,1,8,0:0:0:0:
256,192,68207,1,4,0:0:0:0:
256,192,68381,1,0,0:0:0:0:
256,192,68467,1,0,0:0:0:0:
256,192,68554,1,8,0:0:0:0:
256,192,68727,1,0,0:0:0:0:
256,192,68901,1,0,0:0:0:0:
256,192,68987,1,0,0:0:0:0:
256,192,69074,1,8,0:0:0:0:
256,192,69161,1,0,0:0:0:0:
256,192,69248,1,8,0:0:0:0:
256,192,69421,1,0,0:0:0:0:
256,192,69594,1,8,0:0:0:0:
256,192,69681,1,8,0:0:0:0:
256,192,69768,1,0,0:0:0:0:
256,192,69941,1,8,0:0:0:0:
256,192,70028,1,0,0:0:0:0:
256,192,70115,1,0,0:0:0:0:
256,192,70288,1,8,0:0:0:0:
256,192,70461,1,0,0:0:0:0:
256,192,70548,1,0,0:0:0:0:
256,192,70635,1,8,0:0:0:0:
256,192,70808,1,0,0:0:0:0:
256,192,70982,1,8,0:0:0:0:
256,192,71068,1,0,0:0:0:0:
256,192,71155,1,0,0:0:0:0:
256,192,71242,1,0,0:0:0:0:
256,192,71328,1,8,0:0:0:0:
256,192,71502,1,0,0:0:0:0:
256,192,71675,1,8,0:0:0:0:
256,192,71762,1,8,0:0:0:0:
256,192,71935,1,0,0:0:0:0:
256,192,72022,1,8,0:0:0:0:
256,192,72196,1,8,0:0:0:0:
256,192,72369,1,0,0:0:0:0:
256,192,72542,1,8,0:0:0:0:
256,192,72629,1,8,0:0:0:0:
256,192,72716,1,0,0:0:0:0:
256,192,72889,1,8,0:0:0:0:
256,192,73063,1,0,0:0:0:0:
256,192,73149,1,0,0:0:0:0:
256,192,73236,1,0,0:0:0:0:
256,192,73323,1,0,0:0:0:0:
256,192,73409,1,8,0:0:0:0:
256,192,73583,1,0,0:0:0:0:
256,192,73756,1,12,0:0:0:0:
256,192,74103,1,8,0:0:0:0:
256,192,74276,1,0,0:0:0:0:
256,192,74450,1,8,0:0:0:0:
256,192,74537,1,8,0:0:0:0:
256,192,74623,1,0,0:0:0:0:
256,192,74710,1,0,0:0:0:0:
256,192,74797,1,8,0:0:0:0:
256,192,74970,1,8,0:0:0:0:
256,192,75144,1,4,0:0:0:0:
256,192,75490,1,0,0:0:0:0:
256,192,75577,1,0,0:0:0:0:
256,192,75664,1,8,0:0:0:0:
256,192,75837,1,0,0:0:0:0:
256,192,76011,1,8,0:0:0:0:
256,192,76097,1,8,0:0:0:0:
256,192,76184,1,0,0:0:0:0:
256,192,76357,1,8,0:0:0:0:
256,192,76531,1,4,0:0:0:0:
256,192,76878,1,0,0:0:0:0:
256,192,77051,1,0,0:0:0:0:
256,192,77224,1,12,0:0:0:0:
256,192,77571,1,0,0:0:0:0:
256,192,77629,1,0,0:0:0:0:
256,192,77687,1,8,0:0:0:0:
256,192,77745,1,8,0:0:0:0:
256,192,77802,1,8,0:0:0:0:
256,192,77860,1,8,0:0:0:0:
256,192,77918,1,0,0:0:0:0:
256,192,78091,1,0,0:0:0:0:
256,192,78265,1,8,0:0:0:0:
256,192,78438,1,0,0:0:0:0:
256,192,78525,1,0,0:0:0:0:
256,192,78612,1,8,0:0:0:0:
256,192,78670,1,0,0:0:0:0:
256,192,78727,1,0,0:0:0:0:
256,192,78785,1,8,0:0:0:0:
256,192,78843,1,0,0:0:0:0:
256,192,78901,1,0,0:0:0:0:
256,192,78959,1,8,0:0:0:0:
256,192,79305,1,12,0:0:0:0:
256,192,79479,1,0,0:0:0:0:
256,192,79565,1,0,0:0:0:0:
256,192,79652,1,8,0:0:0:0:
256,192,79739,1,8,0:0:0:0:
256,192,79826,1,0,0:0:0:0:
256,192,79912,1,0,0:0:0:0:
256,192,79999,1,0,0:0:0:0:
256,192,80086,1,0,0:0:0:0:
256,192,80172,1,8,0:0:0:0:
256,192,80259,1,0,0:0:0:0:
256,192,80346,1,8,0:0:0:0:
256,192,80433,1,8,0:0:0:0:
256,192,80519,1,0,0:0:0:0:
256,192,80606,1,0,0:0:0:0:
256,192,80693,1,8,0:0:0:0:
256,192,80779,1,8,0:0:0:0:
256,192,80866,1,0,0:0:0:0:
256,192,80953,1,8,0:0:0:0:
256,192,81039,1,0,0:0:0:0:
256,192,81126,1,0,0:0:0:0:
256,192,81213,1,8,0:0:0:0:
256,192,81300,1,8,0:0:0:0:
256,192,81386,1,0,0:0:0:0:
256,192,81473,1,0,0:0:0:0:
256,192,81560,1,8,0:0:0:0:
256,192,81646,1,0,0:0:0:0:
256,192,81733,1,8,0:0:0:0:
256,192,81820,1,8,0:0:0:0:
256,192,81907,1,0,0:0:0:0:
256,192,81993,1,0,0:0:0:0:
256,192,82080,1,8,0:0:0:0:
256,192,82167,1,0,0:0:0:0:
256,192,82253,1,8,0:0:0:0:
256,192,82340,1,0,0:0:0:0:
256,192,82427,1,8,0:0:0:0:
256,192,82513,1,8,0:0:0:0:
256,192,82600,1,0,0:0:0:0:
256,192,82687,1,0,0:0:0:0:
256,192,82774,1,8,0:0:0:0:
256,192,82860,1,8,0:0:0:0:
256,192,82947,1,8,0:0:0:0:
256,192,83034,1,0,0:0:0:0:
256,192,83120,1,8,0:0:0:0:
256,192,83207,1,0,0:0:0:0:
256,192,83294,1,8,0:0:0:0:
256,192,83381,1,8,0:0:0:0:
256,192,83467,1,0,0:0:0:0:
256,192,83554,1,0,0:0:0:0:
256,192,83641,1,0,0:0:0:0:
256,192,83727,1,0,0:0:0:0:
256,192,83814,1,8,0:0:0:0:
256,192,83901,1,0,0:0:0:0:
256,192,83987,1,0,0:0:0:0:
256,192,84074,1,8,0:0:0:0:
256,192,84161,1,8,0:0:0:0:
256,192,84248,1,0,0:0:0:0:
256,192,84334,1,8,0:0:0:0:
256,192,84421,1,0,0:0:0:0:
256,192,84508,1,8,0:0:0:0:
256,192,84594,1,8,0:0:0:0:
256,192,84681,1,8,0:0:0:0:
256,192,84768,1,8,0:0:0:0:
256,192,84854,1,0,0:0:0:0:
256,192,84941,1,0,0:0:0:0:
256,192,85028,1,0,0:0:0:0:
256,192,85115,1,0,0:0:0:0:
256,192,85201,1,8,0:0:0:0:
256,192,85288,1,8,0:0:0:0:
256,192,85375,1,0,0:0:0:0:
256,192,85461,1,0,0:0:0:0:
256,192,85548,1,8,0:0:0:0:
256,192,85635,1,0,0:0:0:0:
256,192,85722,1,8,0:0:0:0:
256,192,85808,1,0,0:0:0:0:
256,192,85895,1,8,0:0:0:0:
256,192,85982,1,8,0:0:0:0:
256,192,86068,1,0,0:0:0:0:
256,192,86155,1,0,0:0:0:0:
256,192,86242,1,8,0:0:0:0:
256,192,86328,1,8,0:0:0:0:
256,192,86415,1,8,0:0:0:0:
256,192,86502,1,8,0:0:0:0:
256,192,86589,1,0,0:0:0:0:
256,192,86675,1,0,0:0:0:0:
256,192,86762,1,0,0:0:0:0:
256,192,86849,1,0,0:0:0:0:
256,192,86935,1,8,0:0:0:0:
256,192,87022,1,8,0:0:0:0:
256,192,87109,1,0,0:0:0:0:
256,192,87196,1,0,0:0:0:0:
256,192,87282,1,8,0:0:0:0:
256,192,87369,1,0,0:0:0:0:
256,192,87456,1,8,0:0:0:0:
256,192,87542,1,8,0:0:0:0:
256,192,87629,1,0,0:0:0:0:
256,192,87716,1,8,0:0:0:0:
256,192,87802,1,0,0:0:0:0:
256,192,87889,1,0,0:0:0:0:
256,192,87976,1,8,0:0:0:0:
256,192,88063,1,0,0:0:0:0:
256,192,88149,1,0,0:0:0:0:
256,192,88236,1,0,0:0:0:0:
256,192,88323,1,8,0:0:0:0:
256,192,88409,1,8,0:0:0:0:
256,192,88496,1,0,0:0:0:0:
256,192,88583,1,0,0:0:0:0:
256,192,88670,1,8,0:0:0:0:
256,192,88756,1,0,0:0:0:0:
256,192,88843,1,8,0:0:0:0:
256,192,88930,1,8,0:0:0:0:
256,192,89016,1,8,0:0:0:0:
256,192,89103,1,8,0:0:0:0:
256,192,89190,1,0,0:0:0:0:
256,192,89276,1,0,0:0:0:0:
256,192,89363,1,8,0:0:0:0:
256,192,89450,1,0,0:0:0:0:
256,192,89537,1,8,0:0:0:0:
256,192,89623,1,0,0:0:0:0:
256,192,89710,1,8,0:0:0:0:
256,192,89797,1,8,0:0:0:0:
256,192,89883,1,8,0:0:0:0:
256,192,89970,1,0,0:0:0:0:
256,192,90057,1,8,0:0:0:0:
256,192,90144,1,8,0:0:0:0:
256,192,90230,1,0,0:0:0:0:
256,192,90317,1,0,0:0:0:0:
256,192,90404,1,12,0:0:0:0:
256,192,90577,1,0,0:0:0:0:
256,192,90664,1,0,0:0:0:0:
256,192,90750,1,8,0:0:0:0:
256,192,90837,1,8,0:0:0:0:
256,192,90924,1,0,0:0:0:0:
256,192,91011,1,0,0:0:0:0:
256,192,91097,1,0,0:0:0:0:
256,192,91184,1,0,0:0:0:0:
256,192,91271,1,8,0:0:0:0:
256,192,91357,1,0,0:0:0:0:
256,192,91444,1,8,0:0:0:0:
256,192,91531,1,8,0:0:0:0:
256,192,91618,1,0,0:0:0:0:
256,192,91704,1,0,0:0:0:0:
256,192,91791,1,8,0:0:0:0:
256,192,91878,1,8,0:0:0:0:
256,192,91964,1,0,0:0:0:0:
256,192,92051,1,8,0:0:0:0:
256,192,92138,1,0,0:0:0:0:
256,192,92224,1,0,0:0:0:0:
256,192,92311,1,8,0:0:0:0:
256,192,92398,1,8,0:0:0:0:
256,192,92485,1,0,0:0:0:0:
256,192,92571,1,0,0:0:0:0:
256,192,92658,1,8,0:0:0:0:
256,192,92745,1,0,0:0:0:0:
256,192,92831,1,8,0:0:0:0:
256,192,92918,1,8,0:0:0:0:
256,192,93005,1,0,0:0:0:0:
256,192,93091,1,0,0:0:0:0:
256,192,93178,1,8,0:0:0:0:
256,192,93265,1,0,0:0:0:0:
256,192,93352,1,8,0:0:0:0:
256,192,93438,1,0,0:0:0:0:
256,192,93525,1,8,0:0:0:0:
256,192,93612,1,8,0:0:0:0:
256,192,93698,1,0,0:0:0:0:
256,192,93785,1,0,0:0:0:0:
256,192,93872,1,8,0:0:0:0:
256,192,93959,1,8,0:0:0:0:
256,192,94045,1,8,0:0:0:0:
256,192,94132,1,0,0:0:0:0:
256,192,94219,1,8,0:0:0:0:
256,192,94305,1,0,0:0:0:0:
256,192,94392,1,8,0:0:0:0:
256,192,94479,1,8,0:0:0:0:
256,192,94565,1,0,0:0:0:0:
256,192,94652,1,0,0:0:0:0:
256,192,94739,1,0,0:0:0:0:
256,192,94826,1,0,0:0:0:0:
256,192,94912,1,8,0:0:0:0:
256,192,94999,1,0,0:0:0:0:
256,192,95086,1,0,0:0:0:0:
256,192,95172,1,8,0:0:0:0:
256,192,95259,1,8,0:0:0:0:
256,192,95346,1,0,0:0:0:0:
256,192,95433,1,8,0:0:0:0:
256,192,95519,1,0,0:0:0:0:
256,192,95606,1,8,0:0:0:0:
256,192,95693,1,8,0:0:0:0:
256,192,95779,1,0,0:0:0:0:
256,192,95866,1,0,0:0:0:0:
256,192,95953,1,8,0:0:0:0:
256,192,96039,1,8,0:0:0:0:
256,192,96126,1,8,0:0:0:0:
256,192,96213,1,8,0:0:0:0:
256,192,96300,1,0,0:0:0:0:
256,192,96386,1,0,0:0:0:0:
256,192,96473,1,8,0:0:0:0:
256,192,96560,1,0,0:0:0:0:
256,192,96646,1,8,0:0:0:0:
256,192,96733,1,8,0:0:0:0:
256,192,96820,1,0,0:0:0:0:
256,192,96907,1,0,0:0:0:0:
256,192,96993,1,8,0:0:0:0:
256,192,97080,1,0,0:0:0:0:
256,192,97167,1,0,0:0:0:0:
256,192,97253,1,0,0:0:0:0:
256,192,97340,1,8,0:0:0:0:
256,192,97427,1,8,0:0:0:0:
256,192,97513,1,8,0:0:0:0:
256,192,97600,1,0,0:0:0:0:
256,192,97687,1,8,0:0:0:0:
256,192,97774,1,8,0:0:0:0:
256,192,97860,1,0,0:0:0:0:
256,192,97947,1,0,0:0:0:0:
256,192,98034,1,8,0:0:0:0:
256,192,98120,1,8,0:0:0:0:
256,192,98207,1,8,0:0:0:0:
256,192,98294,1,0,0:0:0:0:
256,192,98381,1,8,0:0:0:0:
256,192,98467,1,8,0:0:0:0:
256,192,98554,1,8,0:0:0:0:
256,192,98641,1,8,0:0:0:0:
256,192,98727,1,0,0:0:0:0:
256,192,98814,1,0,0:0:0:0:
256,192,98901,1,8,0:0:0:0:
256,192,98987,1,0,0:0:0:0:
256,192,99074,1,0,0:0:0:0:
256,192,99161,1,0,0:0:0:0:
256,192,99248,1,8,0:0:0:0:
256,192,99334,1,0,0:0:0:0:
256,192,99421,1,8,0:0:0:0:
256,192,99508,1,8,0:0:0:0:
256,192,99594,1,0,0:0:0:0:
256,192,99681,1,0,0:0:0:0:
256,192,99768,1,8,0:0:0:0:
256,192,100115,1,4,0:0:0:0:
256,192,100288,1,0,0:0:0:0:
256,192,100461,1,8,0:0:0:0:
256,192,100635,1,0,0:0:0:0:
256,192,100722,1,8,0:0:0:0:
256,192,100808,1,0,0:0:0:0:
256,192,100895,1,8,0:0:0:0:
256,192,100982,1,0,0:0:0:0:
256,192,101068,1,0,0:0:0:0:
256,192,101155,1,8,0:0:0:0:
256,192,101502,1,4,0:0:0:0:
256,192,101675,1,8,0:0:0:0:
256,192,101762,1,0,0:0:0:0:
256,192,101849,1,0,0:0:0:0:
256,192,102022,1,8,0:0:0:0:
256,192,102196,1,0,0:0:0:0:
256,192,102369,1,0,0:0:0:0:
256,192,102456,1,0,0:0:0:0:
256,192,102542,1,8,0:0:0:0:
256,192,102629,1,8,0:0:0:0:
256,192,102716,1,0,0:0:0:0:
256,192,102889,1,8,0:0:0:0:
256,192,103063,1,0,0:0:0:0:
256,192,103149,1,0,0:0:0:0:
256,192,103323,1,0,0:0:0:0:
256,192,103409,1,8,0:0:0:0:
256,192,103583,1,0,0:0:0:0:
256,192,103756,1,8,0:0:0:0:
256,192,103843,1,0,0:0:0:0:
256,192,103930,1,8,0:0:0:0:
256,192,104016,1,8,0:0:0:0:
256,192,104103,1,0,0:0:0:0:
256,192,104276,1,8,0:0:0:0:
256,192,104450,1,0,0:0:0:0:
256,192,104623,1,8,0:0:0:0:
256,192,104797,1,8,0:0:0:0:
256,192,104883,1,8,0:0:0:0:
256,192,104970,1,0,0:0:0:0:
256,192,105144,1,0,0:0:0:0:
256,192,105317,1,8,0:0:0:0:
256,192,105490,1,0,0:0:0:0:
256,192,105664,1,8,0:0:0:0:
256,192,105750,1,8,0:0:0:0:
256,192,105837,1,8,0:0:0:0:
256,192,105924,1,8,0:0:0:0:
256,192,106011,1,0,0:0:0:0:
256,192,106184,1,8,0:0:0:0:
256,192,106271,1,8,0:0:0:0:
256,192,106357,1,0,0:0:0:0:
256,192,106444,1,0,0:0:0:0:
256,192,106531,1,0,0:0:0:0:
256,192,106704,1,8,0:0:0:0:
256,192,106878,1,8,0:0:0:0:
256,192,107051,1,0,0:0:0:0:
256,192,107224,1,8,0:0:0:0:
256,192,107311,1,0,0:0:0:0:
256,192,107398,1,0,0:0:0:0:
256,192,107571,1,8,0:0:0:0:
256,192,107745,1,0,0:0:0:0:
256,192,107918,1,0,0:0:0:0:
256,192,108005,1,0,0:0:0:0:
256,192,108091,1,8,0:0:0:0:
256,192,108178,1,8,0:0:0:0:
256,192,108265,1,0,0:0:0:0:
256,192,108438,1,8,0:0:0:0:
256,192,108612,1,0,0:0:0:0:
256,192,108698,1,0,0:0:0:0:
256,192,108872,1,0,0:0:0:0:
256,192,108959,1,8,0:0:0:0:
256,192,109132,1,0,0:0:0:0:
256,192,109305,1,8,0:0:0:0:
256,192,109392,1,0,0:0:0:0:
256,192,109479,1,8,0:0:0:0:
256,192,109565,1,8,0:0:0:0:
256,192,109652,1,0,0:0:0:0:
256,192,109826,1,8,0:0:0:0:
256,192,109912,1,0,0:0:0:0:
256,192,109999,1,8,0:0:0:0:
256,192,110172,1,0,0:0:0:0:
256,192,110346,1,8,0:0:0:0:
256,192,110433,1,0,0:0:0:0:
256,192,110519,1,0,0:0:0:0:
256,192,110693,1,8,0:0:0:0:
256,192,110779,1,0,0:0:0:0:
256,192,110866,1,8,0:0:0:0:
256,192,110953,1,8,0:0:0:0:
256,192,111039,1,0,0:0:0:0:
256,192,111126,1,0,0:0:0:0:
256,192,111213,1,8,0:0:0:0:
256,192,111386,1,8,0:0:0:0:
256,192,111560,1,0,0:0:0:0:
256,192,111733,1,8,0:0:0:0:
256,192,111820,1,8,0:0:0:0:
256,192,111907,1,0,0:0:0:0:
256,192,112080,1,0,0:0:0:0:
256,192,112253,1,8,0:0:0:0:
256,192,112340,1,8,0:0:0:0:
256,192,112427,1,8,0:0:0:0:
256,192,112513,1,8,0:0:0:0:
256,192,112600,1,4,0:0:0:0:
256,192,112774,1,8,0:0:0:0:
256,192,112860,1,0,0:0:0:0:
256,192,112947,1,0,0:0:0:0:
256,192,113120,1,8,0:0:0:0:
256,192,113207,1,0,0:0:0:0:
256,192,113294,1,8,0:0:0:0:
256,192,113381,1,8,0:0:0:0:
256,192,113467,1,0,0:0:0:0:
256,192,113554,1,0,0:0:0:0:
256,192,113641,1,8,0:0:0:0:
256,192,113814,1,0,0:0:0:0:
256,192,113901,1,0,0:0:0:0:
256,192,113987,1,8,0:0:0:0:
256,192,114161,1,0,0:0:0:0:
256,192,114248,1,0,0:0:0:0:
256,192,114421,1,0,0:0:0:0:
256,192,114508,1,8,0:0:0:0:
256,192,114681,1,0,0:0:0:0:
256,192,114768,1,0,0:0:0:0:
256,192,114854,1,8,0:0:0:0:
256,192,114941,1,0,0:0:0:0:
256,192,115028,1,8,0:0:0:0:
256,192,115115,1,8,0:0:0:0:
256,192,115201,1,0,0:0:0:0:
256,192,115375,1,8,0:0:0:0:
256,192,115548,1,0,0:0:0:0:
256,192,115722,1,8,0:0:0:0:
256,192,115895,1,0,0:0:0:0:
256,192,115982,1,0,0:0:0:0:
256,192,116068,1,8,0:0:0:0:
256,192,116242,1,8,0:0:0:0:
256,192,116328,1,8,0:0:0:0:
256,192,116415,1,0,0:0:0:0:
256,192,116589,1,0,0:0:0:0:
256,192,116762,1,8,0:0:0:0:
256,192,116849,1,8,0:0:0:0:
256,192,116935,1,8,0:0:0:0:
256,192,117022,1,8,0:0:0:0:
256,192,117109,1,0,0:0:0:0:
256,192,117282,1,8,0:0:0:0:
256,192,117369,1,8,0:0:0:0:
256,192,117456,1,0,0:0:0:0:
256,192,117542,1,0,0:0:0:0:
256,192,117629,1,0,0:0:0:0:
256,192,117802,1,8,0:0:0:0:
256,192,117976,1,8,0:0:0:0:
256,192,118149,1,0,0:0:0:0:
256,192,118323,1,8,0:0:0:0:
256,192,118409,1,0,0:0:0:0:
256,192,118496,1,0,0:0:0:0:
256,192,118670,1,8,0:0:0:0:
256,192,118756,1,0,0:0:0:0:
256,192,118843,1,8,0:0:0:0:
256,192,118930,1,8,0:0:0:0:
256,192,119016,1,0,0:0:0:0:
256,192,119103,1,0,0:0:0:0:
256,192,119190,1,8,0:0:0:0:
256,192,119363,1,0,0:0:0:0:
256,192,119450,1,0,0:0:0:0:
256,192,119537,1,8,0:0:0:0:
256,192,119710,1,0,0:0:0:0:
256,192,119797,1,0,0:0:0:0:
256,192,119970,1,0,0:0:0:0:
256,192,120057,1,8,0:0:0:0:
256,192,120230,1,0,0:0:0:0:
256,192,120317,1,0,0:0:0:0:
256,192,120404,1,8,0:0:0:0:
256,192,120490,1,0,0:0:0:0:
256,192,120577,1,8,0:0:0:0:
256,192,120664,1,8,0:0:0:0:
256,192,120750,1,0,0:0:0:0:
256,192,120924,1,8,0:0:0:0:
256,192,121011,1,0,0:0:0:0:
256,192,121097,1,8,0:0:0:0:
256,192,121271,1,0,0:0:0:0:
256,192,121444,1,8,0:0:0:0:
256,192,121531,1,0,0:0:0:0:
256,192,121618,1,0,0:0:0:0:
256,192,121791,1,8,0:0:0:0:
256,192,121878,1,0,0:0:0:0:
256,192,121964,1,8,0:0:0:0:
256,192,122051,1,0,0:0:0:0:
256,192,122138,1,8,0:0:0:0:
256,192,122311,1,0,0:0:0:0:
256,192,122485,1,0,0:0:0:0:
256,192,122658,1,8,0:0:0:0:
256,192,122831,1,0,0:0:0:0:
256,192,122918,1,8,0:0:0:0:
256,192,123005,1,0,0:0:0:0:
256,192,123091,1,8,0:0:0:0:
256,192,123178,1,0,0:0:0:0:
256,192,123265,1,0,0:0:0:0:
256,192,123352,1,8,0:0:0:0:
256,192,123698,1,4,0:0:0:0:
256,192,124045,1,8,0:0:0:0:
256,192,124219,1,8,0:0:0:0:
256,192,124392,1,0,0:0:0:0:
256,192,124739,1,8,0:0:0:0:
256,192,125086,1,0,0:0:0:0:
256,192,125433,1,8,0:0:0:0:
256,192,125606,1,0,0:0:0:0:
256,192,125953,1,0,0:0:0:0:
256,192,126126,1,8,0:0:0:0:
256,192,126300,1,8,0:0:0:0:
256,192,126386,1,8,0:0:0:0:
256,192,126473,1,0,0:0:0:0:
256,192,126820,1,8,0:0:0:0:
256,192,126993,1,8,0:0:0:0:
256,192,127340,1,0,0:0:0:0:
256,192,127513,1,8,0:0:0:0:
256,192,127687,1,0,0:0:0:0:
256,192,127774,1,0,0:0:0:0:
256,192,127860,1,8,0:0:0:0:
256,192,128207,1,0,0:0:0:0:
256,192,128381,1,8,0:0:0:0:
256,192,128727,1,0,0:0:0:0:
256,192,128814,1,0,0:0:0:0:
256,192,128901,1,8,0:0:0:0:
256,192,129074,1,8,0:0:0:0:
256,192,129161,1,8,0:0:0:0:
256,192,129248,1,0,0:0:0:0:
256,192,129594,1,0,0:0:0:0:
256,192,129768,1,8,0:0:0:0:
256,192,129941,1,0,0:0:0:0:
256,192,130115,1,0,0:0:0:0:
256,192,130288,1,8,0:0:0:0:
256,192,130635,1,0,0:0:0:0:
256,192,130982,1,8,0:0:0:0:
256,192,131155,1,0,0:0:0:0:
256,192,131502,1,0,0:0:0:0:
256,192,131675,1,8,0:0:0:0:
256,192,131849,1,8,0:0:0:0:
256,192,131935,1,8,0:0:0:0:
256,192,132022,1,0,0:0:0:0:
256,192,132369,1,8,0:0:0:0:
256,192,132542,1,0,0:0:0:0:
256,192,132889,1,0,0:0:0:0:
256,192,133063,1,8,0:0:0:0:
256,192,133236,1,0,0:0:0:0:
256,192,133323,1,0,0:0:0:0:
256,192,133409,1,8,0:0:0:0:
256,192,133756,1,8,0:0:0:0:
256,192,133930,1,8,0:0:0:0:
256,192,134276,1,0,0:0:0:0:
256,192,134450,1,8,0:0:0:0:
256,192,134537,1,0,0:0:0:0:
256,192,134623,1,8,0:0:0:0:
256,192,134710,1,8,0:0:0:0:
256,192,134797,1,4,0:0:0:0:
256,192,135144,1,8,0:0:0:0:
256,192,135317,1,8,0:0:0:0:
256,192,135490,1,0,0:0:0:0:
256,192,135664,1,0,0:0:0:0:
256,192,135837,1,8,0:0:0:0:
256,192,136011,1,0,0:0:0:0:
256,192,136184,1,8,0:0:0:0:
256,192,136357,1,0,0:0:0:0:
256,192,136531,1,8,0:0:0:0:
256,192,136704,1,8,0:0:0:0:
256,192,136878,1,0,0:0:0:0:
256,192,137051,1,0,0:0:0:0:
256,192,137224,1,8,0:0:0:0:
256,192,137398,1,0,0:0:0:0:
256,192,137485,1,0,0:0:0:0:
256,192,137571,1,8,0:0:0:0:
256,192,137918,1,0,0:0:0:0:
256,192,138091,1,8,0:0:0:0:
256,192,138265,1,0,0:0:0:0:
256,192,138438,1,0,0:0:0:0:
256,192,138612,1,8,0:0:0:0:
256,192,138785,1,0,0:0:0:0:
256,192,138872,1,0,0:0:0:0:
256,192,138959,1,8,0:0:0:0:
256,192,139305,1,8,0:0:0:0:
256,192,139479,1,8,0:0:0:0:
256,192,139652,1,0,0:0:0:0:
256,192,139826,1,0,0:0:0:0:
256,192,139912,1,0,0:0:0:0:
256,192,139999,1,8,0:0:0:0:
256,192,140172,1,8,0:0:0:0:
256,192,140259,1,8,0:0:0:0:
256,192,140346,1,4,0:0:0:0:
256,192,140693,1,8,0:0:0:0:
256,192,140866,1,8,0:0:0:0:
256,192,141039,1,0,0:0:0:0:
256,192,141213,1,0,0:0:0:0:
256,192,141386,1,8,0:0:0:0:
256,192,141560,1,0,0:0:0:0:
256,192,141733,1,12,0:0:0:0:
256,192,142080,1,0,0:0:0:0:
256,192,142253,1,8,0:0:0:0:
256,192,142427,1,0,0:0:0:0:
256,192,142600,1,0,0:0:0:0:
256,192,142774,1,8,0:0:0:0:
256,192,142947,1,8,0:0:0:0:
256,192,143120,1,4,0:0:0:0:
256,192,143467,1,8,0:0:0:0:
256,192,143641,1,0,0:0:0:0:
256,192,143814,1,12,0:0:0:0:
256,192,144161,1,0,0:0:0:0:
256,192,144248,1,0,0:0:0:0:
256,192,144334,1,8,0:0:0:0:
256,192,144421,1,8,0:0:0:0:
256,192,144508,1,4,0:0:0:0:
256,192,145375,1,0,0:0:0:0:
256,192,145548,1,8,0:0:0:0:
256,192,145895,1,4,0:0:0:0:
256,192,146068,1,0,0:0:0:0:
256,192,146155,1,0,0:0:0:0:
256,192,146242,1,8,0:0:0:0:
256,192,146415,1,0,0:0:0:0:
256,192,146589,1,0,0:0:0:0:
256,192,146675,1,0,0:0:0:0:
256,192,146762,1,8,0:0:0:0:
256,192,146849,1,0,0:0:0:0:
256,192,146935,1,8,0:0:0:0:
256,192,147109,1,0,0:0:0:0:
256,192,147282,1,8,0:0:0:0:
256,192,147369,1,8,0:0:0:0:
256,192,147456,1,0,0:0:0:0:
256,192,147629,1,8,0:0:0:0:
256,192,147716,1,0,0:0:0:0:
256,192,147802,1,0,0:0:0:0:
256,192,147976,1,8,0:0:0:0:
256,192,148149,1,0,0:0:0:0:
256,192,148236,1,0,0:0:0:0:
256,192,148323,1,8,0:0:0:0:
256,192,148496,1,0,0:0:0:0:
256,192,148670,1,8,0:0:0:0:
256,192,148756,1,0,0:0:0:0:
256,192,148843,1,0,0:0:0:0:
256,192,148930,1,0,0:0:0:0:
256,192,149016,1,8,0:0:0:0:
256,192,149190,1,0,0:0:0:0:
256,192,149363,1,8,0:0:0:0:
256,192,149450,1,8,0:0:0:0:
256,192,149623,1,0,0:0:0:0:
256,192,149710,1,8,0:0:0:0:
256,192,149883,1,8,0:0:0:0:
256,192,150057,1,0,0:0:0:0:
256,192,150230,1,8,0:0:0:0:
256,192,150317,1,8,0:0:0:0:
256,192,150404,1,0,0:0:0:0:
256,192,150577,1,8,0:0:0:0:
256,192,150750,1,0,0:0:0:0:
256,192,150837,1,0,0:0:0:0:
256,192,150924,1,0,0:0:0:0:
256,192,151011,1,0,0:0:0:0:
256,192,151097,1,8,0:0:0:0:
256,192,151271,1,0,0:0:0:0:
256,192,151444,1,12,0:0:0:0:
256,192,151791,1,8,0:0:0:0:
256,192,151964,1,0,0:0:0:0:
256,192,152138,1,8,0:0:0:0:
256,192,152224,1,8,0:0:0:0:
256,192,152311,1,0,0:0:0:0:
256,192,152398,1,0,0:0:0:0:
256,192,152485,1,8,0:0:0:0:
256,192,152658,1,8,0:0:0:0:
256,192,152831,1,4,0:0:0:0:
256,192,153178,1,0,0:0:0:0:
256,192,153265,1,0,0:0:0:0:
256,192,153352,1,8,0:0:0:0:
256,192,153525,1,0,0:0:0:0:
256,192,153698,1,8,0:0:0:0:
256,192,153785,1,8,0:0:0:0:
256,192,153872,1,0,0:0:0:0:
256,192,154045,1,8,0:0:0:0:
256,192,154219,1,4,0:0:0:0:
256,192,154565,1,0,0:0:0:0:
256,192,154739,1,0,0:0:0:0:
256,192,154912,1,12,0:0:0:0:
256,192,155259,1,0,0:0:0:0:
256,192,155317,1,0,0:0:0:0:
256,192,155375,1,8,0:0:0:0:
256,192,155433,1,8,0:0:0:0:
256,192,155490,1,8,0:0:0:0:
256,192,155548,1,8,0:0:0:0:
256,192,155606,1,0,0:0:0:0:
256,192,155779,1,0,0:0:0:0:
256,192,155953,1,8,0:0:0:0:
256,192,156126,1,0,0:0:0:0:
256,192,156213,1,0,0:0:0:0:
256,192,156300,1,8,0:0:0:0:
256,192,156357,1,0,0:0:0:0:
256,192,156415,1,0,0:0:0:0:
256,192,156473,1,8,0:0:0:0:
256,192,156531,1,0,0:0:0:0:
256,192,156589,1,0,0:0:0:0:
256,192,156646,1,8,0:0:0:0:
256,192,156993,1,12,0:0:0:0:
256,192,157167,1,0,0:0:0:0:
256,192,157253,1,0,0:0:0:0:
256,192,157340,1,8,0:0:0:0:
256,192,157427,1,8,0:0:0:0:
256,192,157513,1,0,0:0:0:0:
256,192,157600,1,0,0:0:0:0:
256,192,157687,1,8,0:0:0:0:
256,192,157774,1,0,0:0:0:0:
256,192,157860,1,8,0:0:0:0:
256,192,157947,1,0,0:0:0:0:
256,192,158034,1,8,0:0:0:0:
256,192,158120,1,8,0:0:0:0:
256,192,158207,1,0,0:0:0:0:
256,192,158294,1,0,0:0:0:0:
256,192,158381,1,8,0:0:0:0:
256,192,158467,1,8,0:0:0:0:
256,192,158554,1,0,0:0:0:0:
256,192,158641,1,8,0:0:0:0:
256,192,158727,1,0,0:0:0:0:
256,192,158814,1,0,0:0:0:0:
256,192,158901,1,8,0:0:0:0:
256,192,158987,1,0,0:0:0:0:
256,192,159074,1,8,0:0:0:0:
256,192,159161,1,8,0:0:0:0:
256,192,159248,1,8,0:0:0:0:
256,192,159334,1,0,0:0:0:0:
256,192,159421,1,8,0:0:0:0:
256,192,159508,1,8,0:0:0:0:
256,192,159594,1,0,0:0:0:0:
256,192,159681,1,0,0:0:0:0:
256,192,159768,1,8,0:0:0:0:
256,192,159854,1,0,0:0:0:0:
256,192,159941,1,8,0:0:0:0:
256,192,160028,1,0,0:0:0:0:
256,192,160115,1,8,0:0:0:0:
256,192,160201,1,8,0:0:0:0:
256,192,160288,1,0,0:0:0:0:
256,192,160375,1,0,0:0:0:0:
256,192,160461,1,8,0:0:0:0:
256,192,160548,1,8,0:0:0:0:
256,192,160635,1,8,0:0:0:0:
256,192,160722,1,0,0:0:0:0:
256,192,160808,1,8,0:0:0:0:
256,192,160895,1,0,0:0:0:0:
256,192,160982,1,8,0:0:0:0:
256,192,161068,1,8,0:0:0:0:
256,192,161155,1,0,0:0:0:0:
256,192,161242,1,0,0:0:0:0:
256,192,161328,1,0,0:0:0:0:
256,192,161415,1,0,0:0:0:0:
256,192,161502,1,8,0:0:0:0:
256,192,161589,1,0,0:0:0:0:
256,192,161675,1,0,0:0:0:0:
256,192,161762,1,8,0:0:0:0:
256,192,161849,1,8,0:0:0:0:
256,192,161935,1,0,0:0:0:0:
256,192,162022,1,8,0:0:0:0:
256,192,162109,1,0,0:0:0:0:
256,192,162196,1,8,0:0:0:0:
256,192,162282,1,8,0:0:0:0:
256,192,162369,1,8,0:0:0:0:
256,192,162456,1,8,0:0:0:0:
256,192,162542,1,0,0:0:0:0:
256,192,162629,1,0,0:0:0:0:
256,192,162716,1,0,0:0:0:0:
256,192,162802,1,0,0:0:0:0:
256,192,162889,1,8,0:0:0:0:
256,192,162976,1,8,0:0:0:0:
256,192,163063,1,0,0:0:0:0:
256,192,163149,1,0,0:0:0:0:
256,192,163236,1,8,0:0:0:0:
256,192,163323,1,8,0:0:0:0:
256,192,163409,1,8,0:0:0:0:
256,192,163496,1,0,0:0:0:0:
256,192,163583,1,8,0:0:0:0:
256,192,163670,1,8,0:0:0:0:
256,192,163756,1,0,0:0:0:0:
256,192,163843,1,0,0:0:0:0:
256,192,163930,1,8,0:0:0:0:
256,192,164016,1,8,0:0:0:0:
256,192,164103,1,8,0:0:0:0:
256,192,164190,1,8,0:0:0:0:
256,192,164276,1,0,0:0:0:0:
256,192,164363,1,0,0:0:0:0:
256,192,164450,1,0,0:0:0:0:
256,192,164537,1,0,0:0:0:0:
256,192,164623,1,8,0:0:0:0:
256,192,164710,1,8,0:0:0:0:
256,192,164797,1,0,0:0:0:0:
256,192,164883,1,0,0:0:0:0:
256,192,164970,1,8,0:0:0:0:
256,192,165057,1,0,0:0:0:0:
256,192,165144,1,8,0:0:0:0:
256,192,165230,1,8,0:0:0:0:
256,192,165317,1,0,0:0:0:0:
256,192,165404,1,8,0:0:0:0:
256,192,165490,1,8,0:0:0:0:
256,192,165577,1,0,0:0:0:0:
256,192,165664,1,8,0:0:0:0:
256,192,165750,1,0,0:0:0:0:
256,192,165837,1,0,0:0:0:0:
256,192,165924,1,0,0:0:0:0:
256,192,166011,1,8,0:0:0:0:
256,192,166097,1,8,0:0:0:0:
256,192,166184,1,0,0:0:0:0:
256,192,166271,1,0,0:0:0:0:
256,192,166357,1,8,0:0:0:0:
256,192,166444,1,0,0:0:0:0:
256,192,166531,1,8,0:0:0:0:
256,192,166618,1,8,0:0:0:0:
256,192,166704,1,8,0:0:0:0:
256,192,166791,1,8,0:0:0:0:
256,192,166878,1,0,0:0:0:0:
256,192,166964,1,0,0:0:0:0:
256,192,167051,1,8,0:0:0:0:
256,192,167138,1,0,0:0:0:0:
256,192,167224,1,8,0:0:0:0:
256,192,167311,1,0,0:0:0:0:
256,192,167398,1,8,0:0:0:0:
256,192,167485,1,8,0:0:0:0:
256,192,167571,1,8,0:0:0:0:
256,192,167658,1,0,0:0:0:0:
256,192,167745,1,8,0:0:0:0:
256,192,167831,1,8,0:0:0:0:
256,192,167918,1,0,0:0:0:0:
256,192,168005,1,0,0:0:0:0:
256,192,168091,1,12,0:0:0:0:
256,192,168265,1,0,0:0:0:0:
256,192,168352,1,0,0:0:0:0:
256,192,168438,1,8,0:0:0:0:
256,192,168525,1,8,0:0:0:0:
256,192,168612,1,0,0:0:0:0:
256,192,168698,1,0,0:0:0:0:
256,192,168785,1,8,0:0:0:0:
256,192,168872,1,0,0:0:0:0:
256,192,168959,1,8,0:0:0:0:
256,192,169045,1,0,0:0:0:0:
256,192,169132,1,8,0:0:0:0:
256,192,169219,1,8,0:0:0:0:
256,192,169305,1,0,0:0:0:0:
256,192,169392,1,0,0:0:0:0:
256,192,169479,1,8,0:0:0:0:
256,192,169565,1,8,0:0:0:0:
256,192,169652,1,0,0:0:0:0:
256,192,169739,1,8,0:0:0:0:
256,192,169826,1,0,0:0:0:0:
256,192,169912,1,0,0:0:0:0:
256,192,169999,1,8,0:0:0:0:
256,192,170086,1,0,0:0:0:0:
256,192,170172,1,8,0:0:0:0:
256,192,170259,1,8,0:0:0:0:
256,192,170346,1,8,0:0:0:0:
256,192,170433,1,0,0:0:0:0:
256,192,170519,1,8,0:0:0:0:
256,192,170606,1,8,0:0:0:0:
256,192,170693,1,0,0:0:0:0:
256,192,170779,1,0,0:0:0:0:
256,192,170866,1,8,0:0:0:0:
256,192,170953,1,0,0:0:0:0:
256,192,171039,1,8,0:0:0:0:
256,192,171126,1,0,0:0:0:0:
256,192,171213,1,8,0:0:0:0:
256,192,171300,1,8,0:0:0:0:
256,192,171386,1,0,0:0:0:0:
256,192,171473,1,0,0:0:0:0:
256,192,171560,1,8,0:0:0:0:
256,192,171646,1,8,0:0:0:0:
256,192,171733,1,8,0:0:0:0:
256,192,171820,1,0,0:0:0:0:
256,192,171907,1,8,0:0:0:0:
256,192,171993,1,0,0:0:0:0:
256,192,172080,1,8,0:0:0:0:
256,192,172167,1,8,0:0:0:0:
256,192,172253,1,0,0:0:0:0:
256,192,172340,1,0,0:0:0:0:
256,192,172427,1,0,0:0:0:0:
256,192,172513,1,0,0:0:0:0:
256,192,172600,1,8,0:0:0:0:
256,192,172687,1,0,0:0:0:0:
256,192,172774,1,0,0:0:0:0:
256,192,172860,1,8,0:0:0:0:
256,192,172947,1,8,0:0:0:0:
256,192,173034,1,0,0:0:0:0:
256,192,173120,1,8,0:0:0:0:
256,192,173207,1,0,0:0:0:0:
256,192,173294,1,8,0:0:0:0:
256,192,173381,1,8,0:0:0:0:
256,192,173467,1,0,0:0:0:0:
256,192,173554,1,0,0:0:0:0:
256,192,173641,1,8,0:0:0:0:
256,192,173727,1,8,0:0:0:0:
256,192,173814,1,8,0:0:0:0:
256,192,173901,1,8,0:0:0:0:
256,192,173987,1,0,0:0:0:0:
256,192,174074,1,0,0:0:0:0:
256,192,174161,1,8,0:0:0:0:
256,192,174248,1,0,0:0:0:0:
256,192,174334,1,8,0:0:0:0:
256,192,174421,1,8,0:0:0:0:
256,192,174508,1,0,0:0:0:0:
256,192,174594,1,0,0:0:0:0:
256,192,174681,1,8,0:0:0:0:
256,192,174768,1,0,0:0:0:0:
256,192,174854,1,0,0:0:0:0:
256,192,174941,1,0,0:0:0:0:
256,192,175028,1,8,0:0:0:0:
256,192,175115,1,8,0:0:0:0:
256,192,175201,1,8,0:0:0:0:
256,192,175288,1,0,0:0:0:0:
256,192,175375,1,8,0:0:0:0:
256,192,175461,1,8,0:0:0:0:
256,192,175548,1,0,0:0:0:0:
256,192,175635,1,0,0:0:0:0:
256,192,175722,1,8,0:0:0:0:
256,192,175808,1,8,0:0:0:0:
256,192,175895,1,8,0:0:0:0:
256,192,175982,1,0,0:0:0:0:
256,192,176068,1,8,0:0:0:0:
256,192,176155,1,8,0:0:0:0:
256,192,176242,1,8,0:0:0:0:
256,192,176328,1,8,0:0:0:0:
256,192,176415,1,0,0:0:0:0:
256,192,176502,1,0,0:0:0:0:
256,192,176589,1,8,0:0:0:0:
256,192,176675,1,0,0:0:0:0:
256,192,176762,1,0,0:0:0:0:
256,192,176849,1,0,0:0:0:0:
256,192,176935,1,8,0:0:0:0:
256,192,177022,1,0,0:0:0:0:
256,192,177109,1,8,0:0:0:0:
256,192,177196,1,8,0:0:0:0:
256,192,177282,1,0,0:0:0:0:
256,192,177369,1,0,0:0:0:0:
256,192,177456,1,8,0:0:0:0:
256,192,177802,1,4,0:0:0:0:
256,192,177976,1,0,0:0:0:0:
256,192,178149,1,8,0:0:0:0:
256,192,178323,1,0,0:0:0:0:
256,192,178409,1,8,0:0:0:0:
256,192,178496,1,0,0:0:0:0:
256,192,178583,1,8,0:0:0:0:
256,192,178670,1,0,0:0:0:0:
256,192,178756,1,0,0:0:0:0:
256,192,178843,1,8,0:0:0:0:
256,192,179198,1,4,0:0:0:0:
256,192,201386,5,0,0:0:0:0:
256,192,201646,1,0,0:0:0:0:
256,192,201732,1,8,0:0:0:0:
256,192,201906,1,0,0:0:0:0:
256,192,202253,1,8,0:0:0:0:
256,192,202426,1,8,0:0:0:0:
256,192,202773,1,0,0:0:0:0:
256,192,203033,1,0,0:0:0:0:
256,192,203120,1,8,0:0:0:0:
256,192,203293,1,0,0:0:0:0:
256,192,203640,1,8,0:0:0:0:
256,192,203727,1,0,0:0:0:0:
256,192,203813,1,8,0:0:0:0:
256,192,203987,1,8,0:0:0:0:
256,192,204160,1,0,0:0:0:0:
256,192,204420,1,0,0:0:0:0:
256,192,204507,1,8,0:0:0:0:
256,192,204680,1,8,0:0:0:0:
256,192,204854,1,0,0:0:0:0:
256,192,205027,1,0,0:0:0:0:
256,192,205114,1,0,0:0:0:0:
256,192,205201,1,8,0:0:0:0:
256,192,205547,1,8,0:0:0:0:
256,192,205807,1,8,0:0:0:0:
256,192,205894,1,0,0:0:0:0:
256,192,206068,1,8,0:0:0:0:
256,192,206328,1,0,0:0:0:0:
256,192,206414,1,8,0:0:0:0:
256,192,206588,1,8,0:0:0:0:
256,192,206761,1,8,0:0:0:0:
256,192,206935,1,0,0:0:0:0:
256,192,207195,1,0,0:0:0:0:
256,192,207281,1,8,0:0:0:0:
256,192,207455,1,0,0:0:0:0:
256,192,207802,1,8,0:0:0:0:
256,192,207975,1,8,0:0:0:0:
256,192,208322,1,0,0:0:0:0:
256,192,208582,1,0,0:0:0:0:
256,192,208669,1,8,0:0:0:0:
256,192,208842,1,0,0:0:0:0:
256,192,209189,1,8,0:0:0:0:
256,192,209276,1,0,0:0:0:0:
256,192,209362,1,8,0:0:0:0:
256,192,209536,1,8,0:0:0:0:
256,192,209709,1,0,0:0:0:0:
256,192,209969,1,0,0:0:0:0:
256,192,210056,1,8,0:0:0:0:
256,192,210229,1,0,0:0:0:0:
256,192,210576,1,0,0:0:0:0:
256,192,210663,1,0,0:0:0:0:
256,192,210750,1,8,0:0:0:0:
256,192,210923,1,0,0:0:0:0:
256,192,211096,1,8,0:0:0:0:
256,192,211357,1,8,0:0:0:0:
256,192,211443,1,0,0:0:0:0:
256,192,211617,1,8,0:0:0:0:
256,192,211877,1,8,0:0:0:0:
256,192,211964,1,0,0:0:0:0:
256,192,212137,1,8,0:0:0:0:
256,192,212310,1,8,0:0:0:0:
256,192,212484,1,4,0:0:0:0:
256,192,212831,1,8,0:0:0:0:
256,192,213004,1,0,0:0:0:0:
256,192,213351,1,0,0:0:0:0:
256,192,213524,1,8,0:0:0:0:
256,192,213871,1,0,0:0:0:0:
256,192,214131,1,0,0:0:0:0:
256,192,214218,1,8,0:0:0:0:
256,192,214391,1,0,0:0:0:0:
256,192,214738,1,8,0:0:0:0:
256,192,214825,1,0,0:0:0:0:
256,192,214912,1,8,0:0:0:0:
256,192,215085,1,8,0:0:0:0:
256,192,215258,1,0,0:0:0:0:
256,192,215605,1,8,0:0:0:0:
256,192,215779,1,8,0:0:0:0:
256,192,215865,1,8,0:0:0:0:
256,192,215952,1,0,0:0:0:0:
256,192,216125,1,0,0:0:0:0:
256,192,216299,1,8,0:0:0:0:
256,192,216646,1,8,0:0:0:0:
256,192,216819,1,0,0:0:0:0:
256,192,216906,1,0,0:0:0:0:
256,192,216992,1,0,0:0:0:0:
256,192,217166,1,8,0:0:0:0:
256,192,217339,1,0,0:0:0:0:
256,192,217426,1,0,0:0:0:0:
256,192,217513,1,8,0:0:0:0:
256,192,217686,1,8,0:0:0:0:
256,192,217859,1,8,0:0:0:0:
256,192,218033,1,0,0:0:0:0:
256,192,218380,1,8,0:0:0:0:
256,192,218727,1,0,0:0:0:0:
256,192,219073,1,8,0:0:0:0:
256,192,219420,1,0,0:0:0:0:
256,192,219767,1,8,0:0:0:0:
256,192,220114,1,0,0:0:0:0:
256,192,220461,1,8,0:0:0:0:
256,192,220807,1,0,0:0:0:0:
256,192,220981,1,0,0:0:0:0:
256,192,221154,1,8,0:0:0:0:
256,192,221328,1,8,0:0:0:0:
256,192,221501,1,0,0:0:0:0:
256,192,221675,1,0,0:0:0:0:
256,192,221848,1,8,0:0:0:0:
256,192,221935,1,8,0:0:0:0:
256,192,222021,1,8,0:0:0:0:
256,192,222108,1,8,0:0:0:0:
256,192,222195,1,0,0:0:0:0:
256,192,222368,1,0,0:0:0:0:
256,192,222542,1,8,0:0:0:0:
256,192,222715,1,0,0:0:0:0:
256,192,222802,1,0,0:0:0:0:
256,192,222888,1,8,0:0:0:0:
256,192,222946,1,0,0:0:0:0:
256,192,223004,1,0,0:0:0:0:
256,192,223062,1,8,0:0:0:0:
256,192,223120,1,0,0:0:0:0:
256,192,223177,1,0,0:0:0:0:
256,192,223235,1,8,0:0:0:0:
256,192,223582,1,12,0:0:0:0:
256,192,223755,1,0,0:0:0:0:
256,192,223842,1,0,0:0:0:0:
256,192,223929,1,8,0:0:0:0:
256,192,224016,1,0,0:0:0:0:
256,192,224102,1,0,0:0:0:0:
256,192,224189,1,0,0:0:0:0:
256,192,224276,1,8,0:0:0:0:
256,192,224362,1,8,0:0:0:0:
256,192,224449,1,0,0:0:0:0:
256,192,224536,1,0,0:0:0:0:
256,192,224622,1,8,0:0:0:0:
256,192,224709,1,0,0:0:0:0:
256,192,224796,1,0,0:0:0:0:
256,192,224883,1,0,0:0:0:0:
256,192,224969,1,8,0:0:0:0:
256,192,225056,1,8,0:0:0:0:
256,192,225143,1,8,0:0:0:0:
256,192,225229,1,0,0:0:0:0:
256,192,225316,1,8,0:0:0:0:
256,192,225403,1,8,0:0:0:0:
256,192,225490,1,0,0:0:0:0:
256,192,225576,1,0,0:0:0:0:
256,192,225663,1,8,0:0:0:0:
256,192,225750,1,0,0:0:0:0:
256,192,225836,1,8,0:0:0:0:
256,192,225923,1,0,0:0:0:0:
256,192,226010,1,8,0:0:0:0:
256,192,226096,1,8,0:0:0:0:
256,192,226183,1,0,0:0:0:0:
256,192,226270,1,0,0:0:0:0:
256,192,226357,1,8,0:0:0:0:
256,192,226443,1,0,0:0:0:0:
256,192,226530,1,8,0:0:0:0:
256,192,226617,1,8,0:0:0:0:
256,192,226703,1,8,0:0:0:0:
256,192,226790,1,0,0:0:0:0:
256,192,226877,1,8,0:0:0:0:
256,192,226964,1,0,0:0:0:0:
256,192,227050,1,8,0:0:0:0:
256,192,227137,1,8,0:0:0:0:
256,192,227224,1,0,0:0:0:0:
256,192,227310,1,8,0:0:0:0:
256,192,227397,1,0,0:0:0:0:
256,192,227484,1,0,0:0:0:0:
256,192,227570,1,8,0:0:0:0:
256,192,227657,1,8,0:0:0:0:
256,192,227744,1,0,0:0:0:0:
256,192,227831,1,0,0:0:0:0:
256,192,227917,1,0,0:0:0:0:
256,192,228004,1,0,0:0:0:0:
256,192,228091,1,8,0:0:0:0:
256,192,228177,1,0,0:0:0:0:
256,192,228264,1,0,0:0:0:0:
256,192,228351,1,8,0:0:0:0:
256,192,228438,1,8,0:0:0:0:
256,192,228524,1,0,0:0:0:0:
256,192,228611,1,8,0:0:0:0:
256,192,228698,1,0,0:0:0:0:
256,192,228784,1,8,0:0:0:0:
256,192,228871,1,8,0:0:0:0:
256,192,228958,1,8,0:0:0:0:
256,192,229044,1,8,0:0:0:0:
256,192,229131,1,0,0:0:0:0:
256,192,229218,1,0,0:0:0:0:
256,192,229305,1,0,0:0:0:0:
256,192,229391,1,0,0:0:0:0:
256,192,229478,1,8,0:0:0:0:
256,192,229565,1,0,0:0:0:0:
256,192,229651,1,0,0:0:0:0:
256,192,229738,1,0,0:0:0:0:
256,192,229825,1,8,0:0:0:0:
256,192,229912,1,8,0:0:0:0:
256,192,229998,1,0,0:0:0:0:
256,192,230085,1,0,0:0:0:0:
256,192,230172,1,8,0:0:0:0:
256,192,230258,1,0,0:0:0:0:
256,192,230345,1,0,0:0:0:0:
256,192,230432,1,0,0:0:0:0:
256,192,230518,1,8,0:0:0:0:
256,192,230605,1,8,0:0:0:0:
256,192,230692,1,8,0:0:0:0:
256,192,230779,1,0,0:0:0:0:
256,192,230865,1,8,0:0:0:0:
256,192,230952,1,8,0:0:0:0:
256,192,231039,1,0,0:0:0:0:
256,192,231125,1,0,0:0:0:0:
256,192,231212,1,8,0:0:0:0:
256,192,231299,1,8,0:0:0:0:
256,192,231386,1,0,0:0:0:0:
256,192,231472,1,8,0:0:0:0:
256,192,231559,1,0,0:0:0:0:
256,192,231646,1,0,0:0:0:0:
256,192,231732,1,8,0:0:0:0:
256,192,231819,1,8,0:0:0:0:
256,192,231906,1,0,0:0:0:0:
256,192,231992,1,0,0:0:0:0:
256,192,232079,1,0,0:0:0:0:
256,192,232166,1,0,0:0:0:0:
256,192,232253,1,8,0:0:0:0:
256,192,232339,1,8,0:0:0:0:
256,192,232426,1,0,0:0:0:0:
256,192,232513,1,0,0:0:0:0:
256,192,232599,1,8,0:0:0:0:
256,192,232686,1,0,0:0:0:0:
256,192,232773,1,0,0:0:0:0:
256,192,232859,1,8,0:0:0:0:
256,192,232946,1,8,0:0:0:0:
256,192,233033,1,0,0:0:0:0:
256,192,233120,1,8,0:0:0:0:
256,192,233206,1,0,0:0:0:0:
256,192,233293,1,0,0:0:0:0:
256,192,233380,1,0,0:0:0:0:
256,192,233466,1,8,0:0:0:0:
256,192,233553,1,8,0:0:0:0:
256,192,233640,1,8,0:0:0:0:
256,192,233727,1,0,0:0:0:0:
256,192,233813,1,8,0:0:0:0:
256,192,233900,1,8,0:0:0:0:
256,192,233987,1,0,0:0:0:0:
256,192,234073,1,0,0:0:0:0:
256,192,234160,1,8,0:0:0:0:
256,192,234247,1,0,0:0:0:0:
256,192,234333,1,8,0:0:0:0:
256,192,234420,1,8,0:0:0:0:
256,192,234507,1,0,0:0:0:0:
256,192,234594,1,0,0:0:0:0:
256,192,234680,1,12,0:0:0:0:
256,192,234854,1,0,0:0:0:0:
256,192,234940,1,0,0:0:0:0:
256,192,235027,1,8,0:0:0:0:
256,192,235114,1,0,0:0:0:0:
256,192,235201,1,0,0:0:0:0:
256,192,235287,1,0,0:0:0:0:
256,192,235374,1,8,0:0:0:0:
256,192,235461,1,0,0:0:0:0:
256,192,235547,1,8,0:0:0:0:
256,192,235634,1,0,0:0:0:0:
256,192,235721,1,8,0:0:0:0:
256,192,235807,1,8,0:0:0:0:
256,192,235894,1,0,0:0:0:0:
256,192,235981,1,0,0:0:0:0:
256,192,236068,1,8,0:0:0:0:
256,192,236154,1,8,0:0:0:0:
256,192,236241,1,0,0:0:0:0:
256,192,236328,1,8,0:0:0:0:
256,192,236414,1,0,0:0:0:0:
256,192,236501,1,0,0:0:0:0:
256,192,236588,1,8,0:0:0:0:
256,192,236675,1,8,0:0:0:0:
256,192,236761,1,0,0:0:0:0:
256,192,236848,1,0,0:0:0:0:
256,192,236935,1,8,0:0:0:0:
256,192,237021,1,0,0:0:0:0:
256,192,237108,1,8,0:0:0:0:
256,192,237195,1,8,0:0:0:0:
256,192,237281,1,0,0:0:0:0:
256,192,237368,1,0,0:0:0:0:
256,192,237455,1,8,0:0:0:0:
256,192,237542,1,0,0:0:0:0:
256,192,237628,1,8,0:0:0:0:
256,192,237715,1,8,0:0:0:0:
256,192,237802,1,8,0:0:0:0:
256,192,237888,1,0,0:0:0:0:
256,192,237975,1,8,0:0:0:0:
256,192,238062,1,0,0:0:0:0:
256,192,238149,1,8,0:0:0:0:
256,192,238235,1,8,0:0:0:0:
256,192,238322,1,0,0:0:0:0:
256,192,238409,1,8,0:0:0:0:
256,192,238495,1,0,0:0:0:0:
256,192,238582,1,0,0:0:0:0:
256,192,238669,1,8,0:0:0:0:
256,192,238755,1,8,0:0:0:0:
256,192,238842,1,0,0:0:0:0:
256,192,238929,1,0,0:0:0:0:
256,192,239016,1,0,0:0:0:0:
256,192,239102,1,0,0:0:0:0:
256,192,239189,1,8,0:0:0:0:
256,192,239276,1,0,0:0:0:0:
256,192,239362,1,0,0:0:0:0:
256,192,239449,1,8,0:0:0:0:
256,192,239536,1,8,0:0:0:0:
256,192,239622,1,0,0:0:0:0:
256,192,239709,1,8,0:0:0:0:
256,192,239796,1,0,0:0:0:0:
256,192,239883,1,8,0:0:0:0:
256,192,239969,1,8,0:0:0:0:
256,192,240056,1,0,0:0:0:0:
256,192,240143,1,0,0:0:0:0:
256,192,240229,1,8,0:0:0:0:
256,192,240316,1,8,0:0:0:0:
256,192,240403,1,8,0:0:0:0:
256,192,240490,1,8,0:0:0:0:
256,192,240576,1,0,0:0:0:0:
256,192,240663,1,0,0:0:0:0:
256,192,240750,1,8,0:0:0:0:
256,192,240836,1,0,0:0:0:0:
256,192,240923,1,8,0:0:0:0:
256,192,241010,1,8,0:0:0:0:
256,192,241096,1,0,0:0:0:0:
256,192,241183,1,0,0:0:0:0:
256,192,241270,1,8,0:0:0:0:
256,192,241357,1,0,0:0:0:0:
256,192,241443,1,0,0:0:0:0:
256,192,241530,1,0,0:0:0:0:
256,192,241617,1,8,0:0:0:0:
256,192,241703,1,8,0:0:0:0:
256,192,241790,1,8,0:0:0:0:
256,192,241877,1,0,0:0:0:0:
256,192,241964,1,8,0:0:0:0:
256,192,242050,1,8,0:0:0:0:
256,192,242137,1,0,0:0:0:0:
256,192,242224,1,0,0:0:0:0:
256,192,242310,1,8,0:0:0:0:
256,192,242397,1,8,0:0:0:0:
256,192,242484,1,8,0:0:0:0:
256,192,242570,1,0,0:0:0:0:
256,192,242657,1,8,0:0:0:0:
256,192,242744,1,8,0:0:0:0:
256,192,242831,1,8,0:0:0:0:
256,192,242917,1,8,0:0:0:0:
256,192,243004,1,0,0:0:0:0:
256,192,243091,1,0,0:0:0:0:
256,192,243177,1,8,0:0:0:0:
256,192,243264,1,0,0:0:0:0:
256,192,243351,1,0,0:0:0:0:
256,192,243438,1,0,0:0:0:0:
256,192,243524,1,8,0:0:0:0:
256,192,243611,1,0,0:0:0:0:
256,192,243698,1,8,0:0:0:0:
256,192,243784,1,8,0:0:0:0:
256,192,243871,1,0,0:0:0:0:
256,192,243958,1,0,0:0:0:0:
256,192,244044,1,8,0:0:0:0:
256,192,244131,1,0,0:0:0:0:
256,192,244218,1,0,0:0:0:0:
256,192,244391,1,12,0:0:0:0:
256,192,244565,1,0,0:0:0:0:
256,192,244738,1,8,0:0:0:0:
256,192,244912,1,0,0:0:0:0:
256,192,244998,1,8,0:0:0:0:
256,192,245085,1,0,0:0:0:0:
256,192,245258,1,0,0:0:0:0:
256,192,245345,1,0,0:0:0:0:
256,192,245432,1,8,0:0:0:0:
256,192,245779,1,12,0:0:0:0:
256,192,245952,1,0,0:0:0:0:
256,192,246039,1,0,0:0:0:0:
256,192,246125,1,0,0:0:0:0:
256,192,246212,1,0,0:0:0:0:
256,192,246299,1,8,0:0:0:0:
256,192,246386,1,8,0:0:0:0:
256,192,246472,1,8,0:0:0:0:
256,192,246559,1,8,0:0:0:0:
256,192,246646,1,0,0:0:0:0:
256,192,246732,1,0,0:0:0:0:
256,192,246819,1,8,0:0:0:0:
256,192,246906,1,8,0:0:0:0:
256,192,246992,1,8,0:0:0:0:
256,192,247079,1,0,0:0:0:0:
256,192,247166,1,8,0:0:0:0:
256,192,247253,1,8,0:0:0:0:
256,192,247339,1,0,0:0:0:0:
256,192,247426,1,8,0:0:0:0:
256,192,247513,1,0,0:0:0:0:
256,192,247599,1,0,0:0:0:0:
256,192,247686,1,8,0:0:0:0:
256,192,247773,1,8,0:0:0:0:
256,192,247859,1,8,0:0:0:0:
256,192,247946,1,8,0:0:0:0:
256,192,248033,1,0,0:0:0:0:
256,192,248120,1,0,0:0:0:0:
256,192,248206,1,8,0:0:0:0:
256,192,248293,1,8,0:0:0:0:
256,192,248380,1,0,0:0:0:0:
256,192,248466,1,0,0:0:0:0:
256,192,248553,1,8,0:0:0:0:
256,192,248640,1,0,0:0:0:0:
256,192,248727,1,0,0:0:0:0:
256,192,248813,1,0,0:0:0:0:
256,192,248900,1,8,0:0:0:0:
256,192,248987,1,0,0:0:0:0:
256,192,249073,1,8,0:0:0:0:
256,192,249160,1,0,0:0:0:0:
256,192,249247,1,8,0:0:0:0:
256,192,249333,1,8,0:0:0:0:
256,192,249420,1,0,0:0:0:0:
256,192,249507,1,0,0:0:0:0:
256,192,249594,1,8,0:0:0:0:
256,192,249680,1,0,0:0:0:0:
256,192,249767,1,0,0:0:0:0:
256,192,249854,1,0,0:0:0:0:
256,192,249940,1,8,0:0:0:0:
256,192,250027,1,8,0:0:0:0:
256,192,250114,1,8,0:0:0:0:
256,192,250201,1,8,0:0:0:0:
256,192,250287,1,0,0:0:0:0:
256,192,250374,1,0,0:0:0:0:
256,192,250461,1,8,0:0:0:0:
256,192,250547,1,0,0:0:0:0:
256,192,250634,1,0,0:0:0:0:
256,192,250721,1,0,0:0:0:0:
256,192,250807,1,8,0:0:0:0:
256,192,250894,1,0,0:0:0:0:
256,192,250981,1,8,0:0:0:0:
256,192,251068,1,8,0:0:0:0:
256,192,251154,1,0,0:0:0:0:
256,192,251241,1,0,0:0:0:0:
256,192,251328,1,8,0:0:0:0:
256,192,251414,1,8,0:0:0:0:
256,192,251501,1,0,0:0:0:0:
256,192,251588,1,8,0:0:0:0:
256,192,251675,1,0,0:0:0:0:
256,192,251761,1,0,0:0:0:0:
256,192,251848,1,8,0:0:0:0:
256,192,251935,1,8,0:0:0:0:
256,192,252021,1,8,0:0:0:0:
256,192,252108,1,8,0:0:0:0:
256,192,252195,1,0,0:0:0:0:
256,192,252281,1,0,0:0:0:0:
256,192,252368,1,8,0:0:0:0:
256,192,252455,1,8,0:0:0:0:
256,192,252542,1,8,0:0:0:0:
256,192,252628,1,0,0:0:0:0:
256,192,252715,1,8,0:0:0:0:
256,192,252802,1,8,0:0:0:0:
256,192,252888,1,0,0:0:0:0:
256,192,252975,1,8,0:0:0:0:
256,192,253062,1,0,0:0:0:0:
256,192,253149,1,0,0:0:0:0:
256,192,253235,1,8,0:0:0:0:
256,192,253322,1,8,0:0:0:0:
256,192,253409,1,8,0:0:0:0:
256,192,253495,1,8,0:0:0:0:
256,192,253582,1,0,0:0:0:0:
256,192,253669,1,0,0:0:0:0:
256,192,253755,1,8,0:0:0:0:
256,192,253842,1,8,0:0:0:0:
256,192,253929,1,8,0:0:0:0:
256,192,254016,1,0,0:0:0:0:
256,192,254102,1,8,0:0:0:0:
256,192,254189,1,8,0:0:0:0:
256,192,254276,1,0,0:0:0:0:
256,192,254362,1,0,0:0:0:0:
256,192,254449,1,8,0:0:0:0:
256,192,254536,1,0,0:0:0:0:
256,192,254622,1,0,0:0:0:0:
256,192,254709,1,0,0:0:0:0:
256,192,254796,1,8,0:0:0:0:
256,192,254883,1,0,0:0:0:0:
256,192,254969,1,8,0:0:0:0:
256,192,255056,1,8,0:0:0:0:
256,192,255143,1,0,0:0:0:0:
256,192,255229,1,0,0:0:0:0:
256,192,255316,1,8,0:0:0:0:
256,192,255403,1,8,0:0:0:0:
256,192,255490,1,8,0:0:0:0:
256,192,255576,1,8,0:0:0:0:
256,192,255663,1,0,0:0:0:0:
256,192,255750,1,0,0:0:0:0:
256,192,255836,1,8,0:0:0:0:
256,192,255923,1,0,0:0:0:0:
256,192,256010,1,8,0:0:0:0:
256,192,256096,1,0,0:0:0:0:
256,192,256183,1,8,0:0:0:0:
256,192,256270,1,8,0:0:0:0:
256,192,256357,1,8,0:0:0:0:
256,192,256443,1,0,0:0:0:0:
256,192,256530,1,8,0:0:0:0:
256,192,256617,1,8,0:0:0:0:
256,192,256703,1,0,0:0:0:0:
256,192,256790,1,0,0:0:0:0:
256,192,256877,1,12,0:0:0:0:
256,192,257050,1,0,0:0:0:0:
256,192,257137,1,0,0:0:0:0:
256,192,257224,1,0,0:0:0:0:
256,192,257310,1,0,0:0:0:0:
256,192,257397,1,8,0:0:0:0:
256,192,257484,1,8,0:0:0:0:
256,192,257570,1,8,0:0:0:0:
256,192,257657,1,8,0:0:0:0:
256,192,257744,1,0,0:0:0:0:
256,192,257831,1,0,0:0:0:0:
256,192,257917,1,8,0:0:0:0:
256,192,258004,1,8,0:0:0:0:
256,192,258091,1,8,0:0:0:0:
256,192,258177,1,0,0:0:0:0:
256,192,258264,1,8,0:0:0:0:
256,192,258351,1,8,0:0:0:0:
256,192,258438,1,0,0:0:0:0:
256,192,258524,1,8,0:0:0:0:
256,192,258611,1,0,0:0:0:0:
256,192,258698,1,0,0:0:0:0:
256,192,258784,1,8,0:0:0:0:
256,192,258871,1,8,0:0:0:0:
256,192,258958,1,8,0:0:0:0:
256,192,259044,1,8,0:0:0:0:
256,192,259131,1,0,0:0:0:0:
256,192,259218,1,0,0:0:0:0:
256,192,259305,1,8,0:0:0:0:
256,192,259391,1,8,0:0:0:0:
256,192,259478,1,0,0:0:0:0:
256,192,259565,1,0,0:0:0:0:
256,192,259651,1,8,0:0:0:0:
256,192,259738,1,0,0:0:0:0:
256,192,259825,1,0,0:0:0:0:
256,192,259912,1,0,0:0:0:0:
256,192,259998,1,8,0:0:0:0:
256,192,260085,1,8,0:0:0:0:
256,192,260172,1,8,0:0:0:0:
256,192,260258,1,0,0:0:0:0:
256,192,260345,1,8,0:0:0:0:
256,192,260432,1,8,0:0:0:0:
256,192,260518,1,8,0:0:0:0:
256,192,260605,1,8,0:0:0:0:
256,192,260692,1,0,0:0:0:0:
256,192,260779,1,0,0:0:0:0:
256,192,260865,1,0,0:0:0:0:
256,192,260952,1,0,0:0:0:0:
256,192,261039,1,8,0:0:0:0:
256,192,261125,1,8,0:0:0:0:
256,192,261212,1,0,0:0:0:0:
256,192,261299,1,8,0:0:0:0:
256,192,261386,1,0,0:0:0:0:
256,192,261472,1,0,0:0:0:0:
256,192,261559,1,8,0:0:0:0:
256,192,261646,1,8,0:0:0:0:
256,192,261732,1,0,0:0:0:0:
256,192,261819,1,0,0:0:0:0:
256,192,261906,1,8,0:0:0:0:
256,192,261992,1,0,0:0:0:0:
256,192,262079,1,8,0:0:0:0:
256,192,262166,1,8,0:0:0:0:
256,192,262253,1,0,0:0:0:0:
256,192,262339,1,0,0:0:0:0:
256,192,262426,1,8,0:0:0:0:
256,192,262513,1,8,0:0:0:0:
256,192,262599,1,0,0:0:0:0:
256,192,262686,1,8,0:0:0:0:
256,192,262773,1,0,0:0:0:0:
256,192,262859,1,0,0:0:0:0:
256,192,262946,1,8,0:0:0:0:
256,192,263033,1,8,0:0:0:0:
256,192,263120,1,8,0:0:0:0:
256,192,263206,1,8,0:0:0:0:
256,192,263293,1,0,0:0:0:0:
256,192,263380,1,0,0:0:0:0:
256,192,263466,1,8,0:0:0:0:
256,192,263553,1,8,0:0:0:0:
256,192,263640,1,8,0:0:0:0:
256,192,263727,1,0,0:0:0:0:
256,192,263813,1,8,0:0:0:0:
256,192,263900,1,8,0:0:0:0:
256,192,263987,1,0,0:0:0:0:
256,192,264073,1,8,0:0:0:0:
256,192,264160,1,0,0:0:0:0:
256,192,264247,1,0,0:0:0:0:
256,192,264333,1,8,0:0:0:0:
256,192,264420,1,8,0:0:0:0:
256,192,264507,1,8,0:0:0:0:
256,192,264594,1,8,0:0:0:0:
256,192,264680,1,0,0:0:0:0:
256,192,264767,1,0,0:0:0:0:
256,192,264854,1,8,0:0:0:0:
256,192,264940,1,8,0:0:0:0:
256,192,265027,1,8,0:0:0:0:
256,192,265114,1,0,0:0:0:0:
256,192,265201,1,8,0:0:0:0:
256,192,265287,1,8,0:0:0:0:
256,192,265374,1,0,0:0:0:0:
256,192,265461,1,0,0:0:0:0:
256,192,265547,1,8,0:0:0:0:
256,192,265634,1,0,0:0:0:0:
256,192,265721,1,0,0:0:0:0:
256,192,265807,1,0,0:0:0:0:
256,192,265894,1,8,0:0:0:0:
256,192,265981,1,0,0:0:0:0:
256,192,266068,1,8,0:0:0:0:
256,192,266154,1,8,0:0:0:0:
256,192,266241,1,0,0:0:0:0:
256,192,266328,1,0,0:0:0:0:
256,192,266414,1,8,0:0:0:0:
256,192,266588,1,4,0:0:0:0:
256,192,266761,1,0,0:0:0:0:
256,192,266935,1,8,0:0:0:0:
256,192,267108,1,0,0:0:0:0:
256,192,267195,1,8,0:0:0:0:
256,192,267281,1,0,0:0:0:0:
256,192,267368,1,8,0:0:0:0:
256,192,267455,1,0,0:0:0:0:
256,192,267542,1,0,0:0:0:0:
256,192,267628,1,8,0:0:0:0:
256,192,267975,1,4,0:0:0:0:
256,192,268149,1,8,0:0:0:0:
256,192,268235,1,0,0:0:0:0:
256,192,268322,1,0,0:0:0:0:
256,192,268495,1,8,0:0:0:0:
256,192,268669,1,0,0:0:0:0:
256,192,268842,1,0,0:0:0:0:
256,192,268929,1,0,0:0:0:0:
256,192,269016,1,8,0:0:0:0:
256,192,269102,1,8,0:0:0:0:
256,192,269189,1,0,0:0:0:0:
256,192,269362,1,8,0:0:0:0:
256,192,269536,1,0,0:0:0:0:
256,192,269622,1,0,0:0:0:0:
256,192,269796,1,0,0:0:0:0:
256,192,269883,1,8,0:0:0:0:
256,192,270056,1,0,0:0:0:0:
256,192,270229,1,8,0:0:0:0:
256,192,270316,1,0,0:0:0:0:
256,192,270403,1,8,0:0:0:0:
256,192,270490,1,8,0:0:0:0:
256,192,270576,1,0,0:0:0:0:
256,192,270750,1,8,0:0:0:0:
256,192,270923,1,0,0:0:0:0:
256,192,271096,1,8,0:0:0:0:
256,192,271270,1,8,0:0:0:0:
256,192,271357,1,8,0:0:0:0:
256,192,271443,1,0,0:0:0:0:
256,192,271617,1,0,0:0:0:0:
256,192,271790,1,8,0:0:0:0:
256,192,271964,1,0,0:0:0:0:
256,192,272137,1,8,0:0:0:0:
256,192,272224,1,8,0:0:0:0:
256,192,272310,1,8,0:0:0:0:
256,192,272397,1,8,0:0:0:0:
256,192,272484,1,0,0:0:0:0:
256,192,272657,1,8,0:0:0:0:
256,192,272744,1,8,0:0:0:0:
256,192,272831,1,0,0:0:0:0:
256,192,272917,1,0,0:0:0:0:
256,192,273004,1,0,0:0:0:0:
256,192,273177,1,8,0:0:0:0:
256,192,273351,1,8,0:0:0:0:
256,192,273524,1,0,0:0:0:0:
256,192,273698,1,8,0:0:0:0:
256,192,273784,1,0,0:0:0:0:
256,192,273871,1,0,0:0:0:0:
256,192,274044,1,8,0:0:0:0:
256,192,274218,1,0,0:0:0:0:
256,192,274391,1,0,0:0:0:0:
256,192,274478,1,0,0:0:0:0:
256,192,274565,1,8,0:0:0:0:
256,192,274651,1,8,0:0:0:0:
256,192,274738,1,0,0:0:0:0:
256,192,274912,1,8,0:0:0:0:
256,192,275085,1,0,0:0:0:0:
256,192,275172,1,0,0:0:0:0:
256,192,275345,1,0,0:0:0:0:
256,192,275432,1,8,0:0:0:0:
256,192,275605,1,0,0:0:0:0:
256,192,275779,1,8,0:0:0:0:
256,192,275865,1,0,0:0:0:0:
256,192,275952,1,8,0:0:0:0:
256,192,276039,1,8,0:0:0:0:
256,192,276125,1,0,0:0:0:0:
256,192,276299,1,8,0:0:0:0:
256,192,276386,1,0,0:0:0:0:
256,192,276472,1,8,0:0:0:0:
256,192,276646,1,0,0:0:0:0:
256,192,276819,1,8,0:0:0:0:
256,192,276906,1,0,0:0:0:0:
256,192,276992,1,0,0:0:0:0:
256,192,277166,1,8,0:0:0:0:
256,192,277253,1,0,0:0:0:0:
256,192,277339,1,8,0:0:0:0:
256,192,277426,1,8,0:0:0:0:
256,192,277513,1,0,0:0:0:0:
256,192,277599,1,0,0:0:0:0:
256,192,277686,1,8,0:0:0:0:
256,192,277859,1,8,0:0:0:0:
256,192,278033,1,0,0:0:0:0:
256,192,278206,1,8,0:0:0:0:
256,192,278293,1,8,0:0:0:0:
256,192,278380,1,0,0:0:0:0:
256,192,278553,1,0,0:0:0:0:
256,192,278727,1,8,0:0:0:0:
256,192,278813,1,8,0:0:0:0:
256,192,278900,1,8,0:0:0:0:
256,192,278987,1,8,0:0:0:0:
256,192,279073,1,4,0:0:0:0:
256,192,279247,1,8,0:0:0:0:
256,192,279333,1,0,0:0:0:0:
256,192,279420,1,0,0:0:0:0:
256,192,279594,1,8,0:0:0:0:
256,192,279680,1,0,0:0:0:0:
256,192,279767,1,8,0:0:0:0:
256,192,279854,1,8,0:0:0:0:
256,192,279940,1,0,0:0:0:0:
256,192,280027,1,0,0:0:0:0:
256,192,280114,1,8,0:0:0:0:
256,192,280287,1,0,0:0:0:0:
256,192,280374,1,0,0:0:0:0:
256,192,280461,1,8,0:0:0:0:
256,192,280634,1,0,0:0:0:0:
256,192,280721,1,0,0:0:0:0:
256,192,280894,1,0,0:0:0:0:
256,192,280981,1,8,0:0:0:0:
256,192,281154,1,0,0:0:0:0:
256,192,281241,1,0,0:0:0:0:
256,192,281328,1,8,0:0:0:0:
256,192,281414,1,0,0:0:0:0:
256,192,281501,1,8,0:0:0:0:
256,192,281588,1,8,0:0:0:0:
256,192,281675,1,0,0:0:0:0:
256,192,281848,1,8,0:0:0:0:
256,192,282021,1,0,0:0:0:0:
256,192,282195,1,8,0:0:0:0:
256,192,282368,1,0,0:0:0:0:
256,192,282455,1,0,0:0:0:0:
256,192,282542,1,8,0:0:0:0:
256,192,282715,1,8,0:0:0:0:
256,192,282802,1,8,0:0:0:0:
256,192,282888,1,0,0:0:0:0:
256,192,283062,1,0,0:0:0:0:
256,192,283235,1,8,0:0:0:0:
256,192,283322,1,8,0:0:0:0:
256,192,283409,1,8,0:0:0:0:
256,192,283495,1,8,0:0:0:0:
256,192,283582,1,0,0:0:0:0:
256,192,283755,1,8,0:0:0:0:
256,192,283842,1,8,0:0:0:0:
256,192,283929,1,0,0:0:0:0:
256,192,284016,1,0,0:0:0:0:
256,192,284102,1,0,0:0:0:0:
256,192,284276,1,8,0:0:0:0:
256,192,284449,1,8,0:0:0:0:
256,192,284622,1,0,0:0:0:0:
256,192,284796,1,8,0:0:0:0:
256,192,284883,1,0,0:0:0:0:
256,192,284969,1,0,0:0:0:0:
256,192,285143,1,8,0:0:0:0:
256,192,285229,1,0,0:0:0:0:
256,192,285316,1,8,0:0:0:0:
256,192,285403,1,8,0:0:0:0:
256,192,285490,1,0,0:0:0:0:
256,192,285576,1,0,0:0:0:0:
256,192,285663,1,8,0:0:0:0:
256,192,285836,1,0,0:0:0:0:
256,192,285923,1,0,0:0:0:0:
256,192,286010,1,8,0:0:0:0:
256,192,286183,1,0,0:0:0:0:
256,192,286270,1,0,0:0:0:0:
256,192,286443,1,0,0:0:0:0:
256,192,286530,1,8,0:0:0:0:
256,192,286703,1,0,0:0:0:0:
256,192,286790,1,0,0:0:0:0:
256,192,286877,1,8,0:0:0:0:
256,192,286964,1,0,0:0:0:0:
256,192,287050,1,8,0:0:0:0:
256,192,287137,1,8,0:0:0:0:
256,192,287224,1,0,0:0:0:0:
256,192,287397,1,8,0:0:0:0:
256,192,287484,1,0,0:0:0:0:
256,192,287570,1,8,0:0:0:0:
256,192,287744,1,0,0:0:0:0:
256,192,287917,1,8,0:0:0:0:
256,192,288004,1,0,0:0:0:0:
256,192,288091,1,0,0:0:0:0:
256,192,288264,1,8,0:0:0:0:
256,192,288351,1,0,0:0:0:0:
256,192,288438,1,8,0:0:0:0:
256,192,288524,1,0,0:0:0:0:
256,192,288611,1,8,0:0:0:0:
256,192,288784,1,0,0:0:0:0:
256,192,288958,1,0,0:0:0:0:
256,192,289131,1,8,0:0:0:0:
256,192,289305,1,0,0:0:0:0:
256,192,289391,1,8,0:0:0:0:
256,192,289478,1,0,0:0:0:0:
256,192,289565,1,8,0:0:0:0:
256,192,289651,1,0,0:0:0:0:
256,192,289738,1,0,0:0:0:0:
256,192,289825,1,8,0:0:0:0:
256,192,290172,1,12,0:0:0:0:
256,192,290345,1,0,0:0:0:0:
256,192,290432,1,0,0:0:0:0:
256,192,290518,1,8,0:0:0:0:
256,192,290692,1,0,0:0:0:0:
256,192,290865,1,8,0:0:0:0:
256,192,291039,1,0,0:0:0:0:
256,192,291125,1,0,0:0:0:0:
256,192,291212,1,8,0:0:0:0:
256,192,291386,1,0,0:0:0:0:
256,192,291559,1,8,0:0:0:0:
256,192,291732,1,0,0:0:0:0:
256,192,291819,1,0,0:0:0:0:
256,192,291906,1,8,0:0:0:0:
256,192,292079,1,0,0:0:0:0:
256,192,292253,1,8,0:0:0:0:
256,192,292426,1,0,0:0:0:0:
256,192,292513,1,0,0:0:0:0:
256,192,292599,1,8,0:0:0:0:
256,192,292773,1,0,0:0:0:0:
256,192,292946,1,8,0:0:0:0:
256,192,293120,1,0,0:0:0:0:
256,192,293206,1,0,0:0:0:0:
256,192,293293,1,8,0:0:0:0:
256,192,293466,1,0,0:0:0:0:
256,192,293640,1,8,0:0:0:0:
256,192,293813,1,0,0:0:0:0:
256,192,293900,1,0,0:0:0:0:
256,192,293987,1,8,0:0:0:0:
256,192,294160,1,0,0:0:0:0:
256,192,294333,1,8,0:0:0:0:
256,192,294507,1,0,0:0:0:0:
256,192,294594,1,0,0:0:0:0:
256,192,294680,1,8,0:0:0:0:
256,192,294854,1,0,0:0:0:0:
256,192,295027,1,8,0:0:0:0:
256,192,295201,1,0,0:0:0:0:
256,192,295287,1,0,0:0:0:0:
256,192,295374,1,8,0:0:0:0:
256,192,295461,1,8,0:0:0:0:
256,192,295547,1,0,0:0:0:0:
256,192,295634,1,0,0:0:0:0:
256,192,295721,1,8,0:0:0:0:
256,192,295894,1,0,0:0:0:0:
256,192,295981,1,0,0:0:0:0:
256,192,296068,1,8,0:0:0:0:
256,192,296241,1,0,0:0:0:0:
256,192,296414,1,8,0:0:0:0:
256,192,296588,1,0,0:0:0:0:
256,192,296675,1,0,0:0:0:0:
256,192,296761,1,8,0:0:0:0:
256,192,296935,1,0,0:0:0:0:
256,192,297108,1,8,0:0:0:0:
256,192,297281,1,0,0:0:0:0:
256,192,297368,1,0,0:0:0:0:
256,192,297455,1,8,0:0:0:0:
256,192,297628,1,0,0:0:0:0:
256,192,297802,1,8,0:0:0:0:
256,192,297975,1,0,0:0:0:0:
256,192,298062,1,0,0:0:0:0:
256,192,298149,1,8,0:0:0:0:
256,192,298322,1,0,0:0:0:0:
256,192,298495,1,8,0:0:0:0:
256,192,298669,1,0,0:0:0:0:
256,192,298755,1,0,0:0:0:0:
256,192,298842,1,8,0:0:0:0:
256,192,299016,1,0,0:0:0:0:
256,192,299189,1,8,0:0:0:0:
256,192,299362,1,0,0:0:0:0:
256,192,299449,1,0,0:0:0:0:
256,192,299536,1,8,0:0:0:0:
256,192,299709,1,0,0:0:0:0:
256,192,299883,1,8,0:0:0:0:
256,192,300056,1,0,0:0:0:0:
256,192,300143,1,0,0:0:0:0:
256,192,300229,1,8,0:0:0:0:
256,192,300403,1,0,0:0:0:0:
256,192,300576,1,8,0:0:0:0:
256,192,300750,1,0,0:0:0:0:
256,192,300836,1,0,0:0:0:0:
256,192,300923,1,8,0:0:0:0:
256,192,301010,1,8,0:0:0:0:
256,192,301096,1,0,0:0:0:0:
256,192,301183,1,0,0:0:0:0:
256,192,301270,1,12,0:0:0:0:
