osu file format v14

[General]
AudioFilename: audio.mp3
AudioLeadIn: 0
PreviewTime: 156221
Countdown: 0
SampleSet: Soft
StackLeniency: 0.3
Mode: 0
LetterboxInBreaks: 0
WidescreenStoryboard: 0

[Editor]
Bookmarks: 1193,23389,45932,56684,67782,78880,101077,123273,134372,145470,156568,178777,200961,212059,223157,243966,245354,267550,278475,289747,300845
DistanceSpacing: 1
BeatDivisor: 8
GridSize: 4
TimelineZoom: 1.7

[Metadata]
Title:Genryuu Kaiko
TitleUnicode:源流懐古
Artist:Halozy
ArtistUnicode:Halozy
Creator:Astronic
Version:Nostalgia
Source:東方花映塚 ~ Phantasmagoria of Flower View.
Tags:東方project Touhou project Cosmic Armonica ほたる hotaru すみじゅん Sumijun くまりす kumarisu 彼岸帰航 Higan Retour ~ Riverside View 小野塚 小町 おのづか こまち Onozuka Komachi th09 c79 trance netrunner hi-mei hi_mei badgraph_ video game japanese jp instrumental breakcore jpop j-pop pop
BeatmapID:2766688
BeatmapSetID:1335452

[Difficulty]
HPDrainRate:6
CircleSize:4
OverallDifficulty:9
ApproachRate:9.3
SliderMultiplier:1.73
SliderTickRate:1

[Events]
//Background and Video events
0,0,"bg.png",0,0
//Break Periods
//Storyboard Layer 0 (Background)
//Storyboard Layer 1 (Fail)
//Storyboard Layer 2 (Pass)
//Storyboard Layer 3 (Foreground)
//Storyboard Layer 4 (Overlay)
//Storyboard Sound Samples

[TimingPoints]
1193,346.820809248555,4,2,1,50,1,0
1193,-142.857142857143,4,2,1,50,0,0
1713,-142.857142857143,4,2,2,50,0,0
2233,-142.857142857143,4,2,3,50,0,0
2580,-142.857142857143,4,2,1,50,0,0
3100,-142.857142857143,4,2,2,50,0,0
3620,-142.857142857143,4,2,4,50,0,0
4314,-142.857142857143,4,2,5,50,0,0
4487,-142.857142857143,4,2,4,50,0,0
4661,-142.857142857143,4,2,2,50,0,0
4921,-142.857142857143,4,2,2,5,0,0
5008,-105.263157894737,4,2,4,50,0,0
5268,-105.263157894737,4,2,4,5,0,0
5354,-83.3333333333333,4,2,5,50,0,0
5875,-142.857142857143,4,2,6,50,0,0
6395,-142.857142857143,4,2,7,50,0,0
6742,-142.857142857143,4,2,1,50,0,0
7262,-142.857142857143,4,2,2,50,0,0
7782,-142.857142857143,4,2,3,50,0,0
8129,-142.857142857143,4,2,1,50,0,0
8649,-111.111111111111,4,2,8,50,0,0
9082,-111.111111111111,4,2,8,5,0,0
9169,-111.111111111111,4,2,9,50,0,0
9516,-111.111111111111,4,2,10,50,0,0
9690,-142.857142857143,4,2,9,50,0,0
10036,-142.857142857143,4,2,8,50,0,0
10383,-142.857142857143,4,2,1,50,0,0
10557,-142.857142857143,4,2,8,50,0,0
10730,-142.857142857143,4,2,9,50,0,0
10903,-111.111111111111,4,2,10,50,0,0
11336,-111.111111111111,4,2,10,5,0,0
11424,-142.857142857143,4,2,9,50,0,0
12204,-142.857142857143,4,2,9,5,0,0
12291,-142.857142857143,4,2,1,60,0,0
12811,-111.111111111111,4,2,2,60,0,0
13331,-111.111111111111,4,2,3,60,0,0
13591,-111.111111111111,4,2,3,5,0,0
13678,-111.111111111111,4,2,1,60,0,0
14198,-111.111111111111,4,2,2,60,0,0
14719,-111.111111111111,4,2,4,60,0,0
15065,-111.111111111111,4,2,5,60,0,0
15586,-111.111111111111,4,2,4,60,0,0
15759,-111.111111111111,4,2,2,60,0,0
16106,-111.111111111111,4,2,4,60,0,0
16453,-111.111111111111,4,2,5,60,0,0
16713,-111.111111111111,4,2,5,5,0,0
16799,-111.111111111111,4,2,5,60,0,0
16973,-111.111111111111,4,2,6,60,0,0
17493,-111.111111111111,4,2,7,60,0,0
17840,-111.111111111111,4,2,1,60,0,0
18360,-111.111111111111,4,2,2,60,0,0
18880,-111.111111111111,4,2,3,60,0,0
19227,-111.111111111111,4,2,1,60,0,0
19487,-111.111111111111,4,2,1,5,0,0
19574,-111.111111111111,4,2,1,60,0,0
19747,-111.111111111111,4,2,8,60,0,0
20268,-99.9999999999999,4,2,9,60,0,0
20614,-99.9999999999999,4,2,10,60,0,0
20788,-99.9999999999999,4,2,9,60,0,0
21135,-99.9999999999999,4,2,8,60,0,0
21482,-99.9999999999999,4,2,1,60,0,0
21655,-99.9999999999999,4,2,8,60,0,0
21828,-99.9999999999999,4,2,9,60,0,0
22002,-99.9999999999999,4,2,11,60,0,0
22349,-99.9999999999999,4,2,1,60,0,0
22522,-99.9999999999999,4,2,12,60,0,0
22608,-99.9999999999999,4,2,2,60,0,0
22695,-99.9999999999999,4,2,13,60,0,0
22782,-99.9999999999999,4,2,2,60,0,0
22869,-99.9999999999999,4,2,13,60,0,0
23042,-50,4,2,2,90,0,0
23128,-50,4,2,2,5,0,0
23389,-50,4,2,1,70,0,0
23909,-50,4,2,2,70,0,0
24429,-100,4,2,3,70,0,0
24776,-100,4,2,1,70,0,0
25297,-100,4,2,2,70,0,0
25817,-100,4,2,4,70,0,0
26164,-80,4,2,5,70,0,0
26424,-80,4,2,5,5,0,0
26510,-80,4,2,5,70,0,0
26684,-80,4,2,4,70,0,0
26857,-80,4,2,2,70,0,0
27204,-80,4,2,4,70,0,0
27551,-80,4,2,5,70,0,0
28071,-80,4,2,6,70,0,0
28591,-100,4,2,7,70,0,0
28938,-100,4,2,1,70,0,0
29458,-100,4,2,2,70,0,0
29979,-100,4,2,3,70,0,0
30325,-100,4,2,1,70,0,0
30846,-100,4,2,8,70,0,0
31366,-80,4,2,9,70,0,0
31626,-80,4,2,9,5,0,0
31713,-80,4,2,10,70,0,0
31886,-80,4,2,9,70,0,0
32233,-80,4,2,8,70,0,0
32580,-80,4,2,1,70,0,0
32753,-80,4,2,8,70,0,0
32927,-80,4,2,9,70,0,0
33100,-80,4,2,10,70,0,0
33447,-80,4,2,9,70,0,0
34140,-66.6666666666667,4,2,9,70,0,0
34487,-66.6666666666667,4,2,1,70,0,0
35008,-66.6666666666667,4,2,2,70,0,0
35528,-100,4,2,3,70,0,0
35875,-100,4,2,1,70,0,0
36395,-100,4,2,2,70,0,0
36915,-100,4,2,4,70,0,0
37262,-80,4,2,5,70,0,0
37522,-80,4,2,5,5,0,0
37609,-80,4,2,5,70,0,0
37782,-80,4,2,4,70,0,0
37956,-80,4,2,2,70,0,0
38302,-80,4,2,4,70,0,0
38649,-80,4,2,5,70,0,0
39169,-80,4,2,6,70,0,0
39690,-80,4,2,7,70,0,0
40036,-80,4,2,1,70,0,0
40557,-80,4,2,2,70,0,0
41077,-100,4,2,3,70,0,0
41424,-100,4,2,1,70,0,0
41944,-100,4,2,8,70,0,0
42464,-80,4,2,9,70,0,0
42724,-80,4,2,9,5,0,0
42811,-80,4,2,10,70,0,0
42984,-80,4,2,9,70,0,0
43331,-80,4,2,8,70,0,0
43678,-80,4,2,1,70,0,0
43851,-80,4,2,8,70,0,0
44025,-80,4,2,9,70,0,0
44198,-80,4,2,11,70,0,0
44545,-80,4,2,1,70,0,0
44719,-80,4,2,12,70,0,0
44805,-80,4,2,2,70,0,0
44892,-80,4,2,13,70,0,0
44979,-80,4,2,2,70,0,0
45065,-80,4,2,13,70,0,0
45239,-80,4,2,7,90,0,0
45325,-80,4,2,5,90,0,0
45412,-80,4,2,4,90,0,0
45499,-80,4,2,1,90,0,0
45586,-80,4,2,8,90,0,0
45672,-80,4,2,15,90,0,0
45932,-80,4,2,15,60,0,0
46626,-111.111111111111,4,2,15,60,0,0
47493,-50,4,2,15,60,0,0
47579,-50,4,2,15,5,0,0
47840,-50,4,2,15,60,0,0
48013,-111.111111111111,4,2,15,60,0,0
48620,-111.111111111111,4,2,15,5,0,0
48707,-111.111111111111,4,2,15,60,0,0
50268,-50,4,2,15,60,0,0
50354,-50,4,2,15,5,0,0
50614,-50,4,2,15,60,0,0
51135,-111.111111111111,4,2,15,60,0,0
53042,-50,4,2,15,60,0,0
53128,-50,4,2,15,5,0,0
53389,-50,4,2,15,60,0,0
53909,-111.111111111111,4,2,15,60,0,0
54169,-111.111111111111,4,2,15,5,0,0
54256,-111.111111111111,4,2,15,60,0,0
55817,-50,4,2,15,60,0,0
55903,-50,4,2,15,5,0,0
56164,-50,4,2,15,60,0,0
56684,-100,4,2,15,60,0,0
56770,-100,4,2,15,5,0,0
56857,-100,4,2,15,60,0,0
57117,-100,4,2,15,5,0,0
57204,-100,4,2,15,60,0,0
57810,-100,4,2,15,5,0,0
57898,-100,4,2,15,60,0,0
58591,-50,4,2,15,60,0,0
58677,-50,4,2,15,5,0,0
58938,-50,4,2,15,60,0,0
59112,-100,4,2,15,60,0,0
59198,-100,4,2,15,5,0,0
59285,-100,4,2,15,60,0,0
59544,-100,4,2,15,5,0,0
59632,-100,4,2,15,60,0,0
60585,-100,4,2,15,5,0,0
60672,-100,4,2,15,60,0,0
61366,-50,4,2,15,60,0,0
61452,-50,4,2,15,5,0,0
61713,-50,4,2,15,60,0,0
61886,-100,4,2,15,60,0,0
61972,-100,4,2,15,5,0,0
62060,-100,4,2,15,60,0,0
62319,-100,4,2,15,5,0,0
62406,-100,4,2,15,60,0,0
63359,-100,4,2,15,5,0,0
63447,-100,4,2,15,60,0,0
64140,-50,4,2,15,60,0,0
64226,-50,4,2,15,5,0,0
64487,-50,4,2,15,60,0,0
64661,-100,4,2,15,60,0,0
64747,-100,4,2,15,5,0,0
64834,-100,4,2,15,60,0,0
66308,-100,4,2,15,5,0,0
66395,-66.6666666666667,4,2,15,60,0,0
66742,-90.9090909090909,4,2,15,60,0,0
67435,-333.333333333333,4,2,15,60,0,0
67695,-333.333333333333,4,2,15,5,0,0
67782,-100,4,2,15,70,0,0
77493,-100,4,2,3,70,0,0
77840,-100,4,2,1,70,0,0
78013,-100,4,2,13,70,0,0
78099,-100,4,2,2,70,0,0
78534,-50,4,2,2,90,0,0
78620,-50,4,2,2,5,0,0
78880,-50,4,2,16,85,0,1
80961,-83.3333333333333,4,2,16,85,0,1
99690,-83.3333333333333,4,2,3,85,0,1
100036,-83.3333333333333,4,2,1,85,0,1
100210,-83.3333333333333,4,2,13,85,0,1
100297,-83.3333333333333,4,2,2,85,0,1
100383,-83.3333333333333,4,2,13,85,0,1
100470,-83.3333333333333,4,2,2,85,0,1
100557,-83.3333333333333,4,2,13,85,0,1
100730,-50,4,2,2,90,0,1
100816,-50,4,2,2,5,0,1
101077,-50,4,2,1,70,0,0
101597,-50,4,2,2,70,0,0
102117,-100,4,2,3,70,0,0
102464,-100,4,2,1,70,0,0
102984,-100,4,2,2,70,0,0
103505,-100,4,2,4,70,0,0
103851,-80,4,2,5,70,0,0
104111,-80,4,2,5,5,0,0
104198,-80,4,2,5,70,0,0
104372,-80,4,2,4,70,0,0
104545,-80,4,2,2,70,0,0
104892,-80,4,2,4,70,0,0
105239,-80,4,2,5,70,0,0
105759,-80,4,2,6,70,0,0
106279,-100,4,2,7,70,0,0
106626,-100,4,2,1,70,0,0
107146,-100,4,2,2,70,0,0
107666,-100,4,2,3,70,0,0
108013,-100,4,2,1,70,0,0
108534,-100,4,2,8,70,0,0
109054,-100,4,2,9,70,0,0
109401,-80,4,2,10,70,0,0
109487,-80,4,2,10,5,0,0
109574,-80,4,2,9,70,0,0
109660,-80,4,2,9,5,0,0
109747,-80,4,2,9,70,0,0
109921,-80,4,2,8,70,0,0
110181,-80,4,2,8,5,0,0
110268,-80,4,2,1,70,0,0
110441,-80,4,2,8,70,0,0
110614,-80,4,2,9,70,0,0
110700,-80,4,2,9,5,0,0
110788,-80,4,2,10,70,0,0
111135,-80,4,2,9,70,0,0
111655,-100,4,2,9,70,0,0
111828,-66.6666666666667,4,2,9,70,0,0
112175,-66.6666666666667,4,2,1,70,0,0
112695,-66.6666666666667,4,2,2,70,0,0
113216,-66.6666666666667,4,2,3,70,0,0
113562,-66.6666666666667,4,2,1,70,0,0
114083,-66.6666666666667,4,2,2,70,0,0
114603,-90.9090909090909,4,2,4,70,0,0
114950,-80,4,2,5,70,0,0
115210,-80,4,2,5,5,0,0
115297,-80,4,2,5,70,0,0
115470,-80,4,2,4,70,0,0
115643,-80,4,2,2,70,0,0
115990,-80,4,2,4,70,0,0
116337,-80,4,2,5,70,0,0
116857,-80,4,2,6,70,0,0
117377,-90.9090909090909,4,2,7,70,0,0
117724,-90.9090909090909,4,2,1,70,0,0
118245,-90.9090909090909,4,2,2,70,0,0
118765,-90.9090909090909,4,2,3,70,0,0
119112,-90.9090909090909,4,2,1,70,0,0
119632,-90.9090909090909,4,2,8,70,0,0
120152,-90.9090909090909,4,2,9,70,0,0
120499,-66.6666666666667,4,2,10,70,0,0
120672,-66.6666666666667,4,2,9,70,0,0
121019,-66.6666666666667,4,2,8,70,0,0
121279,-66.6666666666667,4,2,8,5,0,0
121366,-66.6666666666667,4,2,1,70,0,0
121539,-66.6666666666667,4,2,8,70,0,0
121713,-66.6666666666667,4,2,9,70,0,0
121886,-66.6666666666667,4,2,11,70,0,0
122233,-90.9090909090909,4,2,1,70,0,0
122406,-90.9090909090909,4,2,12,70,0,0
122493,-90.9090909090909,4,2,2,70,0,0
122580,-90.9090909090909,4,2,13,70,0,0
122666,-90.9090909090909,4,2,2,70,0,0
122753,-90.9090909090909,4,2,13,70,0,0
122927,-90.9090909090909,4,2,7,90,0,0
123013,-90.9090909090909,4,2,5,90,0,0
123100,-90.9090909090909,4,2,4,90,0,0
123187,-90.9090909090909,4,2,1,90,0,0
123273,-90.9090909090909,4,2,8,90,0,0
123360,-90.9090909090909,4,2,15,90,0,0
123620,-90.9090909090909,4,2,15,60,0,0
124314,-111.111111111111,4,2,15,60,0,0
125181,-50,4,2,15,60,0,0
125267,-50,4,2,15,5,0,0
125528,-50,4,2,15,60,0,0
125701,-111.111111111111,4,2,15,60,0,0
125787,-111.111111111111,4,2,15,5,0,0
125875,-111.111111111111,4,2,15,60,0,0
126048,-80,4,2,15,60,0,0
126308,-80,4,2,15,5,0,0
126395,-80,4,2,15,60,0,0
126568,-111.111111111111,4,2,15,60,0,0
126828,-111.111111111111,4,2,15,5,0,0
126915,-111.111111111111,4,2,15,60,0,0
127174,-111.111111111111,4,2,15,5,0,0
127262,-111.111111111111,4,2,15,60,0,0
127435,-80,4,2,15,60,0,0
127695,-80,4,2,15,5,0,0
127782,-80,4,2,15,60,0,0
127956,-50,4,2,15,60,0,0
128042,-50,4,2,15,5,0,0
128302,-50,4,2,15,60,0,0
128476,-111.111111111111,4,2,15,60,0,0
128562,-111.111111111111,4,2,15,5,0,0
128649,-111.111111111111,4,2,15,60,0,0
128823,-80,4,2,15,60,0,0
129083,-80,4,2,15,5,0,0
129169,-80,4,2,15,60,0,0
129863,-111.111111111111,4,2,15,60,0,0
130730,-50,4,2,15,60,0,0
130816,-50,4,2,15,5,0,0
131077,-50,4,2,15,60,0,0
131250,-111.111111111111,4,2,15,60,0,0
131336,-111.111111111111,4,2,15,5,0,0
131424,-111.111111111111,4,2,15,60,0,0
131597,-80,4,2,15,60,0,0
131857,-80,4,2,15,5,0,0
131944,-80,4,2,15,60,0,0
132117,-111.111111111111,4,2,15,60,0,0
133505,-50,4,2,15,60,0,0
133591,-50,4,2,15,5,0,0
133851,-50,4,2,15,60,0,0
134025,-111.111111111111,4,2,15,60,0,0
134111,-111.111111111111,4,2,15,5,0,0
134198,-111.111111111111,4,2,15,50,0,0
134372,-80,4,2,15,60,0,0
134632,-80,4,2,15,5,0,0
134719,-80,4,2,15,50,0,0
135065,-100,4,2,15,50,0,0
140181,-100,4,2,15,5,0,0
140268,-100,4,2,15,50,0,0
142955,-100,4,2,15,5,0,0
143042,-100,4,2,15,50,0,0
145383,-100,4,2,15,5,0,0
145470,-100,4,2,15,70,0,0
155181,-100,4,2,3,70,0,0
155528,-100,4,2,1,70,0,0
155701,-100,4,2,13,70,0,0
155787,-100,4,2,2,70,0,0
156221,-50,4,2,2,90,0,0
156307,-50,4,2,2,5,0,0
156568,-50,4,2,16,85,0,1
158649,-83.3333333333333,4,2,16,85,0,1
177377,-83.3333333333333,4,2,3,85,0,1
177724,-83.3333333333333,4,2,1,85,0,1
177898,-83.3333333333333,4,2,13,85,0,1
177984,-83.3333333333333,4,2,2,85,0,1
178071,-83.3333333333333,4,2,13,85,0,1
178158,-83.3333333333333,4,2,2,85,0,1
178245,-83.3333333333333,4,2,13,85,0,1
178418,359.281437125749,4,2,2,90,1,1
178418,-50,4,2,2,90,0,1
178507,-50,4,2,2,5,0,1
178765,-50,4,2,16,5,0,1
178777,-127.129417747267,4,2,16,40,0,0
178855,326.530612244898,4,2,16,55,1,0
179346,341.880341880342,4,2,16,55,1,0
179859,370.37037037037,4,2,16,55,1,0
180044,-100,4,2,16,5,0,0
180229,338.028169014085,4,2,16,40,1,0
180229,-127.307447485678,4,2,16,40,0,0
180736,339.943342776204,4,2,16,55,1,0
181246,362.537764350453,4,2,16,55,1,0
181427,-100,4,2,16,5,0,0
181609,342.368045649073,4,2,16,40,1,0
181609,-144.46691707599,4,2,16,40,0,0
181950,332.871012482663,4,2,16,55,1,0
182283,364.741641337386,4,2,16,55,1,0
182647,344.827586206897,4,2,16,55,1,0
182992,344.827586206897,4,2,16,55,1,0
184027,359.281437125749,4,2,16,55,1,0
184206,-100,4,2,16,5,0,0
184386,345.821325648415,4,2,16,40,1,0
184386,-127.307447485678,4,2,16,40,0,0
184905,341.394025604552,4,2,16,55,1,0
185417,370.942812982999,4,2,16,55,1,0
185602,-100,4,2,16,5,0,0
185789,338.028169014085,4,2,16,40,1,0
185789,-125,4,2,16,40,0,0
186296,339.943342776204,4,2,16,55,1,0
186806,340.909090909091,4,2,16,55,1,0
186976,-100,4,2,16,5,0,0
187146,-146.348602370847,4,2,16,40,0,0
187489,356.612184249629,4,2,16,55,1,0
187845,357.142857142857,4,2,16,55,1,0
188202,348.837209302326,5,2,16,55,1,0
189776,-100,5,2,16,5,0,0
189947,339.943342776204,4,2,16,40,1,0
189947,-127.145581691036,4,2,16,40,0,0
190457,338.028169014085,4,2,16,55,1,0
190963,370.942812982999,4,2,16,55,1,0
191148,-100,4,2,16,5,0,0
191334,329.67032967033,4,2,16,40,1,0
191334,-131.147540983607,4,2,16,40,0,0
191829,351.906158357771,4,2,16,55,1,0
192357,355.029585798817,4,2,16,55,1,0
192534,-100,4,2,16,5,0,0
192712,345.323741007194,4,2,16,40,1,0
192712,-157.604412923562,4,2,16,40,0,0
193057,328.767123287671,4,2,16,55,1,0
193386,355.029585798817,4,2,16,55,1,0
193741,357.142857142857,4,2,16,55,1,0
194098,343.839541547278,4,2,16,55,1,0
195129,360.36036036036,4,2,16,55,1,0
195309,-100,4,2,16,5,0,0
195489,343.839541547278,4,2,16,40,1,0
195489,-125,4,2,16,40,0,0
196005,339.943342776204,4,2,16,55,1,0
196515,357.142857142857,4,2,16,55,1,0
196693,-100,4,2,16,5,0,0
196872,346.820809248555,4,2,16,40,1,0
196872,-125,4,2,16,40,0,0
197392,339.943342776204,4,2,16,55,1,0
197902,346.820809248555,4,2,16,55,1,0
198075,-100,4,2,16,5,0,0
198248,-168.49199663016,4,2,16,40,0,0
198596,351.906158357771,4,2,16,55,1,0
198948,340.909090909091,4,2,16,55,1,0
199289,334.261838440111,5,2,16,55,1,0
200961,346.820809248555,4,2,3,50,1,0
201307,-111.111111111111,4,2,1,50,0,0
201393,-111.111111111111,4,2,1,5,0,0
201481,-111.111111111111,4,2,13,50,0,0
201567,-111.111111111111,4,2,2,50,0,0
201654,-111.111111111111,4,2,13,50,0,0
201741,-111.111111111111,4,2,2,50,0,0
201828,-111.111111111111,4,2,13,50,0,0
202001,-111.111111111111,4,2,1,50,0,0
202087,-111.111111111111,4,2,1,5,0,0
202174,-111.111111111111,4,2,13,50,0,0
202261,-111.111111111111,4,2,2,50,0,0
202348,-111.111111111111,4,2,3,50,0,0
202434,-111.111111111111,4,2,3,5,0,0
202521,-111.111111111111,4,2,3,50,0,0
202695,-111.111111111111,4,2,1,50,0,0
202781,-111.111111111111,4,2,1,5,0,0
202868,-111.111111111111,4,2,13,50,0,0
202955,-111.111111111111,4,2,2,50,0,0
203041,-111.111111111111,4,2,13,50,0,0
203128,-111.111111111111,4,2,2,50,0,0
203215,-111.111111111111,4,2,13,50,0,0
203388,-111.111111111111,4,2,1,50,0,0
203474,-111.111111111111,4,2,13,50,0,0
203562,-111.111111111111,4,2,1,50,0,0
203648,-111.111111111111,4,2,2,50,0,0
203735,-111.111111111111,4,2,3,50,0,0
203821,-111.111111111111,4,2,3,5,0,0
203908,-111.111111111111,4,2,3,50,0,0
204082,-111.111111111111,4,2,1,50,0,0
204168,-111.111111111111,4,2,1,5,0,0
204255,-111.111111111111,4,2,13,50,0,0
204342,-111.111111111111,4,2,2,50,0,0
204429,-111.111111111111,4,2,13,50,0,0
204515,-111.111111111111,4,2,2,50,0,0
204602,-111.111111111111,4,2,13,50,0,0
204776,-111.111111111111,4,2,2,50,0,0
204949,-111.111111111111,4,2,13,50,0,0
205122,-111.111111111111,4,2,1,50,0,0
205208,-111.111111111111,4,2,1,5,0,0
205296,-111.111111111111,4,2,13,50,0,0
205382,-111.111111111111,4,2,2,50,0,0
205469,-111.111111111111,4,2,13,50,0,0
205643,-111.111111111111,4,2,1,50,0,0
205816,-111.111111111111,4,2,13,50,0,0
205902,-111.111111111111,4,2,2,50,0,0
205989,-111.111111111111,4,2,1,50,0,0
206249,-111.111111111111,4,2,1,5,0,0
206336,-111.111111111111,4,2,2,50,0,0
206510,-111.111111111111,4,2,3,50,0,0
206596,-111.111111111111,4,2,3,5,0,0
206683,-111.111111111111,4,2,3,50,0,0
206856,-111.111111111111,4,2,1,50,0,0
206942,-111.111111111111,4,2,1,5,0,0
207030,-111.111111111111,4,2,13,50,0,0
207117,-111.111111111111,4,2,2,50,0,0
207203,-111.111111111111,4,2,13,50,0,0
207290,-111.111111111111,4,2,2,50,0,0
207377,-111.111111111111,4,2,13,50,0,0
207550,-111.111111111111,4,2,1,50,0,0
207724,-111.111111111111,4,2,13,50,0,0
207810,-111.111111111111,4,2,2,50,0,0
207897,-111.111111111111,4,2,3,50,0,0
207983,-111.111111111111,4,2,3,5,0,0
208070,-111.111111111111,4,2,3,50,0,0
208244,-111.111111111111,4,2,1,50,0,0
208330,-111.111111111111,4,2,1,5,0,0
208417,-111.111111111111,4,2,13,50,0,0
208504,-111.111111111111,4,2,2,50,0,0
208591,-111.111111111111,4,2,13,50,0,0
208677,-111.111111111111,4,2,2,50,0,0
208764,-111.111111111111,4,2,13,50,0,0
208937,-111.111111111111,4,2,1,50,0,0
209023,-111.111111111111,4,2,13,50,0,0
209111,-111.111111111111,4,2,1,50,0,0
209197,-111.111111111111,4,2,2,50,0,0
209284,-111.111111111111,4,2,3,50,0,0
209370,-111.111111111111,4,2,3,5,0,0
209458,-111.111111111111,4,2,3,50,0,0
209631,-111.111111111111,4,2,1,50,0,0
209717,-111.111111111111,4,2,1,5,0,0
209804,-111.111111111111,4,2,13,50,0,0
209891,-111.111111111111,4,2,2,50,0,0
209978,-111.111111111111,4,2,13,50,0,0
210065,-111.111111111111,4,2,2,50,0,0
210151,-111.111111111111,4,2,13,50,0,0
210325,-111.111111111111,4,2,1,50,0,0
210411,-111.111111111111,4,2,1,5,0,0
210498,-111.111111111111,4,2,13,50,0,0
210671,-111.111111111111,4,2,1,50,0,0
210845,-111.111111111111,4,2,13,50,0,0
210932,-111.111111111111,4,2,2,50,0,0
211018,-111.111111111111,4,2,13,50,0,0
211192,-111.111111111111,4,2,1,50,0,0
211365,-111.111111111111,4,2,13,50,0,0
211452,-111.111111111111,4,2,2,50,0,0
211539,-111.111111111111,4,2,1,50,0,0
211798,-111.111111111111,4,2,1,5,0,0
211885,-111.111111111111,4,2,2,50,0,0
212059,-100,4,2,1,60,0,0
212579,-100,4,2,2,60,0,0
213099,-100,4,2,3,60,0,0
213359,-100,4,2,3,5,0,0
213446,-100,4,2,1,60,0,0
213879,-100,4,2,1,5,0,0
213966,-100,4,2,2,60,0,0
214487,-100,4,2,4,60,0,0
214833,-50,4,2,5,60,0,0
215180,-100,4,2,5,60,0,0
215354,-100,4,2,4,60,0,0
215527,-100,4,2,2,60,0,0
215874,-100,4,2,4,60,0,0
216134,-100,4,2,4,5,0,0
216221,-100,4,2,5,60,0,0
216741,-100,4,2,6,60,0,0
217261,-100,4,2,7,60,0,0
217347,-100,4,2,7,5,0,0
217434,-100,4,2,7,60,0,0
217608,-80,4,2,1,60,0,0
218128,-80,4,2,2,60,0,0
218302,-100,4,2,2,60,0,0
218648,-100,4,2,14,60,0,0
218908,-100,4,2,14,5,0,0
218995,-100,4,2,1,60,0,0
219517,-100,4,2,8,60,0,0
219602,-100,4,2,8,5,0,0
219689,-100,4,2,8,60,0,0
220036,-100,4,2,9,60,0,0
220382,-100,4,2,10,60,0,0
220556,-100,4,2,9,60,0,0
220903,-100,4,2,8,60,0,0
221250,-100,4,2,1,60,0,0
221423,-100,4,2,8,60,0,0
221596,-100,4,2,9,60,0,0
221770,-50,4,2,11,60,0,0
222029,-50,4,2,11,5,0,0
222117,-100,4,2,1,60,0,0
222290,-100,4,2,12,60,0,0
222377,-100,4,2,2,60,0,0
222810,-50,4,2,2,90,0,0
223157,-50,4,2,16,85,0,1
225238,-76.9230769230769,4,2,16,85,0,1
243966,-76.9230769230769,4,2,16,70,0,0
244313,-100,4,2,16,70,0,0
245007,-50,4,2,16,90,0,0
245093,-50,4,2,16,5,0,0
245354,-50,4,2,16,85,0,1
248128,-83.3333333333333,4,2,16,85,0,1
266163,-83.3333333333333,4,2,3,85,0,1
266510,-83.3333333333333,4,2,1,85,0,1
266683,-83.3333333333333,4,2,13,85,0,1
266770,-83.3333333333333,4,2,2,85,0,1
266856,-83.3333333333333,4,2,13,85,0,1
266943,-83.3333333333333,4,2,2,85,0,1
267030,-83.3333333333333,4,2,13,85,0,1
267203,-50,4,2,2,90,0,1
267289,-50,4,2,2,5,0,1
267550,-50,4,2,1,70,0,0
268070,-50,4,2,2,70,0,0
268591,-100,4,2,3,70,0,0
268937,-100,4,2,1,70,0,0
269458,-100,4,2,2,70,0,0
269978,-100,4,2,4,70,0,0
270325,-80,4,2,5,70,0,0
270585,-80,4,2,5,5,0,0
270671,-80,4,2,5,70,0,0
270845,-80,4,2,4,70,0,0
271018,-80,4,2,2,70,0,0
271365,-80,4,2,4,70,0,0
271712,-80,4,2,5,70,0,0
272232,-80,4,2,6,70,0,0
272752,-80,4,2,7,70,0,0
273099,-80,4,2,1,70,0,0
273619,-80,4,2,2,70,0,0
274140,-80,4,2,3,70,0,0
274487,-80,4,2,1,70,0,0
275007,-80,4,2,8,70,0,0
275527,-80,4,2,9,70,0,0
275787,-80,4,2,9,5,0,0
275874,-80,4,2,10,70,0,0
276047,-80,4,2,9,70,0,0
276394,-80,4,2,8,70,0,0
276741,-80,4,2,1,70,0,0
276914,-80,4,2,8,70,0,0
277088,-80,4,2,9,70,0,0
277261,-80,4,2,10,70,0,0
277608,-80,4,2,9,70,0,0
278302,-66.6666666666667,4,2,9,70,0,0
278648,-66.6666666666667,4,2,1,70,0,0
279169,-66.6666666666667,4,2,2,70,0,0
279689,-66.6666666666667,4,2,3,70,0,0
280036,-66.6666666666667,4,2,1,70,0,0
280556,-66.6666666666667,4,2,2,70,0,0
281076,-90.9090909090909,4,2,4,70,0,0
281423,-80,4,2,5,70,0,0
281683,-80,4,2,5,5,0,0
281770,-80,4,2,5,70,0,0
281943,-80,4,2,4,70,0,0
282117,-80,4,2,2,70,0,0
282463,-80,4,2,4,70,0,0
282810,-80,4,2,5,70,0,0
283330,-80,4,2,6,70,0,0
283851,-80,4,2,7,70,0,0
284197,-80,4,2,1,70,0,0
284718,-80,4,2,2,70,0,0
285238,-80,4,2,3,70,0,0
285585,-80,4,2,1,70,0,0
286105,-80,4,2,8,70,0,0
286625,-80,4,2,9,70,0,0
286972,-66.6666666666667,4,2,10,70,0,0
287145,-66.6666666666667,4,2,9,70,0,0
287492,-66.6666666666667,4,2,8,70,0,0
287752,-66.6666666666667,4,2,8,5,0,0
287839,-66.6666666666667,4,2,1,70,0,0
288013,-66.6666666666667,4,2,8,70,0,0
288186,-66.6666666666667,4,2,9,70,0,0
288359,-66.6666666666667,4,2,11,70,0,0
288706,-66.6666666666667,4,2,1,70,0,0
288880,-66.6666666666667,4,2,12,70,0,0
288966,-66.6666666666667,4,2,2,70,0,0
289053,-66.6666666666667,4,2,13,70,0,0
289140,-66.6666666666667,4,2,2,70,0,0
289226,-66.6666666666667,4,2,13,70,0,0
289400,-66.6666666666667,4,2,7,90,0,0
289487,-66.6666666666667,4,2,5,90,0,0
289573,-66.6666666666667,4,2,4,90,0,0
289660,-66.6666666666667,4,2,1,90,0,0
289747,-66.6666666666667,4,2,8,90,0,1
290093,-40,4,2,16,85,0,1
294949,-40,4,2,7,90,0,1
295036,-40,4,2,5,90,0,1
295122,-40,4,2,4,90,0,1
295209,-40,4,2,1,90,0,1
295296,-40,4,2,8,90,0,1
295643,-40,4,2,16,85,0,1
298070,-36.3636363636364,4,2,16,85,0,1
299458,-33.3333333333333,4,2,16,85,0,1
300498,-33.3333333333333,4,2,7,100,0,1
300585,-33.3333333333333,4,2,5,100,0,1
300671,-33.3333333333333,4,2,4,100,0,1
300758,-33.3333333333333,4,2,1,100,0,1
300845,-33.3333333333333,4,2,8,100,0,0
301539,-33.3333333333333,4,2,8,40,0,0
302233,-33.3333333333333,4,2,8,30,0,0
302927,-33.3333333333333,4,2,8,20,0,0
303620,-33.3333333333333,4,2,8,10,0,0
304314,-33.3333333333333,4,2,8,5,0,0

[Colours]
Combo1 : 192,192,192
Combo2 : 255,66,66
Combo3 : 0,102,204

[HitObjects]
112,64,1193,6,0,P|162:34|240:48,1,121.1,2|0,0:2|0:0,0:0:0:0:
185,130,1713,2,0,P|199:73|264:28,1,121.1,2|0,0:2|0:0,0:0:0:0:
285,124,2233,1,2,0:2:0:0:
288,144,2580,6,0,L|416:128,1,121.1,2|0,0:2|0:0,0:0:0:0:
288,240,3100,2,0,L|416:224,1,121.1,2|0,0:2|0:0,0:0:0:0:
288,336,3620,1,2,0:2:0:0:
272,352,4314,5,2,0:2:0:0:
176,336,4487,1,2,0:2:0:0:
80,320,4661,6,0,P|64:288|96:304,1,90.8249999999999,2|0,0:2|0:0,0:0:0:0:
180,236,5008,6,0,P|203:191|156:209,1,123.2625,2|0,0:2|0:0,0:0:0:0:
32,188,5354,6,0,P|-5:133|35:187,1,207.6,2|0,0:2|0:0,0:0:0:0:
148,92,5875,6,0,P|200:84|268:128,1,121.1,2|0,0:2|0:0,0:0:0:0:
180,236,6395,2,0,P|184:206|188:177,1,60.5499999999999,2|0,0:2|0:0,0:0:0:0:
304,16,6742,6,0,L|288:144,1,121.1,2|0,0:2|0:0,0:0:0:0:
400,48,7262,2,0,L|384:176,1,121.1,2|0,0:2|0:0,0:0:0:0:
496,80,7782,1,2,0:2:0:0:
492,112,8129,6,0,L|476:240,1,121.1,2|0,0:2|0:0,0:0:0:0:
372,364,8649,6,0,B|324:372|274:349|292:316|244:292|196:300,1,194.625,2|0,0:2|0:0,0:0:0:0:
356,268,9169,5,2,0:2:0:0:
384,272,9516,5,2,0:2:0:0:
176,144,9690,2,0,L|192:224,1,60.5499999999999,2|0,0:2|0:0,0:0:0:0:
320,112,10036,2,0,L|242:85,1,60.5499999999999,2|0,0:2|0:0,0:0:0:0:
128,48,10383,1,2,0:2:0:0:
352,16,10557,1,2,0:2:0:0:
288,208,10730,1,2,0:2:0:0:
240,368,10903,6,0,P|304:304|400:320,1,194.625,2|0,0:2|0:0,0:0:0:0:
512,357,11424,6,0,B|496:233|496:233|487:179|408:160|375:222,1,272.475,2|0,0:2|0:0,0:0:0:0:
399,319,12291,5,6,3:2:0:0:
492,101,12638,1,8,0:2:0:0:
304,35,12811,2,0,L|320:115,1,77.8500000000001,2|0,0:2|0:0,0:0:0:0:
352,224,13158,1,0,3:0:0:0:
192,320,13331,2,0,P|160:288|160:208,1,116.775,10|0,0:2|0:0,0:0:0:0:
192,128,13678,5,2,3:2:0:0:
256,384,14025,5,8,0:2:0:0:
78,204,14198,2,0,L|158:220,1,77.8500000000001,2|0,3:2|0:0,0:0:0:0:
256,240,14545,1,0,3:0:0:0:
400,64,14719,5,10,0:2:0:0:
192,320,15065,5,0,3:0:0:0:
96,112,15412,5,10,0:2:0:0:
288,152,15586,1,2,0:2:0:0:
448,188,15759,2,0,L|464:300,1,77.8500000000001,2|0,0:2|3:0,0:0:0:0:
336,336,16106,2,0,L|351:259,1,77.8500000000001,10|0,0:2|0:0,0:0:0:0:
480,48,16453,6,0,P|448:80|352:96,1,116.775,2|0,3:2|0:0,0:0:0:0:
288,48,16799,1,8,0:2:0:0:
188,228,16973,2,0,P|172:284|224:248,1,155.7,2|0,3:2|3:0,0:0:0:0:
200,0,17493,1,10,0:2:0:0:
176,16,17840,5,2,3:2:0:0:
80,272,18187,1,8,0:2:0:0:
256,144,18360,6,0,L|336:128,1,77.8500000000001,2|0,0:2|0:0,0:0:0:0:
464,96,18707,1,0,3:0:0:0:
368,288,18880,2,0,L|314:226,1,77.8500000000001,10|0,0:2|0:0,0:0:0:0:
176,96,19227,6,0,P|160:160|101:200,1,116.775,2|0,3:2|0:0,0:0:0:0:
80,105,19574,1,8,0:2:0:0:
175,298,19747,1,2,3:2:0:0:
256,48,20094,5,0,3:0:0:0:
464,96,20268,2,0,L|448:208,1,86.5000000000001,10|0,0:2|0:0,0:0:0:0:
416,368,20614,5,2,3:2:0:0:
364,124,20788,2,0,L|348:236,1,86.5000000000001,2|8,0:2|0:2,0:0:0:0:
328,376,21135,1,2,0:2:0:0:
80,272,21482,5,2,3:2:0:0:
224,216,21655,1,10,0:2:0:0:
458,130,21828,1,2,0:2:0:0:
256,24,22002,5,6,3:2:0:0:
240,120,22175,1,0,3:0:0:0:
208,304,22349,1,8,0:3:0:0:
104,168,22522,2,0,L|152:152,1,43.25,2|8,0:2|0:2,0:0:0:0:
240,120,22695,1,2,0:2:0:0:
197,114,22782,1,8,0:2:0:0:
154,108,22869,1,2,0:2:0:0:
111,102,22956,1,2,0:2:0:0:
64,96,23042,6,0,P|36:96|65:90,1,86.5,4|0,0:2|0:0,0:0:0:0:
208,304,23389,5,6,3:2:0:0:
250,297,23476,1,0,0:0:0:0:
293,291,23562,1,0,0:0:0:0:
336,285,23649,1,0,0:0:0:0:
379,279,23736,1,8,0:2:0:0:
422,273,23823,1,0,0:0:0:0:
456,268,23909,5,2,0:2:0:0:
414,258,23996,1,0,0:0:0:0:
386,225,24083,1,0,0:0:0:0:
382,183,24169,1,0,0:0:0:0:
404,146,24256,1,0,3:0:0:0:
443,129,24343,1,0,0:0:0:0:
480,128,24429,2,0,L|448:192,3,43.25,10|0|0|0,0:2|0:0|0:0|0:0,0:0:0:0:
272,48,24776,5,2,3:2:0:0:
278,90,24863,1,0,0:0:0:0:
284,133,24950,1,0,0:0:0:0:
290,176,25036,1,0,0:0:0:0:
296,219,25123,1,8,0:2:0:0:
302,262,25210,1,0,0:0:0:0:
308,304,25297,5,2,3:2:0:0:
283,269,25383,1,0,0:0:0:0:
244,252,25470,1,0,0:0:0:0:
202,259,25557,1,0,0:0:0:0:
169,287,25643,1,0,3:0:0:0:
157,327,25730,1,0,0:0:0:0:
167,373,25817,2,0,L|223:349,3,43.25,10|0|0|0,0:2|0:0|0:0|0:0,0:0:0:0:
48,288,26164,6,0,B|64:224|64:224|96:192|96:192|112:128,1,162.1875,0|0,3:0|0:0,0:0:0:0:
128,48,26510,1,10,0:2:0:0:
187,246,26684,1,2,0:2:0:0:
0,120,26857,1,2,0:2:0:0:
108,60,27031,1,0,3:0:0:0:
20,207,27204,5,10,0:2:0:0:
80,368,27377,1,0,0:0:0:0:
187,246,27551,5,2,3:2:0:0:
201,223,27638,1,0,0:0:0:0:
227,220,27724,1,0,0:0:0:0:
246,239,27811,1,0,0:0:0:0:
243,266,27898,1,8,0:2:0:0:
220,280,27984,1,0,0:0:0:0:
192,272,28071,5,2,3:2:0:0:
195,284,28158,1,0,0:0:0:0:
198,297,28245,1,0,0:0:0:0:
201,310,28331,1,0,0:0:0:0:
205,323,28418,1,0,3:0:0:0:
208,337,28505,1,0,0:0:0:0:
210,350,28591,2,0,L|256:368,3,43.25,10|0|0|0,0:2|0:0|0:0|0:0,0:0:0:0:
64,368,28938,5,2,3:2:0:0:
71,325,29025,1,0,0:0:0:0:
79,282,29112,1,0,0:0:0:0:
86,240,29198,1,0,0:0:0:0:
94,197,29285,1,8,0:2:0:0:
101,155,29372,1,0,0:0:0:0:
112,120,29458,5,2,0:2:0:0:
115,136,29545,1,0,0:0:0:0:
119,153,29632,1,0,0:0:0:0:
122,170,29719,1,0,0:0:0:0:
126,187,29805,1,0,3:0:0:0:
129,204,29892,1,0,0:0:0:0:
132,220,29979,2,0,L|144:176,3,43.25,10|0|0|0,0:2|0:0|0:0|0:0,0:0:0:0:
152,332,30325,5,2,3:2:0:0:
168,292,30412,1,0,0:0:0:0:
200,264,30499,1,0,0:0:0:0:
242,253,30586,1,0,0:0:0:0:
283,263,30672,1,8,0:2:0:0:
316,291,30759,1,0,0:0:0:0:
336,328,30846,5,2,3:2:0:0:
328,285,30932,1,0,0:0:0:0:
320,242,31019,1,0,0:0:0:0:
313,200,31106,1,0,0:0:0:0:
305,157,31193,1,0,3:0:0:0:
298,115,31279,1,0,0:0:0:0:
288,72,31366,6,0,B|328:48|376:72|365:96|409:127|464:100,1,162.1875,10|0,0:2|0:0,0:0:0:0:
212,134,31713,1,2,3:2:0:0:
408,208,31886,2,0,P|461:208|508:183,1,108.125,2|8,0:2|0:2,0:0:0:0:
240,336,32233,2,0,L|224:208,1,108.125,2|0,0:2|0:0,0:0:0:0:
200,32,32580,1,2,3:2:0:0:
288,72,32753,1,10,0:2:0:0:
128,184,32927,1,2,0:2:0:0:
305,172,33100,5,2,3:2:0:0:
331,163,33187,1,0,0:0:0:0:
354,177,33273,1,0,0:0:0:0:
357,204,33360,1,0,0:0:0:0:
338,223,33447,1,8,0:2:0:0:
311,220,33534,1,0,0:0:0:0:
297,198,33620,5,2,3:2:0:0:
323,194,33707,1,0,0:0:0:0:
350,191,33794,1,0,0:0:0:0:
377,188,33880,1,0,0:0:0:0:
404,184,33967,2,0,L|484:172,1,54.0625,0|0,3:0|0:0,0:0:0:0:
352,384,34140,6,0,L|344:312,1,64.875,8|0,0:2|0:0,0:0:0:0:
224,96,34314,2,0,L|216:160,1,64.875,0|0,3:0|0:0,0:0:0:0:
156,304,34487,5,6,3:2:0:0:
174,275,34574,1,0,0:0:0:0:
207,269,34661,1,0,0:0:0:0:
235,288,34747,1,0,0:0:0:0:
241,321,34834,1,8,0:2:0:0:
221,349,34921,1,0,0:0:0:0:
188,348,35008,5,2,0:2:0:0:
194,305,35094,1,0,0:0:0:0:
200,262,35181,1,0,0:0:0:0:
206,219,35268,1,0,0:0:0:0:
213,177,35354,1,0,3:0:0:0:
219,134,35441,1,0,0:0:0:0:
224,96,35528,2,0,L|176:112,3,43.25,10|0|0|0,0:2|0:0|0:0|0:0,0:0:0:0:
312,24,35875,5,2,3:2:0:0:
306,44,35961,1,0,0:0:0:0:
309,65,36048,1,0,0:0:0:0:
321,85,36135,1,0,0:0:0:0:
339,96,36221,1,8,0:2:0:0:
360,100,36308,1,0,0:0:0:0:
376,96,36395,5,2,3:2:0:0:
372,139,36482,1,0,0:0:0:0:
368,182,36568,1,0,0:0:0:0:
360,224,36655,1,0,0:0:0:0:
360,268,36742,1,0,3:0:0:0:
356,311,36828,1,0,0:0:0:0:
352,352,36915,2,0,L|400:336,3,43.25,10|0|0|0,0:2|0:0|0:0|0:0,0:0:0:0:
256,320,37262,6,0,B|192:336|192:336|144:320|144:320|80:336,1,162.1875,0|0,3:0|0:0,0:0:0:0:
8,360,37609,5,10,0:2:0:0:
200,236,37782,1,2,0:2:0:0:
40,164,37956,1,2,0:2:0:0:
25,263,38129,1,0,3:0:0:0:
268,168,38302,5,10,0:2:0:0:
56,64,38476,1,0,0:0:0:0:
111,250,38649,5,2,3:2:0:0:
113,277,38736,1,0,0:0:0:0:
95,295,38823,1,0,0:0:0:0:
69,293,38909,1,0,0:0:0:0:
52,270,38996,1,8,0:2:0:0:
64,248,39083,1,0,0:0:0:0:
88,240,39169,5,2,3:2:0:0:
89,259,39256,1,0,0:0:0:0:
91,280,39343,1,0,0:0:0:0:
93,302,39429,1,0,0:0:0:0:
97,321,39516,1,0,3:0:0:0:
99,341,39603,1,0,0:0:0:0:
102,358,39690,2,0,L|170:367,3,54.0625,10|0|0|0,0:2|0:0|0:0|0:0,0:0:0:0:
236,376,40036,5,2,3:2:0:0:
230,333,40123,1,0,0:0:0:0:
250,295,40210,1,0,0:0:0:0:
287,276,40297,1,0,0:0:0:0:
329,281,40383,1,8,0:2:0:0:
361,309,40470,1,0,0:0:0:0:
372,352,40557,5,2,0:2:0:0:
377,309,40643,1,0,0:0:0:0:
382,266,40730,1,0,0:0:0:0:
387,223,40817,1,0,0:0:0:0:
392,180,40903,1,0,3:0:0:0:
397,137,40990,1,0,0:0:0:0:
402,94,41077,2,0,L|412:20,3,43.25,10|0|0|0,0:2|0:0|0:0|0:0,0:0:0:0:
487,108,41424,5,2,3:2:0:0:
469,146,41510,1,0,0:0:0:0:
435,172,41597,1,0,0:0:0:0:
392,180,41684,1,0,0:0:0:0:
352,166,41771,1,8,0:2:0:0:
322,135,41857,1,0,0:0:0:0:
316,92,41944,5,2,3:2:0:0:
269,98,42031,1,0,0:0:0:0:
222,104,42117,1,0,0:0:0:0:
175,109,42204,1,0,0:0:0:0:
127,115,42291,1,0,3:0:0:0:
80,120,42377,1,0,0:0:0:0:
28,128,42464,6,0,B|-8:176|-8:176|24:304,1,162.1875,10|0,0:2|0:0,0:0:0:0:
48,372,42811,1,2,3:2:0:0:
240,192,42984,2,0,L|268:299,1,108.125,2|8,0:2|0:2,0:0:0:0:
55,23,43331,2,0,L|27:130,1,108.125,2|0,0:2|0:0,0:0:0:0:
152,272,43678,1,2,3:2:0:0:
269,105,43851,1,10,0:2:0:0:
488,176,44025,1,2,0:2:0:0:
344,296,44198,5,2,3:2:0:0:
304,200,44372,1,0,3:0:0:0:
232,16,44545,1,8,0:3:0:0:
156,240,44719,2,0,L|220:224,1,54.0625,2|8,0:2|0:2,0:0:0:0:
304,200,44892,5,2,0:2:0:0:
356,213,44979,1,8,0:2:0:0:
408,226,45065,1,2,0:2:0:0:
461,239,45152,1,2,0:2:0:0:
476,260,45239,5,6,0:2:0:0:
486,329,45325,1,2,0:2:0:0:
423,360,45412,1,2,0:2:0:0:
374,311,45499,1,2,0:2:0:0:
404,248,45586,1,6,3:2:0:0:
404,248,45932,5,10,0:2:0:0:
272,288,46106,1,2,0:0:0:0:
128,336,46279,1,2,0:0:0:0:
256,192,46453,1,0,3:0:0:0:
64,96,46626,2,0,L|48:192,1,77.8500000000001,10|0,0:2|0:0,0:0:0:0:
232,32,46973,6,0,B|272:16|312:40|304:56|352:96|400:64,1,155.7,2|8,3:2|0:2,0:0:0:0:
472,56,47493,6,0,P|500:40|468:48,1,86.5,2|0,3:2|0:0,0:0:0:0:
472,56,47840,5,0,3:0:0:0:
445,229,48013,2,0,L|461:133,1,77.8500000000001,10|0,0:2|0:0,0:0:0:0:
270,307,48360,6,0,L|254:179,1,116.775,2|0,3:2|0:0,0:0:0:0:
244,96,48707,1,10,0:2:0:0:
231,0,48880,2,0,P|279:8|320:40,1,77.8500000000001,2|0,0:0|0:0,0:0:0:0:
160,152,49227,1,0,3:0:0:0:
344,112,49401,1,10,0:2:0:0:
148,52,49574,1,0,0:0:0:0:
16,207,49747,6,0,B|56:191|96:215|88:231|136:271|184:239,1,155.7,2|8,3:2|0:2,0:0:0:0:
31,299,50268,6,0,P|34:331|39:298,1,86.5,2|0,3:2|0:0,0:0:0:0:
31,299,50614,5,0,3:0:0:0:
160,248,50788,1,8,0:2:0:0:
336,184,50961,1,0,0:0:0:0:
244,328,51135,6,0,L|260:248,1,77.8500000000001,0|0,3:0|0:0,0:0:0:0:
288,96,51482,1,10,0:2:0:0:
308,0,51655,1,2,0:0:0:0:
432,152,51828,1,2,0:0:0:0:
248,216,52002,1,0,3:0:0:0:
368,352,52175,2,0,L|352:272,1,77.8500000000001,10|0,0:2|0:0,0:0:0:0:
264,120,52522,6,0,B|224:104|184:128|192:148|144:184|96:152,1,155.7,2|8,3:2|0:2,0:0:0:0:
123,67,53042,6,0,P|120:35|115:68,1,86.5,2|0,3:2|0:0,0:0:0:0:
123,67,53389,5,0,3:0:0:0:
76,232,53562,1,10,0:2:0:0:
44,328,53736,1,0,0:0:0:0:
248,216,53909,6,0,L|376:232,1,116.775,2|0,3:2|0:0,0:0:0:0:
464,244,54256,1,10,0:2:0:0:
248,43,54429,2,0,L|264:123,1,77.8500000000001,2|0,0:0|0:0,0:0:0:0:
296,316,54776,1,0,3:0:0:0:
408,152,54950,1,10,0:2:0:0:
464,72,55123,1,0,0:0:0:0:
248,216,55297,6,0,P|192:263|112:248,1,155.7,2|8,3:2|0:2,0:0:0:0:
168,136,55817,6,0,P|164:168|151:138,1,86.5,2|0,3:2|0:0,0:0:0:0:
168,136,56164,5,0,3:0:0:0:
115,250,56337,1,8,0:2:0:0:
208,360,56510,1,0,0:0:0:0:
408,152,56684,6,0,L|400:208,1,43.25,4|0,3:2|0:0,0:0:0:0:
388,292,56857,1,0,0:0:0:0:
273,181,57031,2,0,L|337:165,1,43.25,10|0,0:2|0:0,0:0:0:0:
408,152,57204,1,2,0:0:0:0:
480,256,57377,1,2,0:0:0:0:
496,112,57551,1,0,3:0:0:0:
352,32,57724,2,0,L|368:80,1,43.25,10|0,0:2|0:0,0:0:0:0:
408,152,57898,1,0,0:0:0:0:
285,268,58071,6,0,B|240:284|200:248|208:228|160:208|112:228,1,173,2|8,3:2|0:2,0:0:0:0:
128,320,58591,6,0,P|140:349|145:317,1,86.5,2|0,3:2|0:0,0:0:0:0:
128,320,58938,5,0,3:0:0:0:
80,128,59112,2,0,L|144:112,1,43.25,10|0,0:2|0:0,0:0:0:0:
216,92,59285,1,0,0:0:0:0:
24,268,59458,6,0,L|72:252,1,43.25,2|0,3:2|0:0,0:0:0:0:
164,224,59632,1,0,0:0:0:0:
328,176,59805,1,10,0:2:0:0:
228,296,59979,2,0,L|328:324,1,86.5,2|0,0:0|0:0,0:0:0:0:
416,208,60325,1,0,3:0:0:0:
200,128,60499,2,0,L|248:144,1,43.25,10|0,0:2|0:0,0:0:0:0:
328,176,60672,1,0,0:0:0:0:
376,32,60846,6,0,B|336:144|336:144|368:192,1,173,2|8,3:2|0:2,0:0:0:0:
448,128,61366,6,0,P|477:115|445:110,1,86.5,2|0,3:2|0:0,0:0:0:0:
448,128,61713,5,0,3:0:0:0:
336,288,61886,2,0,L|400:272,1,43.25,8|0,0:2|0:0,0:0:0:0:
472,256,62060,1,0,0:0:0:0:
256,240,62233,6,0,L|240:288,1,43.25,0|0,3:0|0:0,0:0:0:0:
216,372,62406,1,0,0:0:0:0:
80,224,62580,1,10,0:2:0:0:
288,144,62753,1,2,0:0:0:0:
320,48,62927,1,2,0:0:0:0:
256,240,63100,1,0,3:0:0:0:
160,176,63273,2,0,L|224:160,1,43.25,10|0,0:2|0:0,0:0:0:0:
288,144,63447,1,0,0:0:0:0:
49,53,63620,6,0,L|81:232,1,173,2|8,3:2|0:2,0:0:0:0:
96,320,64140,6,0,P|113:347|112:314,1,86.5,2|0,3:2|0:0,0:0:0:0:
96,320,64487,5,0,3:0:0:0:
256,240,64661,2,0,L|240:288,1,43.25,10|0,0:2|0:0,0:0:0:0:
212,372,64834,1,0,0:0:0:0:
224,152,65008,6,0,P|260:144|324:176,1,86.5,2|0,3:2|0:0,0:0:0:0:
464,288,65354,1,10,0:2:0:0:
352,375,65528,2,0,L|368:271,1,86.5,2|0,0:0|0:0,0:0:0:0:
396,96,65875,1,0,3:0:0:0:
464,288,66048,2,0,L|480:160,1,129.75,10|0,0:2|0:0,0:0:0:0:
496,48,66395,6,0,L|352:64,1,129.75,6|0,3:2|0:0,0:0:0:0:
317,163,66742,6,0,L|221:147,1,95.15,2|0,0:0|0:0,0:0:0:0:
128,128,67088,1,2,0:0:0:0:
208,240,67262,1,0,3:0:0:0:
64,336,67435,6,0,L|80:288,1,38.925,10|0,0:2|0:0,0:0:0:0:
128,128,67782,6,0,L|144:192,1,43.25,6|0,3:2|0:0,0:0:0:0:
208,368,67956,2,0,L|218:326,1,43.25,2|0,0:0|0:0,0:0:0:0:
272,160,68129,2,0,L|230:146,1,43.25,10|0,0:2|0:0,0:0:0:0:
272,144,68302,2,0,L|230:130,1,43.25,2|0,0:0|0:0,0:0:0:0:
320,336,68476,6,0,L|368:320,1,43.25,2|0,0:0|0:0,0:0:0:0:
416,176,68649,2,0,L|368:160,1,43.25,2|0,3:2|0:0,0:0:0:0:
464,304,68823,2,0,L|480:240,1,43.25,10|0,0:2|0:0,0:0:0:0:
480,304,68996,2,0,L|496:240,1,43.25,2|0,0:0|0:0,0:0:0:0:
480,48,69169,6,0,L|464:96,1,43.25,2|0,3:2|0:0,0:0:0:0:
374,162,69343,2,0,L|360:120,1,43.25,2|0,0:0|0:0,0:0:0:0:
288,16,69516,2,0,L|336:32,1,43.25,10|0,0:2|0:0,0:0:0:0:
272,160,69690,6,0,L|224:176,1,43.25,2|0,3:2|0:0,0:0:0:0:
192,16,69863,2,0,L|176:64,1,43.25,2|0,0:0|0:0,0:0:0:0:
128,224,70036,2,0,L|144:176,1,43.25,2|0,3:2|0:0,0:0:0:0:
80,16,70210,6,0,L|96:64,1,43.25,10|0,0:2|0:0,0:0:0:0:
64,32,70383,2,0,L|80:80,1,43.25,2|0,0:0|0:0,0:0:0:0:
128,320,70557,6,0,L|176:304,1,43.25,2|0,3:2|0:0,0:0:0:0:
272,160,70730,2,0,L|230:173,1,43.25,2|0,0:0|0:0,0:0:0:0:
272,304,70903,2,0,L|288:256,1,43.25,10|0,0:2|0:0,0:0:0:0:
288,320,71077,2,0,L|304:272,1,43.25,2|0,0:0|0:0,0:0:0:0:
360,112,71250,6,0,L|376:176,1,43.25,2|0,0:0|0:0,0:0:0:0:
424,356,71424,2,0,L|382:342,1,43.25,2|0,3:2|0:0,0:0:0:0:
464,144,71597,2,0,L|480:208,1,43.25,10|0,0:2|0:0,0:0:0:0:
480,128,71771,2,0,L|496:192,1,43.25,2|0,0:0|0:0,0:0:0:0:
288,32,71944,6,0,L|272:80,1,43.25,2|0,3:2|0:0,0:0:0:0:
208,272,72117,2,0,L|160:256,1,43.25,2|0,0:0|0:0,0:0:0:0:
112,16,72291,2,0,L|160:32,1,43.25,10|0,0:2|0:0,0:0:0:0:
80,240,72464,6,0,L|96:192,1,43.25,2|0,3:2|0:0,0:0:0:0:
240,160,72638,2,0,L|176:144,1,43.25,2|0,0:0|0:0,0:0:0:0:
24,96,72811,2,0,L|8:160,1,43.25,2|0,3:2|0:0,0:0:0:0:
197,313,72984,6,0,L|207:271,1,43.25,10|0,0:2|0:0,0:0:0:0:
216,320,73158,2,0,L|226:278,1,43.25,2|0,0:0|0:0,0:0:0:0:
112,152,73331,6,0,L|98:193,1,43.25,6|0,3:2|0:0,0:0:0:0:
352,144,73505,2,0,L|336:192,1,43.25,2|0,0:0|0:0,0:0:0:0:
194,43,73678,2,0,L|146:27,1,43.25,10|0,0:2|0:0,0:0:0:0:
192,64,73851,2,0,L|144:48,1,43.25,2|0,0:0|0:0,0:0:0:0:
211,206,74025,6,0,L|195:158,1,43.25,2|0,0:0|0:0,0:0:0:0:
400,16,74198,2,0,L|384:64,1,43.25,2|0,3:2|0:0,0:0:0:0:
448,240,74372,2,0,L|400:256,1,43.25,10|0,0:2|0:0,0:0:0:0:
448,256,74545,2,0,L|400:272,1,43.25,2|0,0:0|0:0,0:0:0:0:
288,80,74719,6,0,L|304:128,1,43.25,6|0,3:2|0:0,0:0:0:0:
208,264,74892,2,0,L|224:216,1,43.25,2|0,0:0|0:0,0:0:0:0:
192,64,75065,2,0,L|208:112,1,43.25,10|0,0:2|0:0,0:0:0:0:
300,280,75239,6,0,L|316:232,1,43.25,2|0,3:2|0:0,0:0:0:0:
288,80,75412,2,0,L|304:128,1,43.25,2|0,0:0|0:0,0:0:0:0:
216,320,75586,2,0,L|203:279,1,43.25,2|0,3:2|0:0,0:0:0:0:
80,128,75759,6,0,L|128:144,1,43.25,10|0,0:2|0:0,0:0:0:0:
80,144,75932,2,0,L|128:160,1,43.25,2|0,0:0|0:0,0:0:0:0:
336,240,76106,6,0,L|384:224,1,43.25,6|0,3:2|0:0,0:0:0:0:
192,64,76279,2,0,L|208:112,1,43.25,2|0,0:0|0:0,0:0:0:0:
400,32,76453,2,0,L|384:80,1,43.25,10|0,0:2|0:0,0:0:0:0:
416,32,76626,2,0,L|400:80,1,43.25,2|0,0:0|0:0,0:0:0:0:
368,368,76799,6,0,L|352:304,1,43.25,6|0,0:2|0:0,0:0:0:0:
308,96,76973,2,0,L|292:144,1,43.25,2|0,3:2|0:0,0:0:0:0:
208,320,77146,6,0,L|240:304,6,21.625,10|0|0|0|2|0|0,0:2|0:0|0:0|0:0|0:2|0:0|0:0,0:0:0:0:
176,336,77493,5,4,3:2:0:0:
320,256,77666,1,0,3:0:0:0:
288,24,77840,1,8,0:3:0:0:
448,208,78013,6,0,L|400:224,1,43.25,2|8,0:2|0:2,0:0:0:0:
320,256,78187,2,0,L|336:288,6,21.625,8|8|8|8|8|8|8,0:2|0:2|0:2|0:2|0:2|0:2|0:2,0:0:0:0:
284,168,78534,6,0,P|301:143|292:172,1,86.5,4|0,0:2|0:0,0:0:0:0:
284,168,78880,5,6,3:2:0:0:
284,151,78967,1,0,0:0:0:0:
285,136,79054,1,0,0:0:0:0:
285,120,79140,1,0,0:0:0:0:
286,104,79227,1,8,0:2:0:0:
286,88,79314,1,0,0:0:0:0:
287,73,79401,1,0,0:0:0:0:
287,56,79487,1,0,0:0:0:0:
288,43,79574,5,2,0:0:0:0:
312,53,79661,1,0,0:0:0:0:
337,66,79747,1,0,3:0:0:0:
364,78,79834,1,0,0:0:0:0:
390,91,79921,1,8,0:2:0:0:
415,103,80008,1,0,0:0:0:0:
441,116,80094,1,0,0:0:0:0:
468,128,80181,1,0,0:0:0:0:
493,145,80268,5,2,3:2:0:0:
456,155,80354,1,0,0:0:0:0:
418,166,80441,1,0,0:0:0:0:
381,178,80528,1,0,0:0:0:0:
344,190,80614,1,8,0:2:0:0:
306,203,80701,1,0,0:0:0:0:
268,214,80788,1,0,3:0:0:0:
231,227,80875,1,0,0:0:0:0:
192,240,80961,2,0,L|184:296,3,51.9,2|0|0|0,0:0|0:0|3:0|0:0,0:0:0:0:
256,95,81308,2,0,L|264:147,3,51.9,10|0|0|0,0:2|0:0|0:0|0:0,0:0:0:0:
104,291,81655,6,0,L|112:240,1,51.9,2|0,3:2|0:0,0:0:0:0:
169,108,81828,2,0,L|176:160,1,51.9,2|0,0:0|0:0,0:0:0:0:
184,299,82002,2,0,L|192:248,1,51.9,10|0,0:2|0:0,0:0:0:0:
256,95,82175,2,0,L|264:147,1,51.9,2|0,0:0|0:0,0:0:0:0:
272,328,82349,6,0,L|324:321,1,51.9,2|0,0:0|0:0,0:0:0:0:
88,144,82522,2,0,L|36:150,1,51.9,2|0,3:2|0:0,0:0:0:0:
284,237,82695,2,0,L|336:230,1,51.9,10|0,0:2|0:0,0:0:0:0:
100,53,82869,2,0,L|48:59,1,51.9,2|0,0:0|0:0,0:0:0:0:
292,148,83042,5,0,3:0:0:0:
304,146,83129,1,0,0:0:0:0:
317,144,83216,1,0,0:0:0:0:
330,142,83302,1,0,0:0:0:0:
343,141,83389,1,8,0:2:0:0:
356,139,83476,1,0,0:0:0:0:
369,137,83562,1,0,3:0:0:0:
382,135,83649,1,0,0:0:0:0:
391,134,83736,1,0,0:0:0:0:
403,132,83823,1,0,0:0:0:0:
416,130,83909,1,0,3:0:0:0:
429,128,83996,1,0,0:0:0:0:
440,128,84083,5,10,0:2:0:0:
414,119,84169,1,0,0:0:0:0:
388,114,84256,1,0,0:0:0:0:
363,110,84343,1,0,0:0:0:0:
336,104,84429,5,2,3:2:0:0:
319,55,84516,1,0,0:0:0:0:
281,21,84603,1,0,0:0:0:0:
230,11,84690,1,0,0:0:0:0:
182,27,84776,1,8,0:2:0:0:
147,65,84863,1,0,0:0:0:0:
137,115,84950,1,0,0:0:0:0:
152,164,85036,1,0,0:0:0:0:
168,176,85123,5,2,0:0:0:0:
181,137,85210,1,0,0:0:0:0:
211,109,85297,1,0,3:0:0:0:
252,101,85383,1,0,0:0:0:0:
291,114,85470,1,8,0:2:0:0:
318,144,85557,1,0,0:0:0:0:
327,185,85643,1,0,0:0:0:0:
314,224,85730,1,0,0:0:0:0:
304,232,85817,5,2,3:2:0:0:
294,204,85903,1,0,0:0:0:0:
273,185,85990,1,0,0:0:0:0:
245,179,86077,1,0,0:0:0:0:
217,188,86164,1,8,0:2:0:0:
198,209,86250,1,0,0:0:0:0:
192,238,86337,1,0,3:0:0:0:
201,265,86424,1,0,0:0:0:0:
224,288,86510,2,0,L|216:352,3,51.9,2|0|0|0,0:0|0:0|3:0|0:0,0:0:0:0:
308,319,86857,6,0,L|360:312,1,51.9,10|0,0:2|0:0,0:0:0:0:
464,160,87031,2,0,L|412:167,1,51.9,2|0,0:0|0:0,0:0:0:0:
456,304,87204,5,2,3:2:0:0:
456,304,87291,1,0,0:0:0:0:
456,304,87377,2,0,L|448:240,1,51.9
440,80,87551,5,10,0:2:0:0:
440,80,87638,1,0,0:0:0:0:
440,80,87724,2,0,L|384:88,1,51.9
304,232,87898,5,2,0:0:0:0:
304,232,87984,1,0,0:0:0:0:
304,232,88071,2,0,L|360:224,1,51.9,0|0,3:0|0:0,0:0:0:0:
296,24,88245,6,0,L|304:80,1,51.9,10|0,0:2|0:0,0:0:0:0:
216,232,88418,5,2,0:0:0:0:
213,206,88505,1,0,0:0:0:0:
210,180,88591,1,0,3:0:0:0:
207,154,88678,1,0,0:0:0:0:
204,128,88765,6,0,L|196:64,1,51.9,2|0,0:0|0:0,0:0:0:0:
433,131,88938,2,0,L|441:67,1,51.9,10|0,0:2|0:0,0:0:0:0:
128,200,89112,2,0,L|120:136,1,51.9,2|0,3:2|0:0,0:0:0:0:
344,200,89285,2,0,L|352:136,1,51.9,2|0,0:0|0:0,0:0:0:0:
104,16,89458,2,0,L|112:72,1,51.9,2|0,3:2|0:0,0:0:0:0:
88,280,89632,6,0,L|144:288,1,51.9,10|0,0:2|0:0,0:0:0:0:
255,120,89805,2,0,L|199:128,1,51.9,2|0,0:0|0:0,0:0:0:0:
232,312,89979,5,6,3:2:0:0:
232,299,90065,1,0,0:0:0:0:
233,286,90152,1,0,0:0:0:0:
233,273,90239,1,0,0:0:0:0:
234,260,90325,1,8,0:2:0:0:
234,247,90412,1,0,0:0:0:0:
235,234,90499,1,0,0:0:0:0:
235,221,90586,1,0,0:0:0:0:
236,208,90672,5,2,0:0:0:0:
276,239,90759,1,0,0:0:0:0:
327,247,90846,1,0,3:0:0:0:
374,228,90932,1,0,0:0:0:0:
407,188,91019,1,8,0:2:0:0:
415,138,91106,1,0,0:0:0:0:
397,90,91193,1,0,0:0:0:0:
358,57,91279,1,0,0:0:0:0:
308,48,91366,5,2,3:2:0:0:
299,72,91453,1,0,0:0:0:0:
283,93,91539,1,0,0:0:0:0:
262,107,91626,1,0,0:0:0:0:
238,115,91713,1,8,0:2:0:0:
212,115,91799,1,0,0:0:0:0:
187,107,91886,1,0,3:0:0:0:
166,92,91973,1,0,0:0:0:0:
148,80,92060,2,0,L|156:16,3,51.9,2|0|0|0,0:0|0:0|3:0|0:0,0:0:0:0:
25,166,92406,2,0,L|76:160,3,51.9,10|0|0|0,0:2|0:0|0:0|0:0,0:0:0:0:
95,264,92753,6,0,P|122:256|155:227,1,51.9,2|0,3:2|0:0,0:0:0:0:
256,120,92927,2,0,P|283:128|316:157,1,51.9,2|0,0:0|0:0,0:0:0:0:
208,296,93100,2,0,P|221:271|224:227,1,51.9,10|0,0:2|0:0,0:0:0:0:
255,39,93273,2,0,P|229:44|207:56,1,51.9,2|0,0:0|0:0,0:0:0:0:
312,224,93447,6,0,L|368:216,1,51.9,2|0,0:0|0:0,0:0:0:0:
392,56,93620,2,0,L|336:64,1,51.9,2|0,3:2|0:0,0:0:0:0:
408,296,93794,2,0,L|464:288,1,51.9,10|0,0:2|0:0,0:0:0:0:
488,128,93967,2,0,L|432:136,1,51.9,2|0,0:0|0:0,0:0:0:0:
328,312,94140,5,0,3:0:0:0:
302,315,94227,1,0,0:0:0:0:
276,319,94314,1,0,0:0:0:0:
250,323,94401,1,0,0:0:0:0:
225,326,94487,1,8,0:2:0:0:
199,330,94574,1,0,0:0:0:0:
173,334,94661,1,0,3:0:0:0:
147,337,94747,1,0,0:0:0:0:
121,341,94834,1,0,0:0:0:0:
95,345,94921,1,0,0:0:0:0:
70,348,95008,1,0,3:0:0:0:
44,352,95094,1,0,0:0:0:0:
16,356,95181,2,0,L|24:288,1,51.9,10|0,0:2|0:0,0:0:0:0:
135,191,95354,2,0,L|141:242,1,51.9,2|0,0:0|0:0,0:0:0:0:
75,137,95528,5,2,3:2:0:0:
91,123,95614,1,0,0:0:0:0:
111,114,95701,1,0,0:0:0:0:
132,110,95788,1,0,0:0:0:0:
153,113,95875,1,8,0:2:0:0:
173,121,95961,1,0,0:0:0:0:
191,133,96048,1,0,0:0:0:0:
204,150,96135,1,0,0:0:0:0:
212,168,96221,5,2,0:0:0:0:
232,215,96308,1,0,0:0:0:0:
272,246,96395,1,0,3:0:0:0:
323,255,96482,1,0,0:0:0:0:
372,239,96568,1,8,0:2:0:0:
407,202,96655,1,0,0:0:0:0:
420,152,96742,1,0,0:0:0:0:
409,102,96828,1,0,0:0:0:0:
376,64,96915,2,0,L|384:0,3,51.9,2|0|0|0,3:2|0:0|0:0|0:0,0:0:0:0:
206,117,97262,2,0,L|212:168,3,51.9,10|0|0|0,0:2|0:0|3:0|0:0,0:0:0:0:
288,24,97609,5,2,0:0:0:0:
262,25,97695,1,0,0:0:0:0:
236,27,97782,1,0,3:0:0:0:
210,29,97869,1,0,0:0:0:0:
184,32,97956,2,0,L|120:40,1,51.9,10|0,0:2|0:0,0:0:0:0:
23,143,98129,2,0,L|74:136,1,51.9,2|0,0:0|0:0,0:0:0:0:
308,108,98302,5,0,3:0:0:0:
364,116,98389,1,0,0:0:0:0:
404,157,98476,1,0,0:0:0:0:
413,213,98562,1,0,0:0:0:0:
387,264,98649,1,8,0:2:0:0:
336,290,98736,1,0,0:0:0:0:
280,281,98823,1,0,0:0:0:0:
240,241,98909,1,0,0:0:0:0:
231,184,98996,1,0,0:0:0:0:
257,133,99083,1,0,0:0:0:0:
248,76,99169,1,0,3:0:0:0:
208,36,99256,1,0,0:0:0:0:
152,27,99343,1,8,0:2:0:0:
101,53,99429,1,0,0:0:0:0:
75,104,99516,1,0,0:0:0:0:
84,160,99603,1,0,0:0:0:0:
124,201,99690,5,4,3:2:0:0:
168,120,99863,1,0,3:0:0:0:
320,200,100036,2,0,L|328:256,1,51.9,8|0,0:3|0:0,0:0:0:0:
232,376,100210,1,2,0:2:0:0:
224,324,100297,1,8,0:2:0:0:
217,273,100383,1,2,0:2:0:0:
210,221,100470,1,8,0:2:0:0:
204,168,100557,2,0,L|196:112,1,51.9,2|2,0:2|0:2,0:0:0:0:
184,40,100730,6,0,P|180:12|188:40,1,86.5,4|0,0:2|0:0,0:0:0:0:
63,231,101077,5,6,3:2:0:0:
105,225,101164,1,0,0:0:0:0:
148,220,101250,1,0,0:0:0:0:
191,215,101337,1,0,0:0:0:0:
234,210,101424,1,8,0:2:0:0:
277,205,101510,1,0,0:0:0:0:
320,199,101597,5,2,0:2:0:0:
335,238,101684,1,0,0:0:0:0:
372,258,101771,1,0,0:0:0:0:
414,251,101857,1,0,0:0:0:0:
441,218,101944,1,0,3:0:0:0:
442,176,102031,1,0,0:0:0:0:
416,144,102117,2,0,L|432:96,3,43.25,10|0|0|0,0:2|0:0|0:0|0:0,0:0:0:0:
343,20,102464,5,2,3:2:0:0:
329,61,102551,1,0,0:0:0:0:
315,102,102638,1,0,0:0:0:0:
301,143,102724,1,0,0:0:0:0:
288,184,102811,1,8,0:2:0:0:
274,225,102898,1,0,0:0:0:0:
258,266,102984,5,2,3:2:0:0:
250,224,103071,1,0,0:0:0:0:
221,193,103158,1,0,0:0:0:0:
179,185,103245,1,0,0:0:0:0:
140,202,103331,1,0,3:0:0:0:
117,238,103418,1,0,0:0:0:0:
120,280,103505,2,0,L|176:264,3,43.25,10|0|0|0,0:2|0:0|0:0|0:0,0:0:0:0:
89,384,103851,6,0,L|246:344,1,162.1875,0|0,3:0|0:0,0:0:0:0:
325,320,104198,1,10,0:2:0:0:
221,193,104372,1,2,0:2:0:0:
329,61,104545,1,2,0:2:0:0:
256,0,104719,1,0,3:0:0:0:
306,153,104892,5,10,0:2:0:0:
424,48,105065,1,0,0:0:0:0:
440,192,105239,5,2,3:2:0:0:
426,213,105325,1,0,0:0:0:0:
400,216,105412,1,0,0:0:0:0:
382,198,105499,1,0,0:0:0:0:
384,172,105586,1,8,0:2:0:0:
406,158,105672,1,0,0:0:0:0:
436,172,105759,5,2,3:2:0:0:
432,197,105846,1,0,0:0:0:0:
428,223,105932,1,0,0:0:0:0:
424,248,106019,1,0,0:0:0:0:
419,274,106106,1,0,3:0:0:0:
414,301,106193,1,0,0:0:0:0:
410,328,106279,2,0,L|464:312,3,43.25,10|0|0|0,0:2|0:0|0:0|0:0,0:0:0:0:
320,368,106626,5,2,3:2:0:0:
277,362,106713,1,0,0:0:0:0:
234,357,106799,1,0,0:0:0:0:
191,352,106886,1,0,0:0:0:0:
148,347,106973,1,8,0:2:0:0:
105,342,107060,1,0,0:0:0:0:
60,336,107146,5,2,0:2:0:0:
81,333,107233,1,0,0:0:0:0:
102,331,107320,1,0,0:0:0:0:
124,328,107406,1,0,0:0:0:0:
145,326,107493,1,0,3:0:0:0:
167,324,107580,1,0,0:0:0:0:
189,321,107666,2,0,L|205:257,3,43.25,10|0|0|0,0:2|0:0|0:0|0:0,0:0:0:0:
288,320,108013,5,2,3:2:0:0:
295,277,108100,1,0,0:0:0:0:
303,234,108187,1,0,0:0:0:0:
311,192,108273,1,0,0:0:0:0:
318,149,108360,1,8,0:2:0:0:
326,107,108447,1,0,0:0:0:0:
336,64,108534,5,2,3:2:0:0:
345,105,108620,1,0,0:0:0:0:
378,132,108707,1,0,0:0:0:0:
420,134,108794,1,0,0:0:0:0:
455,110,108880,1,0,3:0:0:0:
468,70,108967,1,0,0:0:0:0:
456,32,109054,2,0,L|400:16,3,43.25,10|0|0|0,0:2|0:0|0:0|0:0,0:0:0:0:
292,114,109401,6,0,L|370:100,1,54.0625,2|0,3:2|0:0,0:0:0:0:
176,24,109574,2,0,L|112:8,1,54.0625,2|0,0:2|0:0,0:0:0:0:
8,144,109747,1,8,0:2:0:0:
196,124,109921,2,0,B|212:252|212:252|180:220,1,162.1875,2|0,0:2|0:0,0:0:0:0:
104,168,110268,1,2,3:2:0:0:
286,298,110441,1,10,0:2:0:0:
111,340,110614,2,0,L|175:324,1,54.0625,2|0,0:2|0:0,0:0:0:0:
384,268,110788,5,2,3:2:0:0:
409,262,110875,1,0,0:0:0:0:
429,278,110961,1,0,0:0:0:0:
429,304,111048,1,0,0:0:0:0:
409,320,111135,1,8,0:2:0:0:
384,314,111221,1,0,0:0:0:0:
372,290,111308,5,2,3:2:0:0:
373,264,111395,1,0,0:0:0:0:
375,238,111482,1,0,0:0:0:0:
376,212,111568,1,0,0:0:0:0:
376,180,111655,2,0,L|380:120,1,43.25,0|0,3:0|0:0,0:0:0:0:
456,40,111828,6,0,L|452:112,1,64.875,8|0,0:2|0:0,0:0:0:0:
360,188,112002,2,0,L|363:123,1,64.875,0|0,3:0|0:0,0:0:0:0:
468,24,112175,5,6,3:2:0:0:
420,29,112262,1,0,0:0:0:0:
373,34,112349,1,0,0:0:0:0:
326,39,112435,1,0,0:0:0:0:
278,45,112522,1,8,0:2:0:0:
231,50,112609,1,0,0:0:0:0:
184,56,112695,5,2,0:2:0:0:
226,74,112782,1,0,0:0:0:0:
244,116,112869,1,0,0:0:0:0:
238,161,112956,1,0,0:0:0:0:
201,190,113042,1,0,3:0:0:0:
155,189,113129,1,0,0:0:0:0:
112,168,113216,5,10,0:2:0:0:
115,191,113302,1,0,0:0:0:0:
119,214,113389,1,0,0:0:0:0:
123,238,113476,1,0,0:0:0:0:
128,264,113562,5,2,3:2:0:0:
174,271,113649,1,0,0:0:0:0:
208,304,113736,1,0,0:0:0:0:
231,344,113823,1,0,0:0:0:0:
269,372,113909,1,8,0:2:0:0:
316,381,113996,1,0,0:0:0:0:
362,370,114083,5,2,3:2:0:0:
373,325,114169,1,0,0:0:0:0:
383,278,114256,1,0,0:0:0:0:
393,232,114343,1,0,0:0:0:0:
403,185,114429,1,0,3:0:0:0:
413,139,114516,1,0,0:0:0:0:
420,92,114603,2,0,L|476:84,3,47.575,10|0|0|0,0:2|0:0|0:0|0:0,0:0:0:0:
322,118,114950,6,0,B|258:102|258:102|242:70|242:70|178:54,1,162.1875,0|0,3:0|0:0,0:0:0:0:
88,32,115297,1,10,0:2:0:0:
336,16,115470,1,2,0:2:0:0:
304,224,115643,1,2,0:2:0:0:
232,120,115817,1,0,3:0:0:0:
268,324,115990,5,10,0:2:0:0:
416,192,116164,1,0,0:0:0:0:
352,360,116337,5,2,3:2:0:0:
324,366,116424,1,0,0:0:0:0:
301,348,116510,1,0,0:0:0:0:
301,320,116597,1,0,0:0:0:0:
324,302,116684,1,8,0:2:0:0:
352,308,116771,1,0,0:0:0:0:
360,336,116857,5,2,3:2:0:0:
329,331,116944,1,0,0:0:0:0:
298,327,117031,1,0,0:0:0:0:
268,324,117117,1,0,0:0:0:0:
237,320,117204,1,0,3:0:0:0:
206,317,117291,1,0,0:0:0:0:
176,312,117377,2,0,L|188:252,3,47.575,10|0|0|0,0:2|0:0|0:0|0:0,0:0:0:0:
152,192,117724,5,2,3:2:0:0:
149,145,117811,1,0,0:0:0:0:
172,104,117898,1,0,0:0:0:0:
215,85,117984,1,0,0:0:0:0:
261,93,118071,1,8,0:2:0:0:
295,126,118158,1,0,0:0:0:0:
304,168,118245,5,2,0:2:0:0:
291,187,118331,1,0,0:0:0:0:
287,211,118418,1,0,0:0:0:0:
291,234,118505,1,0,0:0:0:0:
304,254,118591,1,0,3:0:0:0:
324,267,118678,1,0,0:0:0:0:
352,272,118765,2,0,L|400:264,3,47.575,10|0|0|0,0:2|0:0|0:0|0:0,0:0:0:0:
400,380,119112,5,2,3:2:0:0:
446,370,119198,1,0,0:0:0:0:
484,343,119285,1,0,0:0:0:0:
508,302,119372,1,0,0:0:0:0:
512,255,119458,1,8,0:2:0:0:
497,210,119545,1,0,0:0:0:0:
465,176,119632,5,2,3:2:0:0:
416,179,119719,1,0,0:0:0:0:
369,183,119805,1,0,0:0:0:0:
321,187,119892,1,0,0:0:0:0:
274,190,119979,1,0,3:0:0:0:
226,194,120065,1,0,0:0:0:0:
176,200,120152,5,10,0:2:0:0:
189,180,120239,1,0,0:0:0:0:
202,160,120325,1,0,0:0:0:0:
216,141,120412,1,0,0:0:0:0:
232,120,120499,6,0,L|216:48,1,64.875,2|0,3:2|0:0,0:0:0:0:
72,0,120672,2,0,L|86:63,1,64.875,2|0,0:2|0:0,0:0:0:0:
128,272,120846,1,8,0:2:0:0:
304,64,121019,2,0,B|352:44|407:60|393:89|436:126|498:97,1,194.625,2|0,0:2|0:0,0:0:0:0:
464,8,121366,1,2,3:2:0:0:
339,153,121539,1,10,0:2:0:0:
160,368,121713,1,2,0:2:0:0:
104,152,121886,5,2,3:2:0:0:
210,189,122060,1,0,3:0:0:0:
416,256,122233,2,0,L|400:208,1,47.575,8|0,0:3|0:0,0:0:0:0:
304,64,122406,5,2,0:2:0:0:
298,92,122493,1,8,0:2:0:0:
293,120,122580,1,2,0:2:0:0:
288,148,122666,1,8,0:2:0:0:
282,176,122753,1,2,0:2:0:0:
277,204,122840,1,2,0:2:0:0:
251,237,122927,5,6,0:2:0:0:
179,244,123013,1,2,0:2:0:0:
149,180,123100,1,2,0:2:0:0:
201,131,123187,1,2,0:2:0:0:
263,167,123273,1,6,3:2:0:0:
264,168,123620,5,10,0:2:0:0:
112,80,123794,1,2,0:0:0:0:
272,16,123967,1,2,0:0:0:0:
149,180,124140,1,0,3:0:0:0:
236,336,124314,2,0,L|248:252,1,77.8500000000001,10|0,0:2|0:0,0:0:0:0:
336,88,124661,6,0,B|376:72|424:88|408:104|448:136|498:114,1,155.7,2|8,3:2|0:2,0:0:0:0:
361,179,125181,6,0,P|345:203|353:179,1,86.5,2|0,3:2|0:0,0:0:0:0:
361,179,125528,5,0,3:0:0:0:
320,336,125701,2,0,L|336:272,1,38.925,10|0,0:2|0:0,0:0:0:0:
252,92,125875,1,2,0:0:0:0:
258,130,125961,1,2,0:0:0:0:
264,168,126048,6,0,B|208:184|208:184|160:176|160:176|104:192,1,162.1875,2|0,3:2|0:0,0:0:0:0:
16,224,126395,1,10,0:2:0:0:
144,384,126568,2,0,P|133:329|184:256,1,116.775,2|0,0:0|0:0,0:0:0:0:
230,339,126915,1,0,3:0:0:0:
361,179,127088,2,0,L|369:235,1,38.925,10|0,0:2|0:0,0:0:0:0:
400,376,127262,1,2,0:0:0:0:
407,337,127349,1,2,0:0:0:0:
416,296,127435,6,0,B|456:256|456:256|440:128,1,162.1875,2|0,3:2|0:0,0:0:0:0:
432,56,127782,1,8,0:2:0:0:
361,179,127956,6,0,P|337:187|361:171,1,86.5,2|0,3:2|0:0,0:0:0:0:
361,179,128302,5,0,3:0:0:0:
313,34,128476,2,0,L|329:82,1,38.925,8|0,0:2|0:0,0:0:0:0:
240,208,128649,1,2,0:0:0:0:
246,169,128736,1,2,0:0:0:0:
252,128,128823,6,0,L|76:144,1,162.1875,2|0,3:2|0:0,0:0:0:0:
0,148,129169,1,10,0:2:0:0:
144,240,129343,1,2,0:0:0:0:
96,368,129516,1,2,0:0:0:0:
240,208,129690,1,0,3:0:0:0:
105,66,129863,2,0,L|89:146,1,77.8500000000001,10|0,0:2|0:0,0:0:0:0:
224,304,130210,6,0,B|336:288|336:288|360:240,1,155.7,2|8,3:2|0:2,0:0:0:0:
392,160,130730,6,0,P|400:132|396:160,1,86.5,2|0,3:2|0:0,0:0:0:0:
392,160,131077,5,0,3:0:0:0:
448,272,131250,2,0,L|464:224,1,38.925,10|0,0:2|0:0,0:0:0:0:
504,52,131424,1,2,0:0:0:0:
465,58,131510,1,2,0:0:0:0:
428,64,131597,6,0,B|368:72|368:72|328:56|328:56|264:64,1,162.1875,2|0,3:2|0:0,0:0:0:0:
176,80,131944,1,10,0:2:0:0:
312,232,132117,2,0,L|304:152,1,77.8500000000001,2|0,0:0|0:0,0:0:0:0:
292,16,132464,1,0,3:0:0:0:
208,168,132638,1,10,0:2:0:0:
80,96,132811,1,0,0:0:0:0:
128,328,132984,6,0,B|96:296|96:296|112:176,1,155.7,2|8,3:2|0:2,0:0:0:0:
208,256,133505,6,0,P|230:267|202:261,1,86.5,2|0,3:2|0:0,0:0:0:0:
208,256,133851,5,0,3:0:0:0:
176,80,134025,2,0,L|224:96,1,38.925,8|0,0:2|0:0,0:0:0:0:
304,154,134198,1,2,0:0:0:0:
342,146,134285,1,2,0:0:0:0:
384,136,134372,6,0,P|461:156|497:246,1,162.1875,6|0,3:2|0:0,0:0:0:0:
460,312,134719,1,2,3:2:0:0:
402,232,134892,1,2,0:0:0:0:
372,356,135065,2,0,L|460:344,1,86.5,2|0,3:2|0:0,0:0:0:0:
312,272,135412,2,0,P|272:256|224:272,1,86.5,2|0,3:2|0:0,0:0:0:0:
208,288,135672,1,0,0:0:0:0:
208,288,135759,6,0,L|112:272,1,86.5,2|0,3:2|0:0,0:0:0:0:
32,256,136106,1,0,3:0:0:0:
232,184,136279,2,0,L|48:156,1,173,2|0,0:0|0:0,0:0:0:0:
144,80,136799,2,0,L|240:64,1,86.5,2|2,3:2|0:0,0:0:0:0:
256,80,137060,1,2,0:0:0:0:
256,80,137146,6,0,P|288:96|352:80,1,86.5,2|0,3:2|0:0,0:0:0:0:
416,56,137493,1,2,3:2:0:0:
416,144,137666,1,2,0:0:0:0:
504,112,137840,2,0,L|489:26,1,86.5,0|0,3:0|0:0,0:0:0:0:
496,208,138187,2,0,L|512:304,1,86.5,2|2,3:2|0:0,0:0:0:0:
496,320,138447,1,2,0:0:0:0:
496,320,138534,6,0,P|464:304|400:320,1,86.5,2|0,3:2|0:0,0:0:0:0:
336,368,138880,1,0,3:0:0:0:
328,272,139054,1,2,0:0:0:0:
248,324,139227,1,0,3:0:0:0:
240,220,139401,1,2,0:0:0:0:
239,205,139487,1,2,0:0:0:0:
239,189,139574,2,0,P|215:205|183:209,1,43.25,8|0,0:2|0:0,0:0:0:0:
151,89,139747,2,0,P|170:97|187:112,1,43.25
128,304,139921,6,0,L|112:160,1,129.75,4|0,3:2|0:0,0:0:0:0:
151,89,140268,1,10,3:2:0:0:
56,96,140441,1,2,0:0:0:0:
113,175,140614,1,2,3:2:0:0:
121,183,140788,1,0,0:0:0:0:
24,272,140961,2,0,L|16:184,1,86.5,10|0,3:2|0:0,0:0:0:0:
32,368,141308,5,6,3:2:0:0:
128,304,141482,1,0,0:0:0:0:
272,360,141655,1,8,3:2:0:0:
216,240,141828,1,2,0:0:0:0:
212,232,142002,1,0,3:0:0:0:
116,316,142175,5,0,0:0:0:0:
264,372,142349,1,10,3:2:0:0:
416,272,142522,1,0,0:0:0:0:
423,229,142609,1,0,0:0:0:0:
432,184,142695,6,0,B|448:88|448:88|412:120,1,129.75,6|0,3:2|0:0,0:0:0:0:
372,28,143042,1,10,0:2:0:0:
331,255,143216,1,2,3:2:0:0:
338,212,143302,1,0,0:0:0:0:
345,169,143389,1,12,0:2:0:0:
296,88,143562,1,0,3:0:0:0:
208,224,143736,1,10,0:2:0:0:
165,229,143823,1,8,0:2:0:0:
126,213,143909,1,8,0:2:0:0:
99,179,143996,1,8,0:2:0:0:
94,137,144083,5,6,3:2:0:0:
188,132,144429,1,2,0:0:0:0:
252,208,144776,1,2,0:0:0:0:
94,137,144950,1,0,3:0:0:0:
256,64,145123,2,0,B|304:80|304:80|336:64|336:64|384:80,1,129.75,10|0,0:2|0:0,0:0:0:0:
400,64,145470,6,0,L|416:128,1,43.25,6|0,3:2|0:0,0:0:0:0:
448,288,145643,2,0,L|464:240,1,43.25,2|0,0:0|0:0,0:0:0:0:
344,160,145817,2,0,L|360:224,1,43.25,10|0,0:2|0:0,0:0:0:0:
328,160,145990,2,0,L|344:224,1,43.25,2|0,0:0|0:0,0:0:0:0:
368,368,146164,6,0,L|432:384,1,43.25,2|0,0:0|0:0,0:0:0:0:
252,208,146337,2,0,L|204:224,1,43.25,2|0,3:2|0:0,0:0:0:0:
80,304,146510,2,0,L|144:320,1,43.25,10|0,0:2|0:0,0:0:0:0:
80,320,146684,2,0,L|144:336,1,43.25,2|0,0:0|0:0,0:0:0:0:
240,352,146857,6,0,L|224:288,1,43.25,2|0,3:2|0:0,0:0:0:0:
112,176,147031,2,0,L|96:240,1,43.25,2|0,0:0|0:0,0:0:0:0:
314,118,147204,2,0,L|330:166,1,43.25,10|0,0:2|0:0,0:0:0:0:
272,352,147377,6,0,L|256:304,1,43.25,2|0,3:2|0:0,0:0:0:0:
184,108,147551,2,0,L|232:124,1,43.25,2|0,0:0|0:0,0:0:0:0:
432,208,147724,2,0,L|384:224,1,43.25,2|0,3:2|0:0,0:0:0:0:
320,0,147898,6,0,L|384:16,1,43.25,10|0,0:2|0:0,0:0:0:0:
320,16,148071,2,0,L|384:32,1,43.25,2|0,0:0|0:0,0:0:0:0:
160,32,148245,6,0,L|112:48,1,43.25,2|0,3:2|0:0,0:0:0:0:
24,160,148418,2,0,L|88:176,1,43.25,2|0,0:0|0:0,0:0:0:0:
224,216,148591,2,0,L|176:232,1,43.25,10|0,0:2|0:0,0:0:0:0:
224,232,148765,2,0,L|176:248,1,43.25,2|0,0:0|0:0,0:0:0:0:
80,320,148938,6,0,L|96:256,1,43.25,2|0,0:0|0:0,0:0:0:0:
128,80,149112,2,0,L|144:128,1,43.25,2|0,3:2|0:0,0:0:0:0:
210,273,149285,2,0,L|226:225,1,43.25,10|0,0:2|0:0,0:0:0:0:
224,272,149458,2,0,L|240:224,1,43.25,2|0,0:0|0:0,0:0:0:0:
265,55,149632,6,0,P|294:45|343:55,1,43.25,2|0,3:2|0:0,0:0:0:0:
345,193,149805,2,0,P|328:179|315:162,1,43.25,2|0,0:0|0:0,0:0:0:0:
422,55,149979,2,0,P|419:76|410:96,1,43.25,10|0,0:2|0:0,0:0:0:0:
232,64,150152,6,0,P|245:36|287:8,1,43.25,2|0,3:2|0:0,0:0:0:0:
368,216,150325,2,0,P|346:218|325:215,1,43.25,2|0,0:0|0:0,0:0:0:0:
432,32,150499,2,0,P|444:49|452:69,1,43.25,2|0,3:2|0:0,0:0:0:0:
464,236,150672,6,0,L|480:172,1,43.25,10|0,0:2|0:0,0:0:0:0:
480,240,150846,2,0,L|496:176,1,43.25,2|0,0:0|0:0,0:0:0:0:
368,352,151019,6,0,L|352:304,1,43.25,6|0,3:2|0:0,0:0:0:0:
272,136,151193,2,0,L|256:184,1,43.25,2|0,0:0|0:0,0:0:0:0:
192,352,151366,2,0,L|176:304,1,43.25,10|0,0:2|0:0,0:0:0:0:
176,352,151539,2,0,L|160:304,1,43.25,2|0,0:0|0:0,0:0:0:0:
104,112,151713,6,0,L|152:120,1,43.25,2|0,0:0|0:0,0:0:0:0:
248,264,151886,2,0,L|304:248,1,43.25,2|0,3:2|0:0,0:0:0:0:
384,152,152060,2,0,L|432:160,1,43.25,10|0,0:2|0:0,0:0:0:0:
392,144,152233,2,0,L|440:152,1,43.25,2|0,0:0|0:0,0:0:0:0:
218,7,152406,6,0,P|210:39|218:71,1,43.25,6|0,3:2|0:0,0:0:0:0:
122,84,152580,2,0,P|138:112|167:129,1,43.25,2|0,0:0|0:0,0:0:0:0:
112,209,152753,2,0,P|144:216|176:209,1,43.25,10|0,0:2|0:0,0:0:0:0:
104,64,152927,6,0,P|96:96|104:128,1,43.25,2|0,3:2|0:0,0:0:0:0:
80,200,153100,2,0,P|96:228|125:245,1,43.25,2|0,0:0|0:0,0:0:0:0:
136,328,153273,2,0,P|168:336|200:327,1,43.25,2|0,3:2|0:0,0:0:0:0:
264,376,153447,6,0,P|292:359|309:330,1,43.25,10|0,0:2|0:0,0:0:0:0:
272,384,153620,2,0,P|300:367|317:338,1,43.25,2|0,0:0|0:0,0:0:0:0:
448,144,153794,6,0,L|432:208,1,43.25,6|0,3:2|0:0,0:0:0:0:
400,336,153967,2,0,L|416:272,1,43.25,2|0,0:0|0:0,0:0:0:0:
352,64,154140,2,0,L|368:128,1,43.25,10|0,0:2|0:0,0:0:0:0:
336,64,154314,2,0,L|352:128,1,43.25,2|0,0:0|0:0,0:0:0:0:
306,359,154487,6,0,L|290:279,1,43.25,6|0,0:2|0:0,0:0:0:0:
240,72,154661,2,0,L|256:136,1,43.25,2|0,3:2|0:0,0:0:0:0:
184,266,154834,6,0,L|204:276,6,21.625,10|0|0|0|2|0|0,0:2|0:0|0:0|0:0|0:0|0:0|0:0,0:0:0:0:
156,256,155181,5,4,3:2:0:0:
336,208,155354,1,0,3:0:0:0:
144,80,155528,1,8,0:3:0:0:
24,300,155701,6,0,L|72:284,1,43.25,2|8,0:2|0:2,0:0:0:0:
156,256,155875,2,0,L|165:236,6,21.625,8|8|8|8|8|8|8,0:2|0:2|0:2|0:2|0:2|0:2|0:2,0:0:0:0:
136,348,156221,6,0,P|143:377|126:352,1,86.5,4|0,0:2|0:0,0:0:0:0:
136,348,156568,5,6,3:2:0:0:
166,344,156655,1,0,0:0:0:0:
197,340,156742,1,0,0:0:0:0:
228,336,156828,1,0,0:0:0:0:
259,333,156915,1,8,0:2:0:0:
290,329,157002,1,0,0:0:0:0:
321,325,157088,1,0,0:0:0:0:
352,321,157175,1,0,0:0:0:0:
370,306,157262,5,2,0:0:0:0:
334,279,157349,1,0,0:0:0:0:
312,243,157435,1,0,3:0:0:0:
306,204,157522,1,0,0:0:0:0:
316,163,157609,1,8,0:2:0:0:
341,131,157695,1,0,0:0:0:0:
378,112,157782,1,0,0:0:0:0:
418,108,157869,1,0,0:0:0:0:
456,128,157956,5,2,3:2:0:0:
436,175,158042,1,0,0:0:0:0:
395,206,158129,1,0,0:0:0:0:
344,210,158216,1,0,0:0:0:0:
298,189,158302,1,8,0:2:0:0:
252,168,158389,1,0,0:0:0:0:
201,172,158476,1,0,3:0:0:0:
160,203,158562,1,0,0:0:0:0:
136,248,158649,2,0,L|144:312,3,51.9,2|0|0|0,0:0|0:0|3:0|0:0,0:0:0:0:
272,124,158996,2,0,L|279:176,3,51.9,10|0|0|0,0:2|0:0|0:0|0:0,0:0:0:0:
232,256,159343,6,0,L|240:312,1,51.9,2|0,3:2|0:0,0:0:0:0:
402,154,159516,2,0,L|394:210,1,51.9,2|0,0:0|0:0,0:0:0:0:
176,128,159690,2,0,L|184:184,1,51.9,10|0,0:2|0:0,0:0:0:0:
408,16,159863,2,0,L|400:80,1,51.9,2|0,0:0|0:0,0:0:0:0:
152,48,160036,6,0,P|192:48|232:72,1,51.9,2|0,0:0|0:0,0:0:0:0:
207,263,160210,2,0,P|205:238|211:213,1,51.9,2|0,3:2|0:0,0:0:0:0:
137,160,160383,2,0,P|153:141|175:127,1,51.9,10|0,0:2|0:0,0:0:0:0:
328,288,160557,2,0,P|299:259|288:214,1,51.9,2|0,0:0|0:0,0:0:0:0:
406,234,160730,5,0,3:0:0:0:
412,245,160817,1,0,0:0:0:0:
418,256,160903,1,0,0:0:0:0:
421,269,160990,1,0,0:0:0:0:
423,282,161077,1,8,0:2:0:0:
423,295,161164,1,0,0:0:0:0:
422,307,161250,1,0,3:0:0:0:
419,320,161337,1,0,0:0:0:0:
413,332,161424,1,0,0:0:0:0:
407,343,161510,1,0,0:0:0:0:
399,353,161597,1,0,3:0:0:0:
390,362,161684,1,0,0:0:0:0:
379,370,161771,5,10,0:2:0:0:
357,355,161857,1,0,0:0:0:0:
332,349,161944,1,0,0:0:0:0:
307,352,162031,1,0,0:0:0:0:
280,368,162117,5,2,3:2:0:0:
230,380,162204,1,0,0:0:0:0:
180,367,162291,1,0,0:0:0:0:
142,333,162377,1,0,0:0:0:0:
125,284,162464,1,8,0:2:0:0:
132,233,162551,1,0,0:0:0:0:
163,192,162638,1,0,0:0:0:0:
210,171,162724,1,0,0:0:0:0:
216,152,162811,5,2,0:0:0:0:
249,175,162898,1,0,0:0:0:0:
290,174,162984,1,0,3:0:0:0:
323,149,163071,1,0,0:0:0:0:
335,110,163158,1,8,0:2:0:0:
321,72,163245,1,0,0:0:0:0:
288,48,163331,1,0,0:0:0:0:
247,48,163418,1,0,0:0:0:0:
212,68,163505,5,2,3:2:0:0:
205,92,163591,1,0,0:0:0:0:
191,114,163678,1,0,0:0:0:0:
172,132,163765,1,0,0:0:0:0:
148,143,163851,1,8,0:2:0:0:
123,147,163938,1,0,0:0:0:0:
97,145,164025,1,0,3:0:0:0:
73,135,164112,1,0,0:0:0:0:
52,120,164198,2,0,L|116:128,3,51.9,2|0|0|0,0:0|0:0|3:0|0:0,0:0:0:0:
48,216,164545,6,0,L|99:222,1,51.9,10|0,0:2|0:0,0:0:0:0:
180,367,164719,2,0,L|128:373,1,51.9,2|0,0:0|0:0,0:0:0:0:
200,224,164892,5,2,3:2:0:0:
200,224,164979,1,0,0:0:0:0:
200,224,165065,2,0,L|208:280,1,51.9
288,360,165239,5,10,0:2:0:0:
288,360,165325,1,0,0:0:0:0:
288,360,165412,2,0,L|296:304,1,51.9
360,208,165586,5,2,0:0:0:0:
360,208,165672,1,0,0:0:0:0:
360,208,165759,2,0,L|368:264,1,51.9,0|0,3:0|0:0,0:0:0:0:
448,344,165932,6,0,L|456:288,1,51.9,10|0,0:2|0:0,0:0:0:0:
360,208,166106,5,2,0:0:0:0:
355,166,166193,1,0,0:0:0:0:
350,125,166279,1,0,3:0:0:0:
346,84,166366,1,0,0:0:0:0:
340,36,166453,6,0,L|400:48,1,51.9,2|0,0:0|0:0,0:0:0:0:
272,176,166626,2,0,L|208:192,1,51.9,10|0,0:2|0:0,0:0:0:0:
208,16,166799,2,0,L|268:28,1,51.9,2|0,3:2|0:0,0:0:0:0:
144,204,166973,2,0,L|80:220,1,51.9,2|0,0:0|0:0,0:0:0:0:
72,0,167146,2,0,L|122:10,1,51.9,2|0,3:2|0:0,0:0:0:0:
264,227,167320,6,0,L|272:176,1,51.9,10|0,0:2|0:0,0:0:0:0:
40,84,167493,2,0,L|48:136,1,51.9,2|0,0:0|0:0,0:0:0:0:
72,328,167666,5,6,3:2:0:0:
108,364,167753,1,0,0:0:0:0:
157,381,167840,1,0,0:0:0:0:
208,375,167927,1,0,0:0:0:0:
251,348,168013,1,8,0:2:0:0:
279,304,168100,1,0,0:0:0:0:
285,253,168187,1,0,0:0:0:0:
268,205,168273,1,0,0:0:0:0:
248,208,168360,5,2,0:0:0:0:
230,159,168447,1,0,0:0:0:0:
243,110,168534,1,0,3:0:0:0:
282,76,168620,1,0,0:0:0:0:
332,70,168707,1,8,0:2:0:0:
378,93,168794,1,0,0:0:0:0:
402,138,168880,1,0,0:0:0:0:
397,189,168967,1,0,0:0:0:0:
360,224,169054,5,2,3:2:0:0:
357,198,169140,1,0,0:0:0:0:
354,172,169227,1,0,0:0:0:0:
351,146,169314,1,0,0:0:0:0:
348,120,169401,1,8,0:2:0:0:
344,96,169487,1,0,0:0:0:0:
340,70,169574,1,0,3:0:0:0:
337,44,169661,1,0,0:0:0:0:
332,19,169747,2,0,L|392:27,3,51.9,2|0|0|0,0:0|0:0|3:0|0:0,0:0:0:0:
512,72,170094,2,0,L|452:80,3,51.9,10|0|0|0,0:2|0:0|0:0|0:0,0:0:0:0:
480,216,170441,6,0,L|488:160,1,51.9,2|0,3:2|0:0,0:0:0:0:
374,320,170614,2,0,L|381:268,1,51.9,2|0,0:0|0:0,0:0:0:0:
397,189,170788,2,0,L|405:133,1,51.9,10|0,0:2|0:0,0:0:0:0:
457,347,170961,2,0,L|464:295,1,51.9,2|0,0:0|0:0,0:0:0:0:
240,288,171135,6,0,L|304:296,1,51.9,2|0,0:0|0:0,0:0:0:0:
240,112,171308,2,0,L|176:120,1,51.9,2|0,3:2|0:0,0:0:0:0:
104,264,171482,2,0,L|168:272,1,51.9,10|0,0:2|0:0,0:0:0:0:
110,128,171655,2,0,L|54:136,1,51.9,2|0,0:0|0:0,0:0:0:0:
32,304,171828,5,0,3:0:0:0:
57,307,171915,1,0,0:0:0:0:
83,311,172002,1,0,0:0:0:0:
109,314,172088,1,0,0:0:0:0:
134,318,172175,1,8,0:2:0:0:
160,321,172262,1,0,0:0:0:0:
186,325,172349,1,0,3:0:0:0:
211,328,172435,1,0,0:0:0:0:
237,332,172522,1,0,0:0:0:0:
264,336,172609,1,0,0:0:0:0:
289,339,172695,1,0,3:0:0:0:
315,343,172782,1,0,0:0:0:0:
340,348,172869,2,0,L|352:280,1,51.9,10|0,0:2|0:0,0:0:0:0:
232,192,173042,2,0,L|241:243,1,51.9,2|0,0:0|0:0,0:0:0:0:
432,360,173216,5,2,3:2:0:0:
435,334,173302,1,0,0:0:0:0:
439,308,173389,1,0,0:0:0:0:
443,282,173476,1,0,0:0:0:0:
447,257,173562,1,8,0:2:0:0:
450,231,173649,1,0,0:0:0:0:
454,205,173736,1,0,0:0:0:0:
460,180,173823,1,0,0:0:0:0:
464,152,173909,5,2,0:0:0:0:
417,174,173996,1,0,0:0:0:0:
366,172,174083,1,0,3:0:0:0:
321,148,174169,1,0,0:0:0:0:
292,105,174256,1,8,0:2:0:0:
263,62,174343,1,0,0:0:0:0:
218,37,174429,1,0,0:0:0:0:
167,36,174516,1,0,0:0:0:0:
120,56,174603,2,0,L|128:0,3,51.9,2|0|0|0,3:2|0:0|0:0|0:0,0:0:0:0:
184,179,174950,2,0,L|192:128,3,51.9,10|0|0|0,0:2|0:0|3:0|0:0,0:0:0:0:
98,211,175297,5,2,0:0:0:0:
128,252,175383,1,0,0:0:0:0:
175,271,175470,1,0,3:0:0:0:
226,261,175557,1,0,0:0:0:0:
264,224,175643,2,0,L|272:288,1,51.9,10|0,0:2|0:0,0:0:0:0:
112,384,175817,2,0,L|118:332,1,51.9,2|0,0:0|0:0,0:0:0:0:
116,88,175990,5,0,3:0:0:0:
162,54,176077,1,0,0:0:0:0:
219,54,176164,1,0,0:0:0:0:
265,88,176250,1,0,0:0:0:0:
283,142,176337,1,8,0:2:0:0:
265,196,176424,1,0,0:0:0:0:
238,246,176510,1,0,0:0:0:0:
248,303,176597,1,0,0:0:0:0:
288,343,176684,1,0,0:0:0:0:
344,352,176771,1,0,0:0:0:0:
395,326,176857,1,0,3:0:0:0:
421,275,176944,1,0,0:0:0:0:
412,220,177031,1,8,0:2:0:0:
372,179,177117,1,0,0:0:0:0:
315,169,177204,1,0,0:0:0:0:
265,196,177291,1,0,0:0:0:0:
238,246,177377,5,4,3:2:0:0:
333,263,177551,1,0,3:0:0:0:
416,96,177724,2,0,L|360:104,1,51.9,8|0,0:3|0:0,0:0:0:0:
152,176,177898,1,2,0:2:0:0:
203,169,177984,1,8,0:2:0:0:
255,163,178071,1,2,0:2:0:0:
306,157,178158,1,8,0:2:0:0:
352,152,178245,2,0,L|403:144,1,51.9,2|2,0:2|0:2,0:0:0:0:
492,132,178418,6,0,P|524:124|492:124,1,86.5,4|0,0:2|0:0,0:0:0:0:
65,114,178777,6,0,B|93:93|143:93|143:93|33:104|35:230|113:258|113:258|137:266|158:291|147:323|121:348|85:333|85:333|40:318|13:279|13:279,1,514.762653333333,2|0,0:0|0:0,0:0:0:0:
140,179,180229,2,0,B|199:182|248:129|228:69|228:69|257:95|280:146|196:207|173:230|195:301|258:350|307:331|347:307,1,518.1885543125,2|0,0:0|0:0,0:0:0:0:
294,241,181609,2,0,B|346:218|406:245|417:301|410:332|410:332|408:369|443:394|487:376|489:331|489:331|498:233|426:166|369:152|322:154|322:154|417:131|487:82|450:-27|320:-47|301:52|320:84|349:107,1,939.939823025158,2|0,0:0|0:0,0:0:0:0:
329,317,184386,6,0,B|269:338|233:324|194:239|133:319|133:319|45:386|-22:294|45:222|102:254|147:275|175:338,1,514.6049804125,2|0,0:0|0:0,0:0:0:0:
294,241,185789,2,0,B|346:218|406:245|431:310|401:365|401:365|466:283|373:211|306:149|394:65,1,521.047166666667,2|0,0:0|0:0,0:0:0:0:
432,144,187146,2,0,B|473:107|483:39|415:-45|305:-15|289:85|289:85|268:19|171:18|156:51|156:51|218:30|256:99|225:159|126:173|64:108|61:58|88:3|88:3|47:41|43:124,1,940.647856665157,2|0,0:0|0:0,0:0:0:0:
18,196,189947,6,0,B|86:197|144:258|144:258|171:283|170:329|121:344|93:318|93:318|29:253|-13:254|-68:312|-30:377|61:362,1,518.178876404167,2|0,0:0|0:0,0:0:0:0:
213,217,191334,2,0,B|132:126|38:118|38:118|178:113|218:12|218:12|178:73|128:78,1,516.080985416667,2|0,0:0|0:0,0:0:0:0:
237,131,192712,2,0,B|260:150|274:167|274:167|279:95|282:2|334:-49|432:-36|481:22|443:103|364:91|364:91|469:143|509:178|484:301|361:306|290:230|326:149|368:126|415:164|401:197,1,854.23248,2|0,0:0|0:0,0:0:0:0:
504,285,195489,6,0,B|433:351|322:331|282:250|282:250|304:345|434:370|501:356,1,520.610053333333,2|0,0:0|0:0,0:0:0:0:
447,150,196872,2,0,B|491:237|402:272|353:245|347:185|347:185|347:90|469:60|469:60|426:70|346:32,1,515.009466666667,2|0,0:0|0:0,0:0:0:0:
293,91,198248,2,0,B|267:34|207:38|207:38|288:112|254:184|237:253|176:274|108:290|31:272|4:211|-45:126|-8:66|52:47|65:12|102:1|154:13|173:19,1,778.200686242066,2|0,0:0|0:0,0:0:0:0:
134,130,200961,5,0,3:0:0:0:
293,91,201134,1,0,3:0:0:0:
416,56,201307,2,0,L|432:104,1,38.925,8|0,0:3|0:0,0:0:0:0:
344,240,201481,1,2,0:2:0:0:
346,220,201567,1,8,0:2:0:0:
349,201,201654,1,2,0:2:0:0:
352,182,201741,1,8,0:2:0:0:
355,162,201828,2,0,L|371:210,1,38.925,2|2,0:2|0:2,0:0:0:0:
408,328,202001,6,0,L|360:320,1,38.925,8|0,0:3|0:0,0:0:0:0:
288,360,202174,1,2,0:2:0:0:
288,360,202261,1,8,0:2:0:0:
288,360,202348,6,0,L|232:352,1,38.925,0|0,3:0|0:0,0:0:0:0:
120,328,202521,1,0,3:0:0:0:
16,304,202695,6,0,L|24:264,1,38.925,8|0,0:3|0:0,0:0:0:0:
88,208,202868,1,2,0:2:0:0:
86,188,202955,1,8,0:2:0:0:
84,169,203041,1,2,0:2:0:0:
82,149,203128,1,8,0:2:0:0:
80,128,203215,2,0,L|75:85,1,38.925,2|2,0:2|0:2,0:0:0:0:
168,8,203388,6,0,L|160:48,1,38.925,8|2,0:3|0:2,0:0:0:0:
256,120,203562,2,0,L|248:72,1,38.925,8|8,0:3|0:2,0:0:0:0:
184,236,203735,6,0,L|248:220,1,38.925,0|0,3:0|0:0,0:0:0:0:
344,196,203908,1,0,3:0:0:0:
392,96,204082,6,0,L|336:88,1,38.925,8|0,0:3|0:0,0:0:0:0:
450,173,204255,1,2,0:2:0:0:
465,158,204342,1,8,0:2:0:0:
477,140,204429,1,2,0:2:0:0:
484,119,204515,1,8,0:2:0:0:
488,96,204602,2,0,L|482:54,1,38.925,2|2,0:2|0:2,0:0:0:0:
380,16,204776,6,0,L|388:64,1,38.925,8|0,0:2|0:0,0:0:0:0:
256,120,204949,2,0,L|249:81,1,38.925,2|2,0:2|0:2,0:0:0:0:
361,228,205122,6,0,L|353:188,1,38.925,8|0,0:3|0:0,0:0:0:0:
376,312,205296,1,2,0:2:0:0:
395,313,205382,1,8,0:2:0:0:
416,316,205469,2,0,L|424:372,1,38.925,2|2,0:2|0:2,0:0:0:0:
460,232,205643,1,8,0:3:0:0:
280,280,205816,6,0,L|288:336,1,38.925,2|8,0:2|0:2,0:0:0:0:
184,296,205989,2,0,L|189:334,1,38.925,8|0,0:3|0:0,0:0:0:0:
361,228,206163,6,0,L|353:180,1,38.925,8|0,0:3|0:0,0:0:0:0:
262,81,206336,2,0,L|255:119,1,38.925,8|0,0:2|0:0,0:0:0:0:
216,208,206510,6,0,L|168:200,1,38.925,0|0,3:0|0:0,0:0:0:0:
80,184,206683,1,0,3:0:0:0:
189,334,206856,6,0,L|184:296,1,38.925,8|0,0:3|0:0,0:0:0:0:
104,344,207030,1,2,0:2:0:0:
101,324,207117,1,8,0:2:0:0:
99,305,207203,1,2,0:2:0:0:
97,286,207290,1,8,0:2:0:0:
96,264,207377,2,0,L|88:212,1,38.925,2|2,0:2|0:2,0:0:0:0:
185,163,207550,6,0,L|177:203,1,38.925,8|0,0:3|0:0,0:0:0:0:
72,96,207724,1,2,0:2:0:0:
72,96,207810,1,8,0:2:0:0:
72,96,207897,6,0,L|120:104,1,38.925,0|0,3:0|0:0,0:0:0:0:
204,64,208070,1,0,3:0:0:0:
324,148,208244,6,0,L|276:156,1,38.925,8|0,0:3|0:0,0:0:0:0:
264,248,208417,1,2,0:2:0:0:
283,244,208504,1,8,0:2:0:0:
304,240,208591,1,2,0:2:0:0:
324,236,208677,1,8,0:2:0:0:
348,232,208764,2,0,L|392:224,1,38.925,2|2,0:2|0:2,0:0:0:0:
452,128,208937,6,0,L|404:136,1,38.925,8|2,0:3|0:2,0:0:0:0:
317,109,209111,2,0,L|323:147,1,38.925,8|8,0:3|0:2,0:0:0:0:
432,40,209284,6,0,L|393:44,1,38.925,0|0,3:0|0:0,0:0:0:0:
300,4,209458,1,0,3:0:0:0:
180,92,209631,6,0,L|228:100,1,38.925,8|0,0:3|0:0,0:0:0:0:
112,24,209804,1,2,0:2:0:0:
96,39,209891,1,8,0:2:0:0:
87,58,209978,1,2,0:2:0:0:
83,79,210065,1,8,0:2:0:0:
88,104,210151,6,0,L|80:144,1,38.925,2|2,0:2|0:2,0:0:0:0:
144,208,210325,2,0,L|110:230,1,38.925,8|0,0:3|0:0,0:0:0:0:
128,328,210498,2,0,L|88:320,1,38.925,2|2,0:2|0:2,0:0:0:0:
224,344,210671,5,8,0:3:0:0:
244,347,210758,1,0,0:0:0:0:
264,351,210845,1,2,0:2:0:0:
285,355,210932,1,8,0:2:0:0:
304,360,211018,2,0,L|360:368,1,38.925,2|2,0:2|0:2,0:0:0:0:
228,248,211192,5,8,0:3:0:0:
248,251,211278,1,0,0:0:0:0:
268,255,211365,1,2,0:2:0:0:
289,259,211452,1,8,0:2:0:0:
308,264,211539,2,0,L|364:272,1,38.925,8|0,0:3|0:0,0:0:0:0:
456,352,211712,6,0,L|448:304,1,38.925,8|0,0:3|0:0,0:0:0:0:
432,216,211885,2,0,L|424:168,1,38.925,8|0,0:2|0:0,0:0:0:0:
416,88,212059,6,0,B|384:80|352:104|360:120|328:136|288:128,1,129.75,6|0,3:2|0:0,0:0:0:0:
299,5,212406,2,0,L|306:48,1,43.25,8|0,0:2|0:0,0:0:0:0:
216,136,212579,1,2,0:2:0:0:
190,101,212666,1,0,0:0:0:0:
152,81,212752,1,0,0:0:0:0:
109,80,212839,1,0,0:0:0:0:
64,96,212926,2,0,L|72:40,1,43.25,0|0,3:0|0:0,0:0:0:0:
128,176,213099,2,0,B|136:232|136:232|120:256|120:256|128:312,1,129.75,10|0,0:2|0:0,0:0:0:0:
266,273,213446,6,0,L|224:280,1,43.25,2|0,3:2|0:0,0:0:0:0:
192,376,213619,2,0,L|234:369,1,43.25
328,352,213793,2,0,L|376:344,1,43.25,8|0,0:2|0:0,0:0:0:0:
248,256,213966,1,2,3:2:0:0:
253,213,214053,1,0,0:0:0:0:
259,170,214140,1,0,0:0:0:0:
265,127,214226,1,0,0:0:0:0:
272,80,214313,2,0,L|328:72,1,43.25,0|0,3:0|0:0,0:0:0:0:
416,24,214487,2,0,L|408:72,1,43.25,10|0,0:2|0:0,0:0:0:0:
392,160,214660,2,0,L|384:208,1,43.25
452,284,214833,6,0,P|480:272|452:276,1,86.5,0|0,3:0|0:0,0:0:0:0:
452,284,215180,6,0,L|409:291,1,43.25,10|0,0:2|0:0,0:0:0:0:
320,312,215354,2,0,L|277:319,1,43.25,2|0,0:2|0:0,0:0:0:0:
192,336,215527,1,2,0:2:0:0:
170,298,215614,1,0,0:0:0:0:
136,273,215700,1,0,3:0:0:0:
94,265,215787,1,0,0:0:0:0:
48,272,215874,2,0,B|64:144,1,129.75,10|0,0:2|0:0,0:0:0:0:
48,52,216221,6,0,P|71:50|112:68,1,43.25,2|0,3:2|0:0,0:0:0:0:
164,176,216394,2,0,P|185:180|206:178,1,43.25
296,88,216567,2,0,P|319:86|360:104,1,43.25,8|0,0:2|0:0,0:0:0:0:
56,40,216741,6,0,P|79:38|120:56,1,43.25,2|0,3:2|0:0,0:0:0:0:
172,164,216914,2,0,P|193:168|214:166,1,43.25
304,76,217088,2,0,P|327:74|368:92,1,43.25,0|0,3:0|0:0,0:0:0:0:
480,160,217261,6,0,L|464:112,1,43.25,10|0,0:2|0:0,0:0:0:0:
312,176,217434,2,0,L|298:217,1,43.25
416,352,217608,6,0,B|360:344|360:344|320:312|320:312|256:304,1,162.1875,2|0,3:2|0:0,0:0:0:0:
152,336,217955,1,8,3:2:0:0:
163,317,218041,1,0,0:0:0:0:
168,296,218128,1,2,0:2:0:0:
168,275,218215,1,0,0:0:0:0:
160,256,218302,2,0,L|168:208,1,43.25,0|0,3:0|0:0,0:0:0:0:
80,288,218475,2,0,L|72:330,1,43.25
97,163,218648,2,0,P|131:137|235:162,1,129.75,10|0,3:2|0:0,0:0:0:0:
255,224,218995,6,0,L|303:216,1,43.25,2|0,3:2|0:0,0:0:0:0:
352,120,219169,2,0,L|309:127,1,43.25
472,168,219342,2,0,P|448:112|480:40,1,129.75,8|0,3:2|0:0,0:0:0:0:
368,0,219689,2,0,L|375:42,1,43.25,0|0,3:0|0:0,0:0:0:0:
352,120,219862,2,0,L|359:162,1,43.25
271,7,220036,2,0,L|278:49,1,43.25,10|0,3:2|0:0,0:0:0:0:
256,128,220209,2,0,L|263:170,1,43.25
176,16,220382,5,2,3:2:0:0:
144,176,220556,1,2,3:2:0:0:
104,352,220729,1,8,3:2:0:0:
344,296,220903,1,2,3:2:0:0:
40,280,221076,5,0,3:0:0:0:
352,208,221250,1,2,3:2:0:0:
464,16,221423,5,10,3:2:0:0:
460,59,221510,1,0,3:0:0:0:
456,102,221596,1,2,3:2:0:0:
452,145,221683,1,0,3:0:0:0:
449,185,221770,6,0,P|462:215|463:186,1,86.5,6|0,3:2|0:0,0:0:0:0:
360,112,221943,2,0,P|355:80|345:110,1,86.5,0|0,3:0|0:0,0:0:0:0:
352,208,222117,6,0,L|344:256,1,43.25,8|0,0:3|0:0,0:0:0:0:
328,352,222290,1,2,0:2:0:0:
285,344,222377,1,8,0:2:0:0:
240,336,222463,2,0,L|248:368,6,21.625,8|8|8|8|8|8|8,0:2|0:2|0:2|0:2|0:2|0:2|0:2,0:0:0:0:
208,240,222810,6,0,P|200:216|216:240,1,86.5,4|0,0:2|0:0,0:0:0:0:
152,312,223157,5,6,3:2:0:0:
132,295,223244,1,0,0:0:0:0:
117,274,223330,1,0,0:0:0:0:
108,249,223417,1,0,0:0:0:0:
104,224,223504,1,8,3:2:0:0:
108,198,223591,1,0,0:0:0:0:
117,174,223677,1,0,0:0:0:0:
133,153,223764,1,0,0:0:0:0:
152,136,223851,5,2,3:2:0:0:
175,98,223937,1,0,0:0:0:0:
172,54,224024,1,0,0:0:0:0:
144,20,224111,1,0,0:0:0:0:
101,9,224197,1,8,3:2:0:0:
60,25,224284,1,0,0:0:0:0:
36,63,224371,1,0,0:0:0:0:
39,107,224458,1,0,0:0:0:0:
64,140,224544,5,2,3:2:0:0:
111,112,224631,1,0,0:0:0:0:
166,117,224718,1,0,0:0:0:0:
208,153,224804,1,0,0:0:0:0:
221,207,224891,1,8,3:2:0:0:
233,260,224978,1,0,0:0:0:0:
275,297,225065,1,0,0:0:0:0:
330,302,225151,1,0,0:0:0:0:
376,272,225238,2,0,L|384:336,3,56.225,2|0|0|0,3:2|0:0|0:0|0:0,0:0:0:0:
318,152,225585,2,0,L|312:208,3,56.225,10|0|0|0,3:2|0:0|0:0|0:0,0:0:0:0:
464,184,225932,6,0,L|400:192,1,56.225,2|0,3:2|0:0,0:0:0:0:
328,72,226105,2,0,L|383:78,1,56.225,2|0,0:0|0:0,0:0:0:0:
312,207,226278,2,0,L|318:151,1,56.225,10|0,3:2|0:0,0:0:0:0:
480,40,226452,2,0,L|473:95,1,56.225,2|0,0:0|0:0,0:0:0:0:
455,273,226625,6,0,L|400:280,1,56.225,2|0,3:2|0:0,0:0:0:0:
262,144,226799,2,0,L|318:151,1,56.225,2|0,0:0|0:0,0:0:0:0:
448,360,226972,2,0,L|392:366,1,56.225,10|0,3:2|0:0,0:0:0:0:
248,232,227145,2,0,L|303:238,1,56.225,2|0,0:0|0:0,0:0:0:0:
136,352,227319,5,0,3:0:0:0:
107,353,227406,1,0,0:0:0:0:
82,342,227492,1,0,0:0:0:0:
65,319,227579,1,0,0:0:0:0:
60,291,227666,1,8,3:2:0:0:
68,264,227752,1,0,0:0:0:0:
87,244,227839,1,0,0:0:0:0:
115,236,227926,1,0,0:0:0:0:
143,241,228013,1,0,3:0:0:0:
164,259,228099,1,0,0:0:0:0:
176,284,228186,1,0,0:0:0:0:
174,313,228273,1,0,0:0:0:0:
160,336,228359,5,10,3:2:0:0:
143,292,228446,1,0,0:0:0:0:
128,252,228533,1,0,0:0:0:0:
112,211,228619,1,0,0:0:0:0:
96,220,228706,5,2,3:2:0:0:
87,165,228793,1,0,0:0:0:0:
111,115,228880,1,0,0:0:0:0:
159,87,228966,1,0,0:0:0:0:
214,92,229053,1,8,3:2:0:0:
256,128,229140,1,0,0:0:0:0:
271,181,229226,1,0,0:0:0:0:
253,233,229313,1,0,0:0:0:0:
204,260,229400,5,2,3:2:0:0:
208,230,229487,1,0,0:0:0:0:
212,202,229573,1,0,0:0:0:0:
216,174,229660,1,0,0:0:0:0:
220,146,229747,1,8,3:2:0:0:
224,118,229833,1,0,0:0:0:0:
228,91,229920,1,0,0:0:0:0:
232,63,230007,1,0,0:0:0:0:
236,36,230093,5,2,3:2:0:0:
240,68,230180,1,0,0:0:0:0:
245,102,230267,1,0,0:0:0:0:
250,134,230354,1,0,0:0:0:0:
255,168,230440,1,8,3:2:0:0:
260,201,230527,1,0,0:0:0:0:
264,235,230614,1,0,0:0:0:0:
269,268,230700,1,0,0:0:0:0:
274,308,230787,5,2,3:2:0:0:
310,274,230874,1,0,0:0:0:0:
360,269,230961,1,0,0:0:0:0:
402,296,231047,1,0,0:0:0:0:
424,344,231134,2,0,L|432:280,1,56.225,10|0,3:2|0:0,0:0:0:0:
340,132,231307,2,0,L|346:187,1,56.225,2|0,0:0|0:0,0:0:0:0:
472,32,231481,5,2,3:2:0:0:
468,59,231567,1,0,0:0:0:0:
464,88,231654,2,0,L|456:144,1,56.225
351,215,231828,5,10,3:2:0:0:
347,188,231914,1,0,0:0:0:0:
343,159,232001,2,0,L|335:103,1,56.225
232,8,232174,5,2,3:2:0:0:
228,35,232261,1,0,0:0:0:0:
224,64,232348,2,0,L|216:120,1,56.225
200,248,232521,6,0,L|256:240,1,56.225,10|0,3:2|0:0,0:0:0:0:
136,72,232695,5,2,0:0:0:0:
129,116,232781,1,0,0:0:0:0:
123,161,232868,1,0,3:0:0:0:
116,205,232955,1,0,0:0:0:0:
112,248,233041,6,0,P|116:278|142:315,1,56.225,2|0,0:0|0:0,0:0:0:0:
288,368,233215,2,0,P|300:343|304:315,1,56.225,10|0,3:2|0:0,0:0:0:0:
240,72,233388,6,0,P|221:96|213:140,1,56.225,2|0,0:0|0:0,0:0:0:0:
280,280,233562,2,0,P|306:271|328:254,1,56.225,2|0,3:2|0:0,0:0:0:0:
432,32,233735,2,0,P|402:36|365:62,1,56.225,2|0,0:0|0:0,0:0:0:0:
311,207,233908,6,0,L|376:224,1,56.225,10|0,3:2|0:0,0:0:0:0:
282,42,234082,2,0,L|228:28,1,56.225,2|0,0:0|0:0,0:0:0:0:
198,206,234255,5,6,3:2:0:0:
198,220,234342,1,0,0:0:0:0:
199,234,234429,1,0,0:0:0:0:
200,248,234515,1,0,0:0:0:0:
201,262,234602,1,8,3:2:0:0:
202,276,234689,1,0,0:0:0:0:
203,290,234776,1,0,0:0:0:0:
204,304,234862,1,0,0:0:0:0:
205,318,234949,5,2,3:2:0:0:
216,345,235036,1,0,0:0:0:0:
237,364,235122,1,0,0:0:0:0:
263,375,235209,1,0,0:0:0:0:
290,378,235296,1,8,3:2:0:0:
317,371,235382,1,0,0:0:0:0:
341,354,235469,1,0,0:0:0:0:
356,328,235556,1,0,0:0:0:0:
360,296,235643,5,2,3:2:0:0:
337,245,235729,1,0,0:0:0:0:
350,191,235816,1,0,0:0:0:0:
392,156,235903,1,0,0:0:0:0:
448,153,235989,1,8,3:2:0:0:
493,185,236076,1,0,0:0:0:0:
511,237,236163,1,0,0:0:0:0:
493,290,236250,1,0,0:0:0:0:
448,320,236336,2,0,L|456:376,3,56.225,2|0|0|0,3:2|0:0|0:0|0:0,0:0:0:0:
337,245,236683,2,0,L|345:189,3,56.225,10|0|0|0,3:2|0:0|0:0|0:0,0:0:0:0:
237,364,237030,6,0,L|245:300,1,56.225,2|0,3:2|0:0,0:0:0:0:
104,136,237203,2,0,L|112:192,1,56.225,2|0,0:0|0:0,0:0:0:0:
144,368,237377,2,0,L|152:304,1,56.225,10|0,3:2|0:0,0:0:0:0:
11,140,237550,2,0,L|19:196,1,56.225,2|0,0:0|0:0,0:0:0:0:
232,72,237724,6,0,P|208:56|152:56,1,56.225,2|0,3:2|0:0,0:0:0:0:
96,40,237897,2,0,P|67:45|28:85,1,56.225,2|0,0:0|0:0,0:0:0:0:
228,276,238070,2,0,P|222:247|182:208,1,56.225,10|0,3:2|0:0,0:0:0:0:
154,157,238244,2,0,P|130:141|74:140,1,56.225,2|0,0:0|0:0,0:0:0:0:
173,352,238417,5,0,3:0:0:0:
195,364,238504,1,0,0:0:0:0:
220,371,238591,1,0,0:0:0:0:
246,371,238677,1,0,0:0:0:0:
271,363,238764,1,8,3:2:0:0:
293,350,238851,1,0,0:0:0:0:
310,330,238937,1,0,0:0:0:0:
322,307,239024,1,0,0:0:0:0:
327,282,239111,1,0,3:0:0:0:
325,256,239197,1,0,0:0:0:0:
316,232,239284,1,0,0:0:0:0:
301,211,239371,1,0,0:0:0:0:
280,192,239458,2,0,L|288:136,1,56.225,10|0,3:2|0:0,0:0:0:0:
440,16,239631,2,0,L|448:72,1,56.225,2|0,0:0|0:0,0:0:0:0:
480,184,239804,5,2,3:2:0:0:
496,213,239891,1,0,0:0:0:0:
491,246,239978,1,0,0:0:0:0:
465,268,240065,1,0,0:0:0:0:
431,268,240151,1,8,3:2:0:0:
405,246,240238,1,0,0:0:0:0:
399,213,240325,1,0,0:0:0:0:
416,184,240411,1,0,0:0:0:0:
448,168,240498,5,2,3:2:0:0:
440,221,240585,1,0,0:0:0:0:
404,264,240671,1,0,0:0:0:0:
350,279,240758,1,0,0:0:0:0:
298,265,240845,1,8,3:2:0:0:
245,251,240932,1,0,0:0:0:0:
192,267,241018,1,0,0:0:0:0:
156,310,241105,1,0,0:0:0:0:
144,360,241192,5,2,3:2:0:0:
141,332,241278,1,0,0:0:0:0:
138,304,241365,1,0,0:0:0:0:
135,276,241452,1,0,0:0:0:0:
132,248,241539,5,10,3:2:0:0:
127,261,241625,1,0,0:0:0:0:
124,275,241712,1,0,0:0:0:0:
119,288,241799,1,0,0:0:0:0:
116,302,241885,5,2,3:2:0:0:
113,295,241972,1,0,0:0:0:0:
112,288,242059,1,0,0:0:0:0:
109,282,242145,1,0,0:0:0:0:
108,275,242232,2,0,L|88:203,1,56.225,10|0,3:2|0:0,0:0:0:0:
56,96,242406,2,0,L|128:114,1,56.225,2|0,0:0|0:0,0:0:0:0:
307,187,242579,5,0,3:0:0:0:
365,216,242666,1,0,0:0:0:0:
430,206,242752,1,0,0:0:0:0:
475,159,242839,1,0,0:0:0:0:
486,94,242926,1,8,3:2:0:0:
456,36,243013,1,0,0:0:0:0:
398,6,243099,1,0,0:0:0:0:
332,17,243186,1,0,0:0:0:0:
286,62,243273,1,0,3:0:0:0:
278,128,243359,1,0,0:0:0:0:
307,187,243446,1,0,0:0:0:0:
294,250,243533,1,0,0:0:0:0:
246,296,243619,1,8,3:2:0:0:
181,307,243706,1,0,0:0:0:0:
124,275,243793,1,0,0:0:0:0:
94,215,243880,1,0,0:0:0:0:
111,157,243966,5,4,3:2:0:0:
133,170,244053,1,0,0:0:0:0:
157,182,244140,1,0,0:0:0:0:
182,196,244226,1,0,0:0:0:0:
202,208,244313,2,0,L|195:148,3,43.25,8|0|0|0,0:2|0:0|0:0|0:0,0:0:0:0:
246,296,244660,6,0,L|310:288,1,43.25
376,280,244833,2,0,L|440:272,1,43.25,0|0,3:0|0:0,0:0:0:0:
472,184,245007,6,0,P|470:154|464:184,1,86.5,8|0,0:2|0:0,0:0:0:0:
496,360,245354,5,6,3:2:0:0:
465,357,245440,1,0,0:0:0:0:
436,355,245527,1,0,0:0:0:0:
406,352,245614,1,0,0:0:0:0:
377,350,245700,1,8,3:2:0:0:
347,348,245787,1,0,0:0:0:0:
318,345,245874,1,2,0:0:0:0:
289,343,245961,1,0,0:0:0:0:
259,341,246047,1,0,3:0:0:0:
230,339,246134,1,0,0:0:0:0:
200,337,246221,1,0,0:0:0:0:
171,335,246307,1,0,0:0:0:0:
142,332,246394,1,10,3:2:0:0:
112,330,246481,1,0,0:0:0:0:
83,328,246567,1,0,0:0:0:0:
53,325,246654,1,0,0:0:0:0:
21,324,246741,5,2,3:2:0:0:
6,296,246828,1,0,0:0:0:0:
7,265,246914,1,0,0:0:0:0:
22,238,247001,1,0,0:0:0:0:
48,222,247088,1,8,3:2:0:0:
79,220,247174,1,0,0:0:0:0:
111,232,247261,5,2,0:0:0:0:
155,257,247348,1,0,0:0:0:0:
206,257,247434,1,0,3:0:0:0:
249,229,247521,1,0,0:0:0:0:
272,183,247608,1,0,0:0:0:0:
268,132,247695,1,0,0:0:0:0:
238,91,247781,1,10,3:2:0:0:
192,72,247868,1,0,0:0:0:0:
140,78,247955,1,0,0:0:0:0:
101,111,248041,1,0,0:0:0:0:
88,168,248128,2,0,L|95:219,3,51.9,0|0|0|0,3:0|0:0|0:0|0:0,0:0:0:0:
64,48,248475,6,0,L|136:45,1,51.9,10|0,3:2|0:0,0:0:0:0:
240,168,248648,2,0,L|188:170,1,51.9,2|0,0:0|0:0,0:0:0:0:
48,28,248822,5,2,3:2:0:0:
73,26,248908,1,0,0:0:0:0:
99,25,248995,1,0,0:0:0:0:
125,24,249082,1,0,0:0:0:0:
156,24,249169,2,0,L|164:80,3,51.9,10|0|0|0,3:2|0:0|0:0|0:0,0:0:0:0:
249,66,249515,5,2,3:2:0:0:
264,114,249602,1,0,0:0:0:0:
303,148,249689,1,0,0:0:0:0:
353,157,249776,1,0,0:0:0:0:
401,139,249862,1,8,3:2:0:0:
433,98,249949,1,0,0:0:0:0:
439,47,250036,5,2,0:0:0:0:
443,99,250122,1,0,0:0:0:0:
447,151,250209,1,0,3:0:0:0:
451,203,250296,1,0,0:0:0:0:
455,255,250382,1,0,0:0:0:0:
459,306,250469,1,0,0:0:0:0:
460,360,250556,5,10,3:2:0:0:
439,343,250643,1,0,0:0:0:0:
419,327,250729,1,0,0:0:0:0:
399,311,250816,1,0,0:0:0:0:
379,294,250903,5,2,3:2:0:0:
353,337,250989,1,0,0:0:0:0:
306,360,251076,1,0,0:0:0:0:
255,351,251163,1,0,0:0:0:0:
219,312,251250,1,8,3:2:0:0:
213,261,251336,1,0,0:0:0:0:
238,215,251423,1,2,0:0:0:0:
285,193,251510,1,0,0:0:0:0:
336,202,251596,1,0,3:0:0:0:
371,239,251683,1,0,0:0:0:0:
422,249,251770,1,0,0:0:0:0:
470,226,251856,1,0,0:0:0:0:
495,181,251943,1,10,3:2:0:0:
489,129,252030,1,0,0:0:0:0:
453,91,252117,1,0,0:0:0:0:
401,82,252203,1,0,0:0:0:0:
352,96,252290,5,2,3:2:0:0:
333,113,252377,1,0,0:0:0:0:
309,123,252463,1,0,0:0:0:0:
283,122,252550,1,0,0:0:0:0:
259,112,252637,1,8,3:2:0:0:
241,94,252724,1,0,0:0:0:0:
228,68,252810,5,2,0:0:0:0:
192,31,252897,1,0,0:0:0:0:
142,20,252984,1,0,3:0:0:0:
94,38,253070,1,0,0:0:0:0:
64,80,253157,1,0,0:0:0:0:
62,131,253244,1,0,0:0:0:0:
88,176,253330,2,0,L|80:228,3,51.9,10|0|0|0,3:2|0:0|0:0|0:0,0:0:0:0:
72,320,253677,5,2,3:2:0:0:
72,320,253764,1,0,0:0:0:0:
72,320,253851,2,0,L|136:312,1,51.9
224,224,254024,5,10,3:2:0:0:
224,224,254111,1,0,0:0:0:0:
224,224,254197,2,0,L|160:232,1,51.9
208,360,254371,6,0,L|216:304,1,51.9,2|0,3:2|0:0,0:0:0:0:
312,200,254544,5,2,0:0:0:0:
312,200,254631,1,0,0:0:0:0:
312,200,254718,2,0,L|320:256,1,51.9,8|0,3:2|0:0,0:0:0:0:
392,360,254891,5,2,0:0:0:0:
396,334,254978,1,0,0:0:0:0:
400,308,255065,1,0,3:0:0:0:
404,280,255151,1,0,0:0:0:0:
408,256,255238,6,0,P|441:242|459:220,1,51.9,2|0,0:0|0:0,0:0:0:0:
492,164,255411,2,0,P|506:131|503:102,1,51.9,10|0,3:2|0:0,0:0:0:0:
464,48,255585,2,0,P|450:14|428:-3,1,51.9,2|0,0:0|0:0,0:0:0:0:
392,176,255758,6,0,P|378:142|356:124,1,51.9,2|0,3:2|0:0,0:0:0:0:
290,113,255932,2,0,P|257:98|228:101,1,51.9,2|0,0:0|0:0,0:0:0:0:
234,350,256105,6,0,P|267:336|285:314,1,51.9,10|0,3:2|0:0,0:0:0:0:
297,248,256278,2,0,P|311:215|308:186,1,51.9,2|0,0:0|0:0,0:0:0:0:
164,104,256452,5,6,3:2:0:0:
114,78,256539,1,0,0:0:0:0:
59,86,256625,1,0,0:0:0:0:
19,126,256712,1,0,0:0:0:0:
10,181,256799,1,8,3:2:0:0:
36,230,256885,1,0,0:0:0:0:
85,256,256972,1,2,0:0:0:0:
140,247,257059,1,0,0:0:0:0:
180,207,257145,1,0,3:0:0:0:
189,153,257232,1,0,0:0:0:0:
164,104,257319,1,0,0:0:0:0:
172,52,257406,1,0,0:0:0:0:
212,13,257492,1,10,3:2:0:0:
266,5,257579,1,0,0:0:0:0:
316,29,257666,1,0,0:0:0:0:
341,79,257752,1,0,0:0:0:0:
333,134,257839,5,2,3:2:0:0:
380,100,257926,1,0,0:0:0:0:
437,100,258013,1,0,0:0:0:0:
483,134,258099,1,0,0:0:0:0:
501,188,258186,1,8,3:2:0:0:
483,243,258273,1,0,0:0:0:0:
437,276,258359,1,2,0:0:0:0:
380,276,258446,1,0,0:0:0:0:
333,242,258533,1,0,3:0:0:0:
316,188,258619,1,0,0:0:0:0:
333,134,258706,1,0,0:0:0:0:
315,79,258793,1,0,0:0:0:0:
269,45,258880,1,10,3:2:0:0:
213,45,258966,1,0,0:0:0:0:
166,79,259053,1,0,0:0:0:0:
149,133,259140,1,0,0:0:0:0:
166,188,259226,5,0,3:0:0:0:
185,171,259313,1,0,0:0:0:0:
205,154,259400,1,0,0:0:0:0:
225,137,259487,1,0,0:0:0:0:
245,121,259573,6,0,L|240:64,1,51.9,10|0,3:2|0:0,0:0:0:0:
80,192,259747,2,0,L|72:248,1,51.9,2|0,0:0|0:0,0:0:0:0:
64,344,259920,5,2,3:2:0:0:
88,361,260007,1,0,0:0:0:0:
119,362,260093,1,0,0:0:0:0:
144,345,260180,1,0,0:0:0:0:
160,320,260267,2,0,L|168:264,3,51.9,10|0|0|0,3:2|0:0|0:0|0:0,0:0:0:0:
240,324,260614,5,2,3:2:0:0:
243,298,260700,1,0,0:0:0:0:
246,272,260787,1,0,0:0:0:0:
249,245,260874,1,0,0:0:0:0:
252,220,260961,1,8,3:2:0:0:
255,195,261047,1,0,0:0:0:0:
256,168,261134,5,2,0:0:0:0:
259,181,261221,1,0,0:0:0:0:
261,194,261307,1,0,3:0:0:0:
264,207,261394,1,0,0:0:0:0:
267,220,261481,1,0,0:0:0:0:
270,232,261567,1,0,0:0:0:0:
275,243,261654,5,10,3:2:0:0:
277,230,261741,1,0,0:0:0:0:
278,217,261828,1,0,0:0:0:0:
280,204,261914,1,0,0:0:0:0:
281,196,262001,5,2,3:2:0:0:
328,230,262088,1,0,0:0:0:0:
387,230,262174,1,0,0:0:0:0:
435,196,262261,1,0,0:0:0:0:
453,139,262348,1,8,3:2:0:0:
435,83,262434,1,0,0:0:0:0:
387,47,262521,1,2,0:0:0:0:
328,47,262608,1,0,0:0:0:0:
281,83,262695,1,0,3:0:0:0:
264,141,262781,1,0,0:0:0:0:
281,196,262868,1,0,0:0:0:0:
263,251,262955,1,0,0:0:0:0:
215,286,263041,1,10,3:2:0:0:
155,286,263128,1,0,0:0:0:0:
108,250,263215,1,0,0:0:0:0:
89,196,263302,1,0,0:0:0:0:
104,140,263388,5,2,3:2:0:0:
150,173,263475,1,0,0:0:0:0:
196,206,263562,1,0,0:0:0:0:
243,239,263648,1,0,0:0:0:0:
289,273,263735,1,8,3:2:0:0:
335,306,263822,1,0,0:0:0:0:
381,337,263908,1,2,0:0:0:0:
436,343,263995,1,0,0:0:0:0:
483,313,264082,1,0,3:0:0:0:
501,260,264169,1,0,0:0:0:0:
481,207,264255,1,0,0:0:0:0:
433,179,264342,1,0,0:0:0:0:
376,184,264429,5,10,3:2:0:0:
392,157,264515,1,0,0:0:0:0:
408,130,264602,1,0,0:0:0:0:
424,103,264689,1,0,0:0:0:0:
438,77,264776,5,2,3:2:0:0:
380,113,264862,1,0,0:0:0:0:
314,112,264949,1,0,0:0:0:0:
256,87,265036,1,0,0:0:0:0:
198,60,265122,1,10,3:2:0:0:
134,60,265209,1,0,0:0:0:0:
76,86,265296,1,0,0:0:0:0:
33,134,265382,1,0,0:0:0:0:
13,194,265469,1,2,3:2:0:0:
19,258,265556,1,0,0:0:0:0:
52,313,265643,1,2,0:0:0:0:
103,351,265729,1,0,0:0:0:0:
165,364,265816,1,8,3:2:0:0:
229,351,265903,1,0,0:0:0:0:
280,313,265989,1,2,0:0:0:0:
312,258,266076,1,0,0:0:0:0:
319,194,266163,5,4,3:2:0:0:
163,211,266336,1,0,3:0:0:0:
84,56,266510,2,0,L|140:48,1,51.9,8|0,0:3|0:0,0:0:0:0:
320,24,266683,1,2,0:2:0:0:
316,65,266770,1,8,0:2:0:0:
313,106,266856,1,2,0:2:0:0:
310,148,266943,1,8,0:2:0:0:
308,188,267030,2,0,L|304:248,1,51.9,2|2,0:2|0:2,0:0:0:0:
307,323,267203,6,0,P|300:352|292:320,1,86.5,4|0,0:2|0:0,0:0:0:0:
464,179,267550,5,6,3:2:0:0:
438,180,267637,1,0,0:0:0:0:
412,182,267724,1,0,0:0:0:0:
386,183,267810,1,0,0:0:0:0:
360,185,267897,1,8,0:2:0:0:
334,186,267984,1,0,0:0:0:0:
308,188,268070,5,2,0:2:0:0:
328,149,268157,1,0,0:0:0:0:
328,106,268244,1,0,0:0:0:0:
307,68,268330,1,0,0:0:0:0:
270,47,268417,1,0,3:0:0:0:
227,45,268504,1,0,0:0:0:0:
192,64,268591,2,0,L|208:112,3,43.25,10|0|0|0,0:2|0:0|0:0|0:0,0:0:0:0:
74,8,268937,5,2,3:2:0:0:
85,49,269024,1,0,0:0:0:0:
96,90,269111,1,0,0:0:0:0:
108,132,269197,1,0,0:0:0:0:
119,173,269284,1,8,0:2:0:0:
131,215,269371,1,0,0:0:0:0:
144,256,269458,5,2,3:2:0:0:
111,228,269544,1,0,0:0:0:0:
68,224,269631,1,0,0:0:0:0:
31,243,269718,1,0,0:0:0:0:
10,280,269804,1,0,3:0:0:0:
13,323,269891,1,0,0:0:0:0:
32,360,269978,2,0,L|80:352,3,43.25,10|0|0|0,0:2|0:0|0:0|0:0,0:0:0:0:
176,352,270325,6,0,B|232:344|232:344|280:360|280:360|360:348,1,162.1875,0|0,3:0|0:0,0:0:0:0:
432,336,270671,1,10,0:2:0:0:
240,248,270845,1,2,0:2:0:0:
432,144,271018,1,2,0:2:0:0:
432,240,271192,1,0,3:0:0:0:
232,152,271365,5,10,0:2:0:0:
336,328,271539,1,0,0:0:0:0:
376,64,271712,5,2,3:2:0:0:
359,29,271799,1,0,0:0:0:0:
322,21,271885,1,0,0:0:0:0:
293,45,271972,1,0,0:0:0:0:
293,82,272059,1,8,0:2:0:0:
322,106,272145,1,0,0:0:0:0:
359,98,272232,5,2,3:2:0:0:
329,83,272319,1,0,0:0:0:0:
300,69,272406,1,0,0:0:0:0:
271,55,272492,1,0,0:0:0:0:
242,41,272579,1,0,3:0:0:0:
212,27,272666,1,0,0:0:0:0:
168,8,272752,5,10,0:2:0:0:
183,30,272839,1,0,0:0:0:0:
199,52,272926,1,0,0:0:0:0:
214,74,273013,1,0,0:0:0:0:
232,96,273099,5,2,3:2:0:0:
182,76,273186,1,0,0:0:0:0:
133,95,273273,1,0,0:0:0:0:
110,142,273359,1,0,0:0:0:0:
125,193,273446,1,8,0:2:0:0:
171,220,273533,1,0,0:0:0:0:
220,212,273619,5,2,0:2:0:0:
214,232,273706,1,0,0:0:0:0:
208,253,273793,1,0,0:0:0:0:
204,274,273880,1,0,0:0:0:0:
198,295,273966,1,0,3:0:0:0:
193,316,274053,1,0,0:0:0:0:
188,339,274140,2,0,L|132:324,3,54.0625,10|0|0|0,0:2|0:0|0:0|0:0,0:0:0:0:
276,374,274487,5,2,3:2:0:0:
318,381,274573,1,0,0:0:0:0:
357,364,274660,1,0,0:0:0:0:
380,328,274747,1,0,0:0:0:0:
381,286,274833,1,8,0:2:0:0:
358,249,274920,1,0,0:0:0:0:
320,232,275007,5,2,3:2:0:0:
326,205,275093,1,0,0:0:0:0:
333,179,275180,1,0,0:0:0:0:
339,153,275267,1,0,0:0:0:0:
346,127,275354,1,0,3:0:0:0:
353,101,275440,1,0,0:0:0:0:
360,72,275527,6,0,B|328:48|288:72|296:88|248:120|192:96,1,162.1875,10|0,0:2|0:0,0:0:0:0:
120,88,275874,1,2,3:2:0:0:
30,249,276047,2,0,P|70:273|150:257,1,108.125,2|8,0:2|0:2,0:0:0:0:
88,72,276394,2,0,L|95:179,1,108.125,2|0,0:2|0:0,0:0:0:0:
104,352,276741,1,2,3:2:0:0:
320,232,276914,1,10,0:2:0:0:
8,160,277088,1,2,0:2:0:0:
216,336,277261,5,2,3:2:0:0:
243,342,277348,1,0,0:0:0:0:
264,325,277434,1,0,0:0:0:0:
264,298,277521,1,0,0:0:0:0:
243,281,277608,1,8,0:2:0:0:
216,287,277695,1,0,0:0:0:0:
200,312,277781,5,2,3:2:0:0:
227,314,277868,1,0,0:0:0:0:
254,317,277955,1,0,0:0:0:0:
281,319,278041,1,0,0:0:0:0:
307,322,278128,2,0,L|383:326,1,54.0625,0|0,3:0|0:0,0:0:0:0:
468,376,278302,6,0,P|479:353|472:288,1,64.875,8|0,0:2|0:0,0:0:0:0:
400,220,278475,2,0,P|397:187|408:157,1,64.875,0|0,3:0|0:0,0:0:0:0:
472,48,278648,5,6,3:2:0:0:
436,17,278735,1,0,0:0:0:0:
389,13,278822,1,0,0:0:0:0:
348,36,278908,1,0,0:0:0:0:
328,78,278995,1,8,0:2:0:0:
312,122,279082,1,0,0:0:0:0:
273,150,279169,1,2,0:2:0:0:
226,150,279255,1,0,0:0:0:0:
187,123,279342,1,0,0:0:0:0:
173,77,279429,1,0,0:0:0:0:
187,32,279515,1,0,3:0:0:0:
226,4,279602,1,0,0:0:0:0:
272,8,279689,5,10,0:2:0:0:
264,29,279776,1,0,0:0:0:0:
258,53,279862,1,0,0:0:0:0:
253,76,279949,1,0,0:0:0:0:
246,99,280036,5,2,3:2:0:0:
199,100,280122,1,0,0:0:0:0:
166,132,280209,1,0,0:0:0:0:
166,179,280296,1,0,0:0:0:0:
197,213,280382,1,8,0:2:0:0:
243,215,280469,1,0,0:0:0:0:
280,192,280556,5,2,3:2:0:0:
317,196,280643,1,0,0:0:0:0:
355,200,280729,1,0,0:0:0:0:
393,204,280816,1,0,0:0:0:0:
431,208,280903,1,0,3:0:0:0:
469,212,280989,1,0,0:0:0:0:
504,216,281076,2,0,L|496:152,3,47.575,10|0|0|0,0:2|0:0|0:0|0:0,0:0:0:0:
488,304,281423,6,0,B|432:312|432:312|400:344|400:344|328:352,1,162.1875,0|0,3:0|0:0,0:0:0:0:
248,360,281770,1,10,0:2:0:0:
112,248,281943,1,2,0:2:0:0:
369,210,282117,1,2,0:2:0:0:
248,328,282290,1,0,3:0:0:0:
32,136,282463,5,10,0:2:0:0:
240,232,282637,1,0,0:0:0:0:
176,8,282810,5,2,3:2:0:0:
172,34,282897,1,0,0:0:0:0:
168,61,282984,1,0,0:0:0:0:
164,88,283070,1,0,0:0:0:0:
160,114,283157,1,8,0:2:0:0:
156,141,283244,1,0,0:0:0:0:
152,168,283330,5,2,3:2:0:0:
150,154,283417,1,0,0:0:0:0:
148,141,283504,1,0,0:0:0:0:
146,128,283591,1,0,0:0:0:0:
144,114,283677,1,0,3:0:0:0:
142,101,283764,1,0,0:0:0:0:
140,88,283851,5,10,0:2:0:0:
164,109,283937,1,0,0:0:0:0:
195,117,284024,1,0,0:0:0:0:
226,112,284111,1,0,0:0:0:0:
252,92,284197,5,2,3:2:0:0:
296,61,284284,1,0,0:0:0:0:
350,61,284371,1,0,0:0:0:0:
393,92,284458,1,0,0:0:0:0:
410,144,284544,1,8,0:2:0:0:
393,195,284631,1,0,0:0:0:0:
376,204,284718,5,2,0:2:0:0:
340,179,284804,1,0,0:0:0:0:
297,179,284891,1,0,0:0:0:0:
263,204,284978,1,0,0:0:0:0:
249,245,285065,1,0,3:0:0:0:
263,286,285151,1,0,0:0:0:0:
296,312,285238,2,0,L|344:304,3,54.0625,10|0|0|0,0:2|0:0|0:0|0:0,0:0:0:0:
216,360,285585,5,2,3:2:0:0:
170,371,285671,1,0,0:0:0:0:
126,355,285758,1,0,0:0:0:0:
99,317,285845,1,0,0:0:0:0:
97,270,285932,1,8,0:2:0:0:
122,231,286018,1,0,0:0:0:0:
144,240,286105,5,2,3:2:0:0:
146,201,286192,1,0,0:0:0:0:
151,164,286278,1,0,0:0:0:0:
156,128,286365,1,0,0:0:0:0:
158,91,286452,1,0,3:0:0:0:
163,53,286539,1,0,0:0:0:0:
168,8,286625,5,10,0:2:0:0:
157,29,286712,1,0,0:0:0:0:
147,50,286799,1,0,0:0:0:0:
137,72,286885,1,0,0:0:0:0:
120,96,286972,6,0,L|88:168,1,64.875,2|0,3:2|0:0,0:0:0:0:
288,24,287145,2,0,L|314:83,1,64.875,2|0,0:2|0:0,0:0:0:0:
376,204,287319,1,8,0:2:0:0:
492,16,287492,2,0,L|468:256,1,194.625,2|0,0:2|0:0,0:0:0:0:
468,304,287839,1,2,3:2:0:0:
304,272,288013,1,10,0:2:0:0:
72,224,288186,1,2,0:2:0:0:
256,360,288359,5,2,3:2:0:0:
240,200,288533,1,0,3:0:0:0:
232,104,288706,2,0,L|224:32,1,64.875,8|0,0:3|0:0,0:0:0:0:
392,16,288880,5,2,0:2:0:0:
388,53,288966,1,8,0:2:0:0:
385,91,289053,1,2,0:2:0:0:
383,129,289140,1,8,0:2:0:0:
380,167,289226,1,2,0:2:0:0:
376,204,289313,1,2,0:2:0:0:
360,224,289400,5,6,0:2:0:0:
289,236,289487,1,2,0:2:0:0:
254,174,289573,1,2,0:2:0:0:
303,122,289660,1,2,0:2:0:0:
368,152,289747,1,6,3:2:0:0:
106,311,290093,6,0,L|124:56,1,216.25,10|0,0:2|0:0,0:0:0:0:
480,40,290440,2,0,L|466:255,1,216.25,2|0,0:0|3:0,0:0:0:0:
128,336,290787,2,0,L|144:88,1,216.25,10|0,0:2|0:0,0:0:0:0:
448,368,291134,6,0,L|232:352,1,216.25,2|0,3:2|0:0,0:0:0:0:
136,16,291481,2,0,L|352:32,1,216.25,10|0,0:2|3:0,0:0:0:0:
440,384,291828,2,0,L|224:368,1,216.25,2|0,0:0|3:0,0:0:0:0:
128,32,292174,2,0,L|344:48,1,216.25,10|0,0:2|0:0,0:0:0:0:
72,320,292521,6,0,L|56:104,1,216.25,2|0,3:2|0:0,0:0:0:0:
448,40,292868,2,0,L|464:256,1,216.25,10|0,0:2|0:0,0:0:0:0:
104,336,293215,2,0,L|88:120,1,216.25,2|0,0:0|3:0,0:0:0:0:
424,72,293562,2,0,L|440:288,1,216.25,10|0,0:2|0:0,0:0:0:0:
134,50,293908,6,0,P|229:4|331:32,1,216.25,2|0,3:2|0:0,0:0:0:0:
191,356,294255,2,0,P|103:296|76:194,1,216.25,10|0,0:2|3:0,0:0:0:0:
438,158,294602,2,0,P|430:264|355:338,1,216.25,2|0,0:0|3:0,0:0:0:0:
219,128,294949,5,10,0:2:0:0:
305,137,295036,1,2,0:2:0:0:
323,222,295122,1,2,0:2:0:0:
248,264,295209,1,2,0:2:0:0:
184,206,295296,1,2,3:2:0:0:
392,352,295643,6,0,L|176:360,1,216.25,10|0,0:2|0:0,0:0:0:0:
432,48,295989,2,0,L|216:40,1,216.25,2|0,0:0|3:0,0:0:0:0:
400,376,296336,2,0,L|184:384,1,216.25,10|0,0:2|0:0,0:0:0:0:
472,336,296683,6,0,L|449:120,1,216.25,2|0,3:2|0:0,0:0:0:0:
76,352,297030,2,0,L|98:136,1,216.25,10|0,0:2|3:0,0:0:0:0:
492,348,297377,2,0,L|469:132,1,216.25,2|0,0:0|3:0,0:0:0:0:
48,360,297724,2,0,L|70:144,1,216.25,10|0,0:2|0:0,0:0:0:0:
448,32,298070,6,0,L|472:272,1,237.875,2|0,3:2|0:0,0:0:0:0:
64,40,298417,2,0,L|40:276,1,237.875,10|0,0:2|0:0,0:0:0:0:
476,112,298764,2,0,L|500:348,1,237.875,2|0,0:0|3:0,0:0:0:0:
36,112,299111,2,0,L|12:348,1,237.875,10|0,0:2|0:0,0:0:0:0:
360,48,299458,6,0,P|232:4|120:80,1,259.5,2|0,3:2|0:0,0:0:0:0:
320,360,299804,2,0,P|422:271|412:136,1,259.5,10|0,0:2|3:0,0:0:0:0:
80,176,300151,2,0,P|105:308|227:367,1,259.5,2|0,0:0|3:0,0:0:0:0:
328,192,300498,5,10,0:2:0:0:
278,122,300585,1,2,0:2:0:0:
195,148,300671,1,2,0:2:0:0:
195,235,300758,1,2,0:2:0:0:
278,262,300845,1,2,0:2:0:0:
256,192,301018,12,0,305007,0:0:0:0:
