osu file format v14

[General]
AudioFilename: audio.mp3
AudioLeadIn: 0
PreviewTime: 1272
Countdown: 0
SampleSet: Soft
StackLeniency: 0.4
Mode: 0
LetterboxInBreaks: 0
WidescreenStoryboard: 1

[Editor]
DistanceSpacing: 1.2
BeatDivisor: 4
GridSize: 16
TimelineZoom: 1.8

[Metadata]
Title:Genryuu Kaiko
TitleUnicode:Genryuu Kaiko
Artist:Halozy
ArtistUnicode:Halozy
Creator:[-viXen-]
Version:Higan Retour
Source:東方Project
Tags:touhou stream DnB zun PoFV
BeatmapID:2076747
BeatmapSetID:993097

[Difficulty]
HPDrainRate:6
CircleSize:2
OverallDifficulty:9.2
ApproachRate:9.7
SliderMultiplier:2.8
SliderTickRate:1

[Events]
//Background and Video events
0,0,"35893-272195897@4k.jpg",0,0
//Break Periods
//Storyboard Layer 0 (Background)
//Storyboard Layer 1 (Fail)
//Storyboard Layer 2 (Pass)
//Storyboard Layer 3 (Foreground)
//Storyboard Layer 4 (Overlay)
//Storyboard Sound Samples

[TimingPoints]
-1155,346.820809248555,4,2,1,70,1,0
1619,-200,4,2,1,70,0,0
1792,-200,4,2,1,60,0,0
12717,-100,4,2,1,80,0,0
23469,-50,4,2,1,100,0,0
23816,-100,4,2,2,100,0,1
24162,-100,4,2,2,100,0,0
34567,-100,4,2,1,100,0,0
34914,-100,4,2,2,100,0,1
35261,-100,4,2,2,100,0,0
44625,-100,4,2,1,80,0,0
45145,-100,4,2,2,70,0,0
46012,-100,4,2,1,80,0,0
46879,-83.3333333333333,4,2,1,80,0,0
47139,-100,4,2,1,80,0,0
66821,-200,4,2,1,70,0,0
68209,-100,4,2,2,90,0,0
77920,-100,4,2,1,80,0,0
78960,-66.6666666666667,4,2,1,90,0,0
79307,-100,4,2,2,90,0,1
100116,-100,4,2,1,80,0,1
101157,-66.6666666666667,4,2,1,90,0,0
101503,-100,4,2,2,100,0,1
101850,-100,4,2,2,100,0,0
112255,-100,4,2,1,100,0,0
112602,-80,4,2,2,100,0,1
112949,-80,4,2,2,80,0,0
122313,-100,4,2,1,70,0,0
122833,-100,4,2,2,80,0,0
123700,-100,4,2,1,100,0,1
123873,-100,4,2,1,80,0,0
134798,-133.333333333333,4,2,1,70,0,0
144509,-200,4,2,1,80,0,0
145897,-100,4,2,2,90,0,0
155608,-100,4,2,1,80,0,0
156648,-66.6666666666667,4,2,1,90,0,0
156995,-100,4,2,2,90,0,1
177804,-100,4,2,1,80,0,1
178845,-66.6666666666667,4,2,1,90,0,1
179191,-200,4,2,1,50,0,0
201388,-133.333333333333,4,2,1,70,0,0
212486,-100,4,2,1,80,0,0
221850,-80,4,2,1,90,0,0
222197,-80,4,2,1,100,0,0
223238,-57.1428571428571,4,2,1,90,0,0
223584,-66.6666666666667,4,2,2,90,0,1
243006,-100,4,2,2,90,0,1
243873,-80,4,2,2,90,0,1
244047,-66.6666666666667,4,2,2,90,0,1
244394,-66.6666666666667,4,2,1,100,0,1
245434,-50,4,2,1,90,0,0
245781,-80,4,2,2,80,0,1
246128,-80,4,2,2,80,0,0
256879,-80,4,2,2,100,0,1
257226,-80,4,2,2,100,0,0
266590,-66.6666666666667,4,2,1,100,0,0
267977,-100,4,2,2,80,0,1
268324,-100,4,2,2,80,0,0
278729,-100,4,2,1,80,0,0
279076,-80,4,2,2,80,0,1
279423,-80,4,2,2,80,0,0
288787,-80,4,2,1,70,0,0
289307,-80,4,2,2,80,0,0
290174,-50,4,2,2,100,0,1
295376,-50,4,2,2,100,0,0
295723,-50,4,2,2,100,0,1
301272,-100,4,2,1,100,0,0
301359,-100,4,2,1,30,0,0
302660,-100,4,2,1,25,0,0
304047,-100,4,2,1,20,0,0
305434,-100,4,2,1,15,0,0

[HitObjects]
480,32,1619,6,0,B|432:88|400:79|340:103|317:168,1,210,6|0,0:1|0:0,0:0:0:0:
256,96,2660,1,0,0:0:0:0:
32,32,3006,6,0,B|80:88|112:79|172:103|195:168,1,210,0|0,0:0|0:0,0:0:0:0:
256,288,4047,1,0,0:0:0:0:
160,192,4740,5,0,0:0:0:0:
256,96,4914,1,0,0:0:0:0:
352,192,5087,1,0,0:0:0:0:
160,288,5434,5,0,0:0:0:0:
352,96,5781,2,0,B|256:64|256:192|144:96,2,210,0|0|0,0:0|0:0|0:0,0:0:0:0:
480,352,7168,6,0,B|432:296|400:305|340:281|317:216,1,210,0|0,0:0|0:0,0:0:0:0:
256,144,8209,1,0,0:0:0:0:
32,352,8555,6,0,B|80:296|112:305|172:281|195:216,1,210,0|0,0:0|0:0,0:0:0:0:
256,96,9596,1,0,0:0:0:0:
336,32,9943,5,0,0:0:0:0:
176,320,10116,1,0,0:0:0:0:
256,192,10463,1,0,0:0:0:0:
256,288,10810,5,0,0:0:0:0:
352,192,10983,1,0,0:0:0:0:
256,96,11157,1,0,0:0:0:0:
176,192,11330,6,0,P|256:128|336:192,1,210,0|0,0:0|0:0,0:0:0:0:
256,192,11937,12,0,12631,3:0:0:0:
32,32,12717,5,6,0:1:0:0:
480,352,13064,2,0,B|448:314|426:320|386:304|371:261,1,140,8|0,0:0|0:0,0:0:0:0:
416,96,13584,5,2,0:0:0:0:
96,288,13758,2,0,B|128:250|150:256|190:240|205:197,1,140,10|0,0:0|0:0,0:0:0:0:
480,32,14105,5,2,0:0:0:0:
32,352,14452,2,0,B|64:314|86:320|126:304|141:261,1,140,8|2,0:0|0:0,0:0:0:0:
96,96,14972,5,2,0:0:0:0:
416,288,15146,2,0,B|384:250|362:256|322:240|307:197,1,140,8|0,0:0|0:0,0:0:0:0:
256,96,15492,5,2,0:0:0:0:
256,288,15839,2,0,L|256:144,1,140,8|0,0:0|0:0,0:0:0:0:
160,192,16186,5,2,0:0:0:0:
256,288,16359,1,2,0:0:0:0:
352,192,16532,2,0,B|336:144|272:144|256:96,1,140,8|0,0:0|0:0,0:0:0:0:
256,288,16879,5,2,0:0:0:0:
256,96,17226,2,0,B|208:112|208:176|160:192,1,140,8|2,0:0|0:0,0:0:0:0:
256,96,17746,5,2,0:0:0:0:
256,288,17920,2,0,L|256:144,1,140,8|0,0:0|0:0,0:0:0:0:
32,32,18266,5,6,0:1:0:0:
480,352,18613,2,0,B|448:314|426:320|386:304|371:261,1,140,8|0,0:0|0:0,0:0:0:0:
416,96,19133,5,2,0:0:0:0:
96,288,19307,2,0,B|128:250|150:256|190:240|205:197,1,140,8|0,0:0|0:0,0:0:0:0:
480,32,19654,5,2,0:0:0:0:
32,352,20001,2,0,B|64:314|86:320|126:304|141:261,1,140,8|2,0:0|0:0,0:0:0:0:
96,96,20521,5,2,0:0:0:0:
416,288,20695,2,0,B|384:250|362:256|322:240|307:197,1,140,8|2,0:0|0:0,0:0:0:0:
128,64,21041,5,2,0:0:0:0:
384,320,21214,1,2,0:0:0:0:
384,64,21388,2,0,L|256:192,1,140,8|0,0:0|0:0,0:0:0:0:
400,48,21908,5,2,0:0:0:0:
208,240,22081,2,0,L|336:112,1,140,8|0,0:0|0:0,0:0:0:0:
305,365,22428,5,4,0:1:0:0:
112,252,22602,1,0,0:3:0:0:
306,141,22775,1,8,0:3:0:0:
336,272,22949,5,4,0:3:0:0:
256,192,23035,1,0,0:0:0:0:
256,320,23122,5,0,0:0:0:0:
176,240,23208,1,0,0:0:0:0:
176,368,23295,5,0,0:0:0:0:
96,288,23381,1,0,0:0:0:0:
96,160,23469,6,0,P|256:64|448:224,1,420,2|0,0:1|3:0,0:0:0:0:
432,288,23816,5,8,0:1:0:0:
352,352,23902,1,0,0:0:0:0:
240,352,23989,1,0,0:0:0:0:
176,272,24076,1,0,0:0:0:0:
192,176,24162,1,8,0:0:0:0:
288,112,24249,1,0,0:0:0:0:
384,144,24336,1,2,0:0:0:0:
432,240,24423,1,0,0:0:0:0:
368,320,24509,1,0,0:0:0:0:
256,320,24596,1,0,0:0:0:0:
176,240,24683,1,4,0:0:0:0:
192,144,24769,1,0,0:0:0:0:
272,80,24856,1,8,0:0:0:0:
384,64,24943,2,0,P|448:80|480:112,1,70,0|2,0:0|0:0,0:0:0:0:
256,192,25203,5,6,0:0:0:0:
320,272,25290,1,0,0:0:0:0:
416,256,25376,1,0,0:0:0:0:
464,160,25463,1,4,0:0:0:0:
416,64,25550,1,8,0:0:0:0:
320,48,25636,1,0,0:0:0:0:
224,96,25723,1,6,0:0:0:0:
208,208,25810,1,0,0:0:0:0:
272,288,25897,1,0,0:0:0:0:
368,288,25983,1,0,0:0:0:0:
448,224,26070,1,4,0:0:0:0:
432,112,26157,1,0,0:0:0:0:
336,64,26243,1,10,0:0:0:0:
224,64,26330,2,0,P|160:80|128:112,1,70,0|0,0:0|0:0,0:0:0:0:
268,268,26590,5,4,0:1:0:0:
268,192,26677,1,0,0:0:0:0:
204,192,26764,1,0,0:0:0:0:
204,268,26850,1,0,0:0:0:0:
268,268,26937,5,8,0:0:0:0:
268,192,27024,1,0,0:0:0:0:
204,192,27110,1,0,0:0:0:0:
204,268,27197,1,0,0:0:0:0:
192,304,27284,5,0,0:0:0:0:
96,336,27371,1,0,0:0:0:0:
32,256,27457,1,6,0:0:0:0:
64,160,27544,1,0,0:0:0:0:
160,128,27631,1,8,0:0:0:0:
256,176,27717,1,0,0:0:0:0:
304,272,27804,1,0,0:0:0:0:
400,304,27891,1,0,0:3:0:0:
480,240,27977,1,6,0:0:0:0:
480,128,28064,1,0,0:3:0:0:
384,64,28151,1,2,0:3:0:0:
272,80,28238,1,0,0:0:0:0:
224,176,28324,1,8,0:0:0:0:
288,272,28411,1,0,0:3:0:0:
384,304,28498,2,0,P|448:288|480:256,1,70,6|0,0:0|0:0,0:0:0:0:
400,192,28671,6,0,P|352:160|320:160,3,70,2|0|4|0,0:3|0:3|0:0|0:3,0:0:0:0:
304,256,29018,2,0,P|270:245|245:222,3,70,8|0|2|0,0:0|0:3|0:0|0:0,0:0:0:0:
256,80,29365,5,6,0:0:0:0:
166,33,29451,1,0,0:0:0:0:
56,54,29538,1,0,0:0:0:0:
8,145,29625,1,0,0:0:0:0:
42,236,29711,1,8,0:0:0:0:
149,280,29798,1,0,0:0:0:0:
237,231,29885,1,0,0:0:0:0:
266,127,29972,1,0,0:0:0:0:
187,61,30058,1,0,0:0:0:0:
78,82,30145,1,0,0:0:0:0:
14,176,30232,1,4,0:0:0:0:
48,267,30318,1,0,0:0:0:0:
139,315,30405,1,10,0:0:0:0:
252,309,30492,2,0,P|311:281|337:243,1,70,0|0,0:0|0:0,0:0:0:0:
144,160,30752,5,4,0:0:0:0:
192,69,30839,1,0,0:0:0:0:
289,67,30925,1,0,0:0:0:0:
354,152,31012,1,0,0:0:0:0:
325,255,31099,1,10,0:0:0:0:
234,289,31185,1,0,0:0:0:0:
131,260,31272,1,4,0:0:0:0:
94,153,31359,1,0,0:0:0:0:
141,63,31446,1,0,0:0:0:0:
236,44,31532,1,0,0:0:0:0:
326,92,31619,1,6,0:0:0:0:
332,205,31706,1,0,0:0:0:0:
247,270,31792,1,10,0:0:0:0:
137,292,31879,2,0,P|71:288|33:263,1,70,0|0,0:0|0:0,0:0:0:0:
128,80,32139,6,0,P|176:96|192:128,1,70,4|0,0:0|0:0,0:0:0:0:
160,208,32313,2,0,P|205:230|239:219,1,70,0|0,0:0|0:0,0:0:0:0:
288,144,32486,1,10,0:0:0:0:
224,64,32573,1,0,0:0:0:0:
128,96,32660,1,0,0:0:0:0:
96,192,32746,1,0,0:0:0:0:
128,288,32833,1,0,0:0:0:0:
224,336,32920,1,0,0:0:0:0:
336,336,33006,6,0,P|352:288|352:224,1,70,4|0,0:0|0:0,0:0:0:0:
352,160,33180,2,0,P|318:122|263:90,1,70,10|0,0:0|0:0,0:0:0:0:
208,64,33353,2,0,P|158:52|95:57,1,70,2|0,0:0|0:0,0:0:0:0:
80,176,33527,6,0,P|112:224|160:240,3,70,4|0|2|0,0:0|0:0|0:0|0:0,0:0:0:0:
224,144,33873,1,8,0:0:0:0:
304,208,33960,1,0,0:0:0:0:
336,304,34047,2,0,P|320:352|272:384,3,70,4|0|2|0,0:0|0:0|0:0|0:0,0:0:0:0:
176,304,34394,2,0,P|176:224|192:192,1,70,4|0,0:0|0:0,0:0:0:0:
240,144,34567,5,2,0:1:0:0:
336,240,34654,1,0,0:0:0:0:
240,320,34740,1,2,0:3:0:0:
144,224,34827,1,0,0:0:0:0:
176,128,34914,5,8,0:1:0:0:
272,80,35001,1,0,0:0:0:0:
368,112,35087,1,0,0:0:0:0:
400,208,35174,1,0,0:0:0:0:
352,304,35261,1,8,0:0:0:0:
256,336,35347,1,0,0:0:0:0:
160,288,35434,1,0,0:0:0:0:
144,192,35521,1,0,0:0:0:0:
208,112,35608,1,0,0:0:0:0:
304,96,35694,1,0,0:0:0:0:
400,128,35781,1,6,0:0:0:0:
448,224,35868,1,0,0:0:0:0:
416,320,35954,1,8,0:0:0:0:
320,336,36041,1,0,0:0:0:0:
224,304,36128,2,0,P|192:288|160:240,1,70,0|0,0:0|0:0,0:0:0:0:
224,112,36301,5,4,0:0:0:0:
117,99,36388,1,0,0:0:0:0:
38,162,36474,1,0,0:0:0:0:
40,263,36561,1,4,0:0:0:0:
118,337,36648,1,10,0:0:0:0:
219,334,36734,1,0,0:0:0:0:
293,256,36821,1,4,0:0:0:0:
275,161,36908,1,0,0:0:0:0:
188,107,36995,1,0,0:0:0:0:
92,125,37081,1,0,0:0:0:0:
13,188,37168,1,6,0:0:0:0:
1,295,37255,1,0,0:0:0:0:
80,368,37341,1,8,0:0:0:0:
192,352,37428,1,0,0:0:0:0:
256,272,37515,2,0,P|272:240|272:192,1,70,0|0,0:0|0:0,0:0:0:0:
224,112,37688,5,4,0:1:0:0:
224,188,37775,1,0,0:0:0:0:
288,188,37862,1,0,0:0:0:0:
288,112,37948,1,0,0:0:0:0:
224,112,38035,5,8,0:0:0:0:
224,188,38122,1,0,0:0:0:0:
288,188,38208,1,0,0:0:0:0:
288,112,38295,1,0,0:0:0:0:
300,76,38382,5,0,0:0:0:0:
396,44,38469,1,0,0:0:0:0:
460,124,38555,1,6,0:0:0:0:
428,220,38642,1,0,0:0:0:0:
332,252,38729,1,8,0:0:0:0:
236,204,38815,1,0,0:0:0:0:
188,108,38902,1,0,0:0:0:0:
92,76,38989,1,0,0:0:0:0:
12,140,39075,1,6,0:0:0:0:
12,252,39162,1,0,0:0:0:0:
108,316,39249,1,2,0:3:0:0:
220,300,39336,1,0,0:0:0:0:
268,204,39422,1,8,0:0:0:0:
204,108,39509,1,0,0:0:0:0:
108,76,39596,2,0,P|44:92|12:124,1,70,6|0,0:0|0:0,0:0:0:0:
64,224,39769,6,0,P|80:240|144:256,3,70,2|0|4|0,0:3|0:0|0:0|0:0,0:0:0:0:
144,160,40116,2,0,P|176:160|223:193,3,70,8|0|2|0,0:0|0:0|0:0|0:0,0:0:0:0:
288,240,40463,5,6,0:0:0:0:
384,288,40550,1,0,0:0:0:0:
464,224,40636,1,0,0:0:0:0:
464,112,40723,1,0,0:0:0:0:
384,48,40810,1,8,0:0:0:0:
272,48,40897,1,0,0:0:0:0:
192,112,40983,1,0,0:0:0:0:
176,208,41070,1,0,0:0:0:0:
96,272,41157,1,0,0:0:0:0:
16,208,41243,1,0,0:0:0:0:
48,112,41330,1,4,0:0:0:0:
144,80,41417,1,0,0:0:0:0:
240,112,41503,1,10,0:0:0:0:
288,208,41590,1,0,0:0:0:0:
368,272,41677,2,0,L|480:304,1,70,0|0,0:0|0:0,0:0:0:0:
416,144,41850,5,4,0:0:0:0:
320,176,41937,1,0,0:0:0:0:
256,256,42024,1,0,0:0:0:0:
176,320,42110,1,0,0:0:0:0:
80,304,42197,1,10,0:0:0:0:
32,208,42284,1,0,0:0:0:0:
80,112,42371,1,4,0:0:0:0:
160,48,42457,2,0,P|256:32|384:96,1,210,0|0,0:0|0:0,0:0:0:0:
416,272,42891,6,0,P|304:272|176:208,1,210,8|0,0:0|0:0,0:0:0:0:
336,160,43238,1,6,0:0:0:0:
96,288,43411,2,0,P|112:208|144:128,1,140,0|0,0:0|0:0,0:0:0:0:
336,352,43758,1,2,0:0:0:0:
256,80,43931,5,0,0:0:0:0:
96,304,44105,1,4,0:0:0:0:
256,80,44278,1,8,0:0:0:0:
416,304,44452,1,2,0:0:0:0:
152,212,44625,5,0,0:0:0:0:
384,57,44798,1,0,0:0:0:0:
308,327,44972,1,0,0:0:0:0:
207,66,45145,5,0,0:0:0:0:
118,108,45232,1,0,0:0:0:0:
65,189,45318,1,0,0:0:0:0:
59,287,45405,1,0,0:0:0:0:
107,372,45492,1,0,0:0:0:0:
485,177,45665,5,0,0:0:0:0:
417,53,45752,1,0,0:0:0:0:
286,0,45839,1,0,0:0:0:0:
149,26,45925,1,0,0:0:0:0:
42,118,46012,1,0,0:0:0:0:
256,304,46359,6,0,L|256:128,2,140
183,115,46879,2,0,P|258:76|327:112,1,167.999994873047
