osu file format v14

[General]
AudioFilename: audio.mp3
AudioLeadIn: 0
PreviewTime: 240374
Countdown: 0
SampleSet: Soft
StackLeniency: 0.7
Mode: 3
LetterboxInBreaks: 0
SpecialStyle: 0
WidescreenStoryboard: 0

[Editor]
DistanceSpacing: 1.3
BeatDivisor: 8
GridSize: 4
TimelineZoom: 1.499999

[Metadata]
Title:GO 4 IT
TitleUnicode:GO 4 IT
Artist:Halozy
ArtistUnicode:Halozy
Creator:Yukari_Sama
Version:Do it Yourself
Source:東方輝針城 ~ Double Dealing Character.
Tags:atian540 2hu 東方project Touhou project Kishinjou ZUN Team Shanghai Alice 上海アリス幻樂団 th14 輝く針の小人族 Inchlings Little Princess Shinmyoumaru Sukuna 少名 針妙丸 Seija Kijin Stage 6 Boss theme Miracle Mallet すみじゅん sumijun Jun Sumitomo 楽天市場 Crouka 長尾ちえみ Nagao Chiemi 864 Reitaisai 12 go4it for japanese jpop j-pop pop jrock j-rock rock
BeatmapID:3535272
BeatmapSetID:1729848

[Difficulty]
HPDrainRate:8.3
CircleSize:6
OverallDifficulty:8.3
ApproachRate:5
SliderMultiplier:1.4
SliderTickRate:1

[Events]
//Background and Video events
0,0,"sukun.jpg",0,0
//Break Periods
//Storyboard Layer 0 (Background)
//Storyboard Layer 1 (Fail)
//Storyboard Layer 2 (Pass)
//Storyboard Layer 3 (Foreground)
//Storyboard Layer 4 (Overlay)
//Storyboard Sound Samples
Sample,96473,0,"hit-hat.wav",70
Sample,96996,0,"Tom3.wav",100
Sample,191357,0,"hit-hat.wav",70
Sample,191880,0,"Tom3.wav",100
Sample,289031,0,"hit-hat.wav",70

[TimingPoints]
369,348.837209302326,4,2,1,70,1,0
53392,-100,4,2,1,70,0,1
98043,-100,4,2,1,70,0,0
148275,-100,4,2,1,70,0,1
192927,-100,4,2,2,70,0,0
220834,-100,4,2,1,70,0,0
226415,-100,4,2,2,70,0,0
244555,-100,4,2,1,70,0,0
245950,-100,4,2,1,70,0,1
290601,-100,4,2,1,70,0,0

[HitObjects]
36,192,369,5,0,0:0:0:70:clap.wav
109,192,369,1,0,0:0:0:0:
298,192,369,128,0,717:0:0:0:0:
469,192,543,128,0,717:0:0:0:0:
36,192,717,1,0,0:0:0:70:clap.wav
109,192,717,1,0,0:0:0:0:
475,192,892,128,0,1415:0:0:0:0:
36,192,1066,1,0,0:0:0:70:clap.wav
109,192,1066,1,0,0:0:0:0:
384,192,1066,128,0,1415:0:0:0:0:
298,192,1241,128,0,1415:0:0:0:0:
36,192,1415,1,0,0:0:0:70:clap.wav
109,192,1415,1,0,0:0:0:0:
298,192,1589,128,0,2113:0:0:0:0:
42,192,1764,1,0,0:0:0:70:clap.wav
128,192,1764,1,0,0:0:0:0:
384,192,1764,128,0,2113:0:0:0:0:
469,192,1938,128,0,2113:0:0:0:0:
42,192,2113,1,0,0:0:0:70:clap.wav
128,192,2113,1,0,0:0:0:0:
298,192,2287,128,0,2462:0:0:0:0:
469,192,2287,128,0,2462:0:0:0:0:
42,192,2462,1,0,0:0:0:70:clap.wav
128,192,2462,1,0,0:0:0:0:
298,192,2636,128,0,2985:0:0:0:0:
469,192,2636,128,0,2985:0:0:0:0:
42,192,2810,1,0,0:0:0:70:clap.wav
128,192,2810,1,0,0:0:0:0:
42,192,2985,1,0,0:0:0:70:clap.wav
128,192,2985,1,0,0:0:0:0:
213,192,3159,128,0,3508:0:0:0:70:clap.wav
402,192,3159,1,0,0:0:0:0:
475,192,3159,1,0,0:0:0:0:
42,192,3334,128,0,3508:0:0:0:0:
402,192,3508,1,0,0:0:0:70:clap.wav
475,192,3508,1,0,0:0:0:0:
36,192,3682,128,0,4206:0:0:0:0:
128,192,3857,128,0,4206:0:0:0:70:clap.wav
402,192,3857,1,0,0:0:0:0:
475,192,3857,1,0,0:0:0:0:
213,192,4031,128,0,4206:0:0:0:0:
402,192,4206,1,0,0:0:0:70:clap.wav
475,192,4206,1,0,0:0:0:0:
213,192,4380,128,0,4903:0:0:0:0:
128,192,4555,128,0,4903:0:0:0:70:clap.wav
402,192,4555,1,0,0:0:0:0:
475,192,4555,1,0,0:0:0:0:
42,192,4729,128,0,4903:0:0:0:0:
402,192,4903,1,0,0:0:0:70:clap.wav
475,192,4903,1,0,0:0:0:0:
36,192,5078,128,0,5252:0:0:0:0:
182,192,5078,128,0,5252:0:0:0:0:
298,192,5252,1,0,0:0:0:100:Tom3.wav
384,192,5252,1,0,0:0:0:0:
213,192,5427,1,8,0:0:0:0:
469,192,5427,1,0,0:0:0:0:
128,192,5514,1,8,0:0:0:0:
384,192,5514,1,0,0:0:0:0:
42,192,5601,1,8,0:0:0:0:
298,192,5601,1,0,0:0:0:0:
213,192,5688,1,0,0:0:0:100:Tom1.wav
109,192,5775,1,0,0:0:0:100:Tom2.wav
384,192,5775,1,0,0:0:0:0:
298,192,5863,1,0,0:0:0:100:Tom3.wav
42,192,5950,1,4,0:0:0:0:
128,192,5950,1,2,0:0:0:0:
213,192,5950,1,0,0:0:0:0:
469,192,5950,128,0,6822:0:0:0:0:
298,192,6124,1,0,0:0:0:0:
42,192,6299,1,8,0:0:0:0:
128,192,6299,1,0,0:0:0:0:
384,192,6299,1,0,0:0:0:0:
213,192,6473,1,0,0:0:0:0:
42,192,6648,1,2,0:0:0:0:
384,192,6648,1,0,0:0:0:0:
128,192,6822,1,2,0:0:0:0:
213,192,6822,1,0,0:0:0:0:
42,192,6996,128,8,7345:0:0:0:0:
298,192,6996,1,0,0:0:0:0:
384,192,6996,1,0,0:0:0:0:
213,192,7171,128,0,7345:0:0:0:0:
384,192,7345,1,2,0:0:0:0:
469,192,7345,1,0,0:0:0:0:
42,192,7520,128,2,7694:0:0:0:0:
298,192,7520,128,0,7694:0:0:0:0:
128,192,7694,1,8,0:0:0:0:
213,192,7694,1,0,0:0:0:0:
469,192,7694,1,0,0:0:0:0:
42,192,7869,128,0,8043:0:0:0:0:
384,192,7869,128,0,8043:0:0:0:0:
213,192,8043,1,2,0:0:0:0:
298,192,8043,1,0,0:0:0:0:
42,192,8217,128,2,8566:0:0:0:0:
469,192,8217,128,0,8566:0:0:0:0:
128,192,8392,1,8,0:0:0:0:
298,192,8392,1,0,0:0:0:0:
384,192,8392,1,0,0:0:0:0:
213,192,8566,1,0,0:0:0:0:
128,192,8741,128,2,9089:0:0:0:0:
298,192,8741,1,0,0:0:0:0:
213,192,8915,1,2,0:0:0:0:
384,192,8915,1,0,0:0:0:0:
42,192,9089,1,8,0:0:0:0:
298,192,9089,1,0,0:0:0:0:
469,192,9089,1,0,0:0:0:0:
384,192,9264,128,0,9613:0:0:0:0:
213,192,9438,1,2,0:0:0:0:
469,192,9438,1,0,0:0:0:0:
128,192,9613,1,2,0:0:0:0:
298,192,9613,1,0,0:0:0:0:
42,192,9787,1,8,0:0:0:0:
213,192,9787,1,0,0:0:0:0:
469,192,9787,128,0,10136:0:0:0:0:
298,192,9962,128,0,10136:0:0:0:0:
42,192,10136,1,2,0:0:0:0:
128,192,10136,1,0,0:0:0:0:
213,192,10310,128,2,10485:0:0:0:0:
469,192,10310,128,0,10485:0:0:0:0:
42,192,10485,1,8,0:0:0:0:
298,192,10485,1,0,0:0:0:0:
384,192,10485,1,0,0:0:0:0:
128,192,10659,128,0,10834:0:0:0:0:
469,192,10659,128,0,10834:0:0:0:0:
213,192,10834,1,2,0:0:0:0:
298,192,10834,1,0,0:0:0:0:
42,192,11008,128,2,11531:0:0:0:0:
469,192,11008,128,0,11531:0:0:0:0:
128,192,11182,1,8,0:0:0:0:
298,192,11182,1,0,0:0:0:0:
384,192,11182,1,0,0:0:0:0:
213,192,11357,1,0,0:0:0:0:
128,192,11531,1,2,0:0:0:0:
213,192,11531,1,4,0:0:0:0:
298,192,11531,128,0,12403:0:0:0:0:
384,192,11531,1,0,0:0:0:0:
128,192,11706,1,2,0:0:0:0:
469,192,11706,1,0,0:0:0:0:
42,192,11880,1,8,0:0:0:0:
213,192,11880,1,0,0:0:0:0:
384,192,11880,1,0,0:0:0:0:
128,192,12055,1,0,0:0:0:0:
213,192,12229,1,2,0:0:0:0:
469,192,12229,1,0,0:0:0:0:
42,192,12403,1,2,0:0:0:0:
384,192,12403,1,0,0:0:0:0:
128,192,12578,1,8,0:0:0:0:
213,192,12578,1,0,0:0:0:0:
469,192,12578,1,0,0:0:0:0:
42,192,12752,128,0,12927:0:0:0:0:
128,192,12839,128,0,12927:0:0:0:0:
213,192,12927,128,2,13101:0:0:0:0:
469,192,12927,128,0,13275:0:0:0:0:
298,192,13101,1,2,0:0:0:0:
384,192,13101,128,0,13275:0:0:0:0:
42,192,13275,1,8,0:0:0:0:
128,192,13275,1,0,0:0:0:0:
213,192,13275,1,0,0:0:0:0:
298,192,13450,128,0,13624:0:0:0:0:
384,192,13450,128,0,13624:0:0:0:0:
128,192,13624,1,2,0:0:0:0:
469,192,13624,1,0,0:0:0:0:
213,192,13799,128,2,13973:0:0:0:0:
298,192,13799,128,0,13973:0:0:0:0:
42,192,13973,1,8,0:0:0:0:
384,192,13973,1,0,0:0:0:0:
469,192,13973,1,0,0:0:0:0:
42,192,14148,128,0,14235:0:0:0:0:
128,192,14148,128,0,14235:0:0:0:0:
384,192,14322,128,2,14409:0:0:0:0:
469,192,14322,128,0,14409:0:0:0:0:
384,192,14496,128,2,14671:0:0:0:0:
469,192,14496,128,0,14671:0:0:0:0:
42,192,14671,1,8,0:0:0:0:
128,192,14671,1,0,0:0:0:0:
298,192,14671,1,0,0:0:0:0:
213,192,14845,128,0,14932:0:0:0:0:
298,192,14845,128,0,14932:0:0:0:0:
213,192,15020,128,2,15194:0:0:0:0:
298,192,15020,128,0,15194:0:0:0:0:
384,192,15194,1,2,0:0:0:0:
469,192,15194,1,0,0:0:0:0:
42,192,15369,128,8,15456:0:0:0:0:
128,192,15369,128,0,15456:0:0:0:0:
213,192,15369,1,0,0:0:0:0:
42,192,15543,128,0,15717:0:0:0:0:
128,192,15543,128,0,15717:0:0:0:0:
298,192,15717,1,2,0:0:0:0:
384,192,15717,1,0,0:0:0:0:
42,192,15892,128,2,16066:0:0:0:0:
469,192,15892,128,0,16066:0:0:0:0:
213,192,16066,1,8,0:0:0:0:
298,192,16066,1,0,0:0:0:0:
384,192,16066,1,0,0:0:0:0:
128,192,16241,128,0,16415:0:0:0:0:
384,192,16241,128,0,16415:0:0:0:0:
42,192,16415,1,2,0:0:0:0:
469,192,16415,1,0,0:0:0:0:
213,192,16589,128,2,16764:0:0:0:0:
298,192,16589,128,0,16764:0:0:0:0:
42,192,16764,1,8,0:0:0:0:
128,192,16764,1,0,0:0:0:0:
469,192,16764,1,0,0:0:0:0:
213,192,16938,1,2,0:0:0:0:
298,192,16938,1,0,0:0:0:0:
128,192,17025,1,2,0:0:0:0:
384,192,17025,1,0,0:0:0:0:
42,192,17113,128,8,17810:0:0:0:0:
469,192,17113,128,0,17810:0:0:0:0:
182,192,17462,1,0,0:0:0:70:clap.wav
329,192,17462,1,0,0:0:0:0:
182,192,17636,1,0,0:0:0:70:clap.wav
329,192,17636,1,0,0:0:0:0:
182,192,18159,1,0,0:0:0:70:clap.wav
329,192,18159,1,0,0:0:0:0:
182,192,18857,1,0,0:0:0:70:clap.wav
329,192,18857,1,0,0:0:0:0:
182,192,19031,1,0,0:0:0:70:clap.wav
329,192,19031,1,0,0:0:0:0:
36,192,19380,128,0,19903:0:0:0:0:
109,192,19555,128,0,19903:0:0:0:70:clap.wav
182,192,19555,1,0,0:0:0:0:
329,192,19555,1,0,0:0:0:0:
182,192,19903,1,2,0:0:0:0:
256,192,19903,1,4,0:0:0:0:
402,192,19903,1,0,0:0:0:0:
469,192,19903,128,0,20601:0:0:0:0:
128,192,20078,1,2,0:0:0:0:
298,192,20078,1,0,0:0:0:0:
42,192,20252,1,8,0:0:0:0:
213,192,20252,1,0,0:0:0:0:
384,192,20252,1,0,0:0:0:0:
128,192,20601,1,2,0:0:0:0:
298,192,20601,1,0,0:0:0:0:
213,192,20775,1,2,0:0:0:0:
384,192,20775,1,0,0:0:0:0:
128,192,20950,1,8,0:0:0:0:
298,192,20950,1,0,0:0:0:0:
469,192,20950,1,0,0:0:0:0:
42,192,21299,1,2,0:0:0:0:
384,192,21299,1,0,0:0:0:0:
128,192,21473,1,2,0:0:0:0:
298,192,21473,1,0,0:0:0:0:
213,192,21648,1,8,0:0:0:0:
384,192,21648,1,0,0:0:0:0:
469,192,21648,1,0,0:0:0:0:
128,192,21996,1,2,0:0:0:0:
469,192,21996,1,0,0:0:0:0:
213,192,22171,1,2,0:0:0:0:
384,192,22171,1,0,0:0:0:0:
42,192,22345,1,8,0:0:0:0:
128,192,22345,1,0,0:0:0:0:
298,192,22345,1,0,0:0:0:0:
42,192,22694,128,2,23392:0:0:0:0:
469,192,22694,1,0,0:0:0:0:
128,192,22869,1,2,0:0:0:0:
384,192,22869,1,0,0:0:0:0:
213,192,23043,1,8,0:0:0:0:
298,192,23043,1,0,0:0:0:0:
469,192,23043,1,0,0:0:0:0:
128,192,23392,1,2,0:0:0:0:
384,192,23392,1,0,0:0:0:0:
213,192,23566,1,2,0:0:0:0:
298,192,23566,1,0,0:0:0:0:
42,192,23741,1,8,0:0:0:0:
128,192,23741,1,0,0:0:0:0:
469,192,23741,1,0,0:0:0:0:
213,192,24089,1,2,0:0:0:0:
384,192,24089,1,0,0:0:0:0:
128,192,24264,1,2,0:0:0:0:
298,192,24264,1,0,0:0:0:0:
42,192,24438,1,8,0:0:0:0:
213,192,24438,1,0,0:0:0:0:
469,192,24438,1,0,0:0:0:0:
128,192,24787,1,2,0:0:0:0:
298,192,24787,1,0,0:0:0:0:
213,192,24962,1,2,0:0:0:0:
384,192,24962,1,0,0:0:0:0:
42,192,25136,1,8,0:0:0:0:
128,192,25136,1,0,0:0:0:0:
469,192,25136,1,0,0:0:0:0:
213,192,25223,1,8,0:0:0:0:
298,192,25223,1,0,0:0:0:0:
384,192,25310,1,0,0:0:0:100:Tom1.wav
469,192,25310,1,0,0:0:0:0:
128,192,25398,1,0,0:0:0:100:Tom2.wav
213,192,25398,1,0,0:0:0:0:
42,192,25485,1,2,0:0:0:0:
298,192,25485,128,4,28101:0:0:0:0:
384,192,25485,1,0,0:0:0:0:
469,192,25485,1,0,0:0:0:0:
128,192,25659,1,2,0:0:0:0:
213,192,25659,1,0,0:0:0:0:
42,192,25834,1,8,0:0:0:0:
384,192,25834,1,0,0:0:0:0:
469,192,25834,1,0,0:0:0:0:
128,192,26008,1,2,0:0:0:0:
213,192,26008,1,0,0:0:0:0:
469,192,26182,1,0,0:0:0:0:
213,192,26357,1,2,0:0:0:0:
384,192,26357,1,0,0:0:0:0:
42,192,26531,1,8,0:0:0:0:
128,192,26531,1,0,0:0:0:0:
469,192,26531,1,0,0:0:0:0:
384,192,26880,1,2,0:0:0:0:
469,192,26880,1,0,0:0:0:0:
128,192,27055,1,2,0:0:0:0:
213,192,27055,1,0,0:0:0:0:
42,192,27229,1,8,0:0:0:0:
384,192,27229,1,0,0:0:0:0:
469,192,27229,1,0,0:0:0:0:
128,192,27403,1,2,0:0:0:0:
213,192,27403,1,0,0:0:0:0:
42,192,27578,1,0,0:0:0:0:
384,192,27752,1,2,0:0:0:0:
469,192,27752,1,0,0:0:0:0:
128,192,27927,1,8,0:0:0:0:
213,192,27927,1,0,0:0:0:0:
469,192,27927,1,0,0:0:0:0:
42,192,28101,1,8,0:0:0:0:
213,192,28101,1,0,0:0:0:0:
384,192,28101,1,0,0:0:0:0:
42,192,28275,128,2,28973:0:0:0:0:
298,192,28275,1,0,0:0:0:0:
384,192,28450,1,2,0:0:0:0:
469,192,28450,1,0,0:0:0:0:
128,192,28624,1,8,0:0:0:0:
213,192,28624,1,0,0:0:0:0:
298,192,28624,1,0,0:0:0:0:
384,192,28799,1,2,0:0:0:0:
469,192,28799,1,0,0:0:0:0:
213,192,28973,1,2,0:0:0:0:
298,192,28973,1,0,0:0:0:0:
128,192,29148,1,2,0:0:0:0:
384,192,29148,1,0,0:0:0:0:
42,192,29322,1,8,0:0:0:0:
298,192,29322,1,0,0:0:0:0:
469,192,29322,1,0,0:0:0:0:
42,192,29671,1,2,0:0:0:0:
384,192,29671,1,0,0:0:0:0:
128,192,29845,1,2,0:0:0:0:
298,192,29845,1,0,0:0:0:0:
42,192,30020,1,8,0:0:0:0:
213,192,30020,1,0,0:0:0:0:
469,192,30020,1,0,0:0:0:0:
128,192,30194,1,2,0:0:0:0:
384,192,30194,1,0,0:0:0:0:
213,192,30369,1,2,0:0:0:0:
469,192,30369,1,0,0:0:0:0:
42,192,30543,1,8,0:0:0:0:
298,192,30543,1,0,0:0:0:0:
384,192,30543,1,0,0:0:0:0:
128,192,30717,1,8,0:0:0:0:
213,192,30717,1,0,0:0:0:0:
469,192,30717,1,0,0:0:0:0:
298,192,30805,1,8,0:0:0:0:
384,192,30805,1,0,0:0:0:0:
42,192,30892,1,0,0:0:0:100:Tom1.wav
128,192,30892,1,0,0:0:0:0:
384,192,30979,1,0,0:0:0:100:Tom2.wav
469,192,30979,1,0,0:0:0:0:
42,192,31066,128,2,31764:0:0:0:0:
128,192,31066,1,4,0:0:0:0:
213,192,31066,1,0,0:0:0:0:
298,192,31066,1,0,0:0:0:0:
469,192,31241,1,2,0:0:0:0:
384,192,31241,1,0,0:0:0:0:
128,192,31415,1,8,0:0:0:0:
213,192,31415,1,0,0:0:0:0:
298,192,31415,1,0,0:0:0:0:
213,192,31764,1,2,0:0:0:0:
384,192,31764,1,0,0:0:0:0:
128,192,31938,1,2,0:0:0:0:
298,192,31938,1,0,0:0:0:0:
42,192,32113,1,8,0:0:0:0:
213,192,32113,1,0,0:0:0:0:
384,192,32113,1,0,0:0:0:0:
128,192,32462,1,2,0:0:0:0:
469,192,32462,1,0,0:0:0:0:
213,192,32636,1,2,0:0:0:0:
384,192,32636,1,0,0:0:0:0:
42,192,32810,1,8,0:0:0:0:
128,192,32810,1,0,0:0:0:0:
298,192,32810,1,0,0:0:0:0:
42,192,33159,1,2,0:0:0:0:
384,192,33159,1,0,0:0:0:0:
128,192,33334,1,2,0:0:0:0:
298,192,33334,1,0,0:0:0:0:
213,192,33508,1,8,0:0:0:0:
384,192,33508,1,0,0:0:0:0:
469,192,33508,1,0,0:0:0:0:
128,192,33682,128,0,33857:0:0:0:0:
298,192,33857,1,2,0:0:0:0:
469,192,33857,128,0,34555:0:0:0:0:
213,192,34031,1,2,0:0:0:0:
42,192,34031,1,0,0:0:0:0:
384,192,34206,1,8,0:0:0:0:
128,192,34206,1,0,0:0:0:0:
298,192,34206,1,0,0:0:0:0:
42,192,34555,1,2,0:0:0:0:
213,192,34555,1,0,0:0:0:0:
128,192,34729,1,2,0:0:0:0:
298,192,34729,1,0,0:0:0:0:
213,192,34903,1,8,0:0:0:0:
384,192,34903,1,0,0:0:0:0:
469,192,34903,1,0,0:0:0:0:
128,192,35252,1,2,0:0:0:0:
298,192,35252,1,0,0:0:0:0:
213,192,35427,1,2,0:0:0:0:
384,192,35427,1,0,0:0:0:0:
42,192,35601,1,8,0:0:0:0:
298,192,35601,1,0,0:0:0:0:
469,192,35601,1,0,0:0:0:0:
213,192,35950,1,2,0:0:0:0:
384,192,35950,1,0,0:0:0:0:
128,192,36124,1,2,0:0:0:0:
298,192,36124,1,0,0:0:0:0:
42,192,36299,1,8,0:0:0:0:
384,192,36299,1,0,0:0:0:0:
469,192,36299,1,0,0:0:0:0:
213,192,36386,1,8,0:0:0:0:
298,192,36386,1,0,0:0:0:0:
42,192,36473,1,0,0:0:0:100:Tom1.wav
128,192,36473,1,0,0:0:0:0:
298,192,36560,1,0,0:0:0:100:Tom2.wav
384,192,36560,1,0,0:0:0:0:
42,192,36648,1,2,0:0:0:0:
128,192,36648,1,4,0:0:0:0:
213,192,36648,128,0,39264:0:0:0:0:
469,192,36648,1,0,0:0:0:0:
298,192,36822,1,2,0:0:0:0:
384,192,36822,1,0,0:0:0:0:
42,192,36996,1,8,0:0:0:0:
128,192,36996,1,0,0:0:0:0:
469,192,36996,1,0,0:0:0:0:
298,192,37171,1,2,0:0:0:0:
384,192,37171,1,0,0:0:0:0:
42,192,37345,1,0,0:0:0:0:
128,192,37520,1,2,0:0:0:0:
298,192,37520,1,0,0:0:0:0:
42,192,37694,1,8,0:0:0:0:
384,192,37694,1,0,0:0:0:0:
469,192,37694,1,0,0:0:0:0:
42,192,38043,1,2,0:0:0:0:
128,192,38043,1,0,0:0:0:0:
298,192,38217,1,2,0:0:0:0:
384,192,38217,1,0,0:0:0:0:
42,192,38392,1,8,0:0:0:0:
128,192,38392,1,0,0:0:0:0:
469,192,38392,1,0,0:0:0:0:
298,192,38566,1,2,0:0:0:0:
384,192,38566,1,0,0:0:0:0:
469,192,38741,1,0,0:0:0:0:
42,192,38915,1,2,0:0:0:0:
128,192,38915,1,0,0:0:0:0:
42,192,39089,1,8,0:0:0:0:
298,192,39089,1,0,0:0:0:0:
384,192,39089,1,0,0:0:0:0:
128,192,39264,1,8,0:0:0:0:
298,192,39264,1,0,0:0:0:0:
469,192,39264,1,0,0:0:0:0:
213,192,39438,1,2,0:0:0:0:
469,192,39438,128,0,40136:0:0:0:0:
42,192,39613,1,2,0:0:0:0:
128,192,39613,1,0,0:0:0:0:
213,192,39787,1,8,0:0:0:0:
298,192,39787,1,0,0:0:0:0:
384,192,39787,1,0,0:0:0:0:
42,192,39962,1,2,0:0:0:0:
128,192,39962,1,0,0:0:0:0:
213,192,40136,1,2,0:0:0:0:
298,192,40136,1,0,0:0:0:0:
128,192,40310,1,2,0:0:0:0:
384,192,40310,1,0,0:0:0:0:
42,192,40485,1,8,0:0:0:0:
213,192,40485,1,0,0:0:0:0:
469,192,40485,1,0,0:0:0:0:
128,192,40834,1,2,0:0:0:0:
469,192,40834,1,0,0:0:0:0:
213,192,41008,1,2,0:0:0:0:
384,192,41008,1,0,0:0:0:0:
42,192,41182,1,8,0:0:0:0:
298,192,41182,1,0,0:0:0:0:
469,192,41182,1,0,0:0:0:0:
128,192,41357,1,2,0:0:0:0:
384,192,41357,1,0,0:0:0:0:
213,192,41444,1,8,0:0:0:20:
42,192,41531,1,8,0:0:0:0:
298,192,41531,1,0,0:0:0:0:
128,192,41619,1,0,0:0:0:100:Tom2.wav
384,192,41619,1,0,0:0:0:0:
213,192,41706,1,0,0:0:0:100:Tom3.wav
469,192,41706,1,0,0:0:0:0:
42,192,41880,1,8,0:0:0:0:
128,192,41880,1,0,0:0:0:0:
298,192,41880,1,0,0:0:0:0:
384,192,41967,1,0,0:0:0:0:
469,192,41967,1,0,0:0:0:0:
128,192,42055,1,0,0:0:0:100:Tom1.wav
213,192,42055,1,0,0:0:0:0:
298,192,42142,1,0,0:0:0:100:Tom2.wav
384,192,42142,1,0,0:0:0:0:
42,192,42229,1,2,0:0:0:0:
128,192,42229,1,4,0:0:0:0:
213,192,42229,1,0,0:0:0:0:
469,192,42229,1,0,0:0:0:0:
298,192,42403,1,2,0:0:0:0:
384,192,42403,1,0,0:0:0:0:
42,192,42578,1,8,0:0:0:0:
128,192,42578,1,0,0:0:0:70:clap.wav
469,192,42578,1,0,0:0:0:0:
42,192,42752,1,8,0:0:0:0:
128,192,42752,1,0,0:0:0:70:clap.wav
384,192,42752,1,0,0:0:0:0:
213,192,42927,1,2,0:0:0:0:
298,192,42927,1,0,0:0:0:0:
128,192,43101,1,2,0:0:0:0:
469,192,43101,1,0,0:0:0:0:
42,192,43275,1,8,0:0:0:0:
213,192,43275,1,0,0:0:0:70:clap.wav
384,192,43275,1,0,0:0:0:0:
128,192,43450,1,2,0:0:0:0:
298,192,43450,1,0,0:0:0:0:
469,192,43624,1,0,0:0:0:0:
213,192,43799,1,2,0:0:0:0:
298,192,43799,128,0,43973:0:0:0:0:
128,192,43973,1,8,0:0:0:0:
384,192,43973,1,0,0:0:0:70:clap.wav
469,192,43973,1,0,0:0:0:0:
42,192,44148,128,8,44322:0:0:0:0:
384,192,44148,1,0,0:0:0:70:clap.wav
469,192,44148,1,0,0:0:0:0:
213,192,44322,1,2,0:0:0:0:
298,192,44322,1,0,0:0:0:0:
42,192,44496,1,2,0:0:0:0:
384,192,44496,128,0,44671:0:0:0:0:
128,192,44671,1,8,0:0:0:0:
298,192,44671,1,0,0:0:0:70:clap.wav
469,192,44671,1,0,0:0:0:0:
213,192,44845,128,0,45020:0:0:0:0:
469,192,45020,128,2,47113:0:0:0:0:
42,192,45020,1,0,0:0:0:0:
298,192,45194,1,2,0:0:0:0:
213,192,45194,1,0,0:0:0:0:
384,192,45369,1,8,0:0:0:0:
128,192,45369,1,0,0:0:0:0:
42,192,45369,1,0,0:0:0:0:
213,192,45543,1,0,0:0:0:0:
298,192,45630,1,8,0:0:0:0:
384,192,45717,1,2,0:0:0:0:
128,192,45717,1,0,0:0:0:0:
298,192,45892,1,2,0:0:0:0:
42,192,45892,1,0,0:0:0:0:
384,192,46066,1,8,0:0:0:0:
213,192,46066,1,0,0:0:0:0:
128,192,46066,1,0,0:0:0:0:
298,192,46241,1,2,0:0:0:0:
42,192,46241,1,0,0:0:0:0:
213,192,46415,1,0,0:0:0:0:
384,192,46589,1,2,0:0:0:0:
128,192,46589,1,0,0:0:0:0:
298,192,46764,1,8,0:0:0:0:
213,192,46764,1,0,0:0:0:0:
42,192,46764,1,0,0:0:0:0:
384,192,46938,1,2,0:0:0:0:
128,192,46938,1,0,0:0:0:0:
213,192,47113,1,2,0:0:0:0:
42,192,47113,1,0,0:0:0:0:
384,192,47200,1,8,0:0:0:0:
298,192,47200,1,0,0:0:0:0:
213,192,47287,1,2,0:0:0:0:
128,192,47287,1,0,0:0:0:0:
469,192,47462,1,8,0:0:0:0:
384,192,47462,1,0,0:0:0:0:
298,192,47462,1,0,0:0:0:0:
42,192,47810,1,2,0:0:0:0:
213,192,47810,1,4,0:0:0:0:
298,192,47810,1,0,0:0:0:0:
469,192,47810,1,0,0:0:0:0:
128,192,47985,1,2,0:0:0:0:
384,192,47985,1,0,0:0:0:0:
213,192,48159,1,8,0:0:0:0:
298,192,48159,1,0,0:0:0:70:clap.wav
469,192,48159,1,0,0:0:0:0:
42,192,48334,1,8,0:0:0:0:
213,192,48334,1,0,0:0:0:70:clap.wav
298,192,48334,1,0,0:0:0:0:
128,192,48508,1,2,0:0:0:0:
384,192,48508,1,0,0:0:0:0:
298,192,48682,1,2,0:0:0:0:
469,192,48682,1,0,0:0:0:0:
42,192,48857,1,8,0:0:0:0:
128,192,48857,1,0,0:0:0:70:clap.wav
213,192,48857,1,0,0:0:0:0:
384,192,49031,1,2,0:0:0:0:
469,192,49031,1,0,0:0:0:0:
298,192,49206,1,0,0:0:0:0:
128,192,49380,1,2,0:0:0:0:
384,192,49380,128,0,49555:0:0:0:0:
42,192,49555,1,8,0:0:0:0:
213,192,49555,1,0,0:0:0:70:clap.wav
298,192,49555,1,0,0:0:0:0:
213,192,49729,128,8,49903:0:0:0:0:
298,192,49729,1,0,0:0:0:70:clap.wav
469,192,49729,1,0,0:0:0:0:
128,192,49903,1,2,0:0:0:0:
384,192,49903,1,0,0:0:0:0:
298,192,50078,128,2,50252:0:0:0:0:
42,192,50078,1,0,0:0:0:0:
213,192,50252,1,8,0:0:0:0:
384,192,50252,1,0,0:0:0:70:clap.wav
469,192,50252,1,0,0:0:0:0:
128,192,50427,128,0,50601:0:0:0:0:
213,192,50601,1,2,0:0:0:0:
298,192,50601,128,0,51996:0:0:0:0:
384,192,50775,1,2,0:0:0:0:
469,192,50775,1,0,0:0:0:0:
42,192,50950,1,8,0:0:0:0:
128,192,50950,1,0,0:0:0:0:
213,192,50950,1,0,0:0:0:0:
469,192,51124,1,0,0:0:0:0:
384,192,51212,1,8,0:0:0:0:
42,192,51299,1,2,0:0:0:0:
213,192,51299,1,0,0:0:0:0:
128,192,51473,1,2,0:0:0:0:
469,192,51473,1,0,0:0:0:0:
42,192,51648,1,8,0:0:0:0:
213,192,51648,1,0,0:0:0:0:
384,192,51648,1,0,0:0:0:0:
128,192,51822,1,2,0:0:0:0:
469,192,51822,1,0,0:0:0:0:
42,192,51996,128,8,52258:0:0:0:0:
213,192,51996,1,0,0:0:0:0:
384,192,51996,1,0,0:0:0:0:
128,192,52258,1,0,0:0:0:100:Tom1.wav
298,192,52258,1,0,0:0:0:100:Tom2.wav
469,192,52258,128,0,52520:0:0:0:0:
213,192,52520,128,0,52694:0:0:0:100:Tom2.wav
42,192,52520,1,0,0:0:0:100:Tom3.wav
384,192,52520,1,0,0:0:0:0:
128,192,52694,1,0,0:0:0:100:Tom3.wav
298,192,52694,128,0,52869:0:0:0:0:
213,192,52869,1,8,0:0:0:20:
384,192,52956,1,0,0:0:0:0:
42,192,52956,1,8,0:0:0:0:
128,192,53043,1,8,0:0:0:0:
298,192,53043,1,0,0:0:0:0:
469,192,53130,1,0,0:0:0:100:Tom1.wav
213,192,53217,1,0,0:0:0:100:Tom2.wav
384,192,53217,1,0,0:0:0:0:
128,192,53305,1,0,0:0:0:100:Tom3.wav
213,192,53392,1,2,0:0:0:0:
469,192,53392,1,4,0:0:0:0:
298,192,53392,1,0,0:0:0:0:
42,192,53392,1,0,0:0:0:0:
128,192,53741,128,8,53915:0:0:0:0:
384,192,53741,1,0,0:0:0:0:
469,192,53741,1,0,0:0:0:0:
384,192,53915,1,0,0:0:0:70:hit-hat.wav
42,192,54089,1,2,0:0:0:0:
213,192,54089,1,0,0:0:0:0:
213,192,54264,1,0,0:0:0:70:hit-hat.wav
42,192,54438,1,8,0:0:0:0:
298,192,54438,1,0,0:0:0:0:
469,192,54438,1,0,0:0:0:0:
298,192,54613,1,0,0:0:0:70:hit-hat.wav
128,192,54787,1,2,0:0:0:0:
384,192,54787,1,0,0:0:0:0:
128,192,54962,1,0,0:0:0:70:hit-hat.wav
213,192,55136,1,8,0:0:0:0:
298,192,55136,1,0,0:0:0:0:
469,192,55136,1,0,0:0:0:0:
469,192,55310,1,0,0:0:0:70:hit-hat.wav
42,192,55485,1,2,0:0:0:0:
298,192,55485,1,0,0:0:0:0:
42,192,55659,1,0,0:0:0:70:hit-hat.wav
128,192,55834,1,8,0:0:0:0:
213,192,55834,1,0,0:0:0:0:
469,192,55834,1,0,0:0:0:0:
213,192,56008,1,0,0:0:0:70:hit-hat.wav
42,192,56182,1,2,0:0:0:0:
384,192,56182,1,0,0:0:0:0:
384,192,56357,1,0,0:0:0:70:hit-hat.wav
128,192,56531,1,8,0:0:0:0:
298,192,56531,1,0,0:0:0:0:
469,192,56531,128,0,56880:0:0:0:0:
128,192,56706,1,0,0:0:0:70:hit-hat.wav
42,192,56880,1,2,0:0:0:0:
298,192,56880,1,0,0:0:0:0:
298,192,57055,128,0,57229:0:0:0:70:hit-hat.wav
128,192,57229,1,8,0:0:0:0:
213,192,57229,1,0,0:0:0:0:
469,192,57229,1,0,0:0:0:0:
213,192,57403,128,0,57578:0:0:0:70:hit-hat.wav
42,192,57578,1,2,0:0:0:0:
298,192,57578,128,0,57752:0:0:0:0:
42,192,57752,128,0,57927:0:0:0:70:hit-hat.wav
213,192,57927,1,8,0:0:0:0:
384,192,57927,1,0,0:0:0:0:
469,192,57927,1,0,0:0:0:0:
384,192,58101,128,0,58275:0:0:0:70:hit-hat.wav
128,192,58275,1,2,0:0:0:0:
213,192,58275,1,0,0:0:0:0:
298,192,58363,1,0,0:0:0:100:Tom1.wav
42,192,58450,128,0,58973:0:0:0:100:Tom1.wav
384,192,58450,1,0,0:0:0:0:
213,192,58537,1,0,0:0:0:100:Tom2.wav
128,192,58624,1,8,0:0:0:0:
384,192,58624,1,0,0:0:0:0:
469,192,58624,1,0,0:0:0:0:
298,192,58712,1,0,0:0:0:100:Tom2.wav
213,192,58799,1,0,0:0:0:100:Tom3.wav
128,192,58973,1,4,0:0:0:0:
298,192,58973,1,2,0:0:0:0:
384,192,58973,1,0,0:0:0:0:
469,192,58973,128,0,61066:0:0:0:0:
128,192,59148,1,0,0:0:0:70:hit-hat.wav
42,192,59322,1,8,0:0:0:0:
213,192,59322,1,0,0:0:0:0:
384,192,59322,1,0,0:0:0:0:
213,192,59496,1,0,0:0:0:70:hit-hat.wav
42,192,59671,1,2,0:0:0:0:
298,192,59671,1,0,0:0:0:0:
298,192,59845,1,0,0:0:0:70:hit-hat.wav
128,192,60020,1,8,0:0:0:0:
213,192,60020,1,0,0:0:0:0:
384,192,60020,1,0,0:0:0:0:
384,192,60194,1,0,0:0:0:70:hit-hat.wav
42,192,60369,1,2,0:0:0:0:
298,192,60369,1,0,0:0:0:0:
42,192,60543,1,0,0:0:0:70:hit-hat.wav
128,192,60717,1,8,0:0:0:0:
213,192,60717,1,0,0:0:0:0:
384,192,60717,1,0,0:0:0:0:
213,192,60892,1,0,0:0:0:70:hit-hat.wav
128,192,61066,1,2,0:0:0:0:
298,192,61066,1,0,0:0:0:0:
298,192,61241,1,0,0:0:0:70:hit-hat.wav
42,192,61415,1,8,0:0:0:0:
213,192,61415,1,0,0:0:0:0:
469,192,61415,1,0,0:0:0:0:
469,192,61589,1,0,0:0:0:70:hit-hat.wav
128,192,61764,1,2,0:0:0:0:
298,192,61764,1,0,0:0:0:0:
128,192,61938,1,0,0:0:0:70:hit-hat.wav
42,192,62113,1,8,0:0:0:0:
384,192,62113,1,0,0:0:0:0:
469,192,62113,1,0,0:0:0:0:
384,192,62287,1,0,0:0:0:70:hit-hat.wav
42,192,62462,1,2,0:0:0:0:
298,192,62462,1,0,0:0:0:0:
298,192,62636,1,0,0:0:0:70:hit-hat.wav
42,192,62810,1,8,0:0:0:0:
213,192,62810,1,0,0:0:0:0:
384,192,62810,1,0,0:0:0:0:
213,192,62985,128,0,63159:0:0:0:70:hit-hat.wav
298,192,63072,128,0,63159:0:0:0:0:
128,192,63159,1,2,0:0:0:0:
469,192,63159,128,0,63334:0:0:0:0:
128,192,63334,128,0,63508:0:0:0:70:hit-hat.wav
42,192,63508,128,8,63682:0:0:0:0:
298,192,63508,1,0,0:0:0:0:
384,192,63508,1,0,0:0:0:0:
384,192,63682,128,0,63857:0:0:0:70:hit-hat.wav
128,192,63857,1,8,0:0:0:0:
213,192,63857,1,0,0:0:0:0:
42,192,63857,1,0,0:0:0:0:
298,192,63944,1,8,0:0:0:40:
42,192,64031,1,8,0:0:0:40:
469,192,64031,128,0,64555:0:0:0:0:
128,192,64119,1,8,0:0:0:40:
384,192,64206,1,8,0:0:0:0:
213,192,64206,1,0,0:0:0:0:
298,192,64293,1,8,0:0:0:40:
128,192,64380,1,8,0:0:0:40:
213,192,64467,1,8,0:0:0:40:
42,192,64555,128,2,66648:0:0:0:0:
128,192,64555,1,4,0:0:0:0:
298,192,64555,1,0,0:0:0:0:
384,192,64555,1,0,0:0:0:0:
298,192,64729,1,0,0:0:0:70:hit-hat.wav
128,192,64903,1,8,0:0:0:0:
213,192,64903,1,0,0:0:0:0:
469,192,64903,1,0,0:0:0:0:
469,192,65078,1,0,0:0:0:70:hit-hat.wav
128,192,65252,1,2,0:0:0:0:
298,192,65252,1,0,0:0:0:0:
128,192,65427,1,0,0:0:0:70:hit-hat.wav
213,192,65601,1,8,0:0:0:0:
298,192,65601,1,0,0:0:0:0:
384,192,65601,1,0,0:0:0:0:
384,192,65775,1,0,0:0:0:70:hit-hat.wav
128,192,65950,1,2,0:0:0:0:
213,192,65950,1,0,0:0:0:0:
213,192,66124,1,0,0:0:0:70:hit-hat.wav
128,192,66299,1,8,0:0:0:0:
384,192,66299,1,0,0:0:0:0:
469,192,66299,1,0,0:0:0:0:
469,192,66473,1,0,0:0:0:70:hit-hat.wav
213,192,66648,1,2,0:0:0:0:
298,192,66648,1,0,0:0:0:0:
298,192,66822,1,0,0:0:0:70:hit-hat.wav
128,192,66996,1,8,0:0:0:0:
384,192,66996,1,0,0:0:0:0:
469,192,66996,1,0,0:0:0:0:
128,192,67171,1,0,0:0:0:70:hit-hat.wav
213,192,67345,1,2,0:0:0:0:
384,192,67345,1,0,0:0:0:0:
384,192,67520,1,0,0:0:0:70:hit-hat.wav
42,192,67694,1,8,0:0:0:0:
213,192,67694,1,0,0:0:0:0:
469,192,67694,1,0,0:0:0:0:
213,192,67869,1,0,0:0:0:70:hit-hat.wav
128,192,68043,128,2,68392:0:0:0:0:
298,192,68043,1,0,0:0:0:0:
298,192,68217,1,0,0:0:0:70:hit-hat.wav
42,192,68392,1,8,0:0:0:0:
384,192,68392,128,0,68741:0:0:0:0:
469,192,68392,1,0,0:0:0:0:
42,192,68566,1,0,0:0:0:70:hit-hat.wav
213,192,68741,128,2,69438:0:0:0:0:
298,192,68741,1,0,0:0:0:0:
298,192,68915,1,0,0:0:0:70:hit-hat.wav
42,192,69089,1,8,0:0:0:0:
384,192,69089,1,0,0:0:0:0:
469,192,69089,1,0,0:0:0:0:
384,192,69264,1,0,0:0:0:70:hit-hat.wav
128,192,69438,1,2,0:0:0:0:
469,192,69438,128,0,70136:0:0:0:0:
128,192,69613,1,0,0:0:0:70:hit-hat.wav
42,192,69787,1,8,0:0:0:0:
213,192,69787,1,0,0:0:0:0:
384,192,69787,1,0,0:0:0:0:
213,192,69962,1,0,0:0:0:70:hit-hat.wav
42,192,70136,1,2,0:0:0:0:
128,192,70136,1,4,0:0:0:0:
298,192,70136,128,0,72229:0:0:0:0:
384,192,70136,1,0,0:0:0:0:
42,192,70310,1,0,0:0:0:70:hit-hat.wav
128,192,70485,1,8,0:0:0:0:
213,192,70485,1,0,0:0:0:0:
384,192,70485,1,0,0:0:0:0:
384,192,70659,1,0,0:0:0:70:hit-hat.wav
213,192,70834,1,2,0:0:0:0:
469,192,70834,1,0,0:0:0:0:
213,192,71008,1,0,0:0:0:70:hit-hat.wav
42,192,71182,1,8,0:0:0:0:
384,192,71182,1,0,0:0:0:0:
469,192,71182,1,0,0:0:0:0:
42,192,71357,1,0,0:0:0:70:hit-hat.wav
128,192,71531,1,2,0:0:0:0:
469,192,71531,1,0,0:0:0:0:
469,192,71706,1,0,0:0:0:70:hit-hat.wav
42,192,71880,1,8,0:0:0:0:
213,192,71880,1,0,0:0:0:0:
384,192,71880,1,0,0:0:0:0:
213,192,72055,1,0,0:0:0:70:hit-hat.wav
128,192,72229,1,2,0:0:0:0:
469,192,72229,1,0,0:0:0:0:
128,192,72403,1,0,0:0:0:70:hit-hat.wav
42,192,72578,1,8,0:0:0:0:
298,192,72578,1,0,0:0:0:0:
469,192,72578,1,0,0:0:0:0:
298,192,72752,1,0,0:0:0:70:hit-hat.wav
42,192,72927,128,2,74322:0:0:0:0:
384,192,72927,1,0,0:0:0:0:
384,192,73101,1,0,0:0:0:70:hit-hat.wav
213,192,73275,1,8,0:0:0:0:
298,192,73275,1,0,0:0:0:0:
469,192,73275,1,0,0:0:0:0:
213,192,73450,1,0,0:0:0:70:hit-hat.wav
128,192,73624,1,2,0:0:0:0:
384,192,73624,1,0,0:0:0:0:
128,192,73799,1,0,0:0:0:70:hit-hat.wav
213,192,73973,1,8,0:0:0:0:
298,192,73973,1,0,0:0:0:0:
469,192,73973,1,0,0:0:0:0:
298,192,74148,1,0,0:0:0:70:hit-hat.wav
128,192,74322,1,2,0:0:0:0:
213,192,74322,128,4,74671:0:0:0:0:
384,192,74322,1,0,0:0:0:0:
469,192,74322,128,0,75369:0:0:0:0:
298,192,74496,128,0,74671:0:0:0:0:
128,192,74671,128,0,75020:0:0:0:100:Tom1.wav
384,192,74671,128,0,75369:0:0:0:100:Tom2.wav
213,192,74845,128,0,75020:0:0:0:0:
42,192,75020,128,0,75369:0:0:0:100:Tom2.wav
298,192,75020,128,0,75369:0:0:0:100:Tom3.wav
128,192,75194,128,0,75369:0:0:0:0:
213,192,75369,128,8,75717:0:0:0:0:
42,192,75717,1,2,0:0:0:0:
128,192,75717,1,4,0:0:0:0:
384,192,75717,1,0,0:0:0:0:
469,192,75717,1,0,0:0:0:0:
42,192,76066,128,8,76241:0:0:0:0:
298,192,76066,1,0,0:0:0:0:
469,192,76066,1,0,0:0:0:0:
298,192,76241,1,0,0:0:0:70:hit-hat.wav
128,192,76415,1,2,0:0:0:0:
213,192,76415,1,0,0:0:0:0:
213,192,76589,1,0,0:0:0:70:hit-hat.wav
42,192,76764,1,8,0:0:0:0:
298,192,76764,1,0,0:0:0:0:
384,192,76764,1,0,0:0:0:0:
384,192,76938,1,0,0:0:0:70:hit-hat.wav
128,192,77113,1,2,0:0:0:0:
469,192,77113,1,0,0:0:0:0:
128,192,77287,1,0,0:0:0:70:hit-hat.wav
213,192,77462,1,8,0:0:0:0:
298,192,77462,1,0,0:0:0:0:
469,192,77462,1,0,0:0:0:0:
298,192,77636,1,0,0:0:0:70:hit-hat.wav
42,192,77810,1,2,0:0:0:0:
384,192,77810,1,0,0:0:0:0:
42,192,77985,1,0,0:0:0:70:hit-hat.wav
128,192,78159,1,8,0:0:0:0:
213,192,78159,1,0,0:0:0:0:
469,192,78159,1,0,0:0:0:0:
469,192,78334,1,0,0:0:0:70:hit-hat.wav
213,192,78508,1,2,0:0:0:0:
384,192,78508,1,0,0:0:0:0:
213,192,78682,1,0,0:0:0:70:hit-hat.wav
42,192,78857,1,8,0:0:0:0:
298,192,78857,1,0,0:0:0:0:
469,192,78857,1,0,0:0:0:0:
298,192,79031,1,0,0:0:0:70:hit-hat.wav
128,192,79206,1,2,0:0:0:0:
384,192,79206,1,0,0:0:0:0:
128,192,79380,1,0,0:0:0:70:hit-hat.wav
213,192,79555,1,8,0:0:0:0:
384,192,79555,1,0,0:0:0:0:
469,192,79555,1,0,0:0:0:0:
384,192,79729,1,0,0:0:0:70:hit-hat.wav
42,192,79903,1,2,0:0:0:0:
298,192,79903,128,0,80252:0:0:0:0:
42,192,80078,1,0,0:0:0:70:hit-hat.wav
213,192,80252,128,8,80601:0:0:0:0:
384,192,80252,1,0,0:0:0:0:
469,192,80252,1,0,0:0:0:0:
384,192,80427,1,0,0:0:0:70:hit-hat.wav
42,192,80601,1,2,0:0:0:0:
469,192,80601,128,0,80950:0:0:0:0:
128,192,80688,1,0,0:0:0:100:Tom1.wav
213,192,80775,1,0,0:0:0:100:Tom1.wav
298,192,80775,1,0,0:0:0:0:
384,192,80863,1,0,0:0:0:100:Tom2.wav
42,192,80950,128,8,81299:0:0:0:0:
128,192,80950,1,0,0:0:0:0:
213,192,80950,1,0,0:0:0:0:
298,192,81037,1,0,0:0:0:100:Tom2.wav
384,192,81124,1,0,0:0:0:100:Tom3.wav
128,192,81299,1,2,0:0:0:0:
213,192,81299,1,4,0:0:0:0:
298,192,81299,128,0,83392:0:0:0:0:
469,192,81299,1,0,0:0:0:0:
128,192,81473,1,0,0:0:0:70:hit-hat.wav
42,192,81648,1,8,0:0:0:0:
384,192,81648,1,0,0:0:0:0:
469,192,81648,1,0,0:0:0:0:
384,192,81822,1,0,0:0:0:70:hit-hat.wav
128,192,81996,1,2,0:0:0:0:
213,192,81996,1,0,0:0:0:0:
213,192,82171,1,0,0:0:0:70:hit-hat.wav
42,192,82345,1,8,0:0:0:0:
384,192,82345,1,0,0:0:0:0:
469,192,82345,1,0,0:0:0:0:
42,192,82520,1,0,0:0:0:70:hit-hat.wav
213,192,82694,1,2,0:0:0:0:
384,192,82694,1,0,0:0:0:0:
384,192,82869,1,0,0:0:0:70:hit-hat.wav
42,192,83043,1,8,0:0:0:0:
128,192,83043,1,0,0:0:0:0:
469,192,83043,1,0,0:0:0:0:
42,192,83217,1,0,0:0:0:70:hit-hat.wav
213,192,83392,1,2,0:0:0:0:
384,192,83392,1,0,0:0:0:0:
213,192,83566,1,0,0:0:0:70:hit-hat.wav
42,192,83741,1,8,0:0:0:0:
384,192,83741,1,0,0:0:0:0:
469,192,83741,1,0,0:0:0:0:
384,192,83915,1,0,0:0:0:70:hit-hat.wav
128,192,84089,1,2,0:0:0:0:
298,192,84089,1,0,0:0:0:0:
128,192,84264,1,0,0:0:0:70:hit-hat.wav
42,192,84438,1,8,0:0:0:0:
298,192,84438,1,0,0:0:0:0:
469,192,84438,1,0,0:0:0:0:
298,192,84613,1,0,0:0:0:70:hit-hat.wav
213,192,84787,1,2,0:0:0:0:
384,192,84787,1,0,0:0:0:0:
213,192,84962,1,0,0:0:0:70:hit-hat.wav
42,192,85136,1,8,0:0:0:0:
128,192,85136,1,0,0:0:0:0:
469,192,85136,1,0,0:0:0:0:
469,192,85310,1,0,0:0:0:70:hit-hat.wav
42,192,85485,1,2,0:0:0:0:
298,192,85485,1,0,0:0:0:0:
42,192,85659,1,0,0:0:0:70:hit-hat.wav
128,192,85746,1,0,0:0:0:0:
213,192,85834,1,8,0:0:0:0:
298,192,85834,1,0,0:0:0:0:
469,192,85834,1,0,0:0:0:0:
298,192,86008,1,0,0:0:0:70:hit-hat.wav
213,192,86182,1,8,0:0:0:0:
469,192,86182,1,0,0:0:0:0:
384,192,86182,1,0,0:0:0:0:
128,192,86270,1,8,0:0:0:40:
42,192,86357,1,8,0:0:0:40:
298,192,86357,1,0,0:0:0:0:
384,192,86444,1,8,0:0:0:40:
213,192,86531,1,8,0:0:0:0:
469,192,86531,1,0,0:0:0:0:
128,192,86619,1,8,0:0:0:40:
42,192,86706,1,8,0:0:0:40:
298,192,86706,1,0,0:0:0:0:
384,192,86793,1,8,0:0:0:40:
42,192,86880,1,2,0:0:0:0:
128,192,86880,1,4,0:0:0:0:
213,192,86880,1,0,0:0:0:0:
469,192,86880,1,0,0:0:0:0:
213,192,87055,1,0,0:0:0:70:hit-hat.wav
128,192,87229,1,8,0:0:0:0:
384,192,87229,1,0,0:0:0:0:
469,192,87229,1,0,0:0:0:0:
384,192,87403,1,0,0:0:0:70:hit-hat.wav
42,192,87578,1,2,0:0:0:0:
298,192,87578,1,0,0:0:0:0:
42,192,87752,1,0,0:0:0:70:hit-hat.wav
128,192,87927,1,8,0:0:0:0:
298,192,87927,1,0,0:0:0:0:
469,192,87927,1,0,0:0:0:0:
298,192,88101,1,0,0:0:0:70:hit-hat.wav
128,192,88275,1,2,0:0:0:0:
469,192,88275,1,0,0:0:0:0:
128,192,88450,1,0,0:0:0:70:hit-hat.wav
42,192,88624,1,8,0:0:0:0:
213,192,88624,1,0,0:0:0:0:
469,192,88624,1,0,0:0:0:0:
469,192,88799,1,0,0:0:0:70:hit-hat.wav
213,192,88973,1,2,0:0:0:0:
298,192,88973,1,0,0:0:0:0:
213,192,89148,1,0,0:0:0:70:hit-hat.wav
42,192,89322,1,8,0:0:0:0:
128,192,89322,1,0,0:0:0:0:
384,192,89322,1,0,0:0:0:0:
384,192,89496,1,0,0:0:0:70:hit-hat.wav
128,192,89671,1,2,0:0:0:0:
469,192,89671,128,0,90369:0:0:0:0:
128,192,89845,1,0,0:0:0:70:hit-hat.wav
42,192,90020,1,8,0:0:0:0:
213,192,90020,1,0,0:0:0:0:
298,192,90020,1,0,0:0:0:0:
42,192,90194,1,0,0:0:0:70:hit-hat.wav
213,192,90369,128,2,91066:0:0:0:0:
384,192,90369,1,0,0:0:0:0:
384,192,90543,1,0,0:0:0:70:hit-hat.wav
42,192,90717,1,8,0:0:0:0:
298,192,90717,1,0,0:0:0:0:
469,192,90717,1,0,0:0:0:0:
469,192,90892,1,0,0:0:0:70:hit-hat.wav
42,192,91066,1,2,0:0:0:0:
298,192,91066,128,0,91764:0:0:0:0:
42,192,91241,1,0,0:0:0:70:hit-hat.wav
128,192,91415,1,8,0:0:0:0:
384,192,91415,1,0,0:0:0:0:
469,192,91415,1,0,0:0:0:0:
128,192,91589,1,0,0:0:0:70:hit-hat.wav
42,192,91764,128,2,92462:0:0:0:0:
469,192,91764,1,0,0:0:0:0:
469,192,91938,1,0,0:0:0:70:hit-hat.wav
128,192,92113,1,8,0:0:0:0:
213,192,92113,1,0,0:0:0:0:
384,192,92113,1,0,0:0:0:0:
384,192,92287,1,0,0:0:0:70:hit-hat.wav
128,192,92462,1,2,0:0:0:0:
213,192,92462,128,4,94555:0:0:0:0:
298,192,92462,1,0,0:0:0:0:
469,192,92462,1,0,0:0:0:0:
298,192,92636,1,0,0:0:0:70:hit-hat.wav
42,192,92810,1,8,0:0:0:0:
384,192,92810,1,0,0:0:0:0:
469,192,92810,1,0,0:0:0:0:
384,192,92985,1,0,0:0:0:70:hit-hat.wav
128,192,93159,1,2,0:0:0:0:
469,192,93159,1,0,0:0:0:0:
128,192,93334,1,0,0:0:0:70:hit-hat.wav
42,192,93508,1,8,0:0:0:0:
298,192,93508,1,0,0:0:0:0:
384,192,93508,1,0,0:0:0:0:
298,192,93682,1,0,0:0:0:70:hit-hat.wav
42,192,93857,1,2,0:0:0:0:
384,192,93857,1,0,0:0:0:0:
42,192,94031,1,0,0:0:0:70:hit-hat.wav
128,192,94206,1,8,0:0:0:0:
298,192,94206,1,0,0:0:0:0:
469,192,94206,1,0,0:0:0:0:
469,192,94380,1,0,0:0:0:70:hit-hat.wav
128,192,94555,1,2,0:0:0:0:
384,192,94555,1,0,0:0:0:0:
384,192,94729,1,0,0:0:0:70:hit-hat.wav
42,192,94903,1,8,0:0:0:0:
213,192,94903,1,0,0:0:0:0:
298,192,94903,1,0,0:0:0:0:
213,192,95078,1,0,0:0:0:70:hit-hat.wav
128,192,95252,1,2,0:0:0:0:
298,192,95252,1,0,0:0:0:0:
298,192,95427,1,0,0:0:0:70:hit-hat.wav
42,192,95601,1,8,0:0:0:0:
384,192,95601,1,0,0:0:0:0:
469,192,95601,1,0,0:0:0:0:
42,192,95775,1,0,0:0:0:70:hit-hat.wav
213,192,95950,1,2,0:0:0:0:
469,192,95950,1,0,0:0:0:0:
469,192,96124,1,0,0:0:0:70:hit-hat.wav
42,192,96299,1,8,0:0:0:0:
298,192,96299,1,0,0:0:0:0:
384,192,96299,1,0,0:0:0:0:
213,192,96473,1,2,0:0:0:0:
128,192,96560,1,2,0:0:0:0:
42,192,96648,1,8,0:0:0:0:
213,192,96648,128,4,97345:0:0:0:0:
298,192,96648,1,0,0:0:0:0:
469,192,96648,128,0,96996:0:0:0:0:
298,192,96996,128,0,97345:0:0:0:100:Tom2.wav
42,192,97345,128,8,97694:0:0:0:0:
469,192,97345,128,0,98043:0:0:0:70:hit-hat.wav
128,192,97432,1,0,0:0:0:100:Tom1.wav
213,192,97520,1,0,0:0:0:100:Tom2.wav
298,192,97607,1,0,0:0:0:100:Tom3.wav
128,192,97694,128,8,98043:0:0:0:0:
213,192,97694,1,4,0:0:0:0:
384,192,97694,1,0,0:0:0:0:
213,192,98043,128,2,98217:0:0:0:0:
298,192,98043,128,0,98217:0:0:0:0:
42,192,98392,1,8,0:0:0:0:
128,192,98392,1,0,0:0:0:0:
298,192,98392,1,0,0:0:0:0:
384,192,98566,1,0,0:0:0:100:Tom2.wav
469,192,98566,1,0,0:0:0:0:
213,192,98653,1,0,0:0:0:100:Tom2.wav
298,192,98653,1,0,0:0:0:0:
42,192,98741,128,2,98828:0:0:0:0:
128,192,98741,128,0,98828:0:0:0:100:Tom3.wav
42,192,98915,128,2,99089:0:0:0:0:
128,192,98915,128,0,99089:0:0:0:100:Tom3.wav
298,192,99089,1,8,0:0:0:0:
384,192,99089,1,0,0:0:0:0:
469,192,99089,1,0,0:0:0:0:
128,192,99264,1,0,0:0:0:100:Tom2.wav
298,192,99264,1,0,0:0:0:0:
213,192,99351,1,0,0:0:0:100:Tom2.wav
384,192,99351,1,0,0:0:0:0:
128,192,99438,128,2,99613:0:0:0:0:
298,192,99438,128,0,99613:0:0:0:100:Tom3.wav
42,192,99613,1,0,0:0:0:100:Tom3.wav
213,192,99787,128,2,99962:0:0:0:0:
384,192,99787,128,0,99962:0:0:0:100:Tom3.wav
469,192,99787,1,8,0:0:0:0:
42,192,99962,1,0,0:0:0:100:Tom2.wav
128,192,99962,1,0,0:0:0:0:
213,192,100049,1,0,0:0:0:100:Tom2.wav
298,192,100049,1,0,0:0:0:0:
384,192,100136,128,2,100223:0:0:0:0:
469,192,100136,128,0,100223:0:0:0:100:Tom3.wav
384,192,100310,128,0,100485:0:0:0:100:Tom3.wav
469,192,100310,128,0,100485:0:0:0:0:
42,192,100485,1,8,0:0:0:0:
213,192,100485,1,0,0:0:0:0:
298,192,100485,1,0,0:0:0:0:
42,192,100659,1,0,0:0:0:100:Tom2.wav
469,192,100659,1,0,0:0:0:0:
128,192,100746,1,0,0:0:0:100:Tom2.wav
384,192,100746,1,0,0:0:0:0:
213,192,100834,128,2,101008:0:0:0:0:
298,192,100834,128,0,101008:0:0:0:100:Tom3.wav
213,192,101182,1,8,0:0:0:0:
384,192,101182,1,0,0:0:0:0:
469,192,101182,1,0,0:0:0:0:
42,192,101357,1,0,0:0:0:100:Tom2.wav
128,192,101357,1,0,0:0:0:0:
213,192,101444,1,0,0:0:0:100:Tom2.wav
298,192,101444,1,0,0:0:0:0:
384,192,101531,128,2,101619:0:0:0:0:
469,192,101531,128,0,101619:0:0:0:100:Tom3.wav
384,192,101706,128,2,101880:0:0:0:0:
469,192,101706,128,0,101880:0:0:0:100:Tom3.wav
42,192,101880,1,8,0:0:0:0:
128,192,101880,1,0,0:0:0:0:
213,192,101880,1,0,0:0:0:0:
213,192,102055,1,0,0:0:0:100:Tom2.wav
384,192,102055,1,0,0:0:0:0:
128,192,102142,1,0,0:0:0:100:Tom2.wav
298,192,102142,1,0,0:0:0:0:
213,192,102229,128,2,102403:0:0:0:0:
384,192,102229,128,0,102403:0:0:0:100:Tom3.wav
128,192,102578,128,2,102752:0:0:0:0:
298,192,102578,128,0,102752:0:0:0:100:Tom3.wav
42,192,102578,1,8,0:0:0:0:
384,192,102752,1,2,0:0:0:0:
469,192,102752,1,0,0:0:0:0:
42,192,102927,1,8,0:0:0:40:
298,192,102927,1,0,0:0:0:0:
128,192,103014,1,8,0:0:0:40:
469,192,103014,1,0,0:0:0:0:
213,192,103101,1,8,0:0:0:40:
384,192,103101,1,0,0:0:0:0:
42,192,103188,1,8,0:0:0:40:
298,192,103188,1,0,0:0:0:0:
128,192,103275,1,8,0:0:0:40:
469,192,103275,1,0,0:0:0:0:
213,192,103363,1,8,0:0:0:40:
384,192,103363,1,0,0:0:0:0:
42,192,103450,1,8,0:0:0:40:
298,192,103450,1,0,0:0:0:0:
128,192,103537,1,8,0:0:0:40:
469,192,103537,1,0,0:0:0:0:
42,192,103624,128,2,104496:0:0:0:0:
213,192,103624,1,4,0:0:0:0:
298,192,103624,1,0,0:0:0:0:
384,192,103624,1,0,0:0:0:0:
469,192,103799,1,2,0:0:0:0:
128,192,103973,1,8,0:0:0:0:
213,192,103973,1,0,0:0:0:0:
384,192,103973,1,0,0:0:0:0:
298,192,104148,1,0,0:0:0:0:
213,192,104322,1,2,0:0:0:0:
469,192,104322,1,0,0:0:0:0:
298,192,104496,1,2,0:0:0:0:
384,192,104496,1,0,0:0:0:0:
128,192,104671,1,8,0:0:0:0:
213,192,104671,1,0,0:0:0:0:
469,192,104671,128,0,105020:0:0:0:0:
298,192,104845,128,8,105020:0:0:0:0:
384,192,104845,1,0,0:0:0:0:
42,192,105020,1,2,0:0:0:0:
128,192,105020,1,0,0:0:0:0:
213,192,105194,128,2,105369:0:0:0:0:
469,192,105194,128,0,105369:0:0:0:0:
42,192,105369,1,8,0:0:0:0:
298,192,105369,1,0,0:0:0:0:
384,192,105369,1,0,0:0:0:0:
128,192,105543,128,0,105717:0:0:0:0:
469,192,105543,128,0,105717:0:0:0:0:
213,192,105717,1,2,0:0:0:0:
298,192,105717,1,0,0:0:0:0:
42,192,105892,128,2,106241:0:0:0:0:
469,192,105892,128,0,106241:0:0:0:0:
128,192,106066,1,8,0:0:0:0:
213,192,106066,1,0,0:0:0:0:
384,192,106066,1,0,0:0:0:0:
213,192,106241,1,8,0:0:0:0:
298,192,106241,1,0,0:0:0:0:
128,192,106241,1,0,0:0:0:0:
384,192,106415,1,2,0:0:0:0:
42,192,106415,1,4,0:0:0:0:
298,192,106415,128,0,106764:0:0:0:0:
469,192,106415,1,0,0:0:0:0:
213,192,106589,1,2,0:0:0:0:
128,192,106589,1,0,0:0:0:0:
42,192,106764,1,8,0:0:0:0:
469,192,106764,1,0,0:0:0:0:
384,192,106764,1,0,0:0:0:0:
213,192,106938,128,0,107287:0:0:0:0:
42,192,107113,1,2,0:0:0:0:
298,192,107113,1,0,0:0:0:0:
384,192,107287,1,2,0:0:0:0:
128,192,107287,1,0,0:0:0:0:
42,192,107462,128,8,107810:0:0:0:0:
469,192,107462,1,0,0:0:0:0:
298,192,107462,1,0,0:0:0:0:
128,192,107636,1,8,0:0:0:0:
213,192,107636,128,0,107810:0:0:0:0:
384,192,107810,1,2,0:0:0:0:
469,192,107810,1,0,0:0:0:0:
42,192,107985,128,2,108159:0:0:0:0:
298,192,107985,128,0,108159:0:0:0:0:
128,192,108159,1,8,0:0:0:0:
213,192,108159,1,0,0:0:0:0:
469,192,108159,1,0,0:0:0:0:
42,192,108334,128,0,108508:0:0:0:0:
384,192,108334,128,0,108508:0:0:0:0:
213,192,108508,1,2,0:0:0:0:
298,192,108508,1,0,0:0:0:0:
42,192,108682,128,2,109206:0:0:0:0:
469,192,108682,128,0,109206:0:0:0:0:
298,192,108857,1,8,0:0:0:0:
128,192,108857,1,0,0:0:0:0:
384,192,108857,1,0,0:0:0:0:
213,192,109031,1,8,0:0:0:0:
384,192,109031,1,0,0:0:0:0:
298,192,109031,1,0,0:0:0:0:
128,192,109206,1,4,0:0:0:0:
213,192,109206,128,2,110078:0:0:0:0:
384,192,109206,1,0,0:0:0:0:
298,192,109206,1,0,0:0:0:0:
42,192,109380,1,2,0:0:0:0:
469,192,109380,1,0,0:0:0:0:
384,192,109555,1,8,0:0:0:0:
128,192,109555,1,0,0:0:0:0:
298,192,109555,1,0,0:0:0:0:
469,192,109729,1,0,0:0:0:0:
42,192,109903,1,2,0:0:0:0:
128,192,109903,1,0,0:0:0:0:
384,192,110078,1,2,0:0:0:0:
469,192,110078,1,0,0:0:0:0:
213,192,110252,1,8,0:0:0:0:
298,192,110252,1,0,0:0:0:0:
42,192,110252,1,0,0:0:0:0:
469,192,110427,128,0,110601:0:0:0:0:
384,192,110514,128,0,110601:0:0:0:0:
42,192,110601,128,2,110950:0:0:0:0:
298,192,110601,128,0,110775:0:0:0:0:
128,192,110775,128,2,110950:0:0:0:0:
213,192,110775,1,0,0:0:0:0:
298,192,110950,1,8,0:0:0:0:
384,192,110950,1,0,0:0:0:0:
469,192,110950,1,0,0:0:0:0:
128,192,111124,128,0,111299:0:0:0:0:
213,192,111124,128,0,111299:0:0:0:0:
42,192,111299,1,2,0:0:0:0:
384,192,111299,1,0,0:0:0:0:
213,192,111473,128,2,111648:0:0:0:0:
298,192,111473,128,0,111648:0:0:0:0:
42,192,111648,1,8,0:0:0:0:
128,192,111648,1,0,0:0:0:0:
469,192,111648,1,0,0:0:0:0:
384,192,111822,128,0,111909:0:0:0:0:
469,192,111822,128,0,111909:0:0:0:0:
42,192,111996,128,2,112084:0:0:0:0:
128,192,111996,128,4,112084:0:0:0:0:
298,192,111996,1,0,0:0:0:0:
213,192,111996,1,0,0:0:0:0:
42,192,112171,128,2,112345:0:0:0:0:
128,192,112171,128,0,112345:0:0:0:0:
213,192,112345,1,8,0:0:0:0:
384,192,112345,1,0,0:0:0:0:
469,192,112345,1,0,0:0:0:0:
213,192,112520,128,0,112607:0:0:0:0:
298,192,112520,128,0,112607:0:0:0:0:
213,192,112694,128,8,112869:0:0:0:0:
298,192,112694,128,0,112869:0:0:0:0:
469,192,112694,1,0,0:0:0:0:
42,192,112934,1,8,0:0:0:0:
128,192,112934,1,0,0:0:0:0:
213,192,112934,1,0,0:0:0:0:
384,192,113043,128,0,113130:0:0:0:0:
469,192,113043,128,0,113130:0:0:0:0:
384,192,113217,128,0,113392:0:0:0:0:
469,192,113217,128,0,113392:0:0:0:0:
42,192,113261,1,0,0:0:0:100:Tom1.wav
128,192,113261,1,0,0:0:0:100:Tom2.wav
42,192,113566,128,0,113741:0:0:0:0:
213,192,113566,128,0,113741:0:0:0:0:
384,192,113610,1,0,0:0:0:100:Tom2.wav
469,192,113610,1,0,0:0:0:100:Tom3.wav
384,192,113915,128,0,114089:0:0:0:0:
469,192,113915,128,0,114089:0:0:0:0:
128,192,113959,1,0,0:0:0:100:Tom3.wav
42,192,113959,1,0,0:0:0:0:
298,192,114089,1,0,0:0:0:100:Tom2.wav
213,192,114089,1,0,0:0:0:0:
42,192,114264,128,0,114438:0:0:0:0:
128,192,114264,128,0,114438:0:0:0:0:
213,192,114307,1,0,0:0:0:0:
298,192,114307,1,0,0:0:0:100:Tom3.wav
384,192,114438,1,0,0:0:0:100:Tom2.wav
469,192,114438,1,0,0:0:0:0:
298,192,114613,128,0,114787:0:0:0:0:
213,192,114613,128,0,114787:0:0:0:0:
384,192,114787,1,2,0:0:0:0:
469,192,114787,1,4,0:0:0:0:
128,192,114787,1,0,0:0:0:0:
42,192,114787,1,0,0:0:0:0:
128,192,114962,1,2,0:0:0:0:
213,192,114962,1,0,0:0:0:0:
42,192,115136,1,8,0:0:0:0:
298,192,115136,1,0,0:0:0:0:
469,192,115136,1,0,0:0:0:0:
213,192,115310,1,0,0:0:0:0:
128,192,115485,1,2,0:0:0:0:
384,192,115485,1,0,0:0:0:0:
42,192,115659,1,2,0:0:0:0:
298,192,115659,1,0,0:0:0:0:
213,192,115834,1,8,0:0:0:0:
384,192,115834,1,0,0:0:0:0:
469,192,115834,1,0,0:0:0:0:
213,192,116008,1,8,0:0:0:0:
384,192,116008,1,0,0:0:0:0:
469,192,116008,1,0,0:0:0:0:
42,192,116182,1,2,0:0:0:0:
298,192,116182,1,0,0:0:0:0:
128,192,116357,1,2,0:0:0:0:
384,192,116357,1,0,0:0:0:0:
42,192,116531,1,8,0:0:0:0:
213,192,116531,1,0,0:0:0:0:
298,192,116531,1,0,0:0:0:0:
469,192,116706,1,0,0:0:0:0:
213,192,116880,1,2,0:0:0:0:
384,192,116880,1,0,0:0:0:0:
128,192,117055,1,2,0:0:0:0:
298,192,117055,1,0,0:0:0:0:
42,192,117229,1,8,0:0:0:0:
384,192,117229,1,0,0:0:0:0:
469,192,117229,1,0,0:0:0:0:
42,192,117403,1,8,0:0:0:0:
384,192,117403,1,0,0:0:0:0:
469,192,117403,1,0,0:0:0:0:
213,192,117578,1,2,0:0:0:0:
298,192,117578,1,0,0:0:0:0:
42,192,117752,1,2,0:0:0:0:
384,192,117752,1,0,0:0:0:0:
128,192,117927,1,8,0:0:0:0:
298,192,117927,1,0,0:0:0:0:
469,192,117927,1,0,0:0:0:0:
213,192,118101,1,0,0:0:0:0:
42,192,118275,1,2,0:0:0:0:
384,192,118275,1,0,0:0:0:0:
128,192,118450,1,2,0:0:0:0:
469,192,118450,1,0,0:0:0:0:
213,192,118624,1,8,0:0:0:0:
298,192,118624,1,0,0:0:0:0:
384,192,118624,1,0,0:0:0:0:
213,192,118799,1,8,0:0:0:0:
298,192,118799,1,0,0:0:0:0:
384,192,118799,1,0,0:0:0:0:
42,192,118973,1,2,0:0:0:0:
469,192,118973,1,0,0:0:0:0:
213,192,119148,1,2,0:0:0:0:
298,192,119148,1,0,0:0:0:0:
42,192,119322,1,8,0:0:0:0:
128,192,119322,1,0,0:0:0:0:
384,192,119322,1,0,0:0:0:0:
213,192,119496,1,0,0:0:0:0:
384,192,119671,1,2,0:0:0:0:
469,192,119671,1,0,0:0:0:0:
42,192,119845,1,2,0:0:0:0:
128,192,119845,1,0,0:0:0:0:
213,192,120020,1,8,0:0:0:0:
298,192,120020,1,0,0:0:0:0:
469,192,120020,1,0,0:0:0:0:
42,192,120194,1,0,0:0:0:0:
128,192,120281,1,2,0:0:0:0:
469,192,120281,1,0,0:0:0:0:
213,192,120369,1,2,0:0:0:0:
384,192,120369,1,0,0:0:0:0:
128,192,120543,1,2,0:0:0:0:
298,192,120543,1,0,0:0:0:0:
42,192,120717,1,8,0:0:0:0:
213,192,120717,1,0,0:0:0:0:
469,192,120717,1,0,0:0:0:0:
298,192,120892,1,2,0:0:0:0:
384,192,120892,1,0,0:0:0:0:
469,192,121066,1,0,0:0:0:0:
42,192,121241,1,2,0:0:0:0:
213,192,121241,1,0,0:0:0:0:
128,192,121415,1,8,0:0:0:0:
298,192,121415,1,0,0:0:0:0:
384,192,121415,1,0,0:0:0:0:
213,192,121589,1,0,0:0:0:0:
298,192,121677,1,8,0:0:0:0:
384,192,121677,1,0,0:0:0:0:
42,192,121764,1,2,0:0:0:0:
128,192,121764,1,0,0:0:0:0:
213,192,121938,1,2,0:0:0:0:
469,192,121938,1,0,0:0:0:0:
42,192,122113,1,8,0:0:0:0:
128,192,122113,1,0,0:0:0:0:
384,192,122113,1,0,0:0:0:0:
298,192,122287,1,2,0:0:0:0:
469,192,122287,1,0,0:0:0:0:
213,192,122462,1,0,0:0:0:0:
128,192,122636,1,2,0:0:0:0:
469,192,122636,1,0,0:0:0:0:
42,192,122810,1,8,0:0:0:0:
213,192,122810,1,0,0:0:0:0:
384,192,122810,1,0,0:0:0:0:
42,192,122985,1,8,0:0:0:0:
213,192,122985,1,0,0:0:0:0:
384,192,122985,1,0,0:0:0:0:
128,192,123159,1,2,0:0:0:0:
298,192,123159,1,0,0:0:0:0:
213,192,123334,1,2,0:0:0:0:
469,192,123334,1,0,0:0:0:0:
42,192,123508,1,8,0:0:0:0:
298,192,123508,1,0,0:0:0:0:
384,192,123508,1,0,0:0:0:0:
128,192,123682,1,2,0:0:0:0:
469,192,123682,1,0,0:0:0:0:
213,192,123857,1,2,0:0:0:0:
384,192,123857,1,0,0:0:0:0:
42,192,124031,1,2,0:0:0:0:
298,192,124031,1,0,0:0:0:0:
128,192,124206,1,8,0:0:0:0:
213,192,124206,1,0,0:0:0:0:
469,192,124206,1,0,0:0:0:0:
384,192,124380,1,0,0:0:0:0:
128,192,124555,1,2,0:0:0:0:
298,192,124555,1,0,0:0:0:0:
213,192,124729,1,2,0:0:0:0:
469,192,124729,1,0,0:0:0:0:
42,192,124903,1,8,0:0:0:0:
298,192,124903,1,0,0:0:0:0:
384,192,124903,1,0,0:0:0:0:
128,192,125078,1,2,0:0:0:0:
213,192,125078,1,0,0:0:0:0:
298,192,125252,1,2,0:0:0:0:
469,192,125252,1,0,0:0:0:0:
42,192,125427,1,8,0:0:0:0:
128,192,125427,1,0,0:0:0:0:
384,192,125427,1,0,0:0:0:0:
213,192,125601,1,8,0:0:0:0:
298,192,125601,1,0,0:0:0:0:
469,192,125601,1,0,0:0:0:0:
42,192,125688,1,8,0:0:0:0:
128,192,125688,1,0,0:0:0:0:
298,192,125775,1,0,0:0:0:100:Tom1.wav
384,192,125775,1,0,0:0:0:0:
128,192,125863,1,0,0:0:0:100:Tom2.wav
213,192,125863,1,0,0:0:0:0:
42,192,125950,1,2,0:0:0:0:
298,192,125950,1,4,0:0:0:0:
384,192,125950,1,0,0:0:0:0:
469,192,125950,1,0,0:0:0:0:
128,192,126124,1,2,0:0:0:0:
213,192,126124,1,0,0:0:0:0:
42,192,126299,1,8,0:0:0:0:
298,192,126299,1,0,0:0:0:0:
469,192,126299,1,0,0:0:0:0:
213,192,126473,1,0,0:0:0:0:
42,192,126648,1,2,0:0:0:0:
384,192,126648,1,0,0:0:0:0:
128,192,126822,1,2,0:0:0:0:
298,192,126822,1,0,0:0:0:0:
42,192,126996,1,8,0:0:0:0:
213,192,126996,1,0,0:0:0:0:
469,192,126996,1,0,0:0:0:0:
42,192,127171,1,8,0:0:0:0:
213,192,127171,1,0,0:0:0:0:
469,192,127171,1,0,0:0:0:0:
128,192,127345,1,2,0:0:0:0:
384,192,127345,1,0,0:0:0:0:
213,192,127520,1,2,0:0:0:0:
469,192,127520,1,0,0:0:0:0:
42,192,127694,1,8,0:0:0:0:
128,192,127694,1,0,0:0:0:0:
298,192,127694,1,0,0:0:0:0:
384,192,127869,1,0,0:0:0:0:
42,192,128043,1,2,0:0:0:0:
298,192,128043,1,0,0:0:0:0:
128,192,128217,1,2,0:0:0:0:
384,192,128217,1,0,0:0:0:0:
42,192,128392,1,8,0:0:0:0:
213,192,128392,1,0,0:0:0:0:
469,192,128392,1,0,0:0:0:0:
42,192,128566,1,8,0:0:0:0:
213,192,128566,1,0,0:0:0:0:
469,192,128566,1,0,0:0:0:0:
298,192,128741,1,2,0:0:0:0:
384,192,128741,1,0,0:0:0:0:
128,192,128915,1,2,0:0:0:0:
213,192,128915,1,0,0:0:0:0:
42,192,129089,1,8,0:0:0:0:
298,192,129089,1,0,0:0:0:0:
469,192,129089,1,0,0:0:0:0:
128,192,129264,1,0,0:0:0:0:
213,192,129438,1,2,0:0:0:0:
384,192,129438,1,0,0:0:0:0:
42,192,129613,1,2,0:0:0:0:
298,192,129613,1,0,0:0:0:0:
128,192,129787,1,8,0:0:0:0:
384,192,129787,1,0,0:0:0:0:
469,192,129787,1,0,0:0:0:0:
128,192,129962,1,8,0:0:0:0:
384,192,129962,1,0,0:0:0:0:
469,192,129962,1,0,0:0:0:0:
42,192,130136,1,2,0:0:0:0:
213,192,130136,1,0,0:0:0:0:
298,192,130310,1,2,0:0:0:0:
469,192,130310,1,0,0:0:0:0:
42,192,130485,1,8,0:0:0:0:
128,192,130485,1,0,0:0:0:0:
384,192,130485,1,0,0:0:0:0:
213,192,130659,1,0,0:0:0:0:
298,192,130834,1,2,0:0:0:0:
469,192,130834,1,0,0:0:0:0:
42,192,131008,1,2,0:0:0:0:
213,192,131008,1,0,0:0:0:0:
128,192,131182,1,8,0:0:0:0:
384,192,131182,1,0,0:0:0:0:
469,192,131182,1,0,0:0:0:0:
213,192,131357,1,0,0:0:0:0:
384,192,131444,1,2,0:0:0:0:
298,192,131444,1,0,0:0:0:0:
42,192,131531,1,2,0:0:0:0:
213,192,131531,1,4,0:0:0:0:
128,192,131531,1,0,0:0:0:0:
469,192,131531,1,0,0:0:0:0:
298,192,131706,1,2,0:0:0:0:
384,192,131706,1,0,0:0:0:0:
42,192,131880,1,8,0:0:0:0:
128,192,131880,1,0,0:0:0:0:
469,192,131880,1,0,0:0:0:0:
213,192,132055,1,2,0:0:0:0:
298,192,132055,1,0,0:0:0:0:
384,192,132229,1,0,0:0:0:0:
42,192,132403,1,2,0:0:0:0:
213,192,132403,1,0,0:0:0:0:
128,192,132578,1,8,0:0:0:0:
298,192,132578,1,0,0:0:0:0:
469,192,132578,1,0,0:0:0:0:
384,192,132752,1,0,0:0:0:0:
213,192,132839,1,8,0:0:0:0:
128,192,132839,1,0,0:0:0:0:
298,192,132927,1,2,0:0:0:0:
469,192,132927,1,0,0:0:0:0:
42,192,133101,1,2,0:0:0:0:
213,192,133101,1,0,0:0:0:0:
128,192,133275,1,8,0:0:0:0:
298,192,133275,1,0,0:0:0:0:
384,192,133275,1,0,0:0:0:0:
213,192,133450,1,2,0:0:0:0:
469,192,133450,1,0,0:0:0:0:
298,192,133624,1,0,0:0:0:0:
42,192,133799,1,2,0:0:0:0:
384,192,133799,1,0,0:0:0:0:
128,192,133973,1,8,0:0:0:0:
213,192,133973,1,0,0:0:0:0:
469,192,133973,1,0,0:0:0:0:
128,192,134148,1,8,0:0:0:0:
213,192,134148,1,0,0:0:0:0:
469,192,134148,1,0,0:0:0:0:
298,192,134322,1,2,0:0:0:0:
384,192,134322,1,0,0:0:0:0:
42,192,134496,1,2,0:0:0:0:
128,192,134496,1,0,0:0:0:0:
213,192,134671,1,8,0:0:0:0:
298,192,134671,1,0,0:0:0:0:
469,192,134671,1,0,0:0:0:0:
128,192,134845,1,2,0:0:0:0:
384,192,134845,1,0,0:0:0:0:
42,192,135020,1,2,0:0:0:0:
213,192,135020,1,0,0:0:0:0:
298,192,135194,1,2,0:0:0:0:
469,192,135194,1,0,0:0:0:0:
42,192,135369,1,8,0:0:0:0:
128,192,135369,1,0,0:0:0:0:
384,192,135369,1,0,0:0:0:0:
213,192,135543,1,0,0:0:0:0:
298,192,135717,1,2,0:0:0:0:
469,192,135717,1,0,0:0:0:0:
128,192,135892,1,2,0:0:0:0:
384,192,135892,1,0,0:0:0:0:
42,192,136066,1,8,0:0:0:0:
213,192,136066,1,0,0:0:0:0:
469,192,136066,1,0,0:0:0:0:
298,192,136241,1,2,0:0:0:0:
384,192,136241,1,0,0:0:0:0:
128,192,136415,1,2,0:0:0:0:
213,192,136415,1,0,0:0:0:0:
298,192,136502,1,8,0:0:0:0:
384,192,136502,1,0,0:0:0:0:
469,192,136502,1,0,0:0:0:0:
42,192,136589,1,0,0:0:0:100:Tom2.wav
128,192,136677,1,0,0:0:0:100:Tom2.wav
213,192,136764,1,0,0:0:0:100:Tom1.wav
469,192,136764,1,0,0:0:0:0:
384,192,136851,1,0,0:0:0:100:Tom1.wav
42,192,136938,1,0,0:0:0:100:Tom3.wav
298,192,136938,1,0,0:0:0:0:
128,192,137025,1,0,0:0:0:100:Tom3.wav
213,192,137113,1,2,0:0:0:0:
298,192,137113,128,4,137287:0:0:0:0:
384,192,137113,1,0,0:0:0:0:
469,192,137113,1,0,0:0:0:0:
42,192,137287,1,2,0:0:0:0:
128,192,137287,1,0,0:0:0:0:
213,192,137462,1,8,0:0:0:0:
298,192,137462,1,0,0:0:0:70:clap.wav
469,192,137462,128,0,137636:0:0:0:0:
42,192,137636,1,8,0:0:0:0:
213,192,137636,1,0,0:0:0:70:clap.wav
298,192,137636,1,0,0:0:0:0:
128,192,137810,128,2,137985:0:0:0:0:
384,192,137810,1,0,0:0:0:0:
213,192,137985,1,2,0:0:0:0:
469,192,137985,1,0,0:0:0:0:
42,192,138159,1,8,0:0:0:0:
298,192,138159,1,0,0:0:0:70:clap.wav
384,192,138159,1,0,0:0:0:0:
128,192,138334,1,2,0:0:0:0:
469,192,138334,128,0,138508:0:0:0:0:
213,192,138508,1,0,0:0:0:0:
128,192,138682,128,0,138857:0:0:0:0:
384,192,138682,1,2,0:0:0:0:
298,192,138857,1,8,0:0:0:0:
213,192,138857,1,0,0:0:0:70:clap.wav
42,192,138857,1,0,0:0:0:0:
469,192,139031,128,8,139206:0:0:0:0:
213,192,139031,1,0,0:0:0:70:clap.wav
298,192,139031,1,0,0:0:0:0:
128,192,139206,1,2,0:0:0:0:
42,192,139206,128,0,139555:0:0:0:0:
384,192,139380,1,2,0:0:0:0:
298,192,139380,1,0,0:0:0:0:
469,192,139555,1,8,0:0:0:0:
213,192,139555,1,0,0:0:0:70:clap.wav
128,192,139555,1,0,0:0:0:0:
298,192,139729,128,0,140078:0:0:0:0:
213,192,139903,1,2,0:0:0:0:
469,192,139903,1,0,0:0:0:0:
128,192,140078,128,2,140252:0:0:0:0:
384,192,140078,1,0,0:0:0:0:
42,192,140252,1,8,0:0:0:0:
298,192,140252,1,0,0:0:0:0:
469,192,140252,128,0,140427:0:0:0:0:
213,192,140427,128,0,140601:0:0:0:0:
298,192,140514,1,8,0:0:0:0:
42,192,140601,1,2,0:0:0:0:
384,192,140601,128,0,140775:0:0:0:0:
128,192,140775,128,2,140950:0:0:0:0:
213,192,140775,1,0,0:0:0:0:
298,192,140950,128,8,141124:0:0:0:0:
384,192,140950,1,0,0:0:0:0:
469,192,140950,1,0,0:0:0:0:
42,192,141124,128,2,141299:0:0:0:0:
128,192,141124,1,0,0:0:0:0:
384,192,141299,128,0,141473:0:0:0:0:
128,192,141473,128,2,141648:0:0:0:0:
298,192,141473,1,0,0:0:0:0:
42,192,141648,1,8,0:0:0:0:
213,192,141648,1,0,0:0:0:0:
469,192,141648,1,0,0:0:0:0:
298,192,141822,1,2,0:0:0:0:
384,192,141822,128,0,141996:0:0:0:0:
42,192,141996,1,2,0:0:0:0:
213,192,141996,1,0,0:0:0:0:
298,192,142084,1,8,0:0:0:0:
469,192,142084,1,0,0:0:0:0:
128,192,142171,128,2,142520:0:0:0:0:
213,192,142171,1,0,0:0:0:0:
298,192,142345,1,8,0:0:0:0:
384,192,142345,1,0,0:0:0:0:
469,192,142345,1,0,0:0:0:0:
213,192,142520,128,0,142694:0:0:0:0:
42,192,142694,1,4,0:0:0:0:
128,192,142694,1,2,0:0:0:0:
384,192,142694,128,0,142869:0:0:0:0:
469,192,142694,1,0,0:0:0:0:
298,192,142869,1,2,0:0:0:0:
42,192,143043,1,8,0:0:0:0:
213,192,143043,128,0,143217:0:0:0:70:clap.wav
469,192,143043,1,0,0:0:0:0:
42,192,143217,1,8,0:0:0:0:
298,192,143217,1,0,0:0:0:70:clap.wav
469,192,143217,1,0,0:0:0:0:
128,192,143392,128,2,143566:0:0:0:0:
384,192,143392,1,0,0:0:0:0:
213,192,143566,1,2,0:0:0:0:
469,192,143566,1,0,0:0:0:0:
42,192,143741,1,8,0:0:0:0:
128,192,143741,1,0,0:0:0:70:clap.wav
298,192,143741,128,0,143915:0:0:0:0:
213,192,143915,128,2,144089:0:0:0:0:
384,192,143915,1,0,0:0:0:0:
42,192,144089,1,0,0:0:0:0:
298,192,144264,128,2,144438:0:0:0:0:
469,192,144264,1,0,0:0:0:0:
42,192,144438,1,8,0:0:0:0:
128,192,144438,1,0,0:0:0:70:clap.wav
384,192,144438,1,0,0:0:0:0:
128,192,144613,128,8,144787:0:0:0:0:
384,192,144613,1,0,0:0:0:70:clap.wav
469,192,144613,1,0,0:0:0:0:
213,192,144787,1,2,0:0:0:0:
298,192,144787,128,0,145136:0:0:0:0:
42,192,144962,1,2,0:0:0:0:
128,192,144962,1,0,0:0:0:0:
384,192,145136,1,8,0:0:0:0:
213,192,145136,1,0,0:0:0:70:clap.wav
469,192,145136,1,0,0:0:0:0:
298,192,145310,1,0,0:0:0:0:
42,192,145485,128,2,145834:0:0:0:0:
384,192,145485,1,0,0:0:0:0:
128,192,145659,1,2,0:0:0:0:
469,192,145659,1,0,0:0:0:0:
213,192,145834,1,8,0:0:0:0:
298,192,145834,1,0,0:0:0:0:
384,192,145834,128,0,146182:0:0:0:0:
42,192,146008,1,0,0:0:0:0:
128,192,146182,128,2,146531:0:0:0:0:
469,192,146182,1,0,0:0:0:0:
213,192,146357,1,2,0:0:0:0:
384,192,146357,1,0,0:0:0:0:
42,192,146531,1,8,0:0:0:0:
298,192,146531,1,0,0:0:0:0:
469,192,146531,128,0,146880:0:0:0:0:
128,192,146706,1,2,0:0:0:0:
213,192,146706,1,0,0:0:0:0:
42,192,146880,1,8,0:0:0:0:
298,192,146880,128,0,147142:0:0:0:0:
384,192,146880,1,0,0:0:0:0:
128,192,147142,1,0,0:0:0:100:Tom1.wav
213,192,147142,128,0,147403:0:0:0:100:Tom2.wav
469,192,147142,1,0,0:0:0:0:
42,192,147403,1,0,0:0:0:100:Tom2.wav
298,192,147403,128,0,147578:0:0:0:100:Tom3.wav
384,192,147403,1,0,0:0:0:0:
213,192,147578,1,0,0:0:0:100:Tom3.wav
128,192,147578,128,0,147752:0:0:0:0:
384,192,147752,1,8,0:0:0:20:
42,192,147839,1,8,0:0:0:0:
213,192,147839,1,0,0:0:0:0:
298,192,147927,1,8,0:0:0:0:
469,192,147927,1,0,0:0:0:0:
128,192,148014,1,0,0:0:0:100:Tom1.wav
213,192,148101,1,0,0:0:0:100:Tom2.wav
384,192,148101,1,0,0:0:0:0:
298,192,148188,1,0,0:0:0:100:Tom3.wav
42,192,148275,1,4,0:0:0:0:
128,192,148275,1,2,0:0:0:0:
213,192,148275,1,0,0:0:0:0:
469,192,148275,128,0,148624:0:0:0:0:
42,192,148624,128,8,148973:0:0:0:0:
213,192,148624,1,0,0:0:0:0:
384,192,148624,1,0,0:0:0:0:
384,192,148799,1,0,0:0:0:70:hit-hat.wav
128,192,148973,1,2,0:0:0:0:
298,192,148973,128,0,149322:0:0:0:0:
128,192,149148,1,0,0:0:0:70:hit-hat.wav
42,192,149322,1,8,0:0:0:0:
213,192,149322,128,0,149671:0:0:0:0:
469,192,149322,1,0,0:0:0:0:
469,192,149496,1,0,0:0:0:70:hit-hat.wav
128,192,149671,128,2,150020:0:0:0:0:
384,192,149671,1,0,0:0:0:0:
384,192,149845,1,0,0:0:0:70:hit-hat.wav
213,192,150020,1,8,0:0:0:0:
298,192,150020,128,0,150369:0:0:0:0:
469,192,150020,1,0,0:0:0:0:
213,192,150194,1,0,0:0:0:70:hit-hat.wav
42,192,150369,1,2,0:0:0:0:
384,192,150369,128,0,150717:0:0:0:0:
42,192,150543,1,0,0:0:0:70:hit-hat.wav
128,192,150717,1,8,0:0:0:0:
213,192,150717,128,0,151066:0:0:0:0:
469,192,150717,1,0,0:0:0:0:
469,192,150892,128,0,151066:0:0:0:70:hit-hat.wav
128,192,151066,1,2,0:0:0:0:
298,192,151066,128,0,151415:0:0:0:0:
128,192,151241,1,0,0:0:0:70:hit-hat.wav
42,192,151415,1,8,0:0:0:0:
213,192,151415,128,0,151764:0:0:0:0:
384,192,151415,1,0,0:0:0:0:
384,192,151589,1,0,0:0:0:70:hit-hat.wav
128,192,151764,1,2,0:0:0:0:
469,192,151764,128,0,152113:0:0:0:0:
128,192,151938,1,0,0:0:0:70:hit-hat.wav
42,192,152113,1,8,0:0:0:0:
213,192,152113,1,0,0:0:0:0:
384,192,152113,128,0,152462:0:0:0:0:
213,192,152287,1,0,0:0:0:70:hit-hat.wav
128,192,152462,128,2,152810:0:0:0:0:
298,192,152462,1,0,0:0:0:0:
298,192,152636,1,0,0:0:0:70:hit-hat.wav
42,192,152810,1,8,0:0:0:0:
213,192,152810,1,0,0:0:0:0:
384,192,152810,1,0,0:0:0:0:
213,192,152985,1,0,0:0:0:70:hit-hat.wav
42,192,153159,128,2,153508:0:0:0:0:
298,192,153159,1,0,0:0:0:0:
384,192,153246,1,0,0:0:0:100:Tom1.wav
128,192,153334,1,0,0:0:0:100:Tom1.wav
213,192,153334,1,0,0:0:0:0:
298,192,153421,1,0,0:0:0:100:Tom2.wav
128,192,153508,1,8,0:0:0:0:
384,192,153508,1,0,0:0:0:0:
469,192,153508,128,0,153857:0:0:0:0:
213,192,153595,1,0,0:0:0:100:Tom2.wav
298,192,153682,1,0,0:0:0:100:Tom3.wav
42,192,153857,1,2,0:0:0:0:
128,192,153857,1,4,0:0:0:0:
213,192,153857,1,0,0:0:0:0:
384,192,153857,128,0,154206:0:0:0:0:
128,192,154031,1,0,0:0:0:70:hit-hat.wav
42,192,154206,1,8,0:0:0:0:
213,192,154206,1,0,0:0:0:0:
298,192,154206,1,0,0:0:0:0:
298,192,154380,1,0,0:0:0:70:hit-hat.wav
213,192,154555,1,2,0:0:0:0:
469,192,154555,128,0,155078:0:0:0:0:
213,192,154729,1,0,0:0:0:70:hit-hat.wav
128,192,154903,1,8,0:0:0:0:
298,192,154903,1,0,0:0:0:0:
384,192,154903,1,0,0:0:0:0:
128,192,155078,128,0,155252:0:0:0:70:hit-hat.wav
213,192,155252,128,2,155601:0:0:0:0:
469,192,155252,1,0,0:0:0:0:
469,192,155427,1,0,0:0:0:70:hit-hat.wav
42,192,155601,1,8,0:0:0:0:
298,192,155601,128,0,155950:0:0:0:0:
384,192,155601,1,0,0:0:0:0:
42,192,155775,1,0,0:0:0:70:hit-hat.wav
128,192,155950,128,2,156299:0:0:0:0:
384,192,155950,1,0,0:0:0:0:
384,192,156124,1,0,0:0:0:70:hit-hat.wav
42,192,156299,128,8,156648:0:0:0:0:
298,192,156299,1,0,0:0:0:0:
469,192,156299,1,0,0:0:0:0:
298,192,156473,1,0,0:0:0:70:hit-hat.wav
213,192,156648,1,2,0:0:0:0:
384,192,156648,128,0,156996:0:0:0:0:
213,192,156822,1,0,0:0:0:70:hit-hat.wav
42,192,156996,1,8,0:0:0:0:
128,192,156996,1,0,0:0:0:0:
469,192,156996,128,0,157345:0:0:0:0:
128,192,157171,1,0,0:0:0:70:hit-hat.wav
42,192,157345,128,2,157694:0:0:0:0:
384,192,157345,1,0,0:0:0:0:
384,192,157520,1,0,0:0:0:70:hit-hat.wav
128,192,157694,1,8,0:0:0:0:
213,192,157694,1,0,0:0:0:0:
469,192,157694,128,0,158043:0:0:0:0:
213,192,157869,1,0,0:0:0:70:hit-hat.wav
128,192,158043,128,2,158392:0:0:0:0:
298,192,158043,1,0,0:0:0:0:
298,192,158217,1,0,0:0:0:70:hit-hat.wav
42,192,158392,1,8,0:0:0:0:
384,192,158392,1,0,0:0:0:0:
469,192,158392,1,0,0:0:0:0:
384,192,158566,1,0,0:0:0:70:hit-hat.wav
42,192,158741,1,8,0:0:0:0:
469,192,158741,128,0,159089:0:0:0:0:
128,192,158741,1,0,0:0:0:0:
213,192,158828,1,8,0:0:0:40:
384,192,158915,1,8,0:0:0:40:
298,192,159002,1,8,0:0:0:40:
42,192,159089,128,8,159438:0:0:0:0:
128,192,159089,1,0,0:0:0:0:
213,192,159177,1,8,0:0:0:40:
469,192,159264,1,8,0:0:0:40:
384,192,159351,1,8,0:0:0:40:
128,192,159438,128,4,159787:0:0:0:0:
213,192,159438,1,2,0:0:0:0:
298,192,159438,1,0,0:0:0:0:
469,192,159438,1,0,0:0:0:0:
298,192,159613,1,0,0:0:0:70:hit-hat.wav
42,192,159787,1,8,0:0:0:0:
213,192,159787,1,0,0:0:0:0:
384,192,159787,128,0,160136:0:0:0:0:
42,192,159962,1,0,0:0:0:70:hit-hat.wav
213,192,160136,128,2,160485:0:0:0:0:
469,192,160136,1,0,0:0:0:0:
469,192,160310,1,0,0:0:0:70:hit-hat.wav
128,192,160485,1,8,0:0:0:0:
298,192,160485,128,0,160834:0:0:0:0:
384,192,160485,1,0,0:0:0:0:
128,192,160659,1,0,0:0:0:70:hit-hat.wav
213,192,160834,1,2,0:0:0:0:
469,192,160834,128,0,161182:0:0:0:0:
213,192,161008,1,0,0:0:0:70:hit-hat.wav
42,192,161182,128,8,161531:0:0:0:0:
298,192,161182,1,0,0:0:0:0:
384,192,161182,1,0,0:0:0:0:
298,192,161357,1,0,0:0:0:70:hit-hat.wav
128,192,161531,128,2,161880:0:0:0:0:
384,192,161531,1,0,0:0:0:0:
384,192,161706,1,0,0:0:0:70:hit-hat.wav
42,192,161880,1,8,0:0:0:0:
298,192,161880,128,0,162229:0:0:0:0:
469,192,161880,1,0,0:0:0:0:
42,192,162055,1,0,0:0:0:70:hit-hat.wav
213,192,162229,1,2,0:0:0:0:
384,192,162229,128,0,162578:0:0:0:0:
213,192,162403,1,0,0:0:0:70:hit-hat.wav
42,192,162578,128,8,162927:0:0:0:0:
298,192,162578,1,0,0:0:0:0:
469,192,162578,1,0,0:0:0:0:
298,192,162752,1,0,0:0:0:70:hit-hat.wav
213,192,162927,128,2,163188:0:0:0:0:
469,192,162927,1,0,0:0:0:0:
469,192,163101,1,0,0:0:0:70:hit-hat.wav
384,192,163188,128,0,163450:0:0:0:0:
42,192,163275,1,8,0:0:0:0:
128,192,163275,1,0,0:0:0:0:
213,192,163275,1,0,0:0:0:0:
128,192,163450,128,0,163973:0:0:0:70:hit-hat.wav
298,192,163624,1,2,0:0:0:0:
384,192,163624,1,0,0:0:0:0:
298,192,163799,1,0,0:0:0:70:hit-hat.wav
42,192,163973,1,8,0:0:0:0:
213,192,163973,1,0,0:0:0:0:
469,192,163973,1,0,0:0:0:0:
213,192,164148,1,0,0:0:0:70:hit-hat.wav
42,192,164322,128,2,165020:0:0:0:0:
469,192,164322,1,0,0:0:0:0:
469,192,164496,1,0,0:0:0:70:hit-hat.wav
128,192,164671,1,8,0:0:0:0:
298,192,164671,1,0,0:0:0:0:
384,192,164671,1,0,0:0:0:0:
298,192,164845,1,0,0:0:0:70:hit-hat.wav
128,192,165020,1,4,0:0:0:0:
213,192,165020,1,2,0:0:0:0:
384,192,165020,128,0,165717:0:0:0:0:
469,192,165020,1,0,0:0:0:0:
128,192,165194,1,0,0:0:0:70:hit-hat.wav
42,192,165369,1,8,0:0:0:0:
213,192,165369,1,0,0:0:0:0:
298,192,165369,1,0,0:0:0:0:
42,192,165543,1,0,0:0:0:70:hit-hat.wav
213,192,165717,128,2,166415:0:0:0:0:
298,192,165717,1,0,0:0:0:0:
298,192,165892,1,0,0:0:0:70:hit-hat.wav
128,192,166066,1,8,0:0:0:0:
384,192,166066,1,0,0:0:0:0:
469,192,166066,1,0,0:0:0:0:
469,192,166241,1,0,0:0:0:70:hit-hat.wav
42,192,166415,1,2,0:0:0:0:
298,192,166415,128,0,167113:0:0:0:0:
42,192,166589,1,0,0:0:0:70:hit-hat.wav
128,192,166764,1,8,0:0:0:0:
213,192,166764,1,0,0:0:0:0:
469,192,166764,1,0,0:0:0:0:
213,192,166938,1,0,0:0:0:70:hit-hat.wav
128,192,167113,128,2,167462:0:0:0:0:
469,192,167113,1,0,0:0:0:0:
469,192,167287,1,0,0:0:0:70:hit-hat.wav
42,192,167462,1,8,0:0:0:0:
298,192,167462,1,0,0:0:0:0:
384,192,167462,1,0,0:0:0:0:
298,192,167636,1,0,0:0:0:70:hit-hat.wav
213,192,167810,1,2,0:0:0:0:
469,192,167810,128,0,168508:0:0:0:0:
213,192,167985,1,0,0:0:0:70:hit-hat.wav
42,192,168159,1,8,0:0:0:0:
128,192,168159,1,0,0:0:0:0:
298,192,168159,1,0,0:0:0:0:
42,192,168334,1,0,0:0:0:70:hit-hat.wav
213,192,168508,128,2,168857:0:0:0:0:
384,192,168508,1,0,0:0:0:0:
384,192,168682,1,0,0:0:0:70:hit-hat.wav
42,192,168857,1,8,0:0:0:0:
128,192,168857,1,0,0:0:0:0:
298,192,168857,128,0,169031:0:0:0:0:
128,192,169031,128,0,169206:0:0:0:70:hit-hat.wav
42,192,169206,128,4,170252:0:0:0:0:
298,192,169206,128,2,169555:0:0:0:0:
384,192,169206,1,0,0:0:0:0:
469,192,169206,1,0,0:0:0:0:
213,192,169380,128,0,169555:0:0:0:0:
128,192,169555,128,0,170252:0:0:0:100:Tom1.wav
384,192,169555,128,0,169903:0:0:0:100:Tom2.wav
298,192,169729,128,0,169903:0:0:0:0:
213,192,169903,128,0,170252:0:0:0:100:Tom2.wav
469,192,169903,128,0,170252:0:0:0:100:Tom3.wav
384,192,170078,128,0,170252:0:0:0:0:
298,192,170252,128,8,170601:0:0:0:0:
42,192,170601,1,4,0:0:0:0:
128,192,170601,128,2,170950:0:0:0:0:
213,192,170601,1,0,0:0:0:0:
384,192,170601,1,0,0:0:0:0:
42,192,170950,128,8,171299:0:0:0:0:
384,192,170950,1,0,0:0:0:0:
469,192,170950,1,0,0:0:0:0:
384,192,171124,1,0,0:0:0:70:hit-hat.wav
128,192,171299,1,2,0:0:0:0:
298,192,171299,128,0,171648:0:0:0:0:
128,192,171473,1,0,0:0:0:70:hit-hat.wav
213,192,171648,128,8,171996:0:0:0:0:
384,192,171648,1,0,0:0:0:0:
469,192,171648,1,0,0:0:0:0:
469,192,171822,1,0,0:0:0:70:hit-hat.wav
42,192,171996,1,2,0:0:0:0:
384,192,171996,128,0,172345:0:0:0:0:
42,192,172171,1,0,0:0:0:70:hit-hat.wav
213,192,172345,1,8,0:0:0:0:
298,192,172345,128,0,172694:0:0:0:0:
469,192,172345,1,0,0:0:0:0:
213,192,172520,1,0,0:0:0:70:hit-hat.wav
128,192,172694,1,2,0:0:0:0:
469,192,172694,128,0,173043:0:0:0:0:
128,192,172869,1,0,0:0:0:70:hit-hat.wav
42,192,173043,1,8,0:0:0:0:
213,192,173043,1,0,0:0:0:0:
384,192,173043,128,0,173392:0:0:0:0:
42,192,173217,1,0,0:0:0:70:hit-hat.wav
128,192,173392,128,2,173741:0:0:0:0:
298,192,173392,1,0,0:0:0:0:
298,192,173566,1,0,0:0:0:70:hit-hat.wav
42,192,173741,1,8,0:0:0:0:
213,192,173741,128,0,174089:0:0:0:0:
469,192,173741,1,0,0:0:0:0:
469,192,173915,1,0,0:0:0:70:hit-hat.wav
128,192,174089,1,2,0:0:0:0:
384,192,174089,128,0,174438:0:0:0:0:
128,192,174264,1,0,0:0:0:70:hit-hat.wav
42,192,174438,1,8,0:0:0:0:
213,192,174438,1,0,0:0:0:0:
298,192,174438,128,0,174787:0:0:0:0:
213,192,174613,1,0,0:0:0:70:hit-hat.wav
128,192,174787,128,2,175136:0:0:0:0:
469,192,174787,1,0,0:0:0:0:
469,192,174962,1,0,0:0:0:70:hit-hat.wav
42,192,175136,1,8,0:0:0:0:
213,192,175136,1,0,0:0:0:0:
384,192,175136,1,0,0:0:0:0:
384,192,175310,1,0,0:0:0:70:hit-hat.wav
213,192,175485,1,2,0:0:0:0:
469,192,175485,128,0,175834:0:0:0:0:
128,192,175572,1,0,0:0:0:100:Tom1.wav
298,192,175659,1,0,0:0:0:100:Tom1.wav
384,192,175659,1,0,0:0:0:0:
213,192,175746,1,0,0:0:0:100:Tom2.wav
42,192,175834,128,8,176182:0:0:0:0:
128,192,175834,1,0,0:0:0:0:
384,192,175834,1,0,0:0:0:0:
298,192,175921,1,0,0:0:0:100:Tom2.wav
213,192,176008,1,0,0:0:0:100:Tom3.wav
128,192,176182,128,4,176531:0:0:0:0:
298,192,176182,1,2,0:0:0:0:
384,192,176182,1,0,0:0:0:0:
469,192,176182,1,0,0:0:0:0:
469,192,176357,1,0,0:0:0:70:hit-hat.wav
42,192,176531,1,8,0:0:0:0:
213,192,176531,1,0,0:0:0:0:
384,192,176531,1,0,0:0:0:0:
213,192,176706,1,0,0:0:0:70:hit-hat.wav
128,192,176880,1,2,0:0:0:0:
384,192,176880,128,0,177229:0:0:0:0:
128,192,177055,1,0,0:0:0:70:hit-hat.wav
42,192,177229,1,8,0:0:0:0:
213,192,177229,1,0,0:0:0:0:
469,192,177229,1,0,0:0:0:0:
469,192,177403,1,0,0:0:0:70:hit-hat.wav
213,192,177578,1,2,0:0:0:0:
298,192,177578,128,0,177927:0:0:0:0:
213,192,177752,1,0,0:0:0:70:hit-hat.wav
128,192,177927,1,8,0:0:0:0:
384,192,177927,128,0,178275:0:0:0:0:
469,192,177927,1,0,0:0:0:0:
128,192,178101,1,0,0:0:0:70:hit-hat.wav
213,192,178275,128,2,178624:0:0:0:0:
298,192,178275,1,0,0:0:0:0:
298,192,178450,1,0,0:0:0:70:hit-hat.wav
42,192,178624,1,8,0:0:0:0:
128,192,178624,128,0,178973:0:0:0:0:
469,192,178624,1,0,0:0:0:0:
469,192,178799,1,0,0:0:0:70:hit-hat.wav
213,192,178973,1,2,0:0:0:0:
384,192,178973,128,0,179322:0:0:0:0:
213,192,179148,1,0,0:0:0:70:hit-hat.wav
42,192,179322,128,8,179671:0:0:0:0:
128,192,179322,1,0,0:0:0:0:
298,192,179322,1,0,0:0:0:0:
298,192,179496,1,0,0:0:0:70:hit-hat.wav
213,192,179671,1,2,0:0:0:0:
384,192,179671,128,0,179932:0:0:0:0:
213,192,179845,1,0,0:0:0:70:hit-hat.wav
128,192,179932,128,0,180194:0:0:0:0:
298,192,180020,1,8,0:0:0:0:
384,192,180020,1,0,0:0:0:0:
469,192,180020,1,0,0:0:0:0:
469,192,180194,128,0,180369:0:0:0:70:hit-hat.wav
42,192,180369,128,2,181066:0:0:0:0:
298,192,180369,1,0,0:0:0:0:
298,192,180543,1,0,0:0:0:70:hit-hat.wav
213,192,180630,1,0,0:0:0:0:
128,192,180717,1,8,0:0:0:0:
384,192,180717,1,0,0:0:0:0:
469,192,180717,1,0,0:0:0:0:
384,192,180892,1,0,0:0:0:70:hit-hat.wav
213,192,181066,1,8,0:0:0:0:
469,192,181066,1,0,0:0:0:0:
128,192,181066,1,0,0:0:0:0:
384,192,181153,1,8,0:0:0:40:
42,192,181241,1,8,0:0:0:40:
298,192,181241,1,0,0:0:0:0:
128,192,181328,1,8,0:0:0:40:
213,192,181415,1,8,0:0:0:0:
469,192,181415,1,0,0:0:0:0:
384,192,181502,1,8,0:0:0:40:
42,192,181589,1,8,0:0:0:40:
298,192,181589,1,0,0:0:0:0:
128,192,181677,1,8,0:0:0:40:
213,192,181764,1,4,0:0:0:0:
298,192,181764,1,2,0:0:0:0:
384,192,181764,1,0,0:0:0:0:
469,192,181764,128,0,182113:0:0:0:0:
213,192,181938,1,0,0:0:0:70:hit-hat.wav
42,192,182113,128,8,182462:0:0:0:0:
128,192,182113,1,0,0:0:0:0:
384,192,182113,1,0,0:0:0:0:
384,192,182287,1,0,0:0:0:70:hit-hat.wav
128,192,182462,128,2,182810:0:0:0:0:
469,192,182462,1,0,0:0:0:0:
469,192,182636,1,0,0:0:0:70:hit-hat.wav
213,192,182810,128,8,183159:0:0:0:0:
298,192,182810,1,0,0:0:0:0:
384,192,182810,1,0,0:0:0:0:
298,192,182985,1,0,0:0:0:70:hit-hat.wav
128,192,183159,1,2,0:0:0:0:
469,192,183159,128,0,183508:0:0:0:0:
128,192,183334,1,0,0:0:0:70:hit-hat.wav
42,192,183508,1,8,0:0:0:0:
384,192,183508,128,0,183857:0:0:0:0:
298,192,183508,1,0,0:0:0:0:
42,192,183682,1,0,0:0:0:70:hit-hat.wav
213,192,183857,1,2,0:0:0:0:
298,192,183857,128,0,184206:0:0:0:0:
213,192,184031,1,0,0:0:0:70:hit-hat.wav
42,192,184206,128,8,184555:0:0:0:0:
384,192,184206,1,0,0:0:0:0:
469,192,184206,1,0,0:0:0:0:
469,192,184380,1,0,0:0:0:70:hit-hat.wav
213,192,184555,128,2,184903:0:0:0:0:
384,192,184555,1,0,0:0:0:0:
384,192,184729,1,0,0:0:0:70:hit-hat.wav
42,192,184903,1,8,0:0:0:0:
298,192,184903,1,0,0:0:0:0:
469,192,184903,128,0,185252:0:0:0:0:
42,192,185078,1,0,0:0:0:70:hit-hat.wav
128,192,185252,1,2,0:0:0:0:
384,192,185252,128,0,185514:0:0:0:0:
128,192,185427,1,0,0:0:0:70:hit-hat.wav
213,192,185514,128,0,185775:0:0:0:0:
42,192,185601,1,8,0:0:0:0:
384,192,185601,1,0,0:0:0:0:
469,192,185601,1,0,0:0:0:0:
469,192,185775,128,0,186299:0:0:0:70:hit-hat.wav
128,192,185950,1,2,0:0:0:0:
298,192,185950,1,0,0:0:0:0:
128,192,186124,1,0,0:0:0:70:hit-hat.wav
42,192,186299,1,8,0:0:0:0:
213,192,186299,1,0,0:0:0:0:
384,192,186299,1,0,0:0:0:0:
213,192,186473,1,0,0:0:0:70:hit-hat.wav
42,192,186648,128,2,186996:0:0:0:0:
298,192,186648,1,0,0:0:0:0:
298,192,186822,1,0,0:0:0:70:hit-hat.wav
128,192,186996,128,8,187345:0:0:0:0:
384,192,186996,1,0,0:0:0:0:
469,192,186996,1,0,0:0:0:0:
384,192,187171,1,0,0:0:0:70:hit-hat.wav
42,192,187345,1,4,0:0:0:0:
213,192,187345,1,2,0:0:0:0:
298,192,187345,128,0,188043:0:0:0:0:
469,192,187345,1,0,0:0:0:0:
42,192,187520,1,0,0:0:0:70:hit-hat.wav
128,192,187694,1,8,0:0:0:0:
213,192,187694,1,0,0:0:0:0:
469,192,187694,1,0,0:0:0:0:
213,192,187869,1,0,0:0:0:70:hit-hat.wav
128,192,188043,1,2,0:0:0:0:
384,192,188043,128,0,188741:0:0:0:0:
128,192,188217,1,0,0:0:0:70:hit-hat.wav
42,192,188392,1,8,0:0:0:0:
213,192,188392,1,0,0:0:0:0:
298,192,188392,1,0,0:0:0:0:
42,192,188566,1,0,0:0:0:70:hit-hat.wav
469,192,188741,1,2,0:0:0:0:
128,192,188741,128,0,189089:0:0:0:0:
469,192,188915,1,0,0:0:0:70:hit-hat.wav
42,192,189089,1,8,0:0:0:0:
298,192,189089,1,0,0:0:0:0:
384,192,189089,1,0,0:0:0:0:
42,192,189264,1,0,0:0:0:70:hit-hat.wav
213,192,189438,128,2,190136:0:0:0:0:
384,192,189438,1,0,0:0:0:0:
384,192,189613,1,0,0:0:0:70:hit-hat.wav
42,192,189787,1,8,0:0:0:0:
298,192,189787,1,0,0:0:0:0:
469,192,189787,1,0,0:0:0:0:
298,192,189962,1,0,0:0:0:70:hit-hat.wav
128,192,190136,1,2,0:0:0:0:
384,192,190136,128,0,190834:0:0:0:0:
128,192,190310,1,0,0:0:0:70:hit-hat.wav
42,192,190485,1,8,0:0:0:0:
213,192,190485,1,0,0:0:0:0:
469,192,190485,1,0,0:0:0:0:
42,192,190659,1,0,0:0:0:70:hit-hat.wav
128,192,190834,128,2,191531:0:0:0:0:
298,192,190834,1,0,0:0:0:0:
298,192,191008,1,0,0:0:0:70:hit-hat.wav
213,192,191182,1,8,0:0:0:0:
384,192,191182,1,0,0:0:0:0:
469,192,191182,1,0,0:0:0:0:
298,192,191357,1,2,0:0:0:0:
384,192,191444,1,2,0:0:0:0:
42,192,191531,128,4,191880:0:0:0:0:
213,192,191531,1,8,0:0:0:0:
298,192,191531,128,0,192229:0:0:0:0:
469,192,191531,1,0,0:0:0:0:
213,192,191880,128,0,192229:0:0:0:100:Tom2.wav
42,192,192229,128,8,192927:0:0:0:0:
469,192,192229,128,0,192578:0:0:0:70:hit-hat.wav
384,192,192316,1,0,0:0:0:100:Tom1.wav
298,192,192403,1,0,0:0:0:100:Tom2.wav
213,192,192491,1,0,0:0:0:100:Tom3.wav
128,192,192578,1,8,0:0:0:0:
298,192,192578,128,4,192927:0:0:0:0:
384,192,192578,1,0,0:0:0:0:
128,192,192927,1,2,0:0:0:0:
213,192,192927,1,4,0:0:0:0:
384,192,192927,128,0,193275:0:0:0:0:
469,192,192927,1,0,0:0:0:0:
42,192,193275,1,8,0:0:0:0:
128,192,193275,1,0,0:0:0:0:
469,192,193275,1,0,0:0:0:0:
213,192,193450,128,0,193799:0:0:0:0:
298,192,193537,1,0,0:0:0:0:
384,192,193624,1,0,0:0:0:0:
469,192,193712,1,0,0:0:0:0:
42,192,193799,1,2,0:0:0:0:
128,192,193799,1,0,0:0:0:0:
298,192,193973,128,8,194322:0:0:0:0:
384,192,193973,1,0,0:0:0:0:
469,192,193973,1,0,0:0:0:0:
213,192,194148,1,0,0:0:0:0:
42,192,194322,1,2,0:0:0:0:
384,192,194322,1,0,0:0:0:0:
128,192,194496,128,0,194845:0:0:0:0:
298,192,194671,1,8,0:0:0:0:
384,192,194671,1,0,0:0:0:0:
469,192,194671,1,0,0:0:0:0:
213,192,194845,1,0,0:0:0:0:
298,192,194932,1,0,0:0:0:0:
469,192,195020,128,0,195194:0:0:0:0:
213,192,195107,1,0,0:0:0:0:
42,192,195194,1,2,0:0:0:0:
128,192,195194,1,0,0:0:0:0:
213,192,195369,1,8,0:0:0:0:
384,192,195369,1,0,0:0:0:0:
469,192,195369,128,0,195717:0:0:0:0:
128,192,195543,1,0,0:0:0:0:
42,192,195717,128,2,196066:0:0:0:0:
298,192,195717,1,0,0:0:0:0:
384,192,195892,1,0,0:0:0:0:
128,192,196066,1,8,0:0:0:0:
213,192,196066,1,0,0:0:0:0:
469,192,196066,1,0,0:0:0:0:
384,192,196241,128,0,196589:0:0:0:0:
298,192,196328,1,0,0:0:0:0:
42,192,196415,1,0,0:0:0:0:
128,192,196502,1,0,0:0:0:0:
213,192,196589,1,2,0:0:0:0:
298,192,196589,1,0,0:0:0:0:
128,192,196764,128,8,197113:0:0:0:0:
384,192,196764,1,0,0:0:0:0:
469,192,196764,1,0,0:0:0:0:
298,192,196938,1,0,0:0:0:0:
42,192,197113,1,2,0:0:0:0:
384,192,197113,1,0,0:0:0:0:
213,192,197287,128,0,197636:0:0:0:0:
42,192,197462,1,8,0:0:0:0:
128,192,197462,1,0,0:0:0:0:
298,192,197462,1,0,0:0:0:0:
469,192,197636,1,0,0:0:0:0:
384,192,197723,1,0,0:0:0:0:
298,192,197810,128,0,197985:0:0:0:0:
42,192,197898,1,0,0:0:0:0:
128,192,197985,1,2,0:0:0:0:
213,192,197985,1,0,0:0:0:0:
298,192,198159,128,8,198508:0:0:0:0:
384,192,198159,1,0,0:0:0:0:
469,192,198159,1,0,0:0:0:0:
213,192,198334,1,0,0:0:0:0:
42,192,198508,1,2,0:0:0:0:
128,192,198508,128,4,198857:0:0:0:0:
384,192,198508,1,0,0:0:0:0:
469,192,198508,1,0,0:0:0:0:
42,192,198857,1,8,0:0:0:0:
213,192,198857,1,0,0:0:0:0:
469,192,198857,1,0,0:0:0:0:
298,192,199031,128,0,199380:0:0:0:0:
213,192,199119,1,0,0:0:0:0:
128,192,199206,1,0,0:0:0:0:
42,192,199293,1,0,0:0:0:0:
384,192,199380,1,2,0:0:0:0:
469,192,199380,1,0,0:0:0:0:
42,192,199555,1,8,0:0:0:0:
128,192,199555,1,0,0:0:0:0:
213,192,199555,128,0,199903:0:0:0:0:
298,192,199729,1,0,0:0:0:0:
128,192,199903,1,2,0:0:0:0:
469,192,199903,1,0,0:0:0:0:
384,192,200078,128,0,200427:0:0:0:0:
42,192,200252,1,8,0:0:0:0:
128,192,200252,1,0,0:0:0:0:
298,192,200252,1,0,0:0:0:0:
213,192,200427,1,0,0:0:0:0:
128,192,200514,1,0,0:0:0:0:
42,192,200601,128,0,200775:0:0:0:0:
298,192,200688,1,0,0:0:0:0:
384,192,200775,1,2,0:0:0:0:
469,192,200775,1,0,0:0:0:0:
42,192,200950,128,8,201299:0:0:0:0:
128,192,200950,1,0,0:0:0:0:
298,192,200950,1,0,0:0:0:0:
213,192,201124,1,0,0:0:0:0:
384,192,201299,1,2,0:0:0:0:
469,192,201299,128,0,201648:0:0:0:0:
128,192,201473,1,0,0:0:0:0:
42,192,201648,1,8,0:0:0:0:
298,192,201648,1,0,0:0:0:0:
384,192,201648,1,0,0:0:0:0:
128,192,201822,128,0,202171:0:0:0:0:
213,192,201909,1,0,0:0:0:0:
469,192,201996,1,0,0:0:0:0:
384,192,202084,1,0,0:0:0:0:
213,192,202171,1,2,0:0:0:0:
298,192,202171,1,0,0:0:0:0:
42,192,202345,1,8,0:0:0:0:
128,192,202345,1,0,0:0:0:0:
384,192,202345,128,0,202694:0:0:0:0:
213,192,202520,1,0,0:0:0:0:
42,192,202694,128,8,204089:0:0:0:0:
298,192,202694,1,0,0:0:0:0:
469,192,202694,128,0,204089:0:0:0:0:
128,192,202869,1,0,0:0:0:0:
384,192,203217,1,0,0:0:0:0:
213,192,203392,1,0,0:0:0:0:
298,192,203741,1,0,0:0:0:0:
128,192,204089,128,2,205485:0:0:0:0:
213,192,204089,1,4,0:0:0:0:
298,192,204089,1,0,0:0:0:0:
384,192,204089,1,0,0:0:0:0:
42,192,204438,1,8,0:0:0:0:
384,192,204438,1,0,0:0:0:0:
469,192,204438,1,0,0:0:0:0:
213,192,204613,1,0,0:0:0:0:
384,192,204700,1,0,0:0:0:0:
298,192,204787,1,0,0:0:0:0:
213,192,204874,1,0,0:0:0:0:
384,192,204962,1,2,0:0:0:0:
469,192,204962,1,0,0:0:0:0:
42,192,205136,1,8,0:0:0:0:
213,192,205136,1,0,0:0:0:0:
298,192,205136,1,0,0:0:0:0:
384,192,205310,128,0,205485:0:0:0:0:
42,192,205485,1,2,0:0:0:0:
298,192,205485,1,0,0:0:0:0:
469,192,205485,128,0,206706:0:0:0:0:
213,192,205659,1,0,0:0:0:0:
128,192,205834,1,8,0:0:0:0:
298,192,205834,1,0,0:0:0:0:
384,192,205834,1,0,0:0:0:0:
42,192,206008,1,0,0:0:0:0:
128,192,206095,1,0,0:0:0:0:
384,192,206182,1,0,0:0:0:0:
298,192,206270,1,0,0:0:0:0:
128,192,206357,1,2,0:0:0:0:
213,192,206357,1,0,0:0:0:0:
42,192,206531,1,8,0:0:0:0:
298,192,206531,1,0,0:0:0:0:
384,192,206531,1,0,0:0:0:0:
128,192,206706,128,0,206880:0:0:0:0:
213,192,206793,128,0,206880:0:0:0:0:
298,192,206880,128,2,207055:0:0:0:0:
384,192,206880,1,0,0:0:0:0:
469,192,207055,128,0,207229:0:0:0:0:
384,192,207142,128,0,207229:0:0:0:0:
128,192,207229,1,8,0:0:0:0:
213,192,207229,1,0,0:0:0:0:
298,192,207229,128,0,207403:0:0:0:0:
42,192,207403,128,0,207578:0:0:0:0:
128,192,207491,128,0,207578:0:0:0:0:
213,192,207578,128,0,207752:0:0:0:0:
384,192,207752,128,2,207927:0:0:0:0:
469,192,207752,1,0,0:0:0:0:
298,192,207839,128,0,207927:0:0:0:0:
42,192,207927,1,8,0:0:0:0:
128,192,207927,1,0,0:0:0:0:
213,192,207927,128,0,208101:0:0:0:0:
384,192,208101,128,0,208188:0:0:0:0:
298,192,208188,128,0,208275:0:0:0:0:
42,192,208275,128,2,208363:0:0:0:0:
213,192,208275,1,0,0:0:0:0:
128,192,208363,128,0,208450:0:0:0:0:
213,192,208450,128,0,208537:0:0:0:0:
298,192,208537,128,0,208624:0:0:0:0:
42,192,208624,1,8,0:0:0:0:
128,192,208624,1,0,0:0:0:0:
469,192,208624,128,0,208712:0:0:0:0:
384,192,208712,128,0,208799:0:0:0:0:
298,192,208799,128,0,208886:0:0:0:0:
213,192,208886,128,0,208973:0:0:0:0:
128,192,208973,128,0,209671:0:0:0:0:
298,192,209148,1,2,0:0:0:0:
384,192,209148,1,0,0:0:0:0:
42,192,209322,1,8,0:0:0:0:
213,192,209322,1,0,0:0:0:0:
469,192,209322,1,0,0:0:0:0:
298,192,209496,128,0,209671:0:0:0:0:
42,192,209671,1,2,0:0:0:0:
213,192,209671,128,4,210281:0:0:0:0:
384,192,209671,1,0,0:0:0:0:
469,192,209671,1,0,0:0:0:0:
298,192,209845,1,0,0:0:0:0:
128,192,210020,1,8,0:0:0:0:
384,192,210020,1,0,0:0:0:0:
469,192,210020,1,0,0:0:0:0:
42,192,210194,1,0,0:0:0:0:
298,192,210281,128,0,210369:0:0:0:0:
384,192,210369,128,0,210456:0:0:0:0:
469,192,210456,128,0,210543:0:0:0:0:
42,192,210543,1,2,0:0:0:0:
128,192,210543,128,0,210630:0:0:0:0:
213,192,210630,128,0,210717:0:0:0:0:
384,192,210717,1,0,0:0:0:0:
469,192,210717,1,0,0:0:0:0:
298,192,210717,128,8,210805:0:0:0:0:
42,192,210805,128,0,210892:0:0:0:0:
128,192,210892,128,0,210979:0:0:0:0:
213,192,210979,128,0,211066:0:0:0:0:
384,192,211066,128,2,211153:0:0:0:0:
469,192,211066,1,0,0:0:0:0:
298,192,211153,128,0,211241:0:0:0:0:
213,192,211241,128,0,211328:0:0:0:0:
42,192,211328,128,0,211415:0:0:0:0:
128,192,211415,128,8,211502:0:0:0:0:
384,192,211415,1,0,0:0:0:0:
469,192,211415,1,0,0:0:0:0:
213,192,211502,128,0,211589:0:0:0:0:
469,192,211589,128,0,211677:0:0:0:0:
384,192,211677,128,0,211764:0:0:0:0:
298,192,211764,128,0,212287:0:0:0:0:
42,192,211938,1,2,0:0:0:0:
213,192,211938,1,0,0:0:0:0:
128,192,212113,1,8,0:0:0:0:
384,192,212113,1,0,0:0:0:0:
469,192,212113,1,0,0:0:0:0:
42,192,212287,128,0,212374:0:0:0:0:
128,192,212374,128,0,212462:0:0:0:0:
213,192,212462,1,2,0:0:0:0:
469,192,212462,128,0,212549:0:0:0:0:
384,192,212549,128,0,212636:0:0:0:0:
298,192,212636,128,0,212723:0:0:0:0:
42,192,212723,128,0,212810:0:0:0:0:
128,192,212810,128,8,212898:0:0:0:0:
384,192,212810,1,0,0:0:0:0:
469,192,212810,1,0,0:0:0:0:
213,192,212898,128,0,212985:0:0:0:0:
298,192,212985,128,0,213072:0:0:0:0:
384,192,213072,128,0,213159:0:0:0:0:
469,192,213159,128,0,213246:0:0:0:0:
213,192,213246,128,0,213334:0:0:0:0:
42,192,213334,1,2,0:0:0:0:
298,192,213334,128,0,213421:0:0:0:0:
384,192,213421,128,0,213508:0:0:0:0:
42,192,213508,1,8,0:0:0:0:
128,192,213508,128,0,213595:0:0:0:0:
469,192,213508,128,0,213595:0:0:0:0:
213,192,213595,128,0,213682:0:0:0:0:
298,192,213682,128,0,213770:0:0:0:0:
42,192,213770,128,0,213857:0:0:0:0:
128,192,213857,128,2,213944:0:0:0:0:
469,192,213857,1,0,0:0:0:0:
213,192,213944,128,0,214031:0:0:0:0:
298,192,214031,128,0,214119:0:0:0:0:
384,192,214119,128,0,214206:0:0:0:0:
42,192,214206,1,8,0:0:0:0:
128,192,214206,1,0,0:0:0:0:
469,192,214206,128,0,214293:0:0:0:0:
213,192,214293,128,0,214380:0:0:0:0:
384,192,214380,128,0,214467:0:0:0:0:
128,192,214467,128,0,214555:0:0:0:0:
298,192,214555,128,0,214642:0:0:0:0:
42,192,214642,128,0,214729:0:0:0:0:
469,192,214729,1,2,0:0:0:0:
213,192,214729,128,0,214816:0:0:0:0:
128,192,214816,128,0,214903:0:0:0:0:
469,192,214903,1,8,0:0:0:0:
298,192,214903,128,0,214991:0:0:0:0:
42,192,214903,1,0,0:0:0:0:
213,192,214991,128,0,215078:0:0:0:0:
384,192,215078,128,0,215165:0:0:0:0:
298,192,215165,128,0,215252:0:0:0:0:
128,192,215252,1,2,0:0:0:0:
213,192,215252,128,4,218043:0:0:0:0:
42,192,215252,1,0,0:0:0:0:
469,192,215252,1,0,0:0:0:0:
42,192,215601,1,8,0:0:0:0:
128,192,215601,1,0,0:0:0:0:
298,192,215601,1,0,0:0:0:0:
469,192,215775,1,0,0:0:0:0:
384,192,215863,1,0,0:0:0:0:
298,192,215950,1,0,0:0:0:0:
128,192,216037,1,0,0:0:0:0:
384,192,216124,1,2,0:0:0:0:
469,192,216124,1,0,0:0:0:0:
42,192,216299,1,8,0:0:0:0:
128,192,216299,1,0,0:0:0:0:
298,192,216299,1,0,0:0:0:0:
469,192,216473,1,0,0:0:0:0:
42,192,216648,1,2,0:0:0:0:
384,192,216648,1,0,0:0:0:0:
128,192,216822,1,0,0:0:0:0:
298,192,216996,1,8,0:0:0:0:
384,192,216996,1,0,0:0:0:0:
469,192,216996,1,0,0:0:0:0:
42,192,217171,1,0,0:0:0:0:
128,192,217258,1,0,0:0:0:0:
469,192,217345,1,0,0:0:0:0:
384,192,217432,1,0,0:0:0:0:
42,192,217520,1,2,0:0:0:0:
298,192,217520,1,0,0:0:0:0:
128,192,217694,1,8,0:0:0:0:
384,192,217694,1,0,0:0:0:0:
469,192,217694,1,0,0:0:0:0:
298,192,217869,1,0,0:0:0:0:
42,192,218043,1,2,0:0:0:0:
469,192,218043,128,0,220310:0:0:0:0:
128,192,218217,1,0,0:0:0:0:
213,192,218392,1,8,0:0:0:0:
298,192,218392,1,0,0:0:0:0:
384,192,218392,1,0,0:0:0:0:
42,192,218566,1,0,0:0:0:0:
128,192,218653,1,0,0:0:0:0:
384,192,218741,1,0,0:0:0:0:
298,192,218828,1,0,0:0:0:0:
128,192,218915,1,2,0:0:0:0:
213,192,218915,1,0,0:0:0:0:
42,192,219089,1,8,0:0:0:0:
298,192,219089,1,0,0:0:0:0:
384,192,219089,1,0,0:0:0:0:
213,192,219264,1,0,0:0:0:0:
128,192,219438,1,2,0:0:0:0:
384,192,219438,1,0,0:0:0:0:
298,192,219613,1,0,0:0:0:0:
42,192,219787,1,8,0:0:0:0:
128,192,219787,1,0,0:0:0:0:
213,192,219787,1,0,0:0:0:0:
384,192,219962,1,0,0:0:0:0:
298,192,220049,1,0,0:0:0:0:
128,192,220136,1,0,0:0:0:0:
213,192,220223,1,0,0:0:0:0:
298,192,220310,128,2,220485:0:0:0:0:
384,192,220310,1,0,0:0:0:0:
42,192,220485,128,8,220834:0:0:0:0:
128,192,220485,1,0,0:0:0:0:
213,192,220485,1,0,0:0:0:0:
128,192,220834,1,2,0:0:0:0:
298,192,220834,1,4,0:0:0:0:
384,192,220834,1,0,0:0:0:0:
469,192,220834,1,0,0:0:0:0:
42,192,221008,1,2,0:0:0:0:
213,192,221008,1,0,0:0:0:0:
298,192,221182,1,8,0:0:0:0:
384,192,221182,1,0,0:0:0:0:
469,192,221182,1,0,0:0:0:0:
42,192,221357,1,2,0:0:0:0:
128,192,221357,1,0,0:0:0:0:
213,192,221444,1,8,0:0:0:50:
298,192,221531,1,0,0:0:0:0:
469,192,221531,1,0,0:0:0:0:
384,192,221619,1,8,0:0:0:50:
128,192,221706,1,2,0:0:0:0:
213,192,221706,1,0,0:0:0:0:
42,192,221880,1,8,0:0:0:0:
298,192,221880,1,0,0:0:0:0:
384,192,221880,1,0,0:0:0:0:
213,192,222055,1,2,0:0:0:0:
469,192,222055,1,0,0:0:0:0:
128,192,222229,1,0,0:0:0:0:
42,192,222403,1,2,0:0:0:0:
384,192,222403,1,0,0:0:0:0:
128,192,222578,1,8,0:0:0:0:
213,192,222578,1,0,0:0:0:0:
298,192,222578,1,0,0:0:0:0:
384,192,222752,1,2,0:0:0:0:
469,192,222752,1,0,0:0:0:0:
298,192,222839,1,8,0:0:0:50:
42,192,222927,1,0,0:0:0:0:
213,192,222927,1,0,0:0:0:0:
128,192,223014,1,8,0:0:0:50:
298,192,223101,1,2,0:0:0:0:
384,192,223101,1,0,0:0:0:0:
42,192,223275,1,8,0:0:0:0:
213,192,223275,1,0,0:0:0:0:
469,192,223275,1,0,0:0:0:0:
128,192,223450,1,2,0:0:0:0:
384,192,223450,1,0,0:0:0:0:
42,192,223624,1,2,0:0:0:0:
298,192,223624,1,0,0:0:0:0:
213,192,223799,1,2,0:0:0:0:
469,192,223799,1,0,0:0:0:0:
42,192,223973,1,8,0:0:0:0:
128,192,223973,1,0,0:0:0:0:
384,192,223973,1,0,0:0:0:0:
213,192,224148,1,2,0:0:0:0:
298,192,224148,1,0,0:0:0:0:
128,192,224235,1,8,0:0:0:50:
42,192,224322,1,0,0:0:0:0:
469,192,224322,1,0,0:0:0:0:
384,192,224409,1,8,0:0:0:50:
213,192,224496,1,2,0:0:0:0:
298,192,224496,1,0,0:0:0:0:
128,192,224671,1,8,0:0:0:0:
384,192,224671,1,0,0:0:0:0:
469,192,224671,1,0,0:0:0:0:
42,192,224845,1,2,0:0:0:0:
298,192,224845,1,0,0:0:0:0:
128,192,225020,1,0,0:0:0:0:
213,192,225194,1,2,0:0:0:0:
384,192,225194,1,0,0:0:0:0:
42,192,225369,1,8,0:0:0:0:
128,192,225369,1,0,0:0:0:0:
469,192,225369,1,0,0:0:0:0:
213,192,225543,1,2,0:0:0:0:
298,192,225543,1,0,0:0:0:0:
384,192,225630,1,8,0:0:0:50:
42,192,225717,1,0,0:0:0:0:
469,192,225717,1,0,0:0:0:0:
128,192,225805,1,8,0:0:0:50:
213,192,225892,1,2,0:0:0:0:
298,192,225892,1,0,0:0:0:0:
42,192,226066,1,8,0:0:0:0:
384,192,226066,1,0,0:0:0:0:
469,192,226066,1,0,0:0:0:0:
128,192,226241,1,2,0:0:0:0:
213,192,226241,1,0,0:0:0:0:
42,192,226415,1,2,0:0:0:0:
298,192,226415,128,4,229206:0:0:0:0:
384,192,226415,1,0,0:0:0:0:
469,192,226415,1,0,0:0:0:0:
213,192,226764,1,8,0:0:0:0:
384,192,226764,1,0,0:0:0:0:
469,192,226764,1,0,0:0:0:0:
42,192,226938,1,0,0:0:0:0:
128,192,227025,1,0,0:0:0:0:
213,192,227113,1,0,0:0:0:0:
384,192,227200,1,0,0:0:0:0:
42,192,227287,1,2,0:0:0:0:
128,192,227287,1,0,0:0:0:0:
213,192,227462,1,8,0:0:0:0:
384,192,227462,1,0,0:0:0:0:
469,192,227462,1,0,0:0:0:0:
42,192,227636,1,0,0:0:0:0:
128,192,227810,1,2,0:0:0:0:
469,192,227810,1,0,0:0:0:0:
384,192,227985,1,0,0:0:0:0:
42,192,228159,1,8,0:0:0:0:
128,192,228159,1,0,0:0:0:0:
213,192,228159,1,0,0:0:0:0:
469,192,228334,1,0,0:0:0:0:
384,192,228421,1,0,0:0:0:0:
42,192,228508,1,0,0:0:0:0:
128,192,228595,1,0,0:0:0:0:
213,192,228682,1,2,0:0:0:0:
469,192,228682,1,0,0:0:0:0:
42,192,228857,1,8,0:0:0:0:
128,192,228857,1,0,0:0:0:0:
384,192,228857,1,0,0:0:0:0:
213,192,229031,1,0,0:0:0:0:
42,192,229206,128,2,231996:0:0:0:0:
469,192,229206,1,0,0:0:0:0:
384,192,229380,1,0,0:0:0:0:
128,192,229555,1,8,0:0:0:0:
213,192,229555,1,0,0:0:0:0:
298,192,229555,1,0,0:0:0:0:
469,192,229729,1,0,0:0:0:0:
384,192,229816,1,0,0:0:0:0:
128,192,229903,1,0,0:0:0:0:
213,192,229991,1,0,0:0:0:0:
298,192,230078,1,2,0:0:0:0:
384,192,230078,1,0,0:0:0:0:
128,192,230252,1,8,0:0:0:0:
213,192,230252,1,0,0:0:0:0:
469,192,230252,1,0,0:0:0:0:
298,192,230427,1,0,0:0:0:0:
128,192,230601,1,2,0:0:0:0:
384,192,230601,1,0,0:0:0:0:
213,192,230775,1,0,0:0:0:0:
298,192,230950,1,8,0:0:0:0:
384,192,230950,1,0,0:0:0:0:
469,192,230950,1,0,0:0:0:0:
128,192,231124,1,0,0:0:0:0:
213,192,231212,1,0,0:0:0:0:
469,192,231299,1,0,0:0:0:0:
384,192,231386,1,0,0:0:0:0:
128,192,231473,1,2,0:0:0:0:
298,192,231473,1,0,0:0:0:0:
213,192,231648,1,8,0:0:0:0:
384,192,231648,1,0,0:0:0:0:
469,192,231648,1,0,0:0:0:0:
298,192,231822,1,0,0:0:0:0:
128,192,231996,1,4,0:0:0:0:
213,192,231996,128,2,234787:0:0:0:0:
384,192,231996,1,0,0:0:0:0:
469,192,231996,1,0,0:0:0:0:
42,192,232345,1,8,0:0:0:0:
128,192,232345,1,0,0:0:0:0:
469,192,232345,1,0,0:0:0:0:
298,192,232520,1,0,0:0:0:0:
384,192,232607,1,0,0:0:0:0:
469,192,232694,1,0,0:0:0:0:
128,192,232781,1,0,0:0:0:0:
298,192,232869,1,2,0:0:0:0:
384,192,232869,1,0,0:0:0:0:
42,192,233043,1,8,0:0:0:0:
128,192,233043,1,0,0:0:0:0:
469,192,233043,1,0,0:0:0:0:
298,192,233217,1,0,0:0:0:0:
384,192,233392,1,2,0:0:0:0:
469,192,233392,1,0,0:0:0:0:
128,192,233566,1,0,0:0:0:0:
42,192,233741,1,8,0:0:0:0:
298,192,233741,1,0,0:0:0:0:
469,192,233741,1,0,0:0:0:0:
384,192,233915,1,0,0:0:0:0:
298,192,234002,1,0,0:0:0:0:
42,192,234089,1,0,0:0:0:0:
128,192,234177,1,0,0:0:0:0:
298,192,234264,1,2,0:0:0:0:
384,192,234264,1,0,0:0:0:0:
42,192,234438,1,8,0:0:0:0:
128,192,234438,1,0,0:0:0:0:
469,192,234438,1,0,0:0:0:0:
384,192,234613,1,0,0:0:0:0:
128,192,234787,1,2,0:0:0:0:
469,192,234787,128,0,240020:0:0:0:0:
213,192,234962,1,0,0:0:0:0:
42,192,235136,1,8,0:0:0:0:
128,192,235136,1,0,0:0:0:0:
384,192,235136,1,0,0:0:0:0:
298,192,235310,1,0,0:0:0:0:
213,192,235398,1,0,0:0:0:0:
42,192,235485,1,0,0:0:0:0:
128,192,235572,1,0,0:0:0:0:
213,192,235659,1,2,0:0:0:0:
298,192,235659,1,0,0:0:0:0:
42,192,235834,1,8,0:0:0:0:
128,192,235834,1,0,0:0:0:0:
384,192,235834,1,0,0:0:0:0:
213,192,236008,1,0,0:0:0:0:
298,192,236182,1,2,0:0:0:0:
384,192,236182,1,0,0:0:0:0:
42,192,236357,1,0,0:0:0:0:
128,192,236531,1,8,0:0:0:0:
213,192,236531,1,0,0:0:0:0:
298,192,236531,1,0,0:0:0:0:
42,192,236706,1,0,0:0:0:0:
128,192,236793,1,0,0:0:0:0:
298,192,236880,128,0,240020:0:0:0:0:
213,192,236967,1,0,0:0:0:0:
42,192,237055,1,2,0:0:0:0:
128,192,237055,1,0,0:0:0:0:
42,192,237229,1,8,0:0:0:0:
213,192,237229,1,0,0:0:0:0:
384,192,237229,1,0,0:0:0:0:
128,192,237403,1,0,0:0:0:0:
42,192,237578,128,0,240369:0:0:0:0:
213,192,240020,128,0,240369:0:0:0:0:
469,192,240369,128,0,241066:0:0:0:0:
298,192,240717,128,0,241066:0:0:0:0:
42,192,241066,128,0,241764:0:0:0:0:
213,192,241415,128,0,241764:0:0:0:0:
384,192,241764,128,0,242462:0:0:0:0:
298,192,242113,128,0,242462:0:0:0:0:
128,192,242462,128,0,243159:0:0:0:0:
213,192,242810,128,0,243159:0:0:0:0:
469,192,243159,128,0,244206:0:0:0:0:
42,192,243508,128,0,244206:0:0:0:0:
298,192,243857,128,0,244206:0:0:0:0:
128,192,244206,128,0,244555:0:0:0:0:
384,192,244206,128,0,244555:0:0:0:0:
42,192,244555,128,0,245863:0:0:0:0:
298,192,244555,1,0,0:0:0:0:
469,192,244555,128,0,245863:0:0:0:0:
213,192,244903,1,0,0:0:0:0:
128,192,245252,1,0,0:0:0:100:Tom2.wav
384,192,245252,1,0,0:0:0:100:Tom1.wav
384,192,245427,1,8,0:0:0:0:
298,192,245427,1,0,0:0:0:0:
213,192,245514,1,8,0:0:0:0:
128,192,245514,1,0,0:0:0:0:
384,192,245601,1,8,0:0:0:0:
298,192,245601,1,0,0:0:0:0:
128,192,245688,1,0,0:0:0:100:Tom1.wav
213,192,245775,1,0,0:0:0:100:Tom2.wav
298,192,245863,1,0,0:0:0:100:Tom3.wav
213,192,245950,128,2,246299:0:0:0:0:
42,192,245950,1,4,0:0:0:0:
384,192,245950,1,0,0:0:0:0:
469,192,245950,1,0,0:0:0:0:
42,192,246299,128,8,246473:0:0:0:0:
298,192,246299,1,0,0:0:0:0:
469,192,246299,128,0,246648:0:0:0:0:
298,192,246473,1,0,0:0:0:70:hit-hat.wav
128,192,246648,1,2,0:0:0:0:
384,192,246648,128,0,246996:0:0:0:0:
128,192,246822,1,0,0:0:0:70:hit-hat.wav
42,192,246996,1,8,0:0:0:0:
298,192,246996,128,0,247345:0:0:0:0:
469,192,246996,1,0,0:0:0:0:
42,192,247171,1,0,0:0:0:70:hit-hat.wav
213,192,247345,128,2,247694:0:0:0:0:
469,192,247345,1,0,0:0:0:0:
469,192,247520,1,0,0:0:0:70:hit-hat.wav
42,192,247694,128,8,248043:0:0:0:0:
128,192,247694,1,0,0:0:0:0:
298,192,247694,1,0,0:0:0:0:
298,192,247869,1,0,0:0:0:70:hit-hat.wav
128,192,248043,128,2,248392:0:0:0:0:
384,192,248043,1,0,0:0:0:0:
384,192,248217,1,0,0:0:0:70:hit-hat.wav
42,192,248392,1,8,0:0:0:0:
298,192,248392,1,0,0:0:0:0:
469,192,248392,128,0,248741:0:0:0:0:
42,192,248566,1,0,0:0:0:70:hit-hat.wav
213,192,248741,1,2,0:0:0:0:
298,192,248741,128,0,249089:0:0:0:0:
213,192,248915,1,0,0:0:0:70:hit-hat.wav
42,192,249089,1,8,0:0:0:0:
128,192,249089,128,0,249438:0:0:0:0:
469,192,249089,128,0,249438:0:0:0:0:
298,192,249264,1,0,0:0:0:70:hit-hat.wav
213,192,249438,1,2,0:0:0:0:
384,192,249438,128,0,249787:0:0:0:0:
213,192,249613,128,0,249787:0:0:0:70:hit-hat.wav
42,192,249787,128,8,250136:0:0:0:0:
128,192,249787,1,0,0:0:0:0:
298,192,249787,1,0,0:0:0:0:
298,192,249962,128,0,250136:0:0:0:70:hit-hat.wav
213,192,250136,128,2,250310:0:0:0:0:
469,192,250136,128,0,250485:0:0:0:0:
128,192,250310,128,0,250485:0:0:0:70:hit-hat.wav
42,192,250485,1,8,0:0:0:0:
298,192,250485,1,0,0:0:0:0:
384,192,250485,1,0,0:0:0:0:
42,192,250659,128,0,250834:0:0:0:70:hit-hat.wav
384,192,250834,1,2,0:0:0:0:
469,192,250834,128,0,251182:0:0:0:0:
298,192,250921,1,0,0:0:0:100:Tom1.wav
213,192,251008,1,0,0:0:0:100:Tom1.wav
128,192,251095,1,0,0:0:0:100:Tom2.wav
42,192,251182,128,8,251531:0:0:0:0:
298,192,251182,1,0,0:0:0:0:
384,192,251182,1,0,0:0:0:0:
213,192,251270,1,0,0:0:0:100:Tom2.wav
128,192,251357,1,0,0:0:0:100:Tom3.wav
213,192,251531,128,4,251880:0:0:0:0:
298,192,251531,1,2,0:0:0:0:
384,192,251531,1,0,0:0:0:0:
469,192,251531,128,0,253624:0:0:0:0:
298,192,251706,1,0,0:0:0:70:hit-hat.wav
42,192,251880,1,8,0:0:0:0:
128,192,251880,1,0,0:0:0:0:
384,192,251880,1,0,0:0:0:0:
128,192,252055,1,0,0:0:0:70:hit-hat.wav
42,192,252229,128,2,252578:0:0:0:0:
298,192,252229,1,0,0:0:0:0:
298,192,252403,1,0,0:0:0:70:hit-hat.wav
128,192,252578,1,8,0:0:0:0:
213,192,252578,1,0,0:0:0:0:
384,192,252578,1,0,0:0:0:0:
213,192,252752,1,0,0:0:0:70:hit-hat.wav
42,192,252927,1,2,0:0:0:0:
298,192,252927,128,0,253275:0:0:0:0:
42,192,253101,1,0,0:0:0:70:hit-hat.wav
128,192,253275,1,8,0:0:0:0:
213,192,253275,128,0,253624:0:0:0:0:
384,192,253275,1,0,0:0:0:0:
384,192,253450,1,0,0:0:0:70:hit-hat.wav
128,192,253624,128,2,253973:0:0:0:0:
298,192,253624,1,0,0:0:0:0:
298,192,253799,1,0,0:0:0:70:hit-hat.wav
42,192,253973,1,8,0:0:0:0:
213,192,253973,1,0,0:0:0:0:
384,192,253973,128,0,254322:0:0:0:0:
213,192,254148,1,0,0:0:0:70:hit-hat.wav
128,192,254322,128,2,254671:0:0:0:0:
469,192,254322,1,0,0:0:0:0:
469,192,254496,1,0,0:0:0:70:hit-hat.wav
42,192,254671,1,8,0:0:0:0:
213,192,254671,1,0,0:0:0:0:
298,192,254671,128,0,255020:0:0:0:0:
42,192,254845,1,0,0:0:0:70:hit-hat.wav
213,192,255020,128,2,255369:0:0:0:0:
384,192,255020,1,0,0:0:0:0:
384,192,255194,1,0,0:0:0:70:hit-hat.wav
42,192,255369,1,8,0:0:0:0:
128,192,255369,1,0,0:0:0:0:
469,192,255369,128,0,255717:0:0:0:0:
42,192,255543,128,0,255717:0:0:0:70:hit-hat.wav
128,192,255630,128,0,255717:0:0:0:0:
298,192,255717,128,2,255892:0:0:0:0:
384,192,255717,128,0,256066:0:0:0:0:
213,192,255892,128,0,256066:0:0:0:70:hit-hat.wav
42,192,256066,1,8,0:0:0:0:
128,192,256066,128,0,256241:0:0:0:0:
469,192,256066,1,0,0:0:0:0:
469,192,256241,128,0,256415:0:0:0:70:hit-hat.wav
42,192,256415,128,8,256764:0:0:0:0:
128,192,256415,1,0,0:0:0:0:
298,192,256415,1,0,0:0:0:0:
213,192,256502,1,8,0:0:0:40:
384,192,256589,1,8,0:0:0:40:
298,192,256677,1,8,0:0:0:40:
128,192,256764,1,8,0:0:0:0:
469,192,256764,128,0,257113:0:0:0:0:
213,192,256851,1,8,0:0:0:40:
384,192,256938,1,8,0:0:0:40:
298,192,257025,1,8,0:0:0:40:
42,192,257113,128,2,259206:0:0:0:0:
128,192,257113,1,4,0:0:0:0:
213,192,257113,1,0,0:0:0:0:
384,192,257113,128,0,257462:0:0:0:0:
213,192,257287,1,0,0:0:0:70:hit-hat.wav
128,192,257462,128,8,257810:0:0:0:0:
298,192,257462,1,0,0:0:0:0:
469,192,257462,1,0,0:0:0:0:
298,192,257636,1,0,0:0:0:70:hit-hat.wav
213,192,257810,1,2,0:0:0:0:
469,192,257810,128,0,258159:0:0:0:0:
213,192,257985,1,0,0:0:0:70:hit-hat.wav
128,192,258159,1,8,0:0:0:0:
298,192,258159,128,0,258508:0:0:0:0:
384,192,258159,1,0,0:0:0:0:
128,192,258334,1,0,0:0:0:70:hit-hat.wav
213,192,258508,128,2,258857:0:0:0:0:
469,192,258508,1,0,0:0:0:0:
469,192,258682,1,0,0:0:0:70:hit-hat.wav
128,192,258857,1,8,0:0:0:0:
298,192,258857,1,0,0:0:0:0:
384,192,258857,128,0,259206:0:0:0:0:
128,192,259031,1,0,0:0:0:70:hit-hat.wav
298,192,259206,1,2,0:0:0:0:
469,192,259206,1,0,0:0:0:0:
298,192,259380,1,0,0:0:0:70:hit-hat.wav
128,192,259555,128,8,259903:0:0:0:0:
213,192,259555,1,0,0:0:0:0:
384,192,259555,1,0,0:0:0:0:
384,192,259729,1,0,0:0:0:70:hit-hat.wav
42,192,259903,1,2,0:0:0:0:
298,192,259903,128,0,260252:0:0:0:0:
42,192,260078,1,0,0:0:0:70:hit-hat.wav
213,192,260252,128,8,260601:0:0:0:0:
384,192,260252,1,0,0:0:0:0:
469,192,260252,1,0,0:0:0:0:
469,192,260427,1,0,0:0:0:70:hit-hat.wav
42,192,260601,128,2,260950:0:0:0:0:
128,192,260601,128,0,260863:0:0:0:0:
469,192,260775,1,0,0:0:0:70:hit-hat.wav
384,192,260863,128,0,261124:0:0:0:0:
128,192,260950,1,8,0:0:0:0:
213,192,260950,1,0,0:0:0:0:
298,192,260950,128,0,261124:0:0:0:0:
213,192,261124,128,0,261648:0:0:0:70:hit-hat.wav
128,192,261299,128,0,261648:0:0:0:0:
469,192,261299,1,2,0:0:0:0:
469,192,261473,1,0,0:0:0:70:hit-hat.wav
298,192,261648,1,8,0:0:0:0:
384,192,261648,1,0,0:0:0:0:
42,192,261648,1,0,0:0:0:0:
384,192,261822,1,0,0:0:0:70:hit-hat.wav
42,192,261996,128,2,262694:0:0:0:0:
128,192,261996,128,0,262694:0:0:0:0:
384,192,262171,1,0,0:0:0:70:hit-hat.wav
213,192,262345,1,8,0:0:0:0:
298,192,262345,1,0,0:0:0:0:
469,192,262345,1,0,0:0:0:0:
298,192,262520,1,0,0:0:0:70:hit-hat.wav
213,192,262694,128,2,264787:0:0:0:0:
298,192,262694,1,4,0:0:0:0:
384,192,262694,1,0,0:0:0:0:
469,192,262694,128,0,263392:0:0:0:0:
384,192,262869,1,0,0:0:0:70:hit-hat.wav
42,192,263043,1,8,0:0:0:0:
128,192,263043,1,0,0:0:0:0:
298,192,263043,1,0,0:0:0:0:
42,192,263217,1,0,0:0:0:70:hit-hat.wav
128,192,263392,128,2,264089:0:0:0:0:
384,192,263392,1,0,0:0:0:0:
384,192,263566,1,0,0:0:0:70:hit-hat.wav
42,192,263741,1,8,0:0:0:0:
298,192,263741,1,0,0:0:0:0:
469,192,263741,1,0,0:0:0:0:
469,192,263915,1,0,0:0:0:70:hit-hat.wav
42,192,264089,1,2,0:0:0:0:
298,192,264089,128,0,264787:0:0:0:0:
42,192,264264,1,0,0:0:0:70:hit-hat.wav
128,192,264438,1,8,0:0:0:0:
384,192,264438,1,0,0:0:0:0:
469,192,264438,1,0,0:0:0:0:
384,192,264613,1,0,0:0:0:70:hit-hat.wav
128,192,264787,1,2,0:0:0:0:
469,192,264787,128,0,265136:0:0:0:0:
128,192,264962,1,0,0:0:0:70:hit-hat.wav
42,192,265136,1,8,0:0:0:0:
213,192,265136,1,0,0:0:0:0:
384,192,265136,1,0,0:0:0:0:
213,192,265310,1,0,0:0:0:70:hit-hat.wav
42,192,265485,128,2,266880:0:0:0:0:
128,192,265485,128,0,266182:0:0:0:0:
384,192,265659,1,0,0:0:0:70:hit-hat.wav
213,192,265834,1,8,0:0:0:0:
298,192,265834,1,0,0:0:0:0:
469,192,265834,1,0,0:0:0:0:
469,192,266008,1,0,0:0:0:70:hit-hat.wav
213,192,266182,1,2,0:0:0:0:
384,192,266182,128,0,266357:0:0:0:0:
213,192,266357,1,0,0:0:0:70:hit-hat.wav
128,192,266531,1,8,0:0:0:0:
298,192,266531,1,0,0:0:0:0:
469,192,266531,128,0,266706:0:0:0:0:
298,192,266706,128,0,266880:0:0:0:70:hit-hat.wav
128,192,266880,1,2,0:0:0:0:
213,192,266880,128,4,267229:0:0:0:0:
384,192,266880,1,0,0:0:0:0:
469,192,266880,128,0,267927:0:0:0:0:
298,192,267055,128,0,267229:0:0:0:0:
128,192,267229,128,0,267578:0:0:0:100:Tom1.wav
384,192,267229,128,0,267927:0:0:0:100:Tom2.wav
213,192,267403,128,0,267578:0:0:0:0:
42,192,267578,128,0,267927:0:0:0:100:Tom2.wav
298,192,267578,128,0,267927:0:0:0:100:Tom3.wav
128,192,267752,128,0,267927:0:0:0:0:
213,192,267927,128,8,268275:0:0:0:0:
42,192,268275,1,2,0:0:0:0:
298,192,268275,1,4,0:0:0:0:
384,192,268275,128,0,268624:0:0:0:0:
469,192,268275,1,0,0:0:0:0:
42,192,268624,128,8,268973:0:0:0:0:
213,192,268624,1,0,0:0:0:0:
469,192,268624,128,0,268799:0:0:0:0:
213,192,268799,1,0,0:0:0:70:hit-hat.wav
128,192,268973,1,2,0:0:0:0:
298,192,268973,128,0,269322:0:0:0:0:
128,192,269148,1,0,0:0:0:70:hit-hat.wav
42,192,269322,1,8,0:0:0:0:
213,192,269322,128,0,269671:0:0:0:0:
469,192,269322,1,0,0:0:0:0:
469,192,269496,1,0,0:0:0:70:hit-hat.wav
128,192,269671,128,2,270020:0:0:0:0:
384,192,269671,1,0,0:0:0:0:
384,192,269845,1,0,0:0:0:70:hit-hat.wav
42,192,270020,1,8,0:0:0:0:
213,192,270020,1,0,0:0:0:0:
298,192,270020,128,0,270369:0:0:0:0:
213,192,270194,1,0,0:0:0:70:hit-hat.wav
42,192,270369,128,2,270717:0:0:0:0:
469,192,270369,1,0,0:0:0:0:
469,192,270543,1,0,0:0:0:70:hit-hat.wav
128,192,270717,1,8,0:0:0:0:
213,192,270717,1,0,0:0:0:0:
384,192,270717,128,0,271066:0:0:0:0:
128,192,270892,1,0,0:0:0:70:hit-hat.wav
213,192,271066,128,2,271415:0:0:0:0:
298,192,271066,1,0,0:0:0:0:
298,192,271241,1,0,0:0:0:70:hit-hat.wav
42,192,271415,1,8,0:0:0:0:
128,192,271415,1,0,0:0:0:0:
469,192,271415,128,0,271764:0:0:0:0:
42,192,271589,1,0,0:0:0:70:hit-hat.wav
213,192,271764,128,2,272113:0:0:0:0:
298,192,271764,1,0,0:0:0:0:
298,192,271938,1,0,0:0:0:70:hit-hat.wav
42,192,272113,1,8,0:0:0:0:
128,192,272113,128,0,272462:0:0:0:0:
384,192,272113,1,0,0:0:0:0:
384,192,272287,1,0,0:0:0:70:hit-hat.wav
42,192,272462,128,2,272810:0:0:0:0:
469,192,272462,128,0,272810:0:0:0:0:
128,192,272636,1,0,0:0:0:70:hit-hat.wav
213,192,272810,1,8,0:0:0:0:
298,192,272810,128,0,273159:0:0:0:0:
384,192,272810,1,0,0:0:0:0:
213,192,272985,1,0,0:0:0:70:hit-hat.wav
384,192,273159,128,2,273508:0:0:0:0:
469,192,273159,1,0,0:0:0:0:
128,192,273246,1,0,0:0:0:100:Tom1.wav
213,192,273334,1,0,0:0:0:100:Tom1.wav
298,192,273421,1,0,0:0:0:100:Tom2.wav
42,192,273508,1,8,0:0:0:0:
128,192,273508,128,0,273857:0:0:0:0:
469,192,273508,1,0,0:0:0:0:
213,192,273595,1,0,0:0:0:100:Tom2.wav
298,192,273682,1,0,0:0:0:100:Tom3.wav
42,192,273857,1,2,0:0:0:0:
213,192,273857,128,4,275950:0:0:0:0:
384,192,273857,1,0,0:0:0:0:
469,192,273857,128,0,274206:0:0:0:0:
42,192,274031,1,0,0:0:0:70:hit-hat.wav
128,192,274206,1,8,0:0:0:0:
298,192,274206,1,0,0:0:0:0:
384,192,274206,1,0,0:0:0:0:
298,192,274380,1,0,0:0:0:70:hit-hat.wav
42,192,274555,128,2,274903:0:0:0:0:
384,192,274555,1,0,0:0:0:0:
384,192,274729,1,0,0:0:0:70:hit-hat.wav
128,192,274903,1,8,0:0:0:0:
298,192,274903,1,0,0:0:0:0:
469,192,274903,1,0,0:0:0:0:
469,192,275078,1,0,0:0:0:70:hit-hat.wav
42,192,275252,1,2,0:0:0:0:
298,192,275252,128,0,275601:0:0:0:0:
42,192,275427,1,0,0:0:0:70:hit-hat.wav
128,192,275601,128,8,275950:0:0:0:0:
384,192,275601,1,0,0:0:0:0:
469,192,275601,1,0,0:0:0:0:
469,192,275775,1,0,0:0:0:70:hit-hat.wav
42,192,275950,1,2,0:0:0:0:
384,192,275950,128,0,276299:0:0:0:0:
42,192,276124,1,0,0:0:0:70:hit-hat.wav
128,192,276299,1,8,0:0:0:0:
298,192,276299,128,0,276648:0:0:0:0:
469,192,276299,1,0,0:0:0:0:
128,192,276473,1,0,0:0:0:70:hit-hat.wav
42,192,276648,128,2,276996:0:0:0:0:
384,192,276648,1,0,0:0:0:0:
384,192,276822,1,0,0:0:0:70:hit-hat.wav
128,192,276996,1,8,0:0:0:0:
213,192,276996,1,0,0:0:0:0:
469,192,276996,128,0,277345:0:0:0:0:
213,192,277171,1,0,0:0:0:70:hit-hat.wav
128,192,277345,128,2,277607:0:0:0:0:
384,192,277345,1,0,0:0:0:0:
384,192,277520,1,0,0:0:0:70:hit-hat.wav
298,192,277607,128,0,277869:0:0:0:0:
42,192,277694,1,8,0:0:0:0:
128,192,277694,1,0,0:0:0:0:
213,192,277694,1,0,0:0:0:0:
213,192,277869,128,0,278043:0:0:0:70:hit-hat.wav
42,192,278043,128,8,278741:0:0:0:0:
384,192,278043,1,0,0:0:0:0:
469,192,278043,1,0,0:0:0:0:
298,192,278305,1,0,0:0:0:100:Tom2.wav
469,192,278305,1,0,0:0:0:100:Tom3.wav
213,192,278566,1,0,0:0:0:100:Tom1.wav
298,192,278566,1,0,0:0:0:100:Tom2.wav
128,192,278741,1,8,0:0:0:0:
213,192,278741,128,4,279089:0:0:0:0:
384,192,278741,1,0,0:0:0:0:
469,192,278741,1,0,0:0:0:0:
42,192,279089,1,8,0:0:0:0:
298,192,279089,1,0,0:0:0:0:
469,192,279089,1,0,0:0:0:0:
128,192,279177,1,8,0:0:0:100:Tom1.wav
213,192,279264,1,8,0:0:0:100:Tom2.wav
384,192,279264,1,0,0:0:0:0:
42,192,279438,1,2,0:0:0:0:
128,192,279438,1,4,0:0:0:0:
298,192,279438,1,0,0:0:0:0:
469,192,279438,128,0,279787:0:0:0:0:
128,192,279613,1,0,0:0:0:70:hit-hat.wav
42,192,279787,128,8,280136:0:0:0:0:
298,192,279787,1,0,0:0:0:0:
384,192,279787,1,0,0:0:0:0:
384,192,279962,1,0,0:0:0:70:hit-hat.wav
213,192,280136,1,2,0:0:0:0:
298,192,280136,128,0,280485:0:0:0:0:
213,192,280310,1,0,0:0:0:70:hit-hat.wav
128,192,280485,128,8,280834:0:0:0:0:
384,192,280485,1,0,0:0:0:0:
469,192,280485,1,0,0:0:0:0:
469,192,280659,1,0,0:0:0:70:hit-hat.wav
42,192,280834,1,2,0:0:0:0:
384,192,280834,128,0,281182:0:0:0:0:
42,192,281008,1,0,0:0:0:70:hit-hat.wav
213,192,281182,128,8,281531:0:0:0:0:
298,192,281182,1,0,0:0:0:0:
469,192,281182,1,0,0:0:0:0:
469,192,281357,1,0,0:0:0:70:hit-hat.wav
128,192,281531,1,2,0:0:0:0:
298,192,281531,128,0,281880:0:0:0:0:
128,192,281706,1,0,0:0:0:70:hit-hat.wav
213,192,281880,128,8,282229:0:0:0:0:
384,192,281880,1,0,0:0:0:0:
469,192,281880,1,0,0:0:0:0:
384,192,282055,1,0,0:0:0:70:hit-hat.wav
42,192,282229,128,2,282927:0:0:0:0:
469,192,282229,128,0,282578:0:0:0:0:
128,192,282403,1,0,0:0:0:70:hit-hat.wav
213,192,282578,1,8,0:0:0:0:
298,192,282578,128,0,282927:0:0:0:0:
384,192,282578,1,0,0:0:0:0:
213,192,282752,1,0,0:0:0:70:hit-hat.wav
384,192,282927,128,2,283188:0:0:0:0:
469,192,282927,128,0,283450:0:0:0:0:
42,192,283101,1,0,0:0:0:70:hit-hat.wav
128,192,283188,128,0,283450:0:0:0:0:
213,192,283275,1,8,0:0:0:0:
298,192,283275,1,0,0:0:0:0:
384,192,283275,1,0,0:0:0:0:
213,192,283450,128,0,283973:0:0:0:70:hit-hat.wav
298,192,283624,128,2,284322:0:0:0:0:
42,192,283624,1,0,0:0:0:0:
42,192,283799,1,0,0:0:0:70:hit-hat.wav
469,192,283973,1,8,0:0:0:0:
128,192,283973,1,0,0:0:0:0:
384,192,283973,1,0,0:0:0:0:
128,192,284148,1,0,0:0:0:70:hit-hat.wav
42,192,284322,128,2,284671:0:0:0:0:
469,192,284322,128,0,285020:0:0:0:0:
298,192,284496,1,0,0:0:0:70:hit-hat.wav
128,192,284671,1,8,0:0:0:0:
213,192,284671,1,0,0:0:0:0:
384,192,284671,128,0,285020:0:0:0:0:
213,192,284845,1,0,0:0:0:70:hit-hat.wav
42,192,285020,128,2,285717:0:0:0:0:
128,192,285020,1,4,0:0:0:0:
213,192,285020,1,0,0:0:0:0:
298,192,285020,128,0,287113:0:0:0:0:
128,192,285194,1,0,0:0:0:70:hit-hat.wav
213,192,285369,1,8,0:0:0:0:
384,192,285369,1,0,0:0:0:0:
469,192,285369,1,0,0:0:0:0:
469,192,285543,1,0,0:0:0:70:hit-hat.wav
128,192,285717,1,2,0:0:0:0:
384,192,285717,128,0,286415:0:0:0:0:
128,192,285892,1,0,0:0:0:70:hit-hat.wav
42,192,286066,1,8,0:0:0:0:
213,192,286066,1,0,0:0:0:0:
469,192,286066,1,0,0:0:0:0:
42,192,286241,1,0,0:0:0:70:hit-hat.wav
213,192,286415,128,2,287113:0:0:0:0:
128,192,286415,1,0,0:0:0:0:
128,192,286589,1,0,0:0:0:70:hit-hat.wav
42,192,286764,1,8,0:0:0:0:
469,192,286764,1,0,0:0:0:0:
384,192,286764,1,0,0:0:0:0:
384,192,286938,1,0,0:0:0:70:hit-hat.wav
42,192,287113,128,2,287462:0:0:0:0:
469,192,287113,1,0,0:0:0:0:
469,192,287287,1,0,0:0:0:70:hit-hat.wav
128,192,287462,1,8,0:0:0:0:
213,192,287462,1,0,0:0:0:0:
384,192,287462,1,0,0:0:0:0:
213,192,287636,1,0,0:0:0:70:hit-hat.wav
128,192,287810,128,2,288159:0:0:0:0:
298,192,287810,1,0,0:0:0:0:
298,192,287985,1,0,0:0:0:70:hit-hat.wav
213,192,288159,1,8,0:0:0:0:
384,192,288159,1,0,0:0:0:0:
469,192,288159,1,0,0:0:0:0:
469,192,288334,1,0,0:0:0:70:hit-hat.wav
42,192,288508,128,2,289206:0:0:0:0:
213,192,288508,1,0,0:0:0:0:
213,192,288682,1,0,0:0:0:70:hit-hat.wav
128,192,288857,1,8,0:0:0:0:
298,192,288857,1,0,0:0:0:0:
469,192,288857,1,0,0:0:0:0:
128,192,289031,1,2,0:0:0:0:
213,192,289119,1,2,0:0:0:0:
298,192,289206,128,8,289903:0:0:0:0:
469,192,289206,128,4,289555:0:0:0:0:
384,192,289206,1,0,0:0:0:0:
128,192,289206,1,0,0:0:0:0:
42,192,289380,1,0,0:0:0:0:
384,192,289555,128,8,289903:0:0:0:0:
128,192,289555,1,0,0:0:0:0:
213,192,289555,1,0,0:0:0:0:
213,192,289729,1,0,0:0:0:0:
128,192,289903,128,8,290252:0:0:0:0:
42,192,289903,128,0,290252:0:0:0:70:hit-hat.wav
469,192,289991,1,0,0:0:0:100:Tom1.wav
384,192,290078,1,0,0:0:0:100:Tom2.wav
298,192,290165,1,0,0:0:0:100:Tom3.wav
384,192,290252,1,4,0:0:0:0:
469,192,290252,1,8,0:0:0:0:
213,192,290252,128,0,290601:0:0:0:0:
42,192,290601,1,8,0:0:0:0:
128,192,290601,1,4,0:0:0:0:
384,192,290601,128,0,290775:0:0:0:0:
469,192,290601,128,0,290775:0:0:0:0:
213,192,290775,1,2,0:0:0:0:
128,192,290950,1,8,0:0:0:0:
384,192,290950,128,0,291124:0:0:0:0:
469,192,290950,128,0,291124:0:0:0:0:
298,192,291124,1,2,0:0:0:0:
42,192,291299,1,8,0:0:0:0:
384,192,291299,128,0,291473:0:0:0:0:
469,192,291299,128,0,291473:0:0:0:0:
128,192,291473,1,2,0:0:0:0:
213,192,291648,1,8,0:0:0:0:
384,192,291648,128,0,291822:0:0:0:0:
469,192,291648,128,0,291822:0:0:0:0:
298,192,291822,1,2,0:0:0:0:
213,192,291909,1,2,0:0:0:0:
128,192,291996,1,8,0:0:0:0:
384,192,291996,128,0,292171:0:0:0:0:
469,192,291996,128,0,292171:0:0:0:0:
42,192,292171,1,2,0:0:0:0:
213,192,292345,1,8,0:0:0:0:
384,192,292345,128,0,292520:0:0:0:0:
469,192,292345,128,0,292520:0:0:0:0:
298,192,292520,1,2,0:0:0:0:
42,192,292694,1,8,0:0:0:0:
384,192,292694,128,0,292869:0:0:0:0:
469,192,292694,128,0,292869:0:0:0:0:
128,192,292869,1,2,0:0:0:0:
213,192,292956,1,2,0:0:0:0:
298,192,293043,1,8,0:0:0:0:
384,192,293043,128,0,293217:0:0:0:0:
469,192,293043,128,0,293217:0:0:0:0:
213,192,293217,1,2,0:0:0:0:
298,192,293305,1,2,0:0:0:0:
42,192,293392,128,4,293566:0:0:0:0:
128,192,293392,128,8,293566:0:0:0:0:
384,192,293392,1,0,0:0:0:0:
469,192,293392,1,0,0:0:0:0:
298,192,293566,1,2,0:0:0:0:
42,192,293741,128,8,293915:0:0:0:0:
128,192,293741,128,0,293915:0:0:0:0:
213,192,293741,1,0,0:0:0:0:
469,192,293915,1,2,0:0:0:0:
42,192,294089,128,8,294264:0:0:0:0:
128,192,294089,128,0,294264:0:0:0:0:
298,192,294089,1,0,0:0:0:0:
384,192,294264,1,2,0:0:0:0:
42,192,294438,128,8,294613:0:0:0:0:
128,192,294438,128,0,294613:0:0:0:0:
213,192,294438,1,0,0:0:0:0:
469,192,294613,1,2,0:0:0:0:
384,192,294700,1,2,0:0:0:0:
42,192,294787,128,8,294962:0:0:0:0:
128,192,294787,128,0,294962:0:0:0:0:
298,192,294787,1,0,0:0:0:0:
469,192,294962,1,2,0:0:0:0:
42,192,295136,128,8,295310:0:0:0:0:
128,192,295136,128,0,295310:0:0:0:0:
384,192,295136,1,0,0:0:0:0:
213,192,295310,1,2,0:0:0:0:
42,192,295485,128,8,295659:0:0:0:0:
128,192,295485,128,0,295659:0:0:0:0:
469,192,295485,1,0,0:0:0:0:
298,192,295659,1,2,0:0:0:0:
384,192,295746,1,2,0:0:0:0:
42,192,295834,128,8,296008:0:0:0:0:
128,192,295834,128,0,296008:0:0:0:0:
469,192,295834,1,0,0:0:0:0:
298,192,296008,1,2,0:0:0:0:
213,192,296095,1,2,0:0:0:0:
42,192,296182,1,8,0:0:0:0:
128,192,296182,1,4,0:0:0:0:
298,192,296182,128,0,296357:0:0:0:0:
384,192,296182,128,0,296357:0:0:0:0:
213,192,296357,1,2,0:0:0:0:
42,192,296531,1,8,0:0:0:0:
298,192,296531,128,0,296706:0:0:0:0:
384,192,296531,128,0,296706:0:0:0:0:
469,192,296706,1,2,0:0:0:0:
213,192,296880,1,8,0:0:0:0:
298,192,296880,128,0,297055:0:0:0:0:
384,192,296880,128,0,297055:0:0:0:0:
128,192,297055,1,2,0:0:0:0:
298,192,297229,128,8,297403:0:0:0:0:
384,192,297229,128,0,297403:0:0:0:0:
469,192,297229,1,0,0:0:0:0:
42,192,297403,1,2,0:0:0:0:
128,192,297491,1,2,0:0:0:0:
213,192,297578,1,8,0:0:0:0:
298,192,297578,128,0,297752:0:0:0:0:
384,192,297578,128,0,297752:0:0:0:0:
128,192,297752,1,2,0:0:0:0:
42,192,297927,1,8,0:0:0:0:
298,192,297927,128,0,298101:0:0:0:0:
384,192,297927,128,0,298101:0:0:0:0:
213,192,298101,1,2,0:0:0:0:
298,192,298275,128,8,298450:0:0:0:0:
384,192,298275,128,0,298450:0:0:0:0:
469,192,298275,1,0,0:0:0:0:
213,192,298450,1,2,0:0:0:0:
128,192,298537,1,2,0:0:0:0:
42,192,298624,1,8,0:0:0:0:
298,192,298624,128,0,298799:0:0:0:0:
384,192,298624,128,0,298799:0:0:0:0:
213,192,298799,1,2,0:0:0:0:
298,192,298886,1,2,0:0:0:0:
128,192,298973,128,4,299148:0:0:0:0:
213,192,298973,128,8,299148:0:0:0:0:
384,192,298973,1,0,0:0:0:0:
469,192,298973,1,0,0:0:0:0:
298,192,299148,1,2,0:0:0:0:
128,192,299322,128,8,299496:0:0:0:0:
213,192,299322,128,0,299496:0:0:0:0:
469,192,299322,1,0,0:0:0:0:
42,192,299496,1,2,0:0:0:0:
128,192,299671,128,8,299845:0:0:0:0:
213,192,299671,128,0,299845:0:0:0:0:
298,192,299671,1,0,0:0:0:0:
384,192,299845,1,2,0:0:0:0:
42,192,300020,1,8,0:0:0:0:
128,192,300020,128,0,300194:0:0:0:0:
213,192,300020,128,0,300194:0:0:0:0:
469,192,300194,1,2,0:0:0:0:
384,192,300281,1,2,0:0:0:0:
128,192,300369,128,8,300543:0:0:0:0:
213,192,300369,128,0,300543:0:0:0:0:
298,192,300369,1,0,0:0:0:0:
384,192,300543,1,2,0:0:0:0:
128,192,300717,128,8,300892:0:0:0:0:
213,192,300717,128,0,300892:0:0:0:0:
469,192,300717,1,0,0:0:0:0:
298,192,300892,1,0,0:0:0:0:
128,192,301066,1,0,0:0:0:100:Tom2.wav
384,192,301066,1,0,0:0:0:100:Tom3.wav
298,192,301241,1,8,0:0:0:0:
469,192,301241,1,0,0:0:0:0:
42,192,301328,1,8,0:0:0:0:
213,192,301328,1,0,0:0:0:0:
128,192,301415,1,8,0:0:0:0:
384,192,301415,1,0,0:0:0:0:
298,192,301502,1,0,0:0:0:100:Tom1.wav
213,192,301589,1,0,0:0:0:100:Tom2.wav
469,192,301589,1,0,0:0:0:0:
128,192,301677,1,0,0:0:0:100:Tom3.wav
42,192,301764,128,2,302985:0:0:0:0:
298,192,301764,1,4,0:0:0:0:
384,192,301764,1,0,0:0:0:0:
469,192,301764,1,0,0:0:0:0:
128,192,301938,1,2,0:0:0:0:
213,192,301938,1,0,0:0:0:0:
298,192,302113,1,8,0:0:0:0:
384,192,302113,1,0,0:0:0:0:
469,192,302113,1,0,0:0:0:0:
128,192,302287,1,0,0:0:0:0:
298,192,302462,1,2,0:0:0:0:
469,192,302462,1,0,0:0:0:0:
213,192,302636,1,2,0:0:0:0:
384,192,302636,1,0,0:0:0:0:
128,192,302810,1,8,0:0:0:0:
298,192,302810,1,0,0:0:0:0:
469,192,302810,1,0,0:0:0:0:
469,192,302985,128,0,304380:0:0:0:0:
213,192,302985,1,8,0:0:0:0:
298,192,302985,1,0,0:0:0:0:
42,192,303159,1,2,0:0:0:0:
128,192,303159,1,0,0:0:0:0:
298,192,303334,1,2,0:0:0:0:
384,192,303334,1,0,0:0:0:0:
213,192,303508,1,8,0:0:0:0:
42,192,303508,1,0,0:0:0:0:
128,192,303508,1,0,0:0:0:0:
298,192,303682,1,0,0:0:0:0:
128,192,303857,1,2,0:0:0:0:
384,192,303857,1,0,0:0:0:0:
213,192,304031,1,2,0:0:0:0:
298,192,304031,1,0,0:0:0:0:
42,192,304206,1,8,0:0:0:0:
128,192,304206,1,0,0:0:0:0:
384,192,304206,1,0,0:0:0:0:
128,192,304380,1,8,0:0:0:0:
213,192,304380,1,0,0:0:0:0:
384,192,304380,1,0,0:0:0:0:
42,192,304555,1,2,0:0:0:0:
128,192,304555,128,4,305252:0:0:0:0:
213,192,304555,1,0,0:0:0:0:
298,192,304555,1,0,0:0:0:0:
384,192,304729,1,2,0:0:0:0:
469,192,304729,1,0,0:0:0:0:
42,192,304903,1,8,0:0:0:0:
213,192,304903,1,0,0:0:0:0:
298,192,304903,1,0,0:0:0:0:
469,192,305078,1,0,0:0:0:0:
213,192,305252,128,2,305950:0:0:0:0:
384,192,305252,1,0,0:0:0:0:
128,192,305427,1,2,0:0:0:0:
298,192,305427,1,0,0:0:0:0:
42,192,305601,1,8,0:0:0:0:
384,192,305601,1,0,0:0:0:0:
469,192,305601,1,0,0:0:0:0:
42,192,305775,1,8,0:0:0:0:
298,192,305775,1,0,0:0:0:0:
469,192,305775,1,0,0:0:0:0:
128,192,305950,1,2,0:0:0:0:
298,192,305950,128,0,306648:0:0:0:0:
213,192,306124,1,2,0:0:0:0:
469,192,306124,1,0,0:0:0:0:
42,192,306299,1,8,0:0:0:0:
128,192,306299,1,0,0:0:0:0:
469,192,306299,1,0,0:0:0:0:
213,192,306473,1,0,0:0:0:0:
42,192,306648,1,2,0:0:0:0:
384,192,306648,128,0,307345:0:0:0:0:
128,192,306822,1,2,0:0:0:0:
213,192,306822,1,0,0:0:0:0:
42,192,306996,1,8,0:0:0:0:
469,192,306996,1,0,0:0:0:0:
298,192,306996,1,0,0:0:0:0:
128,192,307171,1,8,0:0:0:0:
213,192,307171,1,0,0:0:0:0:
298,192,307171,1,0,0:0:0:0:
42,192,307345,128,2,309438:0:0:0:0:
128,192,307345,1,4,0:0:0:0:
213,192,307345,1,0,0:0:0:0:
298,192,307345,1,0,0:0:0:0:
384,192,307520,1,2,0:0:0:0:
469,192,307520,1,0,0:0:0:0:
128,192,307694,1,8,0:0:0:0:
213,192,307694,1,0,0:0:0:0:
298,192,307694,1,0,0:0:0:0:
384,192,307869,1,2,0:0:0:0:
469,192,307869,1,0,0:0:0:0:
128,192,307956,1,8,0:0:0:50:
213,192,308043,1,0,0:0:0:0:
384,192,308043,1,0,0:0:0:0:
298,192,308130,1,8,0:0:0:50:
128,192,308217,1,2,0:0:0:0:
213,192,308217,1,0,0:0:0:0:
298,192,308392,1,8,0:0:0:0:
384,192,308392,1,0,0:0:0:0:
469,192,308392,1,0,0:0:0:0:
128,192,308566,1,2,0:0:0:0:
213,192,308566,1,0,0:0:0:0:
298,192,308741,1,0,0:0:0:0:
213,192,308915,1,2,0:0:0:0:
469,192,308915,1,0,0:0:0:0:
128,192,309089,1,8,0:0:0:0:
298,192,309089,1,0,0:0:0:0:
469,192,309089,1,0,0:0:0:0:
213,192,309264,1,2,0:0:0:0:
384,192,309264,1,0,0:0:0:0:
298,192,309351,1,8,0:0:0:50:
128,192,309438,1,0,0:0:0:0:
213,192,309438,1,0,0:0:0:0:
469,192,309525,1,8,0:0:0:50:
298,192,309613,1,2,0:0:0:0:
384,192,309613,1,0,0:0:0:0:
42,192,309787,1,8,0:0:0:0:
128,192,309787,1,0,0:0:0:0:
213,192,309787,1,0,0:0:0:0:
298,192,309962,1,2,0:0:0:0:
469,192,309962,1,0,0:0:0:0:
42,192,310136,1,2,0:0:0:0:
384,192,310136,1,0,0:0:0:0:
128,192,310310,1,2,0:0:0:0:
213,192,310310,1,0,0:0:0:0:
42,192,310485,1,8,0:0:0:0:
298,192,310485,1,0,0:0:0:0:
469,192,310485,1,0,0:0:0:0:
213,192,310659,1,2,0:0:0:0:
384,192,310659,1,0,0:0:0:0:
128,192,310746,1,8,0:0:0:50:
42,192,310834,1,0,0:0:0:0:
298,192,310834,1,0,0:0:0:0:
384,192,310921,1,8,0:0:0:50:
213,192,311008,1,2,0:0:0:0:
469,192,311008,1,0,0:0:0:0:
42,192,311182,1,8,0:0:0:0:
298,192,311182,1,0,0:0:0:0:
384,192,311182,1,0,0:0:0:0:
128,192,311357,1,2,0:0:0:0:
213,192,311357,1,0,0:0:0:0:
384,192,311531,128,0,311880:0:0:0:0:
298,192,311706,1,2,0:0:0:0:
42,192,311706,1,0,0:0:0:0:
128,192,311880,1,8,0:0:0:0:
213,192,311880,1,0,0:0:0:0:
469,192,311880,128,0,312229:0:0:0:0:
298,192,312055,1,2,0:0:0:0:
128,192,312229,1,8,0:0:0:0:
42,192,312229,128,0,312578:0:0:0:70:hit-hat.wav
213,192,312316,1,0,0:0:0:100:Tom1.wav
298,192,312403,1,0,0:0:0:100:Tom2.wav
128,192,312578,1,8,0:0:0:0:
384,192,312578,1,4,0:0:0:0:
469,192,312578,128,0,312927:0:0:0:0:
213,192,312927,128,2,313101:0:0:0:0:
298,192,312927,128,0,313101:0:0:0:0:
213,192,313275,1,8,0:0:0:0:
384,192,313275,1,0,0:0:0:0:
469,192,313275,1,0,0:0:0:0:
42,192,313450,1,0,0:0:0:100:Tom2.wav
128,192,313450,1,0,0:0:0:0:
213,192,313537,1,0,0:0:0:100:Tom2.wav
298,192,313537,1,0,0:0:0:0:
384,192,313624,128,2,313712:0:0:0:0:
469,192,313624,128,0,313712:0:0:0:100:Tom3.wav
384,192,313799,128,2,313973:0:0:0:0:
469,192,313799,128,0,313973:0:0:0:100:Tom3.wav
42,192,313973,1,8,0:0:0:0:
128,192,313973,1,0,0:0:0:0:
213,192,313973,1,0,0:0:0:0:
213,192,314148,1,0,0:0:0:100:Tom2.wav
384,192,314148,1,0,0:0:0:0:
128,192,314235,1,0,0:0:0:100:Tom2.wav
298,192,314235,1,0,0:0:0:0:
213,192,314322,128,2,314496:0:0:0:0:
384,192,314322,128,0,314496:0:0:0:100:Tom3.wav
469,192,314496,1,0,0:0:0:100:Tom3.wav
42,192,314671,1,2,0:0:0:0:
128,192,314671,128,0,314845:0:0:0:100:Tom3.wav
298,192,314671,128,8,314845:0:0:0:0:
384,192,314845,1,0,0:0:0:100:Tom2.wav
469,192,314845,1,0,0:0:0:0:
213,192,314932,1,0,0:0:0:100:Tom2.wav
298,192,314932,1,0,0:0:0:0:
42,192,315020,128,2,315107:0:0:0:0:
128,192,315020,128,0,315107:0:0:0:100:Tom3.wav
42,192,315194,128,0,315369:0:0:0:100:Tom3.wav
128,192,315194,128,0,315369:0:0:0:0:
213,192,315369,1,8,0:0:0:0:
298,192,315369,1,0,0:0:0:0:
469,192,315369,1,0,0:0:0:0:
42,192,315543,1,0,0:0:0:100:Tom2.wav
469,192,315543,1,0,0:0:0:0:
128,192,315630,1,0,0:0:0:100:Tom2.wav
384,192,315630,1,0,0:0:0:0:
213,192,315717,128,2,315892:0:0:0:0:
298,192,315717,128,0,315892:0:0:0:100:Tom3.wav
42,192,316066,1,8,0:0:0:0:
128,192,316066,1,0,0:0:0:0:
298,192,316066,1,0,0:0:0:0:
384,192,316241,1,0,0:0:0:100:Tom2.wav
469,192,316241,1,0,0:0:0:0:
213,192,316328,1,0,0:0:0:100:Tom2.wav
298,192,316328,1,0,0:0:0:0:
42,192,316415,128,2,316502:0:0:0:0:
128,192,316415,128,0,316502:0:0:0:100:Tom3.wav
42,192,316589,128,2,316764:0:0:0:0:
128,192,316589,128,0,316764:0:0:0:100:Tom3.wav
298,192,316764,1,8,0:0:0:0:
384,192,316764,1,0,0:0:0:0:
469,192,316764,1,0,0:0:0:0:
128,192,316938,1,0,0:0:0:100:Tom2.wav
298,192,316938,1,0,0:0:0:0:
213,192,317025,1,0,0:0:0:100:Tom2.wav
384,192,317025,1,0,0:0:0:0:
128,192,317113,128,2,317287:0:0:0:0:
298,192,317113,128,0,317287:0:0:0:100:Tom3.wav
213,192,317462,128,2,317636:0:0:0:0:
384,192,317462,128,0,317636:0:0:0:100:Tom3.wav
469,192,317462,1,8,0:0:0:0:
42,192,317810,1,8,0:0:0:0:
213,192,317810,1,0,0:0:0:0:
298,192,317810,1,0,0:0:0:0:
384,192,317985,1,8,0:0:0:0:
469,192,317985,1,0,0:0:0:0:
213,192,318072,1,8,0:0:0:0:
298,192,318072,1,0,0:0:0:0:
42,192,318159,1,8,0:0:0:0:
128,192,318159,1,0,0:0:0:0:
384,192,318246,1,8,0:0:0:0:
469,192,318246,1,0,0:0:0:0:
213,192,318334,1,8,0:0:0:0:
298,192,318334,1,0,0:0:0:0:
42,192,318421,1,8,0:0:0:0:
128,192,318421,1,0,0:0:0:0:
213,192,318508,128,2,322607:0:0:0:0:
298,192,318508,128,4,322607:0:0:0:0:
384,192,318508,128,0,322607:0:0:0:0:
469,192,318508,128,0,322607:0:0:0:0:
42,192,322607,128,0,323915:0:0:0:0:
