osu file format v14

[General]
AudioFilename: audio.mp3
AudioLeadIn: 0
PreviewTime: 148193
Countdown: 0
SampleSet: Soft
StackLeniency: 0.7
Mode: 3
LetterboxInBreaks: 0
SpecialStyle: 0
WidescreenStoryboard: 0

[Editor]
DistanceSpacing: 1.3
BeatDivisor: 4
GridSize: 4
TimelineZoom: 2.6

[Metadata]
Title:GO 4 IT
TitleUnicode:GO 4 IT
Artist:Halozy
ArtistUnicode:Halozy
Creator:Virtue-
Version:Believe Yourself
Source:東方Project
Tags:Touhou 東方輝針城 Kishinjou Castle Double Dealing Character 輝く針の小人族 Inchlings Little Princess Shinmyoumaru Sukuna Seija Kijin Stage 6 Boss theme Miracle Mallet すみじゅん sumijun Jun Sumitomo 楽天市場 Crouka 長尾ちえみ Nagao Chiemi 864 Reitaisai 12 jazz rock go4it for
BeatmapID:1354962
BeatmapSetID:638795

[Difficulty]
HPDrainRate:8.5
CircleSize:4
OverallDifficulty:8.5
ApproachRate:5
SliderMultiplier:1.4
SliderTickRate:1

[Events]
//Background and Video events
0,0,"go 4 it bg.jpg",0,0
//Break Periods
//Storyboard Layer 0 (Background)
//Storyboard Layer 1 (Fail)
//Storyboard Layer 2 (Pass)
//Storyboard Layer 3 (Foreground)
//Storyboard Sound Samples

[TimingPoints]
374,348.837209302326,4,2,1,50,1,0
53397,-100,4,2,1,50,0,1
98048,-100,4,2,1,50,0,0
148280,-100,4,2,1,50,0,1
192932,-100,4,2,1,50,0,0
245955,-100,4,2,1,50,0,1
290606,-100,4,2,1,50,0,0

[HitObjects]
64,192,374,5,0,0:0:0:50:clap.wav
192,192,374,128,0,548:0:0:0:0:
320,192,548,128,0,722:0:0:0:0:
64,192,722,1,0,0:0:0:50:clap.wav
448,192,722,1,0,0:0:0:0:
192,192,897,128,0,1071:0:0:0:0:
320,192,1071,1,0,0:0:0:50:clap.wav
448,192,1071,128,0,1246:0:0:0:0:
64,192,1246,128,0,1420:0:0:0:0:
192,192,1420,1,0,0:0:0:0:
320,192,1420,1,0,0:0:0:50:clap.wav
448,192,1594,128,0,1769:0:0:0:0:
64,192,1769,1,0,0:0:0:50:clap.wav
192,192,1769,128,0,1943:0:0:0:0:
320,192,1943,128,0,2118:0:0:0:0:
448,192,2118,1,0,0:0:0:0:
64,192,2118,1,0,0:0:0:50:clap.wav
192,192,2292,128,0,2467:0:0:0:0:
320,192,2467,1,0,0:0:0:50:clap.wav
64,192,2467,1,0,0:0:0:0:
448,192,2641,128,0,2990:0:0:0:0:
192,192,2815,1,0,0:0:0:50:clap.wav
64,192,2815,1,0,0:0:0:0:
192,192,2990,1,0,0:0:0:50:clap.wav
64,192,2990,128,0,3164:0:0:0:0:
448,192,3164,5,0,0:0:0:50:clap.wav
320,192,3164,128,0,3339:0:0:0:0:
192,192,3339,128,0,3513:0:0:0:0:
448,192,3513,1,0,0:0:0:50:clap.wav
64,192,3513,1,0,0:0:0:0:
320,192,3687,128,0,3862:0:0:0:0:
192,192,3862,1,0,0:0:0:50:clap.wav
64,192,3862,128,0,4036:0:0:0:0:
448,192,4036,128,0,4211:0:0:0:0:
320,192,4211,1,0,0:0:0:0:
192,192,4211,1,0,0:0:0:50:clap.wav
64,192,4385,128,0,4560:0:0:0:0:
320,192,4560,128,0,4908:0:0:0:0:
448,192,4560,128,0,4734:0:0:0:50:clap.wav
192,192,4734,128,0,4908:0:0:0:0:
448,192,4908,1,0,0:0:0:50:clap.wav
64,192,4908,128,0,5257:0:0:0:0:
320,192,5083,128,0,5257:0:0:0:0:
448,192,5257,1,2,0:0:0:0:
192,192,5257,1,0,0:0:0:0:
64,192,5344,1,2,0:0:0:0:
448,192,5432,1,0,0:0:0:0:
320,192,5432,1,0,0:0:0:40:snare soft.wav
64,192,5519,1,0,0:0:0:0:
192,192,5519,1,0,0:0:0:40:snare soft.wav
448,192,5606,1,0,0:0:0:0:
320,192,5606,1,0,0:0:0:40:snare soft.wav
192,192,5693,1,2,0:0:0:0:
64,192,5780,1,2,0:0:0:0:
320,192,5868,1,2,0:0:0:0:
192,192,5955,1,2,0:0:0:0:
64,192,5955,1,4,0:0:0:0:
448,192,5955,128,0,6653:0:0:0:0:
64,192,6304,1,0,0:0:0:0:
192,192,6304,1,0,0:0:0:0:
320,192,6304,1,8,0:0:0:0:
64,192,6478,1,0,0:0:0:0:
192,192,6653,1,2,0:0:0:0:
320,192,6653,1,0,0:0:0:0:
64,192,6827,1,0,0:0:0:0:
320,192,6827,1,2,0:0:0:0:
64,192,7001,1,0,0:0:0:0:
448,192,7001,1,8,0:0:0:0:
192,192,7001,128,0,7176:0:0:0:0:
320,192,7176,128,0,7350:0:0:0:0:
64,192,7350,1,2,0:0:0:0:
448,192,7350,1,0,0:0:0:0:
320,192,7525,1,2,0:0:0:0:
192,192,7525,128,0,7699:0:0:0:0:
64,192,7699,1,8,0:0:0:0:
320,192,7699,1,0,0:0:0:0:
448,192,7699,1,0,0:0:0:0:
192,192,7874,128,0,8048:0:0:0:0:
64,192,8048,1,0,0:0:0:0:
448,192,8048,1,2,0:0:0:0:
192,192,8222,1,2,0:0:0:0:
320,192,8222,128,0,8571:0:0:0:0:
192,192,8397,1,8,0:0:0:0:
448,192,8397,1,0,0:0:0:0:
64,192,8397,1,0,0:0:0:0:
448,192,8571,1,0,0:0:0:0:
192,192,8746,1,2,0:0:0:0:
64,192,8746,128,0,9094:0:0:0:0:
448,192,8920,1,0,0:0:0:0:
320,192,8920,1,2,0:0:0:0:
192,192,9094,1,8,0:0:0:0:
320,192,9094,1,0,0:0:0:0:
448,192,9094,1,0,0:0:0:0:
192,192,9269,128,0,9618:0:0:0:0:
64,192,9443,1,0,0:0:0:0:
320,192,9443,1,2,0:0:0:0:
448,192,9618,1,0,0:0:0:0:
64,192,9618,1,2,0:0:0:0:
192,192,9792,1,8,0:0:0:0:
448,192,9792,1,0,0:0:0:0:
320,192,9792,128,0,9967:0:0:0:0:
64,192,9967,128,0,10141:0:0:0:0:
448,192,10141,1,2,0:0:0:0:
320,192,10141,1,0,0:0:0:0:
64,192,10315,1,2,0:0:0:0:
192,192,10315,128,0,10490:0:0:0:0:
64,192,10490,1,0,0:0:0:0:
320,192,10490,1,8,0:0:0:0:
448,192,10490,1,0,0:0:0:0:
448,192,10664,128,0,10839:0:0:0:0:
192,192,10839,1,2,0:0:0:0:
64,192,10839,1,0,0:0:0:0:
448,192,11013,1,2,0:0:0:0:
320,192,11013,128,0,11187:0:0:0:0:
64,192,11187,1,0,0:0:0:0:
192,192,11187,1,8,0:0:0:0:
448,192,11187,1,0,0:0:0:0:
192,192,11362,1,0,0:0:0:0:
320,192,11449,1,0,0:0:0:0:
192,192,11536,1,2,0:0:0:0:
448,192,11536,1,4,0:0:0:0:
64,192,11536,128,0,12583:0:0:0:0:
192,192,11711,1,2,0:0:0:0:
320,192,11711,1,0,0:0:0:0:
192,192,11885,1,0,0:0:0:0:
320,192,11885,1,8,0:0:0:0:
448,192,11885,1,0,0:0:0:0:
448,192,12060,1,0,0:0:0:0:
192,192,12234,1,0,0:0:0:0:
320,192,12234,1,2,0:0:0:0:
192,192,12408,1,2,0:0:0:0:
448,192,12408,1,0,0:0:0:0:
320,192,12583,1,8,0:0:0:0:
448,192,12583,1,0,0:0:0:0:
192,192,12583,1,0,0:0:0:0:
64,192,12757,128,0,12932:0:0:0:0:
192,192,12844,128,0,12932:0:0:0:0:
320,192,12932,1,2,0:0:0:0:
448,192,12932,128,0,13106:0:0:0:0:
64,192,13106,1,2,0:0:0:0:
192,192,13106,128,0,13280:0:0:0:0:
64,192,13280,1,0,0:0:0:0:
320,192,13280,1,8,0:0:0:0:
448,192,13280,1,0,0:0:0:0:
320,192,13455,128,0,13629:0:0:0:0:
64,192,13629,1,0,0:0:0:0:
448,192,13629,1,2,0:0:0:0:
192,192,13804,1,2,0:0:0:0:
448,192,13804,128,0,14153:0:0:0:0:
64,192,13978,1,0,0:0:0:0:
192,192,13978,1,8,0:0:0:0:
320,192,13978,1,0,0:0:0:0:
64,192,14153,128,0,14240:0:0:0:0:
448,192,14327,128,0,14501:0:0:0:0:
192,192,14327,128,2,14414:0:0:0:0:
320,192,14501,1,2,0:0:0:0:
192,192,14501,128,0,14676:0:0:0:0:
64,192,14676,1,0,0:0:0:0:
320,192,14676,1,8,0:0:0:0:
448,192,14676,1,0,0:0:0:0:
448,192,14850,128,0,14937:0:0:0:0:
64,192,15025,1,2,0:0:0:0:
448,192,15025,128,0,15199:0:0:0:0:
320,192,15199,1,2,0:0:0:0:
192,192,15199,1,0,0:0:0:0:
192,192,15374,1,0,0:0:0:0:
448,192,15374,1,8,0:0:0:0:
64,192,15374,128,0,15461:0:0:0:0:
64,192,15548,128,0,15722:0:0:0:0:
320,192,15722,1,2,0:0:0:0:
448,192,15722,1,0,0:0:0:0:
320,192,15897,128,0,16071:0:0:0:0:
192,192,15897,1,2,0:0:0:0:
192,192,16071,1,0,0:0:0:0:
64,192,16071,1,0,0:0:0:0:
448,192,16071,1,8,0:0:0:0:
64,192,16246,128,0,16420:0:0:0:0:
448,192,16420,1,0,0:0:0:0:
320,192,16420,1,2,0:0:0:0:
64,192,16594,1,2,0:0:0:0:
192,192,16594,128,0,16769:0:0:0:0:
64,192,16769,1,0,0:0:0:0:
320,192,16769,1,8,0:0:0:0:
448,192,16769,1,0,0:0:0:0:
192,192,16943,1,2,0:0:0:0:
320,192,16943,128,0,17118:0:0:0:0:
64,192,17118,5,8,0:0:0:0:
192,192,17118,1,4,0:0:0:0:
448,192,17118,128,0,17815:0:0:0:0:
64,192,17467,1,0,0:0:0:50:clap.wav
320,192,17467,1,0,0:0:0:0:
64,192,17641,1,0,0:0:0:50:clap.wav
320,192,17641,1,0,0:0:0:0:
64,192,18164,1,0,0:0:0:50:clap.wav
448,192,18164,1,0,0:0:0:0:
192,192,18862,1,0,0:0:0:50:clap.wav
448,192,18862,1,0,0:0:0:0:
192,192,19036,1,0,0:0:0:50:clap.wav
448,192,19036,1,0,0:0:0:0:
64,192,19327,128,0,19560:0:0:0:0:
448,192,19560,1,0,0:0:0:50:clap.wav
192,192,19560,128,0,19734:0:0:0:0:
320,192,19734,128,0,19908:0:0:0:0:
64,192,19908,1,4,0:0:0:0:
192,192,19908,1,2,0:0:0:0:
448,192,19908,128,0,20606:0:0:0:0:
64,192,20257,1,0,0:0:0:0:
192,192,20257,1,0,0:0:0:0:
320,192,20257,1,8,0:0:0:0:
64,192,20432,1,0,0:0:0:0:
192,192,20606,1,0,0:0:0:0:
320,192,20606,1,2,0:0:0:0:
64,192,20780,1,2,0:0:0:0:
448,192,20780,1,0,0:0:0:0:
64,192,20955,1,0,0:0:0:0:
320,192,20955,1,0,0:0:0:0:
192,192,20955,1,8,0:0:0:0:
448,192,21129,1,0,0:0:0:0:
64,192,21304,1,0,0:0:0:0:
192,192,21304,1,2,0:0:0:0:
320,192,21478,1,2,0:0:0:0:
448,192,21478,1,0,0:0:0:0:
64,192,21653,1,0,0:0:0:0:
320,192,21653,1,8,0:0:0:0:
448,192,21653,1,0,0:0:0:0:
192,192,21827,1,0,0:0:0:0:
64,192,22001,1,0,0:0:0:0:
320,192,22001,1,2,0:0:0:0:
192,192,22176,1,2,0:0:0:0:
448,192,22176,1,0,0:0:0:0:
64,192,22350,1,8,0:0:0:0:
320,192,22350,1,0,0:0:0:0:
448,192,22350,1,0,0:0:0:0:
192,192,22525,1,0,0:0:0:0:
448,192,22699,1,2,0:0:0:0:
64,192,22699,128,0,23397:0:0:0:0:
192,192,22874,1,0,0:0:0:0:
320,192,22874,1,2,0:0:0:0:
192,192,23048,1,0,0:0:0:0:
320,192,23048,1,0,0:0:0:0:
448,192,23048,1,8,0:0:0:0:
448,192,23222,1,0,0:0:0:0:
192,192,23397,1,0,0:0:0:0:
320,192,23397,1,2,0:0:0:0:
64,192,23571,1,0,0:0:0:0:
448,192,23571,1,2,0:0:0:0:
64,192,23746,1,0,0:0:0:0:
192,192,23746,1,8,0:0:0:0:
320,192,23746,1,0,0:0:0:0:
448,192,23920,1,0,0:0:0:0:
64,192,24094,1,0,0:0:0:0:
192,192,24094,1,2,0:0:0:0:
320,192,24269,1,2,0:0:0:0:
448,192,24269,1,0,0:0:0:0:
64,192,24443,1,0,0:0:0:0:
192,192,24443,1,8,0:0:0:0:
448,192,24443,1,0,0:0:0:0:
320,192,24618,1,0,0:0:0:0:
64,192,24792,1,2,0:0:0:0:
448,192,24792,1,0,0:0:0:0:
192,192,24967,1,2,0:0:0:0:
320,192,24967,1,0,0:0:0:0:
448,192,25141,1,0,0:0:0:0:
64,192,25141,1,0,0:0:0:40:snare soft.wav
320,192,25228,1,0,0:0:0:40:snare soft.wav
192,192,25315,1,2,0:0:0:0:
64,192,25315,1,0,0:0:0:0:
320,192,25403,1,2,0:0:0:0:
192,192,25490,1,2,0:0:0:0:
64,192,25490,1,4,0:0:0:0:
448,192,25490,128,0,28280:0:0:0:0:
64,192,25839,1,8,0:0:0:0:
192,192,25839,1,0,0:0:0:0:
320,192,25839,1,0,0:0:0:0:
192,192,26013,1,2,0:0:0:0:
64,192,26013,1,0,0:0:0:0:
320,192,26187,1,0,0:0:0:0:
64,192,26362,1,2,0:0:0:0:
192,192,26362,1,0,0:0:0:0:
64,192,26536,1,0,0:0:0:0:
320,192,26536,1,0,0:0:0:0:
192,192,26536,1,8,0:0:0:0:
320,192,26711,1,0,0:0:0:0:
64,192,26885,1,0,0:0:0:0:
192,192,26885,1,2,0:0:0:0:
64,192,27060,1,2,0:0:0:0:
320,192,27060,1,0,0:0:0:0:
192,192,27234,1,8,0:0:0:0:
320,192,27234,1,0,0:0:0:0:
64,192,27234,1,0,0:0:0:0:
192,192,27408,1,2,0:0:0:0:
320,192,27408,1,0,0:0:0:0:
64,192,27583,1,0,0:0:0:0:
192,192,27757,1,0,0:0:0:0:
320,192,27757,1,2,0:0:0:0:
64,192,27932,1,8,0:0:0:0:
192,192,27932,1,0,0:0:0:0:
320,192,27932,1,0,0:0:0:0:
64,192,28106,1,0,0:0:0:0:
192,192,28106,1,8,0:0:0:0:
320,192,28106,1,0,0:0:0:0:
64,192,28280,128,0,28978:0:0:0:0:
320,192,28280,1,2,0:0:0:0:
192,192,28455,1,2,0:0:0:0:
448,192,28455,1,0,0:0:0:0:
320,192,28629,1,8,0:0:0:0:
448,192,28629,1,0,0:0:0:0:
192,192,28629,1,0,0:0:0:0:
192,192,28804,1,2,0:0:0:0:
320,192,28804,1,0,0:0:0:0:
320,192,28978,1,2,0:0:0:0:
448,192,28978,1,0,0:0:0:0:
64,192,29153,1,0,0:0:0:0:
192,192,29153,1,2,0:0:0:0:
64,192,29327,1,0,0:0:0:0:
320,192,29327,1,8,0:0:0:0:
448,192,29327,1,0,0:0:0:0:
192,192,29501,1,0,0:0:0:0:
64,192,29676,1,0,0:0:0:0:
448,192,29676,1,2,0:0:0:0:
192,192,29850,1,0,0:0:0:0:
320,192,29850,1,2,0:0:0:0:
64,192,30025,1,0,0:0:0:0:
192,192,30025,1,8,0:0:0:0:
448,192,30025,1,0,0:0:0:0:
64,192,30199,1,0,0:0:0:0:
320,192,30199,1,2,0:0:0:0:
320,192,30374,1,2,0:0:0:0:
448,192,30374,1,0,0:0:0:0:
64,192,30548,1,0,0:0:0:0:
448,192,30548,1,0,0:0:0:0:
192,192,30548,1,8,0:0:0:0:
320,192,30722,1,8,0:0:0:0:
192,192,30722,1,0,0:0:0:40:snare soft.wav
64,192,30810,1,0,0:0:0:40:snare soft.wav
448,192,30897,1,2,0:0:0:0:
320,192,30897,1,0,0:0:0:0:
192,192,30984,1,2,0:0:0:0:
448,192,31071,1,4,0:0:0:0:
320,192,31071,1,2,0:0:0:0:
64,192,31071,128,0,31769:0:0:0:0:
448,192,31420,1,0,0:0:0:0:
320,192,31420,1,0,0:0:0:0:
192,192,31420,1,8,0:0:0:0:
448,192,31594,1,0,0:0:0:0:
320,192,31769,1,0,0:0:0:0:
192,192,31769,1,2,0:0:0:0:
448,192,31943,1,2,0:0:0:0:
64,192,31943,1,0,0:0:0:0:
448,192,32118,1,0,0:0:0:0:
192,192,32118,1,0,0:0:0:0:
320,192,32118,1,8,0:0:0:0:
64,192,32292,1,0,0:0:0:0:
448,192,32467,1,0,0:0:0:0:
320,192,32467,1,2,0:0:0:0:
192,192,32641,1,2,0:0:0:0:
64,192,32641,1,0,0:0:0:0:
448,192,32815,1,0,0:0:0:0:
192,192,32815,1,8,0:0:0:0:
64,192,32815,1,0,0:0:0:0:
320,192,32990,1,0,0:0:0:0:
448,192,33164,1,0,0:0:0:0:
192,192,33164,1,2,0:0:0:0:
320,192,33339,1,2,0:0:0:0:
64,192,33339,1,0,0:0:0:0:
448,192,33513,1,8,0:0:0:0:
192,192,33513,1,0,0:0:0:0:
64,192,33513,1,0,0:0:0:0:
320,192,33687,1,0,0:0:0:0:
64,192,33862,1,2,0:0:0:0:
448,192,33862,128,0,34560:0:0:0:0:
320,192,34036,1,0,0:0:0:0:
192,192,34036,1,2,0:0:0:0:
320,192,34211,1,0,0:0:0:0:
192,192,34211,1,0,0:0:0:0:
64,192,34211,1,8,0:0:0:0:
64,192,34385,1,0,0:0:0:0:
320,192,34560,1,0,0:0:0:0:
192,192,34560,1,2,0:0:0:0:
448,192,34734,1,0,0:0:0:0:
64,192,34734,1,2,0:0:0:0:
448,192,34908,1,0,0:0:0:0:
320,192,34908,1,8,0:0:0:0:
192,192,34908,1,0,0:0:0:0:
64,192,35083,1,0,0:0:0:0:
448,192,35257,1,0,0:0:0:0:
320,192,35257,1,2,0:0:0:0:
192,192,35432,1,2,0:0:0:0:
64,192,35432,1,0,0:0:0:0:
448,192,35606,1,0,0:0:0:0:
320,192,35606,1,8,0:0:0:0:
64,192,35606,1,0,0:0:0:0:
192,192,35780,1,0,0:0:0:0:
448,192,35955,1,2,0:0:0:0:
64,192,35955,1,0,0:0:0:0:
320,192,36129,1,2,0:0:0:0:
192,192,36129,1,0,0:0:0:0:
64,192,36304,1,0,0:0:0:0:
448,192,36304,1,0,0:0:0:40:snare soft.wav
192,192,36391,1,0,0:0:0:40:snare soft.wav
320,192,36478,1,2,0:0:0:0:
448,192,36478,1,0,0:0:0:0:
192,192,36565,1,2,0:0:0:0:
320,192,36653,1,2,0:0:0:0:
448,192,36653,1,4,0:0:0:0:
64,192,36653,128,0,39443:0:0:0:0:
448,192,37001,1,8,0:0:0:0:
320,192,37001,1,0,0:0:0:0:
192,192,37001,1,0,0:0:0:0:
320,192,37176,1,2,0:0:0:0:
448,192,37176,1,0,0:0:0:0:
192,192,37350,1,0,0:0:0:0:
448,192,37525,1,2,0:0:0:0:
320,192,37525,1,0,0:0:0:0:
448,192,37699,1,0,0:0:0:0:
192,192,37699,1,0,0:0:0:0:
320,192,37699,1,8,0:0:0:0:
192,192,37874,1,0,0:0:0:0:
448,192,38048,1,0,0:0:0:0:
320,192,38048,1,2,0:0:0:0:
448,192,38222,1,2,0:0:0:0:
192,192,38222,1,0,0:0:0:0:
320,192,38397,1,8,0:0:0:0:
192,192,38397,1,0,0:0:0:0:
448,192,38397,1,0,0:0:0:0:
320,192,38571,1,2,0:0:0:0:
192,192,38571,1,0,0:0:0:0:
448,192,38746,1,0,0:0:0:0:
320,192,38920,1,0,0:0:0:0:
192,192,38920,1,2,0:0:0:0:
448,192,39094,1,8,0:0:0:0:
320,192,39094,1,0,0:0:0:0:
192,192,39094,1,0,0:0:0:0:
448,192,39269,1,0,0:0:0:0:
320,192,39269,1,8,0:0:0:0:
192,192,39269,1,0,0:0:0:0:
448,192,39443,128,0,40141:0:0:0:0:
192,192,39443,1,2,0:0:0:0:
320,192,39618,1,2,0:0:0:0:
64,192,39618,1,0,0:0:0:0:
192,192,39792,1,8,0:0:0:0:
64,192,39792,1,0,0:0:0:0:
320,192,39792,1,0,0:0:0:0:
320,192,39967,1,2,0:0:0:0:
192,192,39967,1,0,0:0:0:0:
192,192,40141,1,2,0:0:0:0:
64,192,40141,1,0,0:0:0:0:
448,192,40315,1,0,0:0:0:0:
320,192,40315,1,2,0:0:0:0:
448,192,40490,1,0,0:0:0:0:
192,192,40490,1,0,0:0:0:0:
64,192,40490,1,8,0:0:0:0:
192,192,40664,1,0,0:0:0:0:
320,192,40839,1,2,0:0:0:0:
64,192,40839,1,0,0:0:0:0:
448,192,41013,1,0,0:0:0:0:
192,192,41013,1,2,0:0:0:0:
448,192,41187,1,0,0:0:0:0:
320,192,41187,1,8,0:0:0:0:
64,192,41187,1,0,0:0:0:0:
192,192,41362,1,2,0:0:0:0:
320,192,41362,1,0,0:0:0:0:
448,192,41536,1,0,0:0:0:0:
64,192,41536,1,8,0:0:0:0:
320,192,41536,1,0,0:0:0:0:
192,192,41624,1,2,0:0:0:0:
448,192,41711,1,0,0:0:0:0:
320,192,41711,1,2,0:0:0:0:
64,192,41885,1,0,0:0:0:0:
192,192,41885,1,8,0:0:0:0:
448,192,41885,1,0,0:0:0:0:
320,192,41972,1,0,0:0:0:40:kick tomb.wav
64,192,42060,1,0,0:0:0:40:kick tomb.wav
192,192,42060,1,0,0:0:0:0:
320,192,42147,1,0,0:0:0:40:kick tomb.wav
192,192,42234,1,2,0:0:0:0:
448,192,42234,1,4,0:0:0:0:
64,192,42234,128,0,42583:0:0:0:0:
192,192,42583,1,0,0:0:0:50:clap.wav
320,192,42583,128,0,42932:0:0:0:0:
192,192,42757,1,0,0:0:0:50:clap.wav
448,192,42757,1,0,0:0:0:0:
64,192,42932,128,2,43280:0:0:0:0:
448,192,43106,1,2,0:0:0:0:
192,192,43280,1,0,0:0:0:0:
320,192,43280,1,0,0:0:0:50:clap.wav
448,192,43455,1,2,0:0:0:0:
64,192,43629,1,0,0:0:0:0:
192,192,43804,128,2,43978:0:0:0:0:
320,192,43978,1,0,0:0:0:0:
448,192,43978,1,0,0:0:0:50:clap.wav
448,192,44153,1,0,0:0:0:50:clap.wav
320,192,44153,128,0,44327:0:0:0:0:
192,192,44327,1,2,0:0:0:0:
64,192,44501,128,2,44676:0:0:0:0:
320,192,44676,1,0,0:0:0:0:
192,192,44676,1,0,0:0:0:50:clap.wav
448,192,44850,128,0,45199:0:0:0:0:
64,192,45025,1,2,0:0:0:0:
192,192,45025,1,4,0:0:0:0:
320,192,45199,1,2,0:0:0:0:
192,192,45199,128,0,45374:0:0:0:0:
64,192,45374,128,0,45548:0:0:0:0:
448,192,45374,1,8,0:0:0:0:
320,192,45374,1,0,0:0:0:0:
192,192,45548,128,0,45722:0:0:0:0:
448,192,45635,1,0,0:0:0:40:snare soft.wav
64,192,45722,1,2,0:0:0:0:
320,192,45722,128,0,45897:0:0:0:0:
448,192,45897,1,2,0:0:0:0:
192,192,45897,128,0,46071:0:0:0:0:
64,192,46071,1,0,0:0:0:0:
320,192,46071,1,8,0:0:0:0:
448,192,46071,128,0,46246:0:0:0:0:
64,192,46246,1,0,0:0:0:0:
192,192,46246,1,2,0:0:0:0:
320,192,46420,1,0,0:0:0:0:
448,192,46594,1,0,0:0:0:0:
64,192,46594,1,2,0:0:0:0:
192,192,46769,1,8,0:0:0:0:
64,192,46769,1,0,0:0:0:0:
448,192,46769,1,0,0:0:0:0:
448,192,46943,1,0,0:0:0:0:
320,192,46943,1,2,0:0:0:0:
64,192,47118,1,0,0:0:0:0:
192,192,47118,1,2,0:0:0:0:
320,192,47205,1,8,0:0:0:0:
448,192,47205,1,0,0:0:0:0:
64,192,47205,1,0,0:0:0:0:
64,192,47467,1,0,0:0:0:0:
192,192,47467,1,8,0:0:0:0:
448,192,47467,1,0,0:0:0:0:
192,192,47815,1,2,0:0:0:0:
64,192,47815,1,4,0:0:0:0:
448,192,47815,128,0,48164:0:0:0:0:
320,192,48164,1,0,0:0:0:50:clap.wav
192,192,48164,128,0,48513:0:0:0:0:
448,192,48339,1,0,0:0:0:50:clap.wav
64,192,48339,1,0,0:0:0:0:
320,192,48513,128,2,48862:0:0:0:0:
64,192,48687,1,2,0:0:0:0:
448,192,48862,1,0,0:0:0:0:
192,192,48862,1,0,0:0:0:50:clap.wav
64,192,49036,1,2,0:0:0:0:
448,192,49211,1,0,0:0:0:0:
320,192,49385,128,2,49560:0:0:0:0:
192,192,49560,1,0,0:0:0:0:
64,192,49560,1,0,0:0:0:50:clap.wav
64,192,49734,1,0,0:0:0:50:clap.wav
192,192,49734,128,0,49908:0:0:0:0:
448,192,49908,1,2,0:0:0:0:
64,192,50083,128,2,50257:0:0:0:0:
448,192,50257,1,0,0:0:0:0:
192,192,50257,1,0,0:0:0:50:clap.wav
320,192,50432,128,0,50606:0:0:0:0:
64,192,50606,128,0,52001:0:0:0:0:
192,192,50606,1,2,0:0:0:0:
448,192,50606,1,4,0:0:0:0:
320,192,50955,1,8,0:0:0:0:
448,192,50955,1,0,0:0:0:0:
192,192,50955,1,0,0:0:0:0:
192,192,51217,1,0,0:0:0:40:snare soft.wav
320,192,51304,1,2,0:0:0:0:
448,192,51304,1,0,0:0:0:0:
448,192,51478,1,2,0:0:0:0:
192,192,51478,1,0,0:0:0:0:
192,192,51653,1,0,0:0:0:0:
320,192,51653,1,8,0:0:0:0:
448,192,51653,1,0,0:0:0:0:
320,192,51827,1,0,0:0:0:0:
448,192,51827,1,2,0:0:0:0:
192,192,52001,1,8,0:0:0:0:
320,192,52001,1,0,0:0:0:0:
448,192,52001,1,0,0:0:0:0:
64,192,52263,1,0,0:0:0:0:
448,192,52263,1,0,0:0:0:40:kick tomb.wav
320,192,52525,1,0,0:0:0:0:
192,192,52525,1,0,0:0:0:40:kick tomb.wav
192,192,52699,1,0,0:0:0:0:
64,192,52699,1,0,0:0:0:40:kick tomb.wav
448,192,52874,1,0,0:0:0:0:
320,192,52874,1,0,0:0:0:40:snare soft.wav
64,192,52961,1,0,0:0:0:0:
192,192,52961,1,0,0:0:0:40:snare soft.wav
448,192,53048,1,0,0:0:0:0:
320,192,53048,1,0,0:0:0:40:snare soft.wav
192,192,53135,1,0,0:0:0:40:kick tomb.wav
64,192,53222,1,0,0:0:0:40:kick tomb.wav
320,192,53310,1,0,0:0:0:40:kick tomb.wav
448,192,53397,1,4,0:0:0:0:
192,192,53397,1,2,0:0:0:0:
64,192,53397,1,0,0:0:0:0:
192,192,53571,1,0,0:0:0:50:hihat loud.wav
64,192,53746,1,0,0:0:0:0:
320,192,53746,1,8,0:0:0:0:
448,192,53746,1,0,0:0:0:0:
64,192,53920,1,0,0:0:0:50:hihat loud.wav
192,192,54094,1,2,0:0:0:0:
320,192,54094,1,0,0:0:0:0:
192,192,54269,1,0,0:0:0:50:hihat loud.wav
64,192,54443,1,0,0:0:0:0:
320,192,54443,1,0,0:0:0:0:
448,192,54443,1,8,0:0:0:0:
320,192,54618,1,0,0:0:0:50:hihat loud.wav
448,192,54792,1,0,0:0:0:0:
64,192,54792,1,2,0:0:0:0:
448,192,54967,1,0,0:0:0:50:hihat loud.wav
192,192,55141,1,8,0:0:0:0:
64,192,55141,1,0,0:0:0:0:
320,192,55141,1,0,0:0:0:0:
320,192,55315,1,0,0:0:0:50:hihat loud.wav
192,192,55490,1,0,0:0:0:0:
448,192,55490,1,2,0:0:0:0:
192,192,55664,1,0,0:0:0:50:hihat loud.wav
64,192,55839,1,0,0:0:0:0:
320,192,55839,1,8,0:0:0:0:
448,192,55839,1,0,0:0:0:0:
64,192,56013,1,0,0:0:0:50:hihat loud.wav
192,192,56187,1,2,0:0:0:0:
448,192,56187,1,0,0:0:0:0:
192,192,56362,1,0,0:0:0:50:hihat loud.wav
64,192,56536,1,0,0:0:0:0:
320,192,56536,1,8,0:0:0:0:
448,192,56536,1,0,0:0:0:0:
448,192,56711,1,0,0:0:0:50:hihat loud.wav
64,192,56885,1,2,0:0:0:0:
320,192,56885,1,0,0:0:0:0:
320,192,57060,1,0,0:0:0:50:hihat loud.wav
64,192,57234,1,0,0:0:0:0:
192,192,57234,1,8,0:0:0:0:
448,192,57234,1,0,0:0:0:0:
64,192,57408,1,0,0:0:0:50:hihat loud.wav
320,192,57583,1,0,0:0:0:0:
448,192,57583,1,2,0:0:0:0:
320,192,57757,1,0,0:0:0:50:hihat loud.wav
64,192,57932,1,0,0:0:0:0:
192,192,57932,1,8,0:0:0:0:
448,192,57932,1,0,0:0:0:0:
192,192,58106,1,0,0:0:0:50:hihat loud.wav
320,192,58280,1,2,0:0:0:0:
448,192,58280,1,0,0:0:0:0:
64,192,58368,1,0,0:0:0:40:snare soft.wav
320,192,58455,1,0,0:0:0:0:
192,192,58455,1,0,0:0:0:50:kick tomb.wav
448,192,58542,1,0,0:0:0:50:kick tomb.wav
192,192,58629,1,8,0:0:0:0:
64,192,58629,1,0,0:0:0:0:
320,192,58717,1,0,0:0:0:0:
448,192,58717,1,0,0:0:0:50:kick tomb.wav
64,192,58804,1,0,0:0:0:50:kick tomb.wav
192,192,58978,1,2,0:0:0:0:
320,192,58978,1,4,0:0:0:0:
448,192,58978,1,0,0:0:0:0:
320,192,59153,1,0,0:0:0:50:hihat loud.wav
64,192,59327,1,0,0:0:0:0:
192,192,59327,1,8,0:0:0:0:
448,192,59327,1,0,0:0:0:0:
192,192,59501,1,0,0:0:0:50:hihat loud.wav
64,192,59676,1,2,0:0:0:0:
448,192,59676,1,0,0:0:0:0:
448,192,59850,1,0,0:0:0:50:hihat loud.wav
192,192,60025,1,8,0:0:0:0:
320,192,60025,1,0,0:0:0:0:
64,192,60025,1,0,0:0:0:0:
320,192,60199,1,0,0:0:0:50:hihat loud.wav
64,192,60374,1,2,0:0:0:0:
448,192,60374,1,0,0:0:0:0:
64,192,60548,1,0,0:0:0:50:hihat loud.wav
192,192,60722,1,0,0:0:0:0:
320,192,60722,1,8,0:0:0:0:
448,192,60722,1,0,0:0:0:0:
192,192,60897,1,0,0:0:0:50:hihat loud.wav
64,192,61071,1,2,0:0:0:0:
448,192,61071,1,0,0:0:0:0:
448,192,61246,1,0,0:0:0:50:hihat loud.wav
192,192,61420,1,8,0:0:0:0:
64,192,61420,1,0,0:0:0:0:
320,192,61420,1,0,0:0:0:0:
320,192,61594,1,0,0:0:0:50:hihat loud.wav
64,192,61769,1,0,0:0:0:0:
448,192,61769,1,2,0:0:0:0:
64,192,61943,1,0,0:0:0:50:hihat loud.wav
192,192,62118,1,0,0:0:0:0:
320,192,62118,1,8,0:0:0:0:
448,192,62118,1,0,0:0:0:0:
448,192,62292,1,0,0:0:0:50:hihat loud.wav
64,192,62467,1,0,0:0:0:0:
192,192,62467,1,2,0:0:0:0:
192,192,62641,1,0,0:0:0:50:hihat loud.wav
64,192,62815,1,0,0:0:0:0:
448,192,62815,1,0,0:0:0:0:
320,192,62815,1,8,0:0:0:0:
64,192,62990,1,0,0:0:0:50:hihat loud.wav
320,192,63164,1,0,0:0:0:0:
192,192,63164,1,2,0:0:0:0:
192,192,63339,1,0,0:0:0:50:hihat loud.wav
448,192,63513,1,8,0:0:0:0:
64,192,63513,1,0,0:0:0:0:
320,192,63513,1,0,0:0:0:0:
320,192,63687,1,0,0:0:0:50:hihat loud.wav
64,192,63862,1,8,0:0:0:0:
448,192,63862,1,0,0:0:0:0:
192,192,63862,128,0,64211:0:0:0:0:
64,192,64211,128,0,64560:0:0:0:0:
448,192,64211,1,0,0:0:0:0:
320,192,64211,1,8,0:0:0:0:
192,192,64298,1,0,0:0:0:40:snare soft.wav
448,192,64385,1,0,0:0:0:40:snare soft.wav
320,192,64472,1,0,0:0:0:40:snare soft.wav
448,192,64560,1,2,0:0:0:0:
192,192,64560,1,4,0:0:0:0:
320,192,64734,1,0,0:0:0:50:hihat loud.wav
64,192,64908,1,0,0:0:0:0:
192,192,64908,1,8,0:0:0:0:
448,192,64908,1,0,0:0:0:0:
448,192,65083,1,0,0:0:0:50:hihat loud.wav
192,192,65257,1,0,0:0:0:0:
320,192,65257,1,2,0:0:0:0:
192,192,65432,1,0,0:0:0:50:hihat loud.wav
64,192,65606,1,0,0:0:0:0:
320,192,65606,1,8,0:0:0:0:
448,192,65606,1,0,0:0:0:0:
64,192,65780,1,0,0:0:0:50:hihat loud.wav
192,192,65955,1,2,0:0:0:0:
448,192,65955,1,0,0:0:0:0:
448,192,66129,1,0,0:0:0:50:hihat loud.wav
64,192,66304,1,8,0:0:0:0:
192,192,66304,1,0,0:0:0:0:
320,192,66304,1,0,0:0:0:0:
320,192,66478,1,0,0:0:0:50:hihat loud.wav
64,192,66653,1,0,0:0:0:0:
448,192,66653,1,2,0:0:0:0:
64,192,66827,1,0,0:0:0:50:hihat loud.wav
192,192,67001,1,0,0:0:0:0:
320,192,67001,1,8,0:0:0:0:
448,192,67001,1,0,0:0:0:0:
192,192,67176,1,0,0:0:0:50:hihat loud.wav
64,192,67350,1,2,0:0:0:0:
320,192,67350,1,0,0:0:0:0:
320,192,67525,1,0,0:0:0:50:hihat loud.wav
64,192,67699,1,0,0:0:0:0:
192,192,67699,1,8,0:0:0:0:
448,192,67699,1,0,0:0:0:0:
448,192,67874,1,0,0:0:0:50:hihat loud.wav
192,192,68048,1,0,0:0:0:0:
320,192,68048,1,2,0:0:0:0:
192,192,68222,1,0,0:0:0:50:hihat loud.wav
64,192,68397,1,0,0:0:0:0:
320,192,68397,1,8,0:0:0:0:
448,192,68397,1,0,0:0:0:0:
320,192,68571,1,0,0:0:0:50:hihat loud.wav
192,192,68746,1,0,0:0:0:0:
448,192,68746,1,2,0:0:0:0:
448,192,68920,1,0,0:0:0:50:hihat loud.wav
64,192,69094,1,0,0:0:0:0:
192,192,69094,1,0,0:0:0:0:
320,192,69094,1,8,0:0:0:0:
320,192,69269,1,0,0:0:0:50:hihat loud.wav
64,192,69443,1,2,0:0:0:0:
448,192,69443,1,0,0:0:0:0:
64,192,69618,1,0,0:0:0:50:hihat loud.wav
192,192,69792,1,8,0:0:0:0:
320,192,69792,1,0,0:0:0:0:
448,192,69792,1,0,0:0:0:0:
448,192,69967,1,0,0:0:0:50:hihat loud.wav
64,192,70141,1,4,0:0:0:0:
192,192,70141,1,0,0:0:0:0:
320,192,70141,1,2,0:0:0:0:
192,192,70315,1,0,0:0:0:50:hihat loud.wav
64,192,70490,1,0,0:0:0:0:
448,192,70490,1,0,0:0:0:0:
320,192,70490,1,8,0:0:0:0:
64,192,70664,1,0,0:0:0:50:hihat loud.wav
192,192,70839,1,2,0:0:0:0:
448,192,70839,1,0,0:0:0:0:
448,192,71013,1,0,0:0:0:50:hihat loud.wav
64,192,71187,1,0,0:0:0:0:
192,192,71187,1,0,0:0:0:0:
320,192,71187,1,8,0:0:0:0:
320,192,71362,1,0,0:0:0:50:hihat loud.wav
64,192,71536,1,2,0:0:0:0:
448,192,71536,1,0,0:0:0:0:
64,192,71711,1,0,0:0:0:50:hihat loud.wav
192,192,71885,1,0,0:0:0:0:
320,192,71885,1,8,0:0:0:0:
448,192,71885,1,0,0:0:0:0:
192,192,72060,1,0,0:0:0:50:hihat loud.wav
64,192,72234,1,2,0:0:0:0:
320,192,72234,1,0,0:0:0:0:
320,192,72408,1,0,0:0:0:50:hihat loud.wav
64,192,72583,1,0,0:0:0:0:
192,192,72583,1,8,0:0:0:0:
448,192,72583,1,0,0:0:0:0:
448,192,72757,1,0,0:0:0:50:hihat loud.wav
192,192,72932,1,0,0:0:0:0:
320,192,72932,1,2,0:0:0:0:
192,192,73106,1,0,0:0:0:50:hihat loud.wav
64,192,73280,1,0,0:0:0:0:
320,192,73280,1,8,0:0:0:0:
448,192,73280,1,0,0:0:0:0:
64,192,73455,1,0,0:0:0:50:hihat loud.wav
192,192,73629,1,2,0:0:0:0:
448,192,73629,1,0,0:0:0:0:
192,192,73804,1,0,0:0:0:50:hihat loud.wav
64,192,73978,1,0,0:0:0:0:
320,192,73978,1,8,0:0:0:0:
448,192,73978,1,0,0:0:0:0:
320,192,74153,1,0,0:0:0:50:hihat loud.wav
64,192,74327,1,2,0:0:0:0:
192,192,74327,1,4,0:0:0:0:
448,192,74327,1,0,0:0:0:0:
320,192,74501,1,0,0:0:0:0:
64,192,74676,1,0,0:0:0:50:kick tomb.wav
192,192,74676,1,0,0:0:0:0:
448,192,74850,1,0,0:0:0:0:
192,192,75025,1,0,0:0:0:0:
64,192,75025,1,0,0:0:0:50:kick tomb.wav
320,192,75083,1,0,0:0:0:50:kick tomb.wav
448,192,75141,1,0,0:0:0:50:kick tomb.wav
192,192,75199,1,0,0:0:0:50:kick tomb.wav
64,192,75374,128,0,75722:0:0:0:0:
320,192,75374,1,8,0:0:0:0:
448,192,75374,1,0,0:0:0:0:
320,192,75722,1,4,0:0:0:0:
448,192,75722,1,2,0:0:0:0:
192,192,75722,128,0,76071:0:0:0:0:
64,192,75897,1,0,0:0:0:50:hihat loud.wav
320,192,76071,1,0,0:0:0:0:
64,192,76071,1,8,0:0:0:0:
448,192,76071,128,0,76420:0:0:0:0:
320,192,76246,1,0,0:0:0:50:hihat loud.wav
64,192,76420,1,2,0:0:0:0:
192,192,76420,128,0,76769:0:0:0:0:
448,192,76594,1,0,0:0:0:50:hihat loud.wav
64,192,76769,1,0,0:0:0:0:
448,192,76769,1,8,0:0:0:0:
320,192,76769,128,0,77118:0:0:0:0:
192,192,76943,1,0,0:0:0:50:hihat loud.wav
448,192,77118,1,2,0:0:0:0:
64,192,77118,128,0,77467:0:0:0:0:
192,192,77292,1,0,0:0:0:50:hihat loud.wav
320,192,77467,1,8,0:0:0:0:
192,192,77467,1,0,0:0:0:0:
448,192,77467,128,0,77815:0:0:0:0:
64,192,77641,1,0,0:0:0:50:hihat loud.wav
320,192,77815,1,2,0:0:0:0:
192,192,77815,128,0,78164:0:0:0:0:
64,192,77990,1,0,0:0:0:50:hihat loud.wav
64,192,78164,1,8,0:0:0:0:
448,192,78164,1,0,0:0:0:0:
320,192,78164,128,0,78513:0:0:0:0:
192,192,78339,1,0,0:0:0:50:hihat loud.wav
64,192,78513,1,2,0:0:0:0:
448,192,78513,128,0,78862:0:0:0:0:
192,192,78687,1,0,0:0:0:50:hihat loud.wav
64,192,78862,128,0,79211:0:0:0:0:
192,192,78862,1,0,0:0:0:0:
320,192,78862,1,8,0:0:0:0:
448,192,79036,1,0,0:0:0:50:hihat loud.wav
192,192,79211,128,0,79560:0:0:0:0:
320,192,79211,1,2,0:0:0:0:
64,192,79385,1,0,0:0:0:50:hihat loud.wav
448,192,79560,128,0,79908:0:0:0:0:
320,192,79560,1,0,0:0:0:0:
64,192,79560,1,8,0:0:0:0:
320,192,79734,1,0,0:0:0:50:hihat loud.wav
192,192,79908,1,2,0:0:0:0:
64,192,79908,128,0,80257:0:0:0:0:
448,192,80083,1,0,0:0:0:50:hihat loud.wav
320,192,80257,1,8,0:0:0:0:
448,192,80257,1,0,0:0:0:0:
192,192,80257,128,0,80606:0:0:0:0:
64,192,80432,1,0,0:0:0:50:hihat loud.wav
320,192,80606,1,2,0:0:0:0:
448,192,80606,128,0,80955:0:0:0:0:
64,192,80780,1,0,0:0:0:0:
192,192,80780,1,0,0:0:0:50:kick tomb.wav
192,192,80955,1,8,0:0:0:0:
320,192,80955,128,0,81304:0:0:0:0:
448,192,81042,1,0,0:0:0:50:kick tomb.wav
64,192,81129,1,0,0:0:0:50:kick tomb.wav
192,192,81217,1,0,0:0:0:50:kick tomb.wav
448,192,81304,1,2,0:0:0:0:
64,192,81304,128,4,83397:0:0:0:0:
192,192,81478,1,0,0:0:0:50:hihat loud.wav
192,192,81653,1,0,0:0:0:0:
320,192,81653,1,8,0:0:0:0:
448,192,81653,1,0,0:0:0:0:
448,192,81827,1,0,0:0:0:50:hihat loud.wav
192,192,82001,1,0,0:0:0:0:
320,192,82001,1,2,0:0:0:0:
448,192,82176,1,0,0:0:0:50:hihat loud.wav
320,192,82350,1,8,0:0:0:0:
448,192,82350,1,0,0:0:0:0:
192,192,82350,1,0,0:0:0:0:
192,192,82525,1,0,0:0:0:50:hihat loud.wav
448,192,82699,1,0,0:0:0:0:
320,192,82699,1,2,0:0:0:0:
192,192,82874,1,0,0:0:0:50:hihat loud.wav
192,192,83048,1,8,0:0:0:0:
320,192,83048,1,0,0:0:0:0:
448,192,83048,1,0,0:0:0:0:
448,192,83222,1,0,0:0:0:50:hihat loud.wav
192,192,83397,1,0,0:0:0:0:
320,192,83397,1,2,0:0:0:0:
448,192,83571,1,0,0:0:0:50:hihat loud.wav
192,192,83746,1,0,0:0:0:0:
64,192,83746,1,8,0:0:0:0:
448,192,83746,1,0,0:0:0:0:
192,192,83920,1,0,0:0:0:50:hihat loud.wav
320,192,84094,1,2,0:0:0:0:
448,192,84094,128,0,85490:0:0:0:0:
64,192,84269,1,0,0:0:0:50:hihat loud.wav
64,192,84443,1,0,0:0:0:0:
192,192,84443,1,8,0:0:0:0:
320,192,84443,1,0,0:0:0:0:
192,192,84618,1,0,0:0:0:50:hihat loud.wav
64,192,84792,1,2,0:0:0:0:
320,192,84792,1,0,0:0:0:0:
192,192,84967,1,0,0:0:0:50:hihat loud.wav
192,192,85141,1,8,0:0:0:0:
320,192,85141,1,0,0:0:0:0:
64,192,85141,1,0,0:0:0:0:
320,192,85315,1,0,0:0:0:50:hihat loud.wav
64,192,85490,1,0,0:0:0:0:
192,192,85490,1,2,0:0:0:0:
448,192,85664,1,0,0:0:0:50:hihat loud.wav
320,192,85751,1,0,0:0:0:0:
192,192,85839,1,8,0:0:0:0:
64,192,85839,1,0,0:0:0:0:
448,192,85839,1,0,0:0:0:0:
192,192,86013,1,0,0:0:0:50:hihat loud.wav
64,192,86187,1,0,0:0:0:0:
320,192,86187,1,8,0:0:0:0:
448,192,86187,1,0,0:0:0:0:
192,192,86275,1,0,0:0:0:40:snare soft.wav
448,192,86362,1,0,0:0:0:40:snare soft.wav
320,192,86449,1,0,0:0:0:40:snare soft.wav
192,192,86536,1,8,0:0:0:0:
64,192,86536,1,0,0:0:0:0:
448,192,86536,1,0,0:0:0:0:
320,192,86624,1,0,0:0:0:40:snare soft.wav
64,192,86711,1,0,0:0:0:40:snare soft.wav
192,192,86798,1,0,0:0:0:40:snare soft.wav
320,192,86885,1,2,0:0:0:0:
448,192,86885,1,4,0:0:0:0:
64,192,86885,128,0,88280:0:0:0:0:
448,192,87060,1,0,0:0:0:50:hihat loud.wav
192,192,87234,1,0,0:0:0:0:
320,192,87234,1,8,0:0:0:0:
448,192,87234,1,0,0:0:0:0:
192,192,87408,1,0,0:0:0:50:hihat loud.wav
320,192,87583,1,2,0:0:0:0:
448,192,87583,1,0,0:0:0:0:
192,192,87757,1,0,0:0:0:50:hihat loud.wav
192,192,87932,1,8,0:0:0:0:
320,192,87932,1,0,0:0:0:0:
448,192,87932,1,0,0:0:0:0:
320,192,88106,1,0,0:0:0:50:hihat loud.wav
448,192,88280,128,0,89676:0:0:0:0:
192,192,88280,1,2,0:0:0:0:
320,192,88455,1,0,0:0:0:50:hihat loud.wav
64,192,88629,1,0,0:0:0:0:
192,192,88629,1,8,0:0:0:0:
320,192,88629,1,0,0:0:0:0:
64,192,88804,1,0,0:0:0:50:hihat loud.wav
192,192,88978,1,2,0:0:0:0:
320,192,88978,1,0,0:0:0:0:
64,192,89153,1,0,0:0:0:50:hihat loud.wav
192,192,89327,1,0,0:0:0:0:
320,192,89327,1,8,0:0:0:0:
64,192,89327,1,0,0:0:0:0:
320,192,89501,1,0,0:0:0:50:hihat loud.wav
64,192,89676,128,0,90025:0:0:0:0:
192,192,89676,1,2,0:0:0:0:
448,192,89850,1,0,0:0:0:50:hihat loud.wav
192,192,90025,1,0,0:0:0:0:
320,192,90025,1,8,0:0:0:0:
448,192,90025,1,0,0:0:0:0:
320,192,90199,1,0,0:0:0:50:hihat loud.wav
192,192,90374,128,0,90722:0:0:0:0:
64,192,90374,1,2,0:0:0:0:
320,192,90548,1,0,0:0:0:50:hihat loud.wav
64,192,90722,1,0,0:0:0:0:
320,192,90722,1,0,0:0:0:0:
448,192,90722,1,8,0:0:0:0:
192,192,90897,1,0,0:0:0:50:hihat loud.wav
320,192,91071,128,0,91420:0:0:0:0:
64,192,91071,1,0,0:0:0:0:
448,192,91071,1,2,0:0:0:0:
192,192,91246,1,0,0:0:0:50:hihat loud.wav
64,192,91420,1,8,0:0:0:0:
192,192,91420,1,0,0:0:0:0:
448,192,91420,1,0,0:0:0:0:
320,192,91594,1,0,0:0:0:50:hihat loud.wav
448,192,91769,128,0,92118:0:0:0:0:
64,192,91769,1,2,0:0:0:0:
192,192,91943,1,0,0:0:0:50:hihat loud.wav
64,192,92118,1,0,0:0:0:0:
192,192,92118,1,8,0:0:0:0:
320,192,92118,128,0,92467:0:0:0:0:
448,192,92292,1,0,0:0:0:50:hihat loud.wav
64,192,92467,128,0,93164:0:0:0:0:
192,192,92467,1,4,0:0:0:0:
448,192,92467,1,2,0:0:0:0:
192,192,92641,1,0,0:0:0:50:hihat loud.wav
192,192,92815,1,0,0:0:0:0:
320,192,92815,1,8,0:0:0:0:
448,192,92815,1,0,0:0:0:0:
448,192,92990,1,0,0:0:0:50:hihat loud.wav
192,192,93164,128,0,93513:0:0:0:0:
320,192,93164,1,2,0:0:0:0:
64,192,93339,1,0,0:0:0:50:hihat loud.wav
64,192,93513,1,0,0:0:0:0:
320,192,93513,1,8,0:0:0:0:
448,192,93513,1,0,0:0:0:0:
448,192,93687,1,0,0:0:0:50:hihat loud.wav
192,192,93862,1,2,0:0:0:0:
320,192,93862,128,0,94560:0:0:0:0:
64,192,94036,1,0,0:0:0:50:hihat loud.wav
64,192,94211,1,0,0:0:0:0:
192,192,94211,1,8,0:0:0:0:
448,192,94211,1,0,0:0:0:0:
448,192,94385,1,0,0:0:0:50:hihat loud.wav
64,192,94560,128,0,95257:0:0:0:0:
192,192,94560,1,2,0:0:0:0:
448,192,94734,1,0,0:0:0:50:hihat loud.wav
192,192,94908,1,0,0:0:0:0:
320,192,94908,1,8,0:0:0:0:
448,192,94908,1,0,0:0:0:0:
192,192,95083,1,0,0:0:0:50:hihat loud.wav
448,192,95257,128,0,95955:0:0:0:0:
320,192,95257,1,2,0:0:0:0:
64,192,95432,1,0,0:0:0:50:hihat loud.wav
64,192,95606,1,0,0:0:0:0:
192,192,95606,1,8,0:0:0:0:
320,192,95606,1,0,0:0:0:0:
320,192,95780,1,0,0:0:0:50:hihat loud.wav
64,192,95955,1,2,0:0:0:0:
192,192,95955,128,0,96653:0:0:0:0:
320,192,96129,1,0,0:0:0:50:hihat loud.wav
64,192,96304,1,0,0:0:0:0:
320,192,96304,1,8,0:0:0:0:
448,192,96304,1,0,0:0:0:0:
64,192,96478,1,0,0:0:0:50:hihat loud.wav
448,192,96478,1,2,0:0:0:0:
64,192,96653,1,2,0:0:0:0:
448,192,96653,128,0,97350:0:0:0:0:
320,192,96653,128,4,97001:0:0:0:0:
64,192,97001,128,0,97350:0:0:0:0:
192,192,97001,1,0,0:0:0:50:kick tomb.wav
192,192,97350,128,0,98048:0:0:0:50:kick tomb.wav
320,192,97350,128,8,97699:0:0:0:0:
64,192,97699,128,4,98048:0:0:0:0:
448,192,97699,1,8,0:0:0:0:
320,192,98048,1,0,0:0:0:40:kick tomb.wav
448,192,98048,128,0,98222:0:0:0:0:
448,192,98397,1,0,0:0:0:0:
64,192,98397,1,0,0:0:0:0:
320,192,98397,1,0,0:0:0:40:snare soft.wav
192,192,98571,1,0,0:0:0:40:kick tomb.wav
64,192,98571,1,0,0:0:0:0:
448,192,98658,1,0,0:0:0:0:
320,192,98658,1,0,0:0:0:40:kick tomb.wav
192,192,98746,1,0,0:0:0:40:kick tomb.wav
64,192,98746,128,0,98833:0:0:0:0:
448,192,98920,1,0,0:0:0:40:kick tomb.wav
64,192,98920,128,0,99094:0:0:0:0:
448,192,99094,1,0,0:0:0:0:
192,192,99094,1,0,0:0:0:0:
320,192,99094,1,0,0:0:0:40:snare soft.wav
192,192,99269,1,0,0:0:0:40:kick tomb.wav
64,192,99269,1,0,0:0:0:0:
320,192,99356,1,0,0:0:0:40:kick tomb.wav
448,192,99356,1,0,0:0:0:0:
64,192,99443,1,0,0:0:0:40:kick tomb.wav
192,192,99443,128,0,99618:0:0:0:0:
320,192,99792,128,0,99967:0:0:0:0:
448,192,99792,1,0,0:0:0:0:
64,192,99792,1,0,0:0:0:40:snare soft.wav
192,192,99967,1,0,0:0:0:40:kick tomb.wav
64,192,99967,1,0,0:0:0:0:
448,192,100054,1,0,0:0:0:0:
320,192,100054,1,0,0:0:0:40:kick tomb.wav
64,192,100141,128,0,100228:0:0:0:0:
192,192,100141,1,0,0:0:0:40:kick tomb.wav
64,192,100315,128,0,100490:0:0:0:0:
448,192,100490,1,0,0:0:0:0:
320,192,100490,1,0,0:0:0:0:
192,192,100490,1,0,0:0:0:40:snare soft.wav
64,192,100664,1,0,0:0:0:0:
192,192,100664,1,0,0:0:0:40:kick tomb.wav
448,192,100751,1,0,0:0:0:0:
320,192,100751,1,0,0:0:0:40:kick tomb.wav
192,192,100839,128,0,101013:0:0:0:0:
64,192,100839,1,0,0:0:0:40:kick tomb.wav
448,192,101187,1,0,0:0:0:0:
64,192,101187,1,0,0:0:0:0:
192,192,101187,1,0,0:0:0:40:snare soft.wav
448,192,101362,1,0,0:0:0:0:
320,192,101362,1,0,0:0:0:40:kick tomb.wav
192,192,101449,1,0,0:0:0:40:kick tomb.wav
64,192,101449,1,0,0:0:0:0:
448,192,101536,128,0,101624:0:0:0:0:
320,192,101536,1,0,0:0:0:40:kick tomb.wav
448,192,101711,128,0,101885:0:0:0:0:
64,192,101711,1,0,0:0:0:40:kick tomb.wav
320,192,101885,1,0,0:0:0:0:
64,192,101885,1,0,0:0:0:0:
192,192,101885,1,0,0:0:0:40:snare soft.wav
448,192,102060,1,0,0:0:0:0:
320,192,102060,1,0,0:0:0:40:kick tomb.wav
64,192,102147,1,0,0:0:0:0:
192,192,102147,1,0,0:0:0:40:kick tomb.wav
320,192,102234,128,0,102408:0:0:0:0:
448,192,102234,1,0,0:0:0:40:kick tomb.wav
448,192,102583,1,0,0:0:0:0:
192,192,102583,128,0,102757:0:0:0:0:
64,192,102583,1,0,0:0:0:40:snare soft.wav
320,192,102932,1,8,0:0:0:0:
448,192,102932,1,0,0:0:0:0:
192,192,103019,1,8,0:0:0:0:
64,192,103019,1,0,0:0:0:0:
320,192,103106,1,8,0:0:0:0:
448,192,103106,1,0,0:0:0:0:
192,192,103193,1,8,0:0:0:0:
64,192,103193,1,0,0:0:0:0:
448,192,103280,1,0,0:0:0:0:
320,192,103280,1,8,0:0:0:0:
192,192,103368,1,8,0:0:0:0:
64,192,103368,1,0,0:0:0:0:
448,192,103455,1,0,0:0:0:0:
320,192,103455,1,8,0:0:0:0:
192,192,103542,1,8,0:0:0:0:
320,192,103629,1,2,0:0:0:0:
448,192,103629,1,4,0:0:0:0:
64,192,103629,128,0,104327:0:0:0:0:
448,192,103978,1,0,0:0:0:0:
320,192,103978,1,0,0:0:0:0:
192,192,103978,1,8,0:0:0:0:
448,192,104153,1,0,0:0:0:0:
320,192,104327,1,2,0:0:0:0:
192,192,104327,1,0,0:0:0:0:
448,192,104501,1,0,0:0:0:0:
192,192,104501,1,2,0:0:0:0:
448,192,104676,1,0,0:0:0:0:
64,192,104676,1,8,0:0:0:0:
320,192,104676,128,0,104850:0:0:0:0:
192,192,104850,128,0,105025:0:0:0:0:
448,192,105025,1,2,0:0:0:0:
64,192,105025,1,0,0:0:0:0:
192,192,105199,1,2,0:0:0:0:
320,192,105199,128,0,105374:0:0:0:0:
448,192,105374,1,8,0:0:0:0:
192,192,105374,1,0,0:0:0:0:
64,192,105374,1,0,0:0:0:0:
320,192,105548,128,0,105722:0:0:0:0:
448,192,105722,1,0,0:0:0:0:
64,192,105722,1,2,0:0:0:0:
320,192,105897,1,2,0:0:0:0:
192,192,105897,128,0,106246:0:0:0:0:
320,192,106071,1,8,0:0:0:0:
64,192,106071,1,0,0:0:0:0:
448,192,106071,1,0,0:0:0:0:
64,192,106246,1,0,0:0:0:0:
448,192,106246,1,0,0:0:0:0:
320,192,106246,1,8,0:0:0:0:
192,192,106420,1,2,0:0:0:0:
448,192,106420,128,0,106769:0:0:0:0:
64,192,106420,1,4,0:0:0:0:
320,192,106594,1,0,0:0:0:0:
192,192,106594,1,2,0:0:0:0:
320,192,106769,1,8,0:0:0:0:
192,192,106769,1,0,0:0:0:0:
64,192,106769,1,0,0:0:0:0:
320,192,106943,128,0,107292:0:0:0:0:
448,192,107118,1,0,0:0:0:0:
192,192,107118,1,2,0:0:0:0:
64,192,107292,1,0,0:0:0:0:
448,192,107292,1,2,0:0:0:0:
320,192,107467,1,8,0:0:0:0:
64,192,107467,1,0,0:0:0:0:
192,192,107467,128,0,107641:0:0:0:0:
448,192,107641,128,0,107815:0:0:0:0:
64,192,107815,1,2,0:0:0:0:
192,192,107815,1,0,0:0:0:0:
448,192,107990,1,2,0:0:0:0:
320,192,107990,128,0,108164:0:0:0:0:
448,192,108164,1,0,0:0:0:0:
192,192,108164,1,8,0:0:0:0:
64,192,108164,1,0,0:0:0:0:
64,192,108339,128,0,108513:0:0:0:0:
320,192,108513,1,2,0:0:0:0:
448,192,108513,1,0,0:0:0:0:
64,192,108687,1,2,0:0:0:0:
192,192,108687,128,0,109036:0:0:0:0:
448,192,108862,1,0,0:0:0:0:
320,192,108862,1,8,0:0:0:0:
64,192,108862,1,0,0:0:0:0:
320,192,109036,1,8,0:0:0:0:
64,192,109036,1,0,0:0:0:0:
448,192,109036,1,0,0:0:0:0:
192,192,109211,1,2,0:0:0:0:
320,192,109211,1,4,0:0:0:0:
448,192,109211,128,0,110257:0:0:0:0:
64,192,109385,1,2,0:0:0:0:
192,192,109385,1,0,0:0:0:0:
320,192,109560,1,0,0:0:0:0:
192,192,109560,1,8,0:0:0:0:
64,192,109560,1,0,0:0:0:0:
320,192,109734,1,0,0:0:0:0:
64,192,109908,1,0,0:0:0:0:
192,192,109908,1,2,0:0:0:0:
320,192,110083,1,2,0:0:0:0:
64,192,110083,1,0,0:0:0:0:
192,192,110257,1,8,0:0:0:0:
64,192,110257,1,0,0:0:0:0:
320,192,110257,1,0,0:0:0:0:
448,192,110432,128,0,110606:0:0:0:0:
320,192,110519,128,0,110606:0:0:0:0:
192,192,110606,1,2,0:0:0:0:
64,192,110606,128,0,110780:0:0:0:0:
448,192,110780,1,2,0:0:0:0:
320,192,110780,128,0,110955:0:0:0:0:
448,192,110955,1,0,0:0:0:0:
192,192,110955,1,8,0:0:0:0:
64,192,110955,1,0,0:0:0:0:
320,192,111129,128,0,111304:0:0:0:0:
448,192,111304,1,0,0:0:0:0:
64,192,111304,1,2,0:0:0:0:
320,192,111478,1,2,0:0:0:0:
192,192,111478,128,0,111827:0:0:0:0:
448,192,111653,1,0,0:0:0:0:
320,192,111653,1,8,0:0:0:0:
64,192,111653,1,0,0:0:0:0:
448,192,111827,128,0,112001:0:0:0:0:
192,192,112001,1,2,0:0:0:0:
64,192,112001,128,0,112176:0:0:0:0:
320,192,112001,1,0,0:0:0:45:crash loud.wav
320,192,112176,128,0,112350:0:0:0:0:
64,192,112350,1,0,0:0:0:0:
192,192,112350,1,0,0:0:0:0:
448,192,112350,1,8,0:0:0:0:
192,192,112525,128,0,112699:0:0:0:0:
64,192,112699,1,0,0:0:0:0:
320,192,112699,1,8,0:0:0:0:
448,192,112699,1,0,0:0:0:0:
320,192,112874,1,0,0:0:0:0:
64,192,112939,1,0,0:0:0:0:
192,192,112939,1,0,0:0:0:0:
448,192,112939,1,8,0:0:0:0:
320,192,113048,128,0,113222:0:0:0:0:
448,192,113222,128,0,113397:0:0:0:0:
192,192,113266,1,0,0:0:0:0:
64,192,113266,1,0,0:0:0:40:kick tomb.wav
320,192,113571,128,0,113746:0:0:0:0:
64,192,113615,1,0,0:0:0:0:
448,192,113615,1,0,0:0:0:40:kick tomb.wav
192,192,113920,128,0,114094:0:0:0:0:
64,192,113920,1,0,0:0:0:40:kick tomb.wav
448,192,114094,1,0,0:0:0:40:kick tomb.wav
320,192,114094,1,0,0:0:0:40:kick tomb.wav
64,192,114269,1,0,0:0:0:40:kick tomb.wav
448,192,114269,128,0,114443:0:0:0:0:
192,192,114443,1,0,0:0:0:40:kick tomb.wav
64,192,114443,1,0,0:0:0:0:
192,192,114618,128,0,114792:0:0:0:0:
64,192,114792,1,4,0:0:0:0:
320,192,114792,1,2,0:0:0:0:
448,192,114792,1,0,0:0:0:0:
448,192,114967,1,0,0:0:0:0:
448,192,115141,1,0,0:0:0:0:
64,192,115141,1,0,0:0:0:0:
192,192,115141,1,8,0:0:0:0:
448,192,115315,1,0,0:0:0:0:
448,192,115490,1,0,0:0:0:0:
64,192,115490,1,2,0:0:0:0:
448,192,115664,1,0,0:0:0:0:
192,192,115664,1,2,0:0:0:0:
448,192,115839,1,0,0:0:0:0:
64,192,115839,1,0,0:0:0:0:
320,192,115839,1,8,0:0:0:0:
448,192,116013,1,0,0:0:0:0:
448,192,116187,1,0,0:0:0:0:
192,192,116187,1,2,0:0:0:0:
448,192,116362,1,0,0:0:0:0:
320,192,116362,1,2,0:0:0:0:
448,192,116536,1,0,0:0:0:0:
192,192,116536,1,0,0:0:0:0:
64,192,116536,1,8,0:0:0:0:
448,192,116711,1,0,0:0:0:0:
448,192,116885,1,0,0:0:0:0:
192,192,116885,1,2,0:0:0:0:
448,192,117060,1,0,0:0:0:0:
64,192,117060,1,2,0:0:0:0:
448,192,117234,1,0,0:0:0:0:
320,192,117234,1,8,0:0:0:0:
64,192,117234,1,0,0:0:0:0:
448,192,117408,1,0,0:0:0:0:
192,192,117408,1,0,0:0:0:0:
320,192,117408,1,0,0:0:0:0:
448,192,117583,1,2,0:0:0:0:
64,192,117583,1,0,0:0:0:0:
64,192,117757,1,0,0:0:0:0:
320,192,117757,1,2,0:0:0:0:
64,192,117932,1,0,0:0:0:0:
192,192,117932,1,8,0:0:0:0:
448,192,117932,1,0,0:0:0:0:
64,192,118106,1,0,0:0:0:0:
64,192,118280,1,0,0:0:0:0:
192,192,118280,1,2,0:0:0:0:
64,192,118455,1,0,0:0:0:0:
448,192,118455,1,2,0:0:0:0:
64,192,118629,1,0,0:0:0:0:
320,192,118629,1,8,0:0:0:0:
448,192,118629,1,0,0:0:0:0:
64,192,118804,1,0,0:0:0:0:
64,192,118978,1,0,0:0:0:0:
320,192,118978,1,2,0:0:0:0:
64,192,119153,1,0,0:0:0:0:
448,192,119153,1,2,0:0:0:0:
64,192,119327,1,0,0:0:0:0:
320,192,119327,1,8,0:0:0:0:
448,192,119327,1,0,0:0:0:0:
64,192,119501,1,0,0:0:0:0:
64,192,119676,1,0,0:0:0:0:
448,192,119676,1,2,0:0:0:0:
64,192,119850,1,0,0:0:0:0:
320,192,119850,1,2,0:0:0:0:
64,192,120025,1,0,0:0:0:0:
192,192,120025,1,8,0:0:0:0:
448,192,120025,1,0,0:0:0:0:
64,192,120199,1,0,0:0:0:0:
448,192,120286,1,0,0:0:0:0:
192,192,120286,1,2,0:0:0:0:
64,192,120374,1,0,0:0:0:0:
320,192,120374,1,2,0:0:0:0:
320,192,120548,1,0,0:0:0:0:
320,192,120722,1,0,0:0:0:0:
64,192,120722,1,0,0:0:0:0:
448,192,120722,1,8,0:0:0:0:
320,192,120897,1,0,0:0:0:0:
192,192,120897,1,2,0:0:0:0:
320,192,121071,1,0,0:0:0:0:
320,192,121246,1,0,0:0:0:0:
64,192,121246,1,2,0:0:0:0:
320,192,121420,1,0,0:0:0:0:
64,192,121420,1,0,0:0:0:0:
448,192,121420,1,8,0:0:0:0:
320,192,121594,1,0,0:0:0:0:
64,192,121682,1,0,0:0:0:0:
192,192,121682,1,0,0:0:0:40:snare soft.wav
320,192,121769,1,0,0:0:0:0:
448,192,121769,1,2,0:0:0:0:
320,192,121943,1,0,0:0:0:0:
320,192,122118,1,0,0:0:0:0:
64,192,122118,1,8,0:0:0:0:
448,192,122118,1,0,0:0:0:0:
320,192,122292,1,0,0:0:0:0:
64,192,122292,1,2,0:0:0:0:
320,192,122467,1,0,0:0:0:0:
320,192,122641,1,0,0:0:0:0:
192,192,122641,1,2,0:0:0:0:
320,192,122815,1,8,0:0:0:0:
64,192,122815,1,0,0:0:0:0:
448,192,122815,1,0,0:0:0:0:
320,192,122990,1,0,0:0:0:0:
64,192,122990,1,8,0:0:0:0:
448,192,122990,1,0,0:0:0:0:
64,192,123164,1,0,0:0:0:0:
192,192,123164,1,2,0:0:0:0:
448,192,123339,1,0,0:0:0:0:
192,192,123339,1,2,0:0:0:0:
192,192,123513,1,0,0:0:0:0:
64,192,123513,1,8,0:0:0:0:
448,192,123513,1,0,0:0:0:0:
320,192,123687,1,0,0:0:0:0:
192,192,123687,1,2,0:0:0:0:
448,192,123862,1,0,0:0:0:0:
192,192,123862,1,2,0:0:0:0:
192,192,124036,1,0,0:0:0:0:
320,192,124036,1,2,0:0:0:0:
64,192,124211,1,0,0:0:0:0:
192,192,124211,1,8,0:0:0:0:
448,192,124211,1,0,0:0:0:0:
192,192,124385,1,0,0:0:0:0:
192,192,124560,1,2,0:0:0:0:
448,192,124560,1,0,0:0:0:0:
448,192,124734,1,0,0:0:0:0:
64,192,124734,1,2,0:0:0:0:
448,192,124908,1,0,0:0:0:0:
64,192,124908,1,0,0:0:0:0:
320,192,124908,1,8,0:0:0:0:
448,192,125083,1,0,0:0:0:0:
192,192,125083,1,2,0:0:0:0:
448,192,125257,1,0,0:0:0:0:
64,192,125257,1,2,0:0:0:0:
448,192,125432,1,0,0:0:0:0:
192,192,125432,1,8,0:0:0:0:
64,192,125432,1,0,0:0:0:0:
448,192,125606,1,0,0:0:0:0:
64,192,125606,1,0,0:0:0:0:
320,192,125606,1,8,0:0:0:0:
192,192,125693,1,8,0:0:0:0:
448,192,125780,1,0,0:0:0:0:
320,192,125780,1,0,0:0:0:40:kick tomb.wav
192,192,125868,1,0,0:0:0:40:kick tomb.wav
64,192,125955,1,0,0:0:0:0:
448,192,125955,1,2,0:0:0:0:
320,192,125955,1,4,0:0:0:0:
64,192,126129,1,0,0:0:0:0:
320,192,126304,1,8,0:0:0:0:
448,192,126304,1,0,0:0:0:0:
64,192,126304,1,0,0:0:0:0:
64,192,126478,1,0,0:0:0:0:
448,192,126653,1,2,0:0:0:0:
64,192,126653,1,0,0:0:0:0:
320,192,126827,1,2,0:0:0:0:
64,192,126827,1,0,0:0:0:0:
192,192,127001,1,8,0:0:0:0:
448,192,127001,1,0,0:0:0:0:
64,192,127001,1,0,0:0:0:0:
64,192,127176,1,0,0:0:0:0:
320,192,127350,1,2,0:0:0:0:
64,192,127350,1,0,0:0:0:0:
192,192,127525,1,2,0:0:0:0:
64,192,127525,1,0,0:0:0:0:
448,192,127699,1,8,0:0:0:0:
320,192,127699,1,0,0:0:0:0:
64,192,127699,1,0,0:0:0:0:
64,192,127874,1,0,0:0:0:0:
320,192,128048,1,2,0:0:0:0:
64,192,128048,1,0,0:0:0:0:
448,192,128222,1,2,0:0:0:0:
64,192,128222,1,0,0:0:0:0:
448,192,128397,1,0,0:0:0:0:
192,192,128397,1,8,0:0:0:0:
64,192,128397,1,0,0:0:0:0:
192,192,128571,1,0,0:0:0:0:
320,192,128571,1,0,0:0:0:0:
64,192,128571,1,0,0:0:0:0:
448,192,128746,1,0,0:0:0:0:
64,192,128746,1,2,0:0:0:0:
192,192,128920,1,2,0:0:0:0:
448,192,128920,1,0,0:0:0:0:
64,192,129094,1,0,0:0:0:0:
320,192,129094,1,8,0:0:0:0:
448,192,129094,1,0,0:0:0:0:
448,192,129269,1,0,0:0:0:0:
320,192,129443,1,2,0:0:0:0:
448,192,129443,1,0,0:0:0:0:
64,192,129618,1,2,0:0:0:0:
448,192,129618,1,0,0:0:0:0:
64,192,129792,1,0,0:0:0:0:
192,192,129792,1,8,0:0:0:0:
448,192,129792,1,0,0:0:0:0:
448,192,129967,1,0,0:0:0:0:
192,192,130141,1,2,0:0:0:0:
448,192,130141,1,0,0:0:0:0:
64,192,130315,1,2,0:0:0:0:
448,192,130315,1,0,0:0:0:0:
64,192,130490,1,0,0:0:0:0:
192,192,130490,1,8,0:0:0:0:
448,192,130490,1,0,0:0:0:0:
448,192,130664,1,0,0:0:0:0:
64,192,130839,1,2,0:0:0:0:
448,192,130839,1,0,0:0:0:0:
192,192,131013,1,2,0:0:0:0:
448,192,131013,1,0,0:0:0:0:
64,192,131187,1,0,0:0:0:0:
320,192,131187,1,8,0:0:0:0:
448,192,131187,1,0,0:0:0:0:
448,192,131362,1,0,0:0:0:0:
64,192,131449,1,2,0:0:0:0:
448,192,131536,1,2,0:0:0:0:
192,192,131536,1,0,0:0:0:0:
320,192,131536,1,4,0:0:0:0:
192,192,131711,1,0,0:0:0:0:
64,192,131885,1,0,0:0:0:0:
448,192,131885,1,8,0:0:0:0:
192,192,131885,1,0,0:0:0:0:
320,192,132060,1,2,0:0:0:0:
192,192,132060,1,0,0:0:0:0:
192,192,132234,1,0,0:0:0:0:
448,192,132408,1,2,0:0:0:0:
192,192,132408,1,0,0:0:0:0:
64,192,132583,1,8,0:0:0:0:
448,192,132583,1,0,0:0:0:0:
192,192,132583,1,0,0:0:0:0:
192,192,132757,1,0,0:0:0:0:
448,192,132844,1,0,0:0:0:0:
64,192,132844,1,8,0:0:0:0:
320,192,132932,1,2,0:0:0:0:
192,192,132932,1,0,0:0:0:0:
192,192,133106,1,0,0:0:0:0:
64,192,133280,1,0,0:0:0:0:
448,192,133280,1,8,0:0:0:0:
192,192,133280,1,0,0:0:0:0:
448,192,133455,1,2,0:0:0:0:
192,192,133455,1,0,0:0:0:0:
192,192,133629,1,0,0:0:0:0:
320,192,133804,1,2,0:0:0:0:
192,192,133804,1,0,0:0:0:0:
64,192,133978,1,0,0:0:0:0:
448,192,133978,1,8,0:0:0:0:
192,192,133978,1,0,0:0:0:0:
64,192,134153,1,0,0:0:0:0:
320,192,134153,1,8,0:0:0:0:
192,192,134153,1,0,0:0:0:0:
448,192,134327,1,0,0:0:0:0:
192,192,134327,1,2,0:0:0:0:
320,192,134501,1,2,0:0:0:0:
448,192,134501,1,0,0:0:0:0:
64,192,134676,1,0,0:0:0:0:
192,192,134676,1,8,0:0:0:0:
448,192,134676,1,0,0:0:0:0:
64,192,134850,1,0,0:0:0:0:
448,192,134850,1,0,0:0:0:0:
320,192,135025,1,2,0:0:0:0:
448,192,135025,1,0,0:0:0:0:
192,192,135199,1,2,0:0:0:0:
448,192,135199,1,0,0:0:0:0:
64,192,135374,1,0,0:0:0:0:
320,192,135374,1,8,0:0:0:0:
448,192,135374,1,0,0:0:0:0:
448,192,135548,1,0,0:0:0:0:
64,192,135722,1,2,0:0:0:0:
448,192,135722,1,0,0:0:0:0:
320,192,135897,1,2,0:0:0:0:
64,192,135897,1,0,0:0:0:0:
192,192,136071,5,8,0:0:0:0:
448,192,136071,1,0,0:0:0:0:
64,192,136071,1,0,0:0:0:0:
320,192,136246,1,2,0:0:0:0:
64,192,136246,1,0,0:0:0:0:
192,192,136420,1,2,0:0:0:0:
64,192,136420,1,0,0:0:0:0:
320,192,136507,1,8,0:0:0:0:
448,192,136507,1,0,0:0:0:0:
192,192,136594,1,0,0:0:0:0:
64,192,136682,1,0,0:0:0:0:
448,192,136769,1,0,0:0:0:40:kick tomb.wav
320,192,136856,1,0,0:0:0:40:kick tomb.wav
64,192,136943,1,0,0:0:0:40:kick tomb.wav
192,192,137030,1,0,0:0:0:40:kick tomb.wav
320,192,137118,1,2,0:0:0:0:
448,192,137118,1,4,0:0:0:0:
64,192,137118,128,0,137467:0:0:0:0:
320,192,137467,1,0,0:0:0:50:clap.wav
448,192,137467,128,0,137815:0:0:0:0:
64,192,137641,1,0,0:0:0:50:clap.wav
192,192,137641,1,0,0:0:0:0:
320,192,137815,128,2,138164:0:0:0:0:
64,192,137990,1,2,0:0:0:0:
64,192,138164,1,0,0:0:0:0:
192,192,138164,1,0,0:0:0:50:clap.wav
448,192,138339,1,2,0:0:0:0:
192,192,138513,1,0,0:0:0:0:
320,192,138687,128,2,138862:0:0:0:0:
192,192,138862,1,0,0:0:0:0:
64,192,138862,1,0,0:0:0:50:clap.wav
64,192,139036,1,0,0:0:0:50:clap.wav
192,192,139036,128,0,139211:0:0:0:0:
448,192,139211,1,2,0:0:0:0:
64,192,139385,128,2,139560:0:0:0:0:
448,192,139560,1,0,0:0:0:0:
192,192,139560,1,0,0:0:0:50:clap.wav
320,192,139734,128,0,140083:0:0:0:0:
192,192,139908,1,2,0:0:0:0:
448,192,139908,1,0,0:0:0:0:
64,192,140083,1,2,0:0:0:0:
192,192,140083,128,0,140257:0:0:0:0:
320,192,140257,1,8,0:0:0:0:
64,192,140257,1,0,0:0:0:0:
448,192,140257,128,0,140432:0:0:0:0:
320,192,140432,128,0,140606:0:0:0:0:
64,192,140519,1,0,0:0:0:40:snare soft.wav
448,192,140606,1,2,0:0:0:0:
192,192,140606,128,0,140780:0:0:0:0:
64,192,140780,1,2,0:0:0:0:
320,192,140780,128,0,140955:0:0:0:0:
448,192,140955,1,0,0:0:0:0:
192,192,140955,1,8,0:0:0:0:
64,192,140955,128,0,141129:0:0:0:0:
192,192,141129,1,0,0:0:0:0:
320,192,141129,1,2,0:0:0:0:
64,192,141304,1,0,0:0:0:0:
320,192,141478,1,0,0:0:0:0:
448,192,141478,1,2,0:0:0:0:
320,192,141653,1,8,0:0:0:0:
448,192,141653,1,0,0:0:0:0:
64,192,141653,1,0,0:0:0:0:
64,192,141827,1,0,0:0:0:0:
192,192,141827,1,2,0:0:0:0:
448,192,142001,1,0,0:0:0:0:
320,192,142001,1,2,0:0:0:0:
192,192,142089,1,8,0:0:0:0:
64,192,142089,1,0,0:0:0:0:
448,192,142089,1,0,0:0:0:0:
448,192,142350,1,0,0:0:0:0:
320,192,142350,1,8,0:0:0:0:
64,192,142350,1,0,0:0:0:0:
320,192,142699,1,2,0:0:0:0:
448,192,142699,1,4,0:0:0:0:
64,192,142699,128,0,143048:0:0:0:0:
192,192,143048,1,0,0:0:0:50:clap.wav
320,192,143048,128,0,143397:0:0:0:0:
64,192,143222,1,0,0:0:0:50:clap.wav
448,192,143222,1,0,0:0:0:0:
192,192,143397,128,2,143746:0:0:0:0:
448,192,143571,1,2,0:0:0:0:
64,192,143746,1,0,0:0:0:0:
320,192,143746,1,0,0:0:0:50:clap.wav
448,192,143920,1,2,0:0:0:0:
64,192,144094,1,0,0:0:0:0:
192,192,144269,128,2,144443:0:0:0:0:
320,192,144443,1,0,0:0:0:0:
448,192,144443,1,0,0:0:0:50:clap.wav
448,192,144618,1,0,0:0:0:50:clap.wav
320,192,144618,128,0,144792:0:0:0:0:
64,192,144792,1,2,0:0:0:0:
448,192,144967,128,2,145141:0:0:0:0:
64,192,145141,1,0,0:0:0:0:
320,192,145141,1,0,0:0:0:50:clap.wav
192,192,145315,128,0,145490:0:0:0:0:
320,192,145490,128,0,146885:0:0:0:0:
448,192,145490,1,2,0:0:0:0:
64,192,145490,1,4,0:0:0:0:
192,192,145839,1,8,0:0:0:0:
64,192,145839,1,0,0:0:0:0:
448,192,145839,1,0,0:0:0:0:
448,192,146100,5,0,0:0:0:40:snare soft.wav
192,192,146187,1,2,0:0:0:0:
64,192,146187,1,0,0:0:0:0:
448,192,146362,1,2,0:0:0:0:
64,192,146362,1,0,0:0:0:0:
448,192,146536,1,0,0:0:0:0:
192,192,146536,1,8,0:0:0:0:
64,192,146536,1,0,0:0:0:0:
192,192,146711,1,0,0:0:0:0:
448,192,146711,1,2,0:0:0:0:
448,192,146885,1,8,0:0:0:0:
192,192,146885,1,0,0:0:0:0:
64,192,146885,1,0,0:0:0:0:
320,192,147147,5,0,0:0:0:40:kick tomb.wav
192,192,147147,1,0,0:0:0:0:
192,192,147408,1,0,0:0:0:40:kick tomb.wav
64,192,147408,1,0,0:0:0:0:
320,192,147583,1,0,0:0:0:40:kick tomb.wav
448,192,147583,1,0,0:0:0:0:
192,192,147844,1,8,0:0:0:0:
64,192,147844,1,0,0:0:0:0:
448,192,147932,1,0,0:0:0:0:
320,192,147932,1,8,0:0:0:0:
64,192,148019,1,0,0:0:0:40:kick tomb.wav
448,192,148106,1,0,0:0:0:40:kick tomb.wav
192,192,148193,1,0,0:0:0:40:kick tomb.wav
64,192,148280,1,4,0:0:0:0:
320,192,148280,1,2,0:0:0:0:
448,192,148280,1,0,0:0:0:0:
320,192,148455,1,0,0:0:0:50:hihat loud.wav
448,192,148629,1,0,0:0:0:0:
192,192,148629,1,8,0:0:0:0:
64,192,148629,1,0,0:0:0:0:
448,192,148804,1,0,0:0:0:50:hihat loud.wav
320,192,148978,1,2,0:0:0:0:
192,192,148978,1,0,0:0:0:0:
320,192,149153,1,0,0:0:0:50:hihat loud.wav
448,192,149327,1,0,0:0:0:0:
192,192,149327,1,0,0:0:0:0:
64,192,149327,1,8,0:0:0:0:
192,192,149501,1,0,0:0:0:50:hihat loud.wav
64,192,149676,1,0,0:0:0:0:
448,192,149676,1,2,0:0:0:0:
64,192,149850,1,0,0:0:0:50:hihat loud.wav
320,192,150025,1,8,0:0:0:0:
448,192,150025,1,0,0:0:0:0:
192,192,150025,1,0,0:0:0:0:
192,192,150199,1,0,0:0:0:50:hihat loud.wav
320,192,150374,1,0,0:0:0:0:
64,192,150374,1,2,0:0:0:0:
320,192,150548,1,0,0:0:0:50:hihat loud.wav
448,192,150722,1,0,0:0:0:0:
192,192,150722,1,8,0:0:0:0:
64,192,150722,1,0,0:0:0:0:
448,192,150897,1,0,0:0:0:50:hihat loud.wav
320,192,151071,1,2,0:0:0:0:
64,192,151071,1,0,0:0:0:0:
320,192,151246,1,0,0:0:0:50:hihat loud.wav
448,192,151420,1,0,0:0:0:0:
192,192,151420,1,8,0:0:0:0:
64,192,151420,1,0,0:0:0:0:
64,192,151594,1,0,0:0:0:50:hihat loud.wav
448,192,151769,1,2,0:0:0:0:
192,192,151769,1,0,0:0:0:0:
192,192,151943,1,0,0:0:0:50:hihat loud.wav
448,192,152118,1,0,0:0:0:0:
320,192,152118,1,8,0:0:0:0:
64,192,152118,1,0,0:0:0:0:
448,192,152292,1,0,0:0:0:50:hihat loud.wav
192,192,152467,1,0,0:0:0:0:
64,192,152467,1,2,0:0:0:0:
192,192,152641,1,0,0:0:0:50:hihat loud.wav
448,192,152815,1,0,0:0:0:0:
320,192,152815,1,8,0:0:0:0:
64,192,152815,1,0,0:0:0:0:
320,192,152990,1,0,0:0:0:50:hihat loud.wav
192,192,153164,1,2,0:0:0:0:
64,192,153164,1,0,0:0:0:0:
448,192,153251,1,0,0:0:0:40:snare soft.wav
192,192,153339,1,0,0:0:0:0:
320,192,153339,1,0,0:0:0:50:kick tomb.wav
64,192,153426,1,0,0:0:0:50:kick tomb.wav
320,192,153513,1,8,0:0:0:0:
448,192,153513,1,0,0:0:0:0:
64,192,153600,1,0,0:0:0:50:kick tomb.wav
192,192,153600,1,0,0:0:0:0:
448,192,153687,1,0,0:0:0:50:kick tomb.wav
320,192,153862,1,2,0:0:0:0:
192,192,153862,1,4,0:0:0:0:
64,192,153862,1,0,0:0:0:0:
192,192,154036,1,0,0:0:0:50:hihat loud.wav
448,192,154211,1,0,0:0:0:0:
320,192,154211,1,8,0:0:0:0:
64,192,154211,1,0,0:0:0:0:
320,192,154385,1,0,0:0:0:50:hihat loud.wav
448,192,154560,1,2,0:0:0:0:
64,192,154560,1,0,0:0:0:0:
64,192,154734,1,0,0:0:0:50:hihat loud.wav
320,192,154908,1,8,0:0:0:0:
192,192,154908,1,0,0:0:0:0:
448,192,154908,1,0,0:0:0:0:
192,192,155083,1,0,0:0:0:50:hihat loud.wav
448,192,155257,1,2,0:0:0:0:
64,192,155257,1,0,0:0:0:0:
448,192,155432,1,0,0:0:0:50:hihat loud.wav
320,192,155606,1,0,0:0:0:0:
192,192,155606,1,8,0:0:0:0:
64,192,155606,1,0,0:0:0:0:
320,192,155780,1,0,0:0:0:50:hihat loud.wav
448,192,155955,1,2,0:0:0:0:
64,192,155955,1,0,0:0:0:0:
64,192,156129,1,0,0:0:0:50:hihat loud.wav
320,192,156304,1,8,0:0:0:0:
448,192,156304,1,0,0:0:0:0:
192,192,156304,1,0,0:0:0:0:
192,192,156478,1,0,0:0:0:50:hihat loud.wav
448,192,156653,1,0,0:0:0:0:
64,192,156653,1,2,0:0:0:0:
448,192,156827,1,0,0:0:0:50:hihat loud.wav
320,192,157001,1,0,0:0:0:0:
192,192,157001,1,8,0:0:0:0:
64,192,157001,1,0,0:0:0:0:
64,192,157176,1,0,0:0:0:50:hihat loud.wav
448,192,157350,1,0,0:0:0:0:
320,192,157350,1,2,0:0:0:0:
320,192,157525,1,0,0:0:0:50:hihat loud.wav
448,192,157699,1,0,0:0:0:0:
64,192,157699,1,0,0:0:0:0:
192,192,157699,1,8,0:0:0:0:
448,192,157874,1,0,0:0:0:50:hihat loud.wav
192,192,158048,1,0,0:0:0:0:
320,192,158048,1,2,0:0:0:0:
320,192,158222,1,0,0:0:0:50:hihat loud.wav
64,192,158397,1,8,0:0:0:0:
448,192,158397,1,0,0:0:0:0:
192,192,158397,1,0,0:0:0:0:
192,192,158571,1,0,0:0:0:50:hihat loud.wav
448,192,158746,1,8,0:0:0:0:
64,192,158746,1,0,0:0:0:0:
320,192,158746,128,0,159094:0:0:0:0:
448,192,159094,128,0,159443:0:0:0:0:
64,192,159094,1,0,0:0:0:0:
192,192,159094,1,8,0:0:0:0:
320,192,159182,1,0,0:0:0:40:snare soft.wav
64,192,159269,1,0,0:0:0:40:snare soft.wav
192,192,159356,1,0,0:0:0:40:snare soft.wav
64,192,159443,1,2,0:0:0:0:
320,192,159443,1,4,0:0:0:0:
192,192,159618,1,0,0:0:0:50:hihat loud.wav
448,192,159792,1,0,0:0:0:0:
320,192,159792,1,8,0:0:0:0:
64,192,159792,1,0,0:0:0:0:
64,192,159967,1,0,0:0:0:50:hihat loud.wav
320,192,160141,1,0,0:0:0:0:
192,192,160141,1,2,0:0:0:0:
320,192,160315,1,0,0:0:0:50:hihat loud.wav
448,192,160490,1,0,0:0:0:0:
192,192,160490,1,8,0:0:0:0:
64,192,160490,1,0,0:0:0:0:
448,192,160664,1,0,0:0:0:50:hihat loud.wav
320,192,160839,1,2,0:0:0:0:
64,192,160839,1,0,0:0:0:0:
64,192,161013,1,0,0:0:0:50:hihat loud.wav
448,192,161187,1,8,0:0:0:0:
320,192,161187,1,0,0:0:0:0:
192,192,161187,1,0,0:0:0:0:
192,192,161362,1,0,0:0:0:50:hihat loud.wav
448,192,161536,1,0,0:0:0:0:
64,192,161536,1,2,0:0:0:0:
448,192,161711,1,0,0:0:0:50:hihat loud.wav
320,192,161885,1,0,0:0:0:0:
192,192,161885,1,8,0:0:0:0:
64,192,161885,1,0,0:0:0:0:
320,192,162060,1,0,0:0:0:50:hihat loud.wav
448,192,162234,1,2,0:0:0:0:
192,192,162234,1,0,0:0:0:0:
192,192,162408,1,0,0:0:0:50:hihat loud.wav
448,192,162583,1,0,0:0:0:0:
320,192,162583,1,8,0:0:0:0:
64,192,162583,1,0,0:0:0:0:
64,192,162757,1,0,0:0:0:50:hihat loud.wav
320,192,162932,1,0,0:0:0:0:
192,192,162932,1,2,0:0:0:0:
320,192,163106,1,0,0:0:0:50:hihat loud.wav
448,192,163280,1,0,0:0:0:0:
192,192,163280,1,8,0:0:0:0:
64,192,163280,1,0,0:0:0:0:
192,192,163455,1,0,0:0:0:50:hihat loud.wav
320,192,163629,1,0,0:0:0:0:
64,192,163629,1,2,0:0:0:0:
64,192,163804,1,0,0:0:0:50:hihat loud.wav
448,192,163978,1,0,0:0:0:0:
320,192,163978,1,0,0:0:0:0:
192,192,163978,1,8,0:0:0:0:
192,192,164153,1,0,0:0:0:50:hihat loud.wav
448,192,164327,1,2,0:0:0:0:
64,192,164327,1,0,0:0:0:0:
448,192,164501,1,0,0:0:0:50:hihat loud.wav
320,192,164676,1,8,0:0:0:0:
192,192,164676,1,0,0:0:0:0:
64,192,164676,1,0,0:0:0:0:
64,192,164850,1,0,0:0:0:50:hihat loud.wav
448,192,165025,1,4,0:0:0:0:
320,192,165025,1,0,0:0:0:0:
192,192,165025,1,2,0:0:0:0:
320,192,165199,1,0,0:0:0:50:hihat loud.wav
448,192,165374,1,0,0:0:0:0:
64,192,165374,1,0,0:0:0:0:
192,192,165374,1,8,0:0:0:0:
448,192,165548,1,0,0:0:0:50:hihat loud.wav
320,192,165722,1,2,0:0:0:0:
64,192,165722,1,0,0:0:0:0:
64,192,165897,1,0,0:0:0:50:hihat loud.wav
448,192,166071,1,0,0:0:0:0:
320,192,166071,1,0,0:0:0:0:
192,192,166071,1,8,0:0:0:0:
192,192,166246,1,0,0:0:0:50:hihat loud.wav
448,192,166420,1,2,0:0:0:0:
64,192,166420,1,0,0:0:0:0:
448,192,166594,1,0,0:0:0:50:hihat loud.wav
320,192,166769,1,0,0:0:0:0:
192,192,166769,1,8,0:0:0:0:
64,192,166769,1,0,0:0:0:0:
320,192,166943,1,0,0:0:0:50:hihat loud.wav
448,192,167118,1,2,0:0:0:0:
192,192,167118,1,0,0:0:0:0:
192,192,167292,1,0,0:0:0:50:hihat loud.wav
448,192,167467,1,0,0:0:0:0:
320,192,167467,1,8,0:0:0:0:
64,192,167467,1,0,0:0:0:0:
64,192,167641,1,0,0:0:0:50:hihat loud.wav
320,192,167815,1,0,0:0:0:0:
192,192,167815,1,2,0:0:0:0:
320,192,167990,1,0,0:0:0:50:hihat loud.wav
448,192,168164,1,0,0:0:0:0:
192,192,168164,1,8,0:0:0:0:
64,192,168164,1,0,0:0:0:0:
448,192,168339,1,0,0:0:0:50:hihat loud.wav
320,192,168513,1,2,0:0:0:0:
64,192,168513,1,0,0:0:0:0:
320,192,168687,1,0,0:0:0:50:hihat loud.wav
448,192,168862,1,0,0:0:0:0:
192,192,168862,1,8,0:0:0:0:
64,192,168862,1,0,0:0:0:0:
192,192,169036,1,0,0:0:0:50:hihat loud.wav
448,192,169211,1,2,0:0:0:0:
320,192,169211,1,4,0:0:0:0:
64,192,169211,1,0,0:0:0:0:
192,192,169385,1,0,0:0:0:0:
448,192,169560,1,0,0:0:0:50:kick tomb.wav
320,192,169560,1,0,0:0:0:0:
64,192,169734,1,0,0:0:0:0:
320,192,169908,1,0,0:0:0:0:
448,192,169908,1,0,0:0:0:50:kick tomb.wav
192,192,169967,1,0,0:0:0:50:kick tomb.wav
64,192,170025,1,0,0:0:0:50:kick tomb.wav
320,192,170083,1,0,0:0:0:50:kick tomb.wav
192,192,170257,1,8,0:0:0:0:
64,192,170257,1,0,0:0:0:0:
448,192,170257,128,0,170606:0:0:0:0:
320,192,170606,128,0,170955:0:0:0:0:
64,192,170606,1,2,0:0:0:0:
192,192,170606,1,4,0:0:0:0:
448,192,170780,1,0,0:0:0:50:hihat loud.wav
64,192,170955,128,0,171304:0:0:0:0:
448,192,170955,1,8,0:0:0:0:
192,192,170955,1,0,0:0:0:0:
192,192,171129,1,0,0:0:0:50:hihat loud.wav
320,192,171304,128,0,171653:0:0:0:0:
448,192,171304,1,2,0:0:0:0:
64,192,171478,1,0,0:0:0:50:hihat loud.wav
192,192,171653,128,0,172001:0:0:0:0:
64,192,171653,1,8,0:0:0:0:
448,192,171653,1,0,0:0:0:0:
320,192,171827,1,0,0:0:0:50:hihat loud.wav
448,192,172001,128,0,172350:0:0:0:0:
64,192,172001,1,2,0:0:0:0:
320,192,172176,1,0,0:0:0:50:hihat loud.wav
64,192,172350,128,0,172699:0:0:0:0:
320,192,172350,1,0,0:0:0:0:
192,192,172350,1,8,0:0:0:0:
448,192,172525,1,0,0:0:0:50:hihat loud.wav
320,192,172699,128,0,173048:0:0:0:0:
192,192,172699,1,2,0:0:0:0:
448,192,172874,1,0,0:0:0:50:hihat loud.wav
192,192,173048,128,0,173397:0:0:0:0:
64,192,173048,1,0,0:0:0:0:
448,192,173048,1,8,0:0:0:0:
320,192,173222,1,0,0:0:0:50:hihat loud.wav
64,192,173397,128,0,173746:0:0:0:0:
448,192,173397,1,2,0:0:0:0:
320,192,173571,1,0,0:0:0:50:hihat loud.wav
192,192,173746,1,8,0:0:0:0:
320,192,173746,1,0,0:0:0:0:
448,192,173746,128,0,174094:0:0:0:0:
64,192,173920,1,0,0:0:0:50:hihat loud.wav
192,192,174094,1,2,0:0:0:0:
320,192,174094,128,0,174443:0:0:0:0:
448,192,174269,1,0,0:0:0:50:hihat loud.wav
448,192,174443,1,8,0:0:0:0:
192,192,174443,1,0,0:0:0:0:
64,192,174443,128,0,174792:0:0:0:0:
192,192,174618,1,0,0:0:0:50:hihat loud.wav
448,192,174792,128,0,175141:0:0:0:0:
320,192,174792,1,2,0:0:0:0:
64,192,174967,1,0,0:0:0:50:hihat loud.wav
320,192,175141,128,0,175490:0:0:0:0:
64,192,175141,1,0,0:0:0:0:
192,192,175141,1,8,0:0:0:0:
448,192,175315,1,0,0:0:0:50:hihat loud.wav
64,192,175490,128,0,175839:0:0:0:0:
192,192,175490,1,2,0:0:0:0:
320,192,175664,1,0,0:0:0:50:kick tomb.wav
448,192,175664,1,0,0:0:0:0:
192,192,175839,128,0,176187:0:0:0:0:
320,192,175839,1,8,0:0:0:0:
64,192,175926,1,0,0:0:0:50:kick tomb.wav
448,192,176013,1,0,0:0:0:50:kick tomb.wav
320,192,176100,1,0,0:0:0:50:kick tomb.wav
448,192,176187,128,4,178280:0:0:0:0:
64,192,176187,1,2,0:0:0:0:
320,192,176362,1,0,0:0:0:50:hihat loud.wav
64,192,176536,1,0,0:0:0:0:
192,192,176536,1,8,0:0:0:0:
320,192,176536,1,0,0:0:0:0:
64,192,176711,1,0,0:0:0:50:hihat loud.wav
192,192,176885,1,2,0:0:0:0:
320,192,176885,1,0,0:0:0:0:
64,192,177060,1,0,0:0:0:50:hihat loud.wav
320,192,177234,1,0,0:0:0:0:
64,192,177234,1,0,0:0:0:0:
192,192,177234,1,8,0:0:0:0:
320,192,177408,1,0,0:0:0:50:hihat loud.wav
192,192,177583,1,2,0:0:0:0:
64,192,177583,1,0,0:0:0:0:
320,192,177757,1,0,0:0:0:50:hihat loud.wav
64,192,177932,1,0,0:0:0:0:
192,192,177932,1,0,0:0:0:0:
320,192,177932,1,8,0:0:0:0:
64,192,178106,1,0,0:0:0:50:hihat loud.wav
192,192,178280,1,2,0:0:0:0:
320,192,178280,1,0,0:0:0:0:
64,192,178455,1,0,0:0:0:50:hihat loud.wav
64,192,178629,1,0,0:0:0:0:
448,192,178629,1,8,0:0:0:0:
320,192,178629,1,0,0:0:0:0:
320,192,178804,1,0,0:0:0:50:hihat loud.wav
192,192,178978,1,2,0:0:0:0:
64,192,178978,128,0,180374:0:0:0:0:
448,192,179153,1,0,0:0:0:50:hihat loud.wav
192,192,179327,1,0,0:0:0:0:
320,192,179327,1,8,0:0:0:0:
448,192,179327,1,0,0:0:0:0:
320,192,179501,1,0,0:0:0:50:hihat loud.wav
192,192,179676,1,0,0:0:0:0:
448,192,179676,1,2,0:0:0:0:
320,192,179850,1,0,0:0:0:50:hihat loud.wav
448,192,180025,1,0,0:0:0:0:
192,192,180025,1,0,0:0:0:0:
320,192,180025,1,8,0:0:0:0:
192,192,180199,1,0,0:0:0:50:hihat loud.wav
320,192,180374,1,2,0:0:0:0:
448,192,180374,1,0,0:0:0:0:
64,192,180548,1,0,0:0:0:50:hihat loud.wav
192,192,180635,1,0,0:0:0:0:
64,192,180722,1,0,0:0:0:0:
448,192,180722,1,0,0:0:0:0:
320,192,180722,1,8,0:0:0:0:
320,192,180897,1,0,0:0:0:50:hihat loud.wav
64,192,181071,1,0,0:0:0:0:
192,192,181071,1,8,0:0:0:0:
448,192,181071,1,0,0:0:0:0:
320,192,181158,1,0,0:0:0:40:snare soft.wav
64,192,181246,1,0,0:0:0:40:snare soft.wav
192,192,181333,1,0,0:0:0:40:snare soft.wav
64,192,181420,1,0,0:0:0:0:
448,192,181420,1,0,0:0:0:0:
320,192,181420,1,8,0:0:0:0:
192,192,181507,1,0,0:0:0:40:snare soft.wav
448,192,181594,1,0,0:0:0:40:snare soft.wav
320,192,181682,1,0,0:0:0:40:snare soft.wav
448,192,181769,128,0,183164:0:0:0:0:
64,192,181769,1,4,0:0:0:0:
192,192,181769,1,2,0:0:0:0:
64,192,181943,1,0,0:0:0:50:hihat loud.wav
64,192,182118,1,0,0:0:0:0:
192,192,182118,1,8,0:0:0:0:
320,192,182118,1,0,0:0:0:0:
320,192,182292,1,0,0:0:0:50:hihat loud.wav
64,192,182467,1,0,0:0:0:0:
192,192,182467,1,2,0:0:0:0:
320,192,182641,1,0,0:0:0:50:hihat loud.wav
64,192,182815,1,0,0:0:0:0:
192,192,182815,1,0,0:0:0:0:
320,192,182815,1,8,0:0:0:0:
192,192,182990,1,0,0:0:0:50:hihat loud.wav
320,192,183164,1,2,0:0:0:0:
64,192,183164,128,0,184560:0:0:0:0:
192,192,183339,1,0,0:0:0:50:hihat loud.wav
192,192,183513,1,0,0:0:0:0:
320,192,183513,1,8,0:0:0:0:
448,192,183513,1,0,0:0:0:0:
448,192,183687,1,0,0:0:0:50:hihat loud.wav
192,192,183862,1,0,0:0:0:0:
320,192,183862,1,2,0:0:0:0:
448,192,184036,1,0,0:0:0:50:hihat loud.wav
448,192,184211,1,0,0:0:0:0:
192,192,184211,1,8,0:0:0:0:
320,192,184211,1,0,0:0:0:0:
192,192,184385,1,0,0:0:0:50:hihat loud.wav
320,192,184560,1,2,0:0:0:0:
448,192,184560,128,0,184908:0:0:0:0:
64,192,184734,1,0,0:0:0:50:hihat loud.wav
64,192,184908,1,0,0:0:0:0:
192,192,184908,1,8,0:0:0:0:
320,192,184908,1,0,0:0:0:0:
192,192,185083,1,0,0:0:0:50:hihat loud.wav
448,192,185257,1,2,0:0:0:0:
320,192,185257,128,0,185606:0:0:0:0:
192,192,185432,1,0,0:0:0:50:hihat loud.wav
64,192,185606,1,8,0:0:0:0:
192,192,185606,1,0,0:0:0:0:
448,192,185606,1,0,0:0:0:0:
320,192,185780,1,0,0:0:0:50:hihat loud.wav
64,192,185955,1,2,0:0:0:0:
448,192,185955,1,0,0:0:0:0:
192,192,185955,128,0,186304:0:0:0:0:
320,192,186129,1,0,0:0:0:50:hihat loud.wav
64,192,186304,1,0,0:0:0:0:
320,192,186304,1,0,0:0:0:0:
448,192,186304,1,8,0:0:0:0:
192,192,186478,1,0,0:0:0:50:hihat loud.wav
448,192,186653,1,2,0:0:0:0:
64,192,186653,128,0,187001:0:0:0:0:
320,192,186827,1,0,0:0:0:50:hihat loud.wav
192,192,187001,128,0,187350:0:0:0:0:
320,192,187001,1,8,0:0:0:0:
448,192,187001,1,0,0:0:0:0:
64,192,187176,1,0,0:0:0:50:hihat loud.wav
64,192,187350,1,2,0:0:0:0:
320,192,187350,1,4,0:0:0:0:
448,192,187350,128,0,188048:0:0:0:0:
320,192,187525,1,0,0:0:0:50:hihat loud.wav
64,192,187699,1,0,0:0:0:0:
192,192,187699,1,8,0:0:0:0:
320,192,187699,1,0,0:0:0:0:
64,192,187874,1,0,0:0:0:50:hihat loud.wav
192,192,188048,1,2,0:0:0:0:
320,192,188048,128,0,188746:0:0:0:0:
448,192,188222,1,0,0:0:0:50:hihat loud.wav
64,192,188397,1,0,0:0:0:0:
192,192,188397,1,8,0:0:0:0:
448,192,188397,1,0,0:0:0:0:
64,192,188571,1,0,0:0:0:50:hihat loud.wav
192,192,188746,128,0,189443:0:0:0:0:
448,192,188746,1,2,0:0:0:0:
320,192,188920,1,0,0:0:0:50:hihat loud.wav
64,192,189094,1,0,0:0:0:0:
320,192,189094,1,8,0:0:0:0:
448,192,189094,1,0,0:0:0:0:
64,192,189269,1,0,0:0:0:50:hihat loud.wav
320,192,189443,1,2,0:0:0:0:
448,192,189443,128,0,190141:0:0:0:0:
64,192,189618,1,0,0:0:0:50:hihat loud.wav
64,192,189792,1,0,0:0:0:0:
192,192,189792,1,8,0:0:0:0:
320,192,189792,1,0,0:0:0:0:
320,192,189967,1,0,0:0:0:50:hihat loud.wav
192,192,190141,1,2,0:0:0:0:
64,192,190141,128,0,190839:0:0:0:0:
448,192,190315,1,0,0:0:0:50:hihat loud.wav
192,192,190490,1,0,0:0:0:0:
320,192,190490,1,8,0:0:0:0:
448,192,190490,1,0,0:0:0:0:
192,192,190664,1,0,0:0:0:50:hihat loud.wav
320,192,190839,128,0,191536:0:0:0:0:
448,192,190839,1,2,0:0:0:0:
192,192,191013,1,0,0:0:0:50:hihat loud.wav
64,192,191187,1,0,0:0:0:0:
192,192,191187,1,8,0:0:0:0:
448,192,191187,1,0,0:0:0:0:
64,192,191362,1,2,0:0:0:0:
448,192,191362,1,0,0:0:0:50:hihat loud.wav
192,192,191536,128,4,191885:0:0:0:0:
64,192,191536,128,0,192234:0:0:0:0:
448,192,191536,1,2,0:0:0:0:
320,192,191885,1,0,0:0:0:50:kick tomb.wav
448,192,191885,128,0,192234:0:0:0:0:
192,192,192234,128,8,192583:0:0:0:0:
320,192,192234,128,0,192757:0:0:0:50:kick tomb.wav
64,192,192583,1,8,0:0:0:0:
448,192,192583,128,4,192932:0:0:0:0:
192,192,192932,128,2,193280:0:0:0:0:
64,192,192932,1,0,0:0:0:50:crash loud.wav
320,192,192932,1,4,0:0:0:0:
64,192,193280,1,0,0:0:0:0:
320,192,193280,1,0,0:0:0:45:snare.wav
448,192,193280,1,0,0:0:0:0:
192,192,193455,1,0,0:0:0:0:
448,192,193542,1,0,0:0:0:0:
64,192,193629,1,0,0:0:0:0:
192,192,193717,1,0,0:0:0:0:
448,192,193804,1,0,0:0:0:0:
320,192,193804,1,2,0:0:0:0:
192,192,193978,1,0,0:0:0:45:snare.wav
64,192,193978,1,0,0:0:0:0:
448,192,193978,1,0,0:0:0:0:
320,192,194065,1,0,0:0:0:0:
64,192,194153,1,0,0:0:0:0:
192,192,194240,1,0,0:0:0:0:
320,192,194327,1,2,0:0:0:0:
448,192,194327,1,0,0:0:0:0:
64,192,194414,1,0,0:0:0:0:
448,192,194501,1,0,0:0:0:0:
320,192,194589,1,0,0:0:0:0:
192,192,194676,1,0,0:0:0:45:snare.wav
64,192,194676,1,0,0:0:0:0:
448,192,194676,1,0,0:0:0:0:
320,192,194763,1,0,0:0:0:0:
64,192,194850,1,0,0:0:0:0:
448,192,194937,1,0,0:0:0:0:
192,192,195025,1,0,0:0:0:0:
64,192,195112,1,0,0:0:0:0:
320,192,195199,1,0,0:0:0:0:
448,192,195199,1,2,0:0:0:0:
192,192,195286,1,0,0:0:0:0:
64,192,195374,1,0,0:0:0:0:
320,192,195374,1,0,0:0:0:45:snare.wav
448,192,195374,1,0,0:0:0:0:
192,192,195461,1,0,0:0:0:0:
448,192,195548,1,0,0:0:0:0:
64,192,195635,1,0,0:0:0:0:
192,192,195722,1,0,0:0:0:0:
320,192,195722,1,2,0:0:0:0:
448,192,195810,1,0,0:0:0:0:
64,192,195897,1,0,0:0:0:0:
192,192,195984,1,0,0:0:0:0:
320,192,196071,1,0,0:0:0:45:snare.wav
448,192,196071,1,0,0:0:0:0:
64,192,196071,1,0,0:0:0:0:
192,192,196158,1,0,0:0:0:0:
448,192,196246,1,0,0:0:0:0:
64,192,196333,1,0,0:0:0:0:
192,192,196420,1,0,0:0:0:0:
448,192,196507,1,0,0:0:0:0:
320,192,196594,1,2,0:0:0:0:
192,192,196594,1,0,0:0:0:0:
64,192,196682,1,0,0:0:0:0:
192,192,196769,1,0,0:0:0:0:
320,192,196769,1,0,0:0:0:45:snare.wav
448,192,196769,1,0,0:0:0:0:
64,192,196856,1,0,0:0:0:0:
448,192,196943,1,0,0:0:0:0:
320,192,197030,1,0,0:0:0:0:
192,192,197118,1,2,0:0:0:0:
64,192,197118,1,0,0:0:0:0:
448,192,197205,1,0,0:0:0:0:
320,192,197292,1,0,0:0:0:0:
192,192,197379,1,0,0:0:0:0:
64,192,197467,1,0,0:0:0:0:
320,192,197467,1,0,0:0:0:45:snare.wav
448,192,197467,1,0,0:0:0:0:
192,192,197554,1,0,0:0:0:0:
448,192,197641,1,0,0:0:0:0:
64,192,197728,1,0,0:0:0:0:
320,192,197815,1,0,0:0:0:0:
448,192,197903,1,0,0:0:0:0:
64,192,197990,1,2,0:0:0:0:
192,192,197990,1,0,0:0:0:0:
320,192,198077,1,0,0:0:0:0:
64,192,198164,1,0,0:0:0:0:
192,192,198164,1,0,0:0:0:45:snare.wav
448,192,198164,1,0,0:0:0:0:
320,192,198251,1,0,0:0:0:0:
448,192,198339,1,0,0:0:0:0:
192,192,198426,1,0,0:0:0:0:
448,192,198513,1,2,0:0:0:0:
64,192,198513,1,4,0:0:0:0:
320,192,198513,128,0,198862:0:0:0:50:crash loud.wav
448,192,198862,1,0,0:0:0:0:
192,192,198862,1,0,0:0:0:45:snare.wav
64,192,198862,1,0,0:0:0:0:
320,192,199036,1,0,0:0:0:0:
64,192,199124,1,0,0:0:0:0:
448,192,199211,1,0,0:0:0:0:
320,192,199298,1,0,0:0:0:0:
64,192,199385,1,2,0:0:0:0:
192,192,199385,1,0,0:0:0:0:
448,192,199560,1,0,0:0:0:45:snare.wav
64,192,199560,1,0,0:0:0:0:
320,192,199560,1,0,0:0:0:0:
192,192,199647,1,0,0:0:0:0:
448,192,199734,1,0,0:0:0:0:
320,192,199821,1,0,0:0:0:0:
192,192,199908,1,2,0:0:0:0:
64,192,199908,1,0,0:0:0:0:
448,192,199996,1,0,0:0:0:0:
64,192,200083,1,0,0:0:0:0:
192,192,200170,1,0,0:0:0:0:
320,192,200257,1,0,0:0:0:0:
448,192,200257,1,0,0:0:0:45:snare.wav
64,192,200257,1,0,0:0:0:0:
192,192,200344,1,0,0:0:0:0:
448,192,200432,1,0,0:0:0:0:
64,192,200519,1,0,0:0:0:0:
320,192,200606,1,0,0:0:0:0:
448,192,200693,1,0,0:0:0:0:
192,192,200780,1,2,0:0:0:0:
64,192,200780,1,0,0:0:0:0:
320,192,200868,1,0,0:0:0:0:
448,192,200955,1,0,0:0:0:0:
192,192,200955,1,0,0:0:0:0:
64,192,200955,1,0,0:0:0:45:snare.wav
320,192,201042,1,0,0:0:0:0:
64,192,201129,1,0,0:0:0:0:
448,192,201217,1,0,0:0:0:0:
320,192,201304,1,0,0:0:0:0:
192,192,201304,1,2,0:0:0:0:
64,192,201391,1,0,0:0:0:0:
448,192,201478,1,0,0:0:0:0:
320,192,201565,1,0,0:0:0:0:
192,192,201653,1,0,0:0:0:0:
64,192,201653,1,0,0:0:0:0:
448,192,201653,1,0,0:0:0:45:snare.wav
320,192,201740,1,0,0:0:0:0:
64,192,201827,1,0,0:0:0:0:
448,192,201914,1,0,0:0:0:0:
320,192,202001,1,0,0:0:0:0:
192,192,202089,1,0,0:0:0:0:
64,192,202176,1,0,0:0:0:0:
448,192,202176,1,2,0:0:0:0:
320,192,202263,1,0,0:0:0:0:
448,192,202350,1,0,0:0:0:0:
192,192,202350,1,0,0:0:0:0:
64,192,202350,1,0,0:0:0:45:snare.wav
320,192,202437,1,0,0:0:0:0:
64,192,202525,1,0,0:0:0:0:
192,192,202612,1,0,0:0:0:0:
320,192,202699,1,0,0:0:0:0:
448,192,202699,1,0,0:0:0:45:snare.wav
64,192,202699,1,0,0:0:0:0:
192,192,202874,128,0,203222:0:0:0:0:
320,192,203397,128,0,203658:0:0:0:0:
448,192,203746,128,0,204094:0:0:0:0:
64,192,204094,1,4,0:0:0:0:
320,192,204094,1,2,0:0:0:0:
192,192,204094,128,0,204443:0:0:0:50:crash loud.wav
64,192,204443,1,0,0:0:0:0:
320,192,204443,1,0,0:0:0:45:snare.wav
448,192,204443,1,0,0:0:0:0:
448,192,204618,1,0,0:0:0:0:
320,192,204705,1,0,0:0:0:0:
64,192,204792,1,0,0:0:0:0:
192,192,204879,1,0,0:0:0:0:
448,192,204967,1,0,0:0:0:0:
320,192,204967,1,2,0:0:0:0:
64,192,205141,1,0,0:0:0:0:
448,192,205141,1,0,0:0:0:0:
320,192,205141,1,0,0:0:0:45:snare.wav
192,192,205228,1,0,0:0:0:0:
448,192,205315,1,0,0:0:0:0:
320,192,205403,1,0,0:0:0:0:
64,192,205490,1,0,0:0:0:0:
192,192,205490,1,2,0:0:0:0:
448,192,205577,1,0,0:0:0:0:
64,192,205664,1,0,0:0:0:0:
192,192,205751,1,0,0:0:0:0:
64,192,205839,1,0,0:0:0:0:
448,192,205839,1,0,0:0:0:0:
320,192,205839,1,0,0:0:0:45:snare.wav
192,192,205926,1,0,0:0:0:0:
448,192,206013,1,0,0:0:0:0:
64,192,206100,1,0,0:0:0:0:
192,192,206187,1,0,0:0:0:0:
320,192,206275,1,0,0:0:0:0:
448,192,206362,1,0,0:0:0:0:
64,192,206362,1,2,0:0:0:0:
192,192,206449,1,0,0:0:0:0:
320,192,206536,1,0,0:0:0:45:snare.wav
448,192,206536,1,0,0:0:0:0:
64,192,206536,1,0,0:0:0:0:
192,192,206624,1,0,0:0:0:0:
448,192,206711,1,0,0:0:0:0:
64,192,206798,1,0,0:0:0:0:
192,192,206885,1,2,0:0:0:0:
320,192,206885,1,0,0:0:0:0:
448,192,206972,1,0,0:0:0:0:
64,192,207060,1,0,0:0:0:0:
192,192,207147,1,0,0:0:0:0:
64,192,207234,1,0,0:0:0:0:
448,192,207234,1,0,0:0:0:0:
320,192,207234,1,0,0:0:0:45:snare.wav
192,192,207321,1,0,0:0:0:0:
448,192,207408,1,0,0:0:0:0:
320,192,207496,1,0,0:0:0:0:
64,192,207583,1,0,0:0:0:0:
448,192,207670,1,0,0:0:0:0:
320,192,207757,1,2,0:0:0:0:
192,192,207757,1,0,0:0:0:0:
64,192,207844,1,0,0:0:0:0:
320,192,207932,1,0,0:0:0:45:snare.wav
192,192,207932,1,0,0:0:0:0:
448,192,207932,1,0,0:0:0:0:
64,192,208019,1,0,0:0:0:0:
448,192,208106,1,0,0:0:0:0:
192,192,208193,1,0,0:0:0:0:
64,192,208280,1,0,0:0:0:0:
320,192,208280,1,2,0:0:0:0:
448,192,208368,1,0,0:0:0:0:
192,192,208455,1,0,0:0:0:0:
320,192,208542,1,0,0:0:0:0:
64,192,208629,1,0,0:0:0:0:
192,192,208629,1,0,0:0:0:45:snare.wav
448,192,208629,1,0,0:0:0:0:
320,192,208717,1,0,0:0:0:0:
64,192,208804,1,0,0:0:0:0:
448,192,208891,1,0,0:0:0:0:
320,192,208978,1,0,0:0:0:0:
64,192,209065,1,0,0:0:0:0:
448,192,209153,1,2,0:0:0:0:
192,192,209153,1,0,0:0:0:0:
320,192,209240,1,0,0:0:0:0:
448,192,209327,1,0,0:0:0:0:
64,192,209327,1,0,0:0:0:45:snare.wav
192,192,209327,1,0,0:0:0:0:
320,192,209414,1,0,0:0:0:0:
64,192,209501,1,0,0:0:0:0:
448,192,209589,1,0,0:0:0:0:
64,192,209676,1,2,0:0:0:0:
320,192,209676,1,4,0:0:0:0:
192,192,209676,128,0,210025:0:0:0:50:crash loud.wav
64,192,210025,1,0,0:0:0:0:
320,192,210025,1,0,0:0:0:45:snare.wav
448,192,210025,1,0,0:0:0:0:
64,192,210199,1,0,0:0:0:0:
192,192,210286,1,0,0:0:0:0:
448,192,210374,1,0,0:0:0:0:
320,192,210461,1,0,0:0:0:0:
192,192,210548,1,2,0:0:0:0:
64,192,210548,1,0,0:0:0:0:
192,192,210722,1,0,0:0:0:45:snare.wav
64,192,210722,1,0,0:0:0:0:
448,192,210722,1,0,0:0:0:0:
320,192,210810,1,0,0:0:0:0:
64,192,210897,1,0,0:0:0:0:
192,192,210984,1,0,0:0:0:0:
320,192,211071,1,2,0:0:0:0:
448,192,211071,1,0,0:0:0:0:
64,192,211158,1,0,0:0:0:0:
448,192,211246,1,0,0:0:0:0:
320,192,211333,1,0,0:0:0:0:
192,192,211420,1,0,0:0:0:45:snare.wav
64,192,211420,1,0,0:0:0:0:
448,192,211420,1,0,0:0:0:0:
320,192,211507,1,0,0:0:0:0:
64,192,211594,1,0,0:0:0:0:
448,192,211682,1,0,0:0:0:0:
320,192,211769,1,0,0:0:0:0:
192,192,211856,1,0,0:0:0:0:
448,192,211943,1,0,0:0:0:0:
64,192,211943,1,2,0:0:0:0:
320,192,212030,1,0,0:0:0:0:
448,192,212118,1,0,0:0:0:0:
64,192,212118,1,0,0:0:0:45:snare.wav
192,192,212118,1,0,0:0:0:0:
320,192,212205,1,0,0:0:0:0:
64,192,212292,1,0,0:0:0:0:
448,192,212379,1,0,0:0:0:0:
192,192,212467,1,2,0:0:0:0:
320,192,212467,1,0,0:0:0:0:
64,192,212554,1,0,0:0:0:0:
448,192,212641,1,0,0:0:0:0:
320,192,212728,1,0,0:0:0:0:
192,192,212815,1,0,0:0:0:45:snare.wav
64,192,212815,1,0,0:0:0:0:
448,192,212815,1,0,0:0:0:0:
320,192,212903,1,0,0:0:0:0:
64,192,212990,1,0,0:0:0:0:
192,192,213077,1,0,0:0:0:0:
448,192,213164,1,0,0:0:0:0:
64,192,213251,1,0,0:0:0:0:
320,192,213339,1,2,0:0:0:0:
192,192,213339,1,0,0:0:0:0:
448,192,213426,1,0,0:0:0:0:
64,192,213513,1,0,0:0:0:0:
320,192,213513,1,0,0:0:0:45:snare.wav
192,192,213513,1,0,0:0:0:0:
448,192,213600,1,0,0:0:0:0:
64,192,213687,1,0,0:0:0:0:
320,192,213775,1,0,0:0:0:0:
192,192,213862,1,2,0:0:0:0:
448,192,213862,1,0,0:0:0:0:
64,192,213949,1,0,0:0:0:0:
320,192,214036,1,0,0:0:0:0:
192,192,214124,1,0,0:0:0:0:
64,192,214211,1,0,0:0:0:0:
320,192,214211,1,0,0:0:0:45:snare.wav
448,192,214211,1,0,0:0:0:0:
192,192,214298,1,0,0:0:0:0:
448,192,214385,1,0,0:0:0:0:
320,192,214472,1,0,0:0:0:0:
64,192,214560,1,0,0:0:0:0:
448,192,214647,1,0,0:0:0:0:
320,192,214734,1,0,0:0:0:0:
192,192,214734,1,2,0:0:0:0:
64,192,214908,1,0,0:0:0:0:
192,192,214908,1,0,0:0:0:45:snare.wav
448,192,214908,1,0,0:0:0:0:
320,192,214996,1,0,0:0:0:0:
64,192,215083,1,0,0:0:0:0:
192,192,215170,1,0,0:0:0:0:
320,192,215257,1,2,0:0:0:0:
448,192,215257,1,4,0:0:0:0:
64,192,215257,128,0,218048:0:0:0:50:crash loud.wav
192,192,215606,1,0,0:0:0:0:
320,192,215606,1,0,0:0:0:45:snare.wav
448,192,215606,1,0,0:0:0:0:
192,192,215780,1,0,0:0:0:0:
448,192,215955,1,0,0:0:0:0:
192,192,216129,1,2,0:0:0:0:
320,192,216129,1,0,0:0:0:0:
192,192,216304,1,0,0:0:0:0:
320,192,216304,1,0,0:0:0:45:snare.wav
448,192,216304,1,0,0:0:0:0:
448,192,216478,1,0,0:0:0:0:
192,192,216653,1,2,0:0:0:0:
320,192,216653,1,0,0:0:0:0:
448,192,216827,1,0,0:0:0:0:
192,192,217001,1,0,0:0:0:0:
320,192,217001,1,0,0:0:0:45:snare.wav
448,192,217001,1,0,0:0:0:0:
192,192,217176,1,0,0:0:0:0:
320,192,217350,1,0,0:0:0:0:
192,192,217525,1,2,0:0:0:0:
448,192,217525,1,0,0:0:0:0:
448,192,217699,1,0,0:0:0:0:
320,192,217699,1,0,0:0:0:45:snare.wav
192,192,217699,1,0,0:0:0:0:
320,192,217874,1,0,0:0:0:0:
448,192,218048,128,0,220315:0:0:0:0:
192,192,218048,1,2,0:0:0:0:
64,192,218222,1,0,0:0:0:0:
64,192,218397,1,0,0:0:0:0:
192,192,218397,1,0,0:0:0:45:snare.wav
320,192,218397,1,0,0:0:0:0:
320,192,218571,1,0,0:0:0:0:
64,192,218746,1,0,0:0:0:0:
192,192,218920,1,2,0:0:0:0:
320,192,218920,1,0,0:0:0:0:
64,192,219094,1,0,0:0:0:0:
192,192,219094,1,0,0:0:0:45:snare.wav
320,192,219094,1,0,0:0:0:0:
64,192,219269,1,0,0:0:0:0:
192,192,219443,1,0,0:0:0:0:
320,192,219443,1,2,0:0:0:0:
64,192,219618,1,0,0:0:0:0:
64,192,219792,1,0,0:0:0:0:
192,192,219792,1,0,0:0:0:45:snare.wav
320,192,219792,1,0,0:0:0:0:
320,192,219967,1,0,0:0:0:0:
192,192,220141,1,0,0:0:0:0:
64,192,220315,1,2,0:0:0:0:
320,192,220315,1,0,0:0:0:0:
64,192,220490,1,0,0:0:0:0:
448,192,220490,1,0,0:0:0:45:snare.wav
192,192,220490,128,0,220839:0:0:0:0:
64,192,220839,1,2,0:0:0:0:
448,192,220839,1,4,0:0:0:0:
320,192,220839,128,0,221013:0:0:0:0:
64,192,221187,1,0,0:0:0:0:
192,192,221187,1,8,0:0:0:0:
448,192,221187,1,0,0:0:0:0:
192,192,221362,1,2,0:0:0:0:
320,192,221362,128,0,221536:0:0:0:0:
448,192,221449,1,0,0:0:0:40:snare soft.wav
64,192,221536,1,0,0:0:0:0:
320,192,221711,1,2,0:0:0:0:
448,192,221711,1,0,0:0:0:0:
192,192,221885,1,8,0:0:0:0:
448,192,221885,1,0,0:0:0:0:
64,192,221885,128,0,222060:0:0:0:0:
192,192,222060,1,0,0:0:0:0:
320,192,222060,1,2,0:0:0:0:
448,192,222234,1,0,0:0:0:0:
64,192,222408,1,2,0:0:0:0:
192,192,222408,128,0,222583:0:0:0:0:
64,192,222583,1,0,0:0:0:0:
448,192,222583,1,0,0:0:0:0:
320,192,222583,1,8,0:0:0:0:
192,192,222757,1,0,0:0:0:0:
448,192,222757,1,2,0:0:0:0:
64,192,222844,1,0,0:0:0:40:snare soft.wav
320,192,222932,128,0,223106:0:0:0:0:
192,192,223106,1,2,0:0:0:0:
64,192,223106,1,0,0:0:0:0:
320,192,223280,1,8,0:0:0:0:
448,192,223280,1,0,0:0:0:0:
64,192,223280,128,0,223629:0:0:0:0:
192,192,223455,1,0,0:0:0:0:
320,192,223629,1,2,0:0:0:0:
448,192,223629,128,0,223804:0:0:0:0:
192,192,223804,1,2,0:0:0:0:
64,192,223804,1,0,0:0:0:0:
64,192,223978,1,0,0:0:0:0:
320,192,223978,1,8,0:0:0:0:
448,192,223978,1,0,0:0:0:0:
320,192,224153,1,2,0:0:0:0:
192,192,224153,128,0,224327:0:0:0:0:
64,192,224240,1,0,0:0:0:45:snare soft.wav
448,192,224327,1,0,0:0:0:0:
320,192,224501,1,0,0:0:0:0:
192,192,224501,1,2,0:0:0:0:
320,192,224676,1,8,0:0:0:0:
448,192,224676,1,0,0:0:0:0:
64,192,224676,128,0,224850:0:0:0:0:
192,192,224850,1,2,0:0:0:0:
448,192,224850,1,0,0:0:0:0:
64,192,225025,1,0,0:0:0:0:
192,192,225025,1,2,0:0:0:0:
448,192,225199,1,2,0:0:0:0:
320,192,225199,128,0,225374:0:0:0:0:
64,192,225374,1,0,0:0:0:0:
192,192,225374,1,8,0:0:0:0:
448,192,225374,1,0,0:0:0:0:
320,192,225548,1,2,0:0:0:0:
64,192,225548,128,0,225722:0:0:0:0:
192,192,225635,1,0,0:0:0:40:snare soft.wav
448,192,225722,128,0,225897:0:0:0:0:
192,192,225897,1,2,0:0:0:0:
64,192,225897,1,0,0:0:0:0:
320,192,226071,1,8,0:0:0:0:
448,192,226071,1,0,0:0:0:0:
64,192,226071,128,0,226420:0:0:0:0:
192,192,226246,1,2,0:0:0:0:
320,192,226246,1,0,0:0:0:0:
192,192,226420,1,4,0:0:0:0:
320,192,226420,1,2,0:0:0:0:
448,192,226420,128,0,229211:0:0:0:50:crash loud.wav
320,192,226769,1,0,0:0:0:0:
192,192,226769,1,0,0:0:0:45:snare.wav
64,192,226769,1,0,0:0:0:0:
320,192,226943,1,0,0:0:0:0:
64,192,227118,1,0,0:0:0:0:
320,192,227292,1,2,0:0:0:0:
192,192,227292,1,0,0:0:0:0:
320,192,227467,1,0,0:0:0:0:
192,192,227467,1,0,0:0:0:45:snare.wav
64,192,227467,1,0,0:0:0:0:
64,192,227641,1,0,0:0:0:0:
320,192,227815,1,2,0:0:0:0:
192,192,227815,1,0,0:0:0:0:
64,192,227990,1,0,0:0:0:0:
320,192,228164,1,0,0:0:0:0:
192,192,228164,1,0,0:0:0:45:snare.wav
64,192,228164,1,0,0:0:0:0:
320,192,228339,1,0,0:0:0:0:
192,192,228513,1,0,0:0:0:0:
320,192,228687,1,0,0:0:0:0:
64,192,228687,1,2,0:0:0:0:
64,192,228862,1,0,0:0:0:0:
192,192,228862,1,0,0:0:0:45:snare.wav
320,192,228862,1,0,0:0:0:0:
192,192,229036,1,0,0:0:0:0:
64,192,229211,128,0,232001:0:0:0:0:
320,192,229211,1,2,0:0:0:0:
448,192,229385,1,0,0:0:0:0:
448,192,229560,1,0,0:0:0:0:
320,192,229560,1,0,0:0:0:45:snare.wav
192,192,229560,1,0,0:0:0:0:
192,192,229734,1,0,0:0:0:0:
448,192,229908,1,0,0:0:0:0:
320,192,230083,1,2,0:0:0:0:
192,192,230083,1,0,0:0:0:0:
448,192,230257,1,0,0:0:0:0:
320,192,230257,1,0,0:0:0:45:snare.wav
192,192,230257,1,0,0:0:0:0:
448,192,230432,1,0,0:0:0:0:
320,192,230606,1,0,0:0:0:0:
192,192,230606,1,2,0:0:0:0:
448,192,230780,1,0,0:0:0:0:
448,192,230955,1,0,0:0:0:0:
320,192,230955,1,0,0:0:0:45:snare.wav
192,192,230955,1,0,0:0:0:0:
192,192,231129,1,0,0:0:0:0:
320,192,231304,1,0,0:0:0:0:
448,192,231478,1,2,0:0:0:0:
192,192,231478,1,0,0:0:0:0:
192,192,231653,1,0,0:0:0:0:
448,192,231653,1,0,0:0:0:0:
320,192,231653,1,0,0:0:0:45:snare.wav
320,192,231827,1,0,0:0:0:0:
320,192,232001,1,2,0:0:0:0:
448,192,232001,1,4,0:0:0:0:
192,192,232001,128,0,234792:0:0:0:50:crash loud.wav
64,192,232350,1,0,0:0:0:0:
320,192,232350,1,0,0:0:0:45:snare.wav
448,192,232350,1,0,0:0:0:0:
448,192,232525,1,0,0:0:0:0:
64,192,232699,1,0,0:0:0:0:
320,192,232874,1,2,0:0:0:0:
448,192,232874,1,0,0:0:0:0:
64,192,233048,1,0,0:0:0:0:
320,192,233048,1,0,0:0:0:0:
448,192,233048,1,0,0:0:0:45:snare.wav
64,192,233222,1,0,0:0:0:0:
320,192,233397,1,2,0:0:0:0:
448,192,233397,1,0,0:0:0:0:
64,192,233571,1,0,0:0:0:0:
64,192,233746,1,0,0:0:0:45:snare.wav
320,192,233746,1,0,0:0:0:0:
448,192,233746,1,0,0:0:0:0:
320,192,233920,1,0,0:0:0:0:
64,192,234094,1,0,0:0:0:0:
320,192,234269,1,2,0:0:0:0:
448,192,234269,1,0,0:0:0:0:
64,192,234443,1,0,0:0:0:0:
320,192,234443,1,0,0:0:0:45:snare.wav
448,192,234443,1,0,0:0:0:0:
64,192,234618,1,0,0:0:0:0:
320,192,234792,1,2,0:0:0:0:
448,192,234792,128,0,237583:0:0:0:0:
64,192,234967,1,0,0:0:0:0:
320,192,235141,1,0,0:0:0:0:
192,192,235141,1,0,0:0:0:45:snare.wav
64,192,235141,1,0,0:0:0:0:
320,192,235315,1,0,0:0:0:0:
64,192,235490,1,0,0:0:0:0:
320,192,235664,1,0,0:0:0:0:
192,192,235664,1,2,0:0:0:0:
320,192,235839,1,0,0:0:0:0:
192,192,235839,1,0,0:0:0:0:
64,192,235839,1,0,0:0:0:45:snare.wav
64,192,236013,1,0,0:0:0:0:
320,192,236187,1,2,0:0:0:0:
192,192,236187,1,0,0:0:0:0:
64,192,236362,1,0,0:0:0:0:
320,192,236536,1,0,0:0:0:45:snare.wav
192,192,236536,1,0,0:0:0:0:
64,192,236536,1,0,0:0:0:0:
320,192,236711,1,0,0:0:0:0:
192,192,236885,1,0,0:0:0:0:
320,192,237060,1,0,0:0:0:0:
64,192,237060,1,2,0:0:0:0:
64,192,237234,1,0,0:0:0:0:
192,192,237234,1,0,0:0:0:45:snare.wav
320,192,237234,1,0,0:0:0:0:
192,192,237408,1,0,0:0:0:0:
64,192,237583,128,0,240374:0:0:0:0:
448,192,239327,128,0,240025:0:0:0:0:
320,192,240025,128,0,240374:0:0:0:0:
192,192,240374,128,0,240722:0:0:0:0:
448,192,240722,128,0,241071:0:0:0:0:
64,192,241071,128,0,241420:0:0:0:0:
192,192,241420,128,0,241769:0:0:0:0:
448,192,241769,128,0,242118:0:0:0:0:
64,192,242118,128,0,242467:0:0:0:0:
320,192,242467,128,0,242815:0:0:0:0:
192,192,242815,128,0,243164:0:0:0:0:
448,192,243164,128,0,243513:0:0:0:0:
320,192,243513,128,0,243862:0:0:0:0:
192,192,243862,128,0,244211:0:0:0:0:
64,192,244211,128,0,244560:0:0:0:0:
320,192,244560,128,0,245257:0:0:0:50:hihat loud.wav
448,192,244908,5,0,0:0:0:50:hihat loud.wav
192,192,245257,1,0,0:0:0:0:
64,192,245257,1,0,0:0:0:40:kick tomb.wav
448,192,245432,1,0,0:0:0:0:
320,192,245432,1,0,0:0:0:40:snare soft.wav
64,192,245519,1,0,0:0:0:0:
192,192,245519,1,0,0:0:0:40:snare soft.wav
448,192,245606,1,0,0:0:0:0:
320,192,245606,1,0,0:0:0:40:snare soft.wav
192,192,245693,1,0,0:0:0:40:kick tomb.wav
64,192,245780,1,0,0:0:0:40:kick tomb.wav
320,192,245868,1,0,0:0:0:40:kick tomb.wav
448,192,245955,1,4,0:0:0:0:
192,192,245955,1,2,0:0:0:0:
64,192,245955,1,0,0:0:0:0:
448,192,246129,1,0,0:0:0:50:hihat loud.wav
64,192,246304,1,0,0:0:0:0:
320,192,246304,1,8,0:0:0:0:
192,192,246304,1,0,0:0:0:0:
64,192,246478,1,0,0:0:0:50:hihat loud.wav
192,192,246653,1,2,0:0:0:0:
320,192,246653,1,0,0:0:0:0:
192,192,246827,1,0,0:0:0:50:hihat loud.wav
64,192,247001,1,0,0:0:0:0:
320,192,247001,1,0,0:0:0:0:
448,192,247001,1,8,0:0:0:0:
320,192,247176,1,0,0:0:0:50:hihat loud.wav
448,192,247350,1,0,0:0:0:0:
64,192,247350,1,2,0:0:0:0:
448,192,247525,1,0,0:0:0:50:hihat loud.wav
192,192,247699,1,8,0:0:0:0:
64,192,247699,1,0,0:0:0:0:
320,192,247699,1,0,0:0:0:0:
320,192,247874,1,0,0:0:0:50:hihat loud.wav
192,192,248048,1,0,0:0:0:0:
448,192,248048,1,2,0:0:0:0:
192,192,248222,1,0,0:0:0:50:hihat loud.wav
64,192,248397,1,0,0:0:0:0:
320,192,248397,1,8,0:0:0:0:
448,192,248397,1,0,0:0:0:0:
64,192,248571,1,0,0:0:0:50:hihat loud.wav
192,192,248746,1,2,0:0:0:0:
448,192,248746,1,0,0:0:0:0:
448,192,248920,1,0,0:0:0:50:hihat loud.wav
64,192,249094,1,0,0:0:0:0:
320,192,249094,1,8,0:0:0:0:
192,192,249094,1,0,0:0:0:0:
64,192,249269,1,0,0:0:0:50:hihat loud.wav
192,192,249443,1,2,0:0:0:0:
320,192,249443,1,0,0:0:0:0:
320,192,249618,1,0,0:0:0:50:hihat loud.wav
64,192,249792,1,0,0:0:0:0:
192,192,249792,1,8,0:0:0:0:
448,192,249792,1,0,0:0:0:0:
64,192,249967,1,0,0:0:0:50:hihat loud.wav
320,192,250141,1,0,0:0:0:0:
448,192,250141,1,2,0:0:0:0:
320,192,250315,1,0,0:0:0:50:hihat loud.wav
64,192,250490,1,0,0:0:0:0:
192,192,250490,1,8,0:0:0:0:
448,192,250490,1,0,0:0:0:0:
192,192,250664,1,0,0:0:0:50:hihat loud.wav
448,192,250839,1,0,0:0:0:0:
320,192,250839,1,2,0:0:0:0:
64,192,250926,1,0,0:0:0:40:snare soft.wav
192,192,251013,1,0,0:0:0:50:kick tomb.wav
320,192,251013,1,0,0:0:0:0:
448,192,251100,1,0,0:0:0:50:kick tomb.wav
64,192,251187,1,0,0:0:0:0:
192,192,251187,1,8,0:0:0:0:
320,192,251275,1,0,0:0:0:0:
448,192,251275,1,0,0:0:0:50:kick tomb.wav
64,192,251362,1,0,0:0:0:50:kick tomb.wav
192,192,251536,1,2,0:0:0:0:
320,192,251536,1,4,0:0:0:0:
448,192,251536,1,0,0:0:0:0:
192,192,251711,1,0,0:0:0:50:hihat loud.wav
64,192,251885,1,0,0:0:0:0:
320,192,251885,1,8,0:0:0:0:
448,192,251885,1,0,0:0:0:0:
448,192,252060,1,0,0:0:0:50:hihat loud.wav
64,192,252234,1,2,0:0:0:0:
320,192,252234,1,0,0:0:0:0:
64,192,252408,1,0,0:0:0:50:hihat loud.wav
192,192,252583,1,8,0:0:0:0:
320,192,252583,1,0,0:0:0:0:
448,192,252583,1,0,0:0:0:0:
192,192,252757,1,0,0:0:0:50:hihat loud.wav
64,192,252932,1,2,0:0:0:0:
448,192,252932,1,0,0:0:0:0:
448,192,253106,1,0,0:0:0:50:hihat loud.wav
192,192,253280,1,0,0:0:0:0:
320,192,253280,1,8,0:0:0:0:
64,192,253280,1,0,0:0:0:0:
320,192,253455,1,0,0:0:0:50:hihat loud.wav
64,192,253629,1,2,0:0:0:0:
448,192,253629,1,0,0:0:0:0:
64,192,253804,1,0,0:0:0:50:hihat loud.wav
192,192,253978,1,8,0:0:0:0:
448,192,253978,1,0,0:0:0:0:
320,192,253978,1,0,0:0:0:0:
192,192,254153,1,0,0:0:0:50:hihat loud.wav
64,192,254327,1,0,0:0:0:0:
448,192,254327,1,2,0:0:0:0:
64,192,254501,1,0,0:0:0:50:hihat loud.wav
192,192,254676,1,0,0:0:0:0:
320,192,254676,1,8,0:0:0:0:
448,192,254676,1,0,0:0:0:0:
448,192,254850,1,0,0:0:0:50:hihat loud.wav
64,192,255025,1,0,0:0:0:0:
192,192,255025,1,2,0:0:0:0:
64,192,255199,1,0,0:0:0:50:hihat loud.wav
192,192,255374,1,0,0:0:0:0:
448,192,255374,1,0,0:0:0:0:
320,192,255374,1,8,0:0:0:0:
192,192,255548,1,0,0:0:0:50:hihat loud.wav
320,192,255722,1,0,0:0:0:0:
64,192,255722,1,2,0:0:0:0:
320,192,255897,1,0,0:0:0:50:hihat loud.wav
448,192,256071,1,8,0:0:0:0:
64,192,256071,1,0,0:0:0:0:
192,192,256071,1,0,0:0:0:0:
448,192,256246,1,0,0:0:0:50:hihat loud.wav
192,192,256420,1,8,0:0:0:0:
320,192,256420,1,0,0:0:0:0:
64,192,256420,128,0,256769:0:0:0:0:
192,192,256769,128,0,257118:0:0:0:0:
448,192,256769,1,0,0:0:0:0:
320,192,256769,1,8,0:0:0:0:
64,192,256856,1,0,0:0:0:40:snare soft.wav
448,192,256943,1,0,0:0:0:40:snare soft.wav
320,192,257030,1,0,0:0:0:40:snare soft.wav
448,192,257118,1,2,0:0:0:0:
64,192,257118,1,4,0:0:0:0:
320,192,257292,1,0,0:0:0:50:hihat loud.wav
64,192,257467,1,0,0:0:0:0:
192,192,257467,1,8,0:0:0:0:
448,192,257467,1,0,0:0:0:0:
448,192,257641,1,0,0:0:0:50:hihat loud.wav
192,192,257815,1,0,0:0:0:0:
320,192,257815,1,2,0:0:0:0:
320,192,257990,1,0,0:0:0:50:hihat loud.wav
64,192,258164,1,0,0:0:0:0:
192,192,258164,1,8,0:0:0:0:
448,192,258164,1,0,0:0:0:0:
64,192,258339,1,0,0:0:0:50:hihat loud.wav
320,192,258513,1,2,0:0:0:0:
448,192,258513,1,0,0:0:0:0:
448,192,258687,1,0,0:0:0:50:hihat loud.wav
64,192,258862,1,8,0:0:0:0:
192,192,258862,1,0,0:0:0:0:
320,192,258862,1,0,0:0:0:0:
64,192,259036,1,0,0:0:0:50:hihat loud.wav
192,192,259211,1,0,0:0:0:0:
448,192,259211,1,2,0:0:0:0:
448,192,259385,1,0,0:0:0:50:hihat loud.wav
192,192,259560,1,0,0:0:0:0:
320,192,259560,1,8,0:0:0:0:
64,192,259560,1,0,0:0:0:0:
320,192,259734,1,0,0:0:0:50:hihat loud.wav
64,192,259908,1,2,0:0:0:0:
192,192,259908,1,0,0:0:0:0:
192,192,260083,1,0,0:0:0:50:hihat loud.wav
64,192,260257,1,0,0:0:0:0:
320,192,260257,1,8,0:0:0:0:
448,192,260257,1,0,0:0:0:0:
448,192,260432,1,0,0:0:0:50:hihat loud.wav
192,192,260606,1,0,0:0:0:0:
320,192,260606,1,2,0:0:0:0:
192,192,260780,1,0,0:0:0:50:hihat loud.wav
64,192,260955,1,0,0:0:0:0:
320,192,260955,1,8,0:0:0:0:
448,192,260955,1,0,0:0:0:0:
64,192,261129,1,0,0:0:0:50:hihat loud.wav
192,192,261304,1,0,0:0:0:0:
448,192,261304,1,2,0:0:0:0:
448,192,261478,1,0,0:0:0:50:hihat loud.wav
64,192,261653,1,0,0:0:0:0:
192,192,261653,1,0,0:0:0:0:
320,192,261653,1,8,0:0:0:0:
320,192,261827,1,0,0:0:0:50:hihat loud.wav
64,192,262001,1,2,0:0:0:0:
448,192,262001,1,0,0:0:0:0:
64,192,262176,1,0,0:0:0:50:hihat loud.wav
192,192,262350,1,8,0:0:0:0:
320,192,262350,1,0,0:0:0:0:
448,192,262350,1,0,0:0:0:0:
320,192,262525,1,0,0:0:0:50:hihat loud.wav
64,192,262699,1,4,0:0:0:0:
192,192,262699,1,0,0:0:0:0:
448,192,262699,1,2,0:0:0:0:
192,192,262874,1,0,0:0:0:50:hihat loud.wav
64,192,263048,1,0,0:0:0:0:
448,192,263048,1,0,0:0:0:0:
320,192,263048,1,8,0:0:0:0:
64,192,263222,1,0,0:0:0:50:hihat loud.wav
192,192,263397,1,2,0:0:0:0:
448,192,263397,1,0,0:0:0:0:
448,192,263571,1,0,0:0:0:50:hihat loud.wav
64,192,263746,1,0,0:0:0:0:
192,192,263746,1,0,0:0:0:0:
320,192,263746,1,8,0:0:0:0:
320,192,263920,1,0,0:0:0:50:hihat loud.wav
64,192,264094,1,2,0:0:0:0:
448,192,264094,1,0,0:0:0:0:
64,192,264269,1,0,0:0:0:50:hihat loud.wav
192,192,264443,1,0,0:0:0:0:
320,192,264443,1,8,0:0:0:0:
448,192,264443,1,0,0:0:0:0:
192,192,264618,1,0,0:0:0:50:hihat loud.wav
64,192,264792,1,2,0:0:0:0:
320,192,264792,1,0,0:0:0:0:
320,192,264967,1,0,0:0:0:50:hihat loud.wav
64,192,265141,1,0,0:0:0:0:
192,192,265141,1,8,0:0:0:0:
448,192,265141,1,0,0:0:0:0:
448,192,265315,1,0,0:0:0:50:hihat loud.wav
192,192,265490,1,0,0:0:0:0:
320,192,265490,1,2,0:0:0:0:
320,192,265664,1,0,0:0:0:50:hihat loud.wav
64,192,265839,1,0,0:0:0:0:
192,192,265839,1,8,0:0:0:0:
448,192,265839,1,0,0:0:0:0:
192,192,266013,1,0,0:0:0:50:hihat loud.wav
64,192,266187,1,2,0:0:0:0:
448,192,266187,1,0,0:0:0:0:
64,192,266362,1,0,0:0:0:50:hihat loud.wav
192,192,266536,1,0,0:0:0:0:
320,192,266536,1,8,0:0:0:0:
448,192,266536,1,0,0:0:0:0:
448,192,266711,1,0,0:0:0:50:hihat loud.wav
64,192,266885,1,2,0:0:0:0:
192,192,266885,1,4,0:0:0:0:
320,192,266885,1,0,0:0:0:0:
320,192,267060,1,0,0:0:0:0:
64,192,267234,1,0,0:0:0:50:kick tomb.wav
192,192,267234,1,0,0:0:0:0:
448,192,267408,1,0,0:0:0:0:
192,192,267583,1,0,0:0:0:0:
64,192,267583,1,0,0:0:0:50:kick tomb.wav
320,192,267641,1,0,0:0:0:50:kick tomb.wav
448,192,267699,1,0,0:0:0:50:kick tomb.wav
192,192,267757,1,0,0:0:0:50:kick tomb.wav
64,192,267932,128,0,268280:0:0:0:0:
320,192,267932,1,8,0:0:0:0:
448,192,267932,1,0,0:0:0:0:
320,192,268280,1,4,0:0:0:0:
448,192,268280,1,2,0:0:0:0:
192,192,268280,128,0,268629:0:0:0:0:
64,192,268455,1,0,0:0:0:50:hihat loud.wav
448,192,268629,1,0,0:0:0:0:
64,192,268629,1,8,0:0:0:0:
320,192,268629,128,0,268978:0:0:0:0:
448,192,268804,1,0,0:0:0:50:hihat loud.wav
64,192,268978,1,2,0:0:0:0:
448,192,268978,128,0,269327:0:0:0:0:
192,192,269153,1,0,0:0:0:50:hihat loud.wav
192,192,269327,1,0,0:0:0:0:
320,192,269327,1,8,0:0:0:0:
64,192,269327,128,0,269676:0:0:0:0:
448,192,269501,1,0,0:0:0:50:hihat loud.wav
448,192,269676,1,2,0:0:0:0:
192,192,269676,128,0,270025:0:0:0:0:
64,192,269850,1,0,0:0:0:50:hihat loud.wav
320,192,270025,1,8,0:0:0:0:
64,192,270025,1,0,0:0:0:0:
448,192,270025,128,0,270374:0:0:0:0:
320,192,270199,1,0,0:0:0:50:hihat loud.wav
64,192,270374,1,2,0:0:0:0:
192,192,270374,128,0,270722:0:0:0:0:
448,192,270548,1,0,0:0:0:50:hihat loud.wav
64,192,270722,1,8,0:0:0:0:
448,192,270722,1,0,0:0:0:0:
320,192,270722,128,0,271071:0:0:0:0:
192,192,270897,1,0,0:0:0:50:hihat loud.wav
64,192,271071,1,2,0:0:0:0:
448,192,271071,128,0,271420:0:0:0:0:
192,192,271246,1,0,0:0:0:50:hihat loud.wav
64,192,271420,128,0,271769:0:0:0:0:
192,192,271420,1,0,0:0:0:0:
320,192,271420,1,8,0:0:0:0:
448,192,271594,1,0,0:0:0:50:hihat loud.wav
192,192,271769,128,0,272118:0:0:0:0:
320,192,271769,1,2,0:0:0:0:
64,192,271943,1,0,0:0:0:50:hihat loud.wav
448,192,272118,128,0,272467:0:0:0:0:
320,192,272118,1,0,0:0:0:0:
64,192,272118,1,8,0:0:0:0:
320,192,272292,1,0,0:0:0:50:hihat loud.wav
192,192,272467,1,2,0:0:0:0:
64,192,272467,128,0,272815:0:0:0:0:
448,192,272641,1,0,0:0:0:50:hihat loud.wav
320,192,272815,1,8,0:0:0:0:
448,192,272815,1,0,0:0:0:0:
192,192,272815,128,0,273164:0:0:0:0:
64,192,272990,1,0,0:0:0:50:hihat loud.wav
320,192,273164,1,2,0:0:0:0:
448,192,273164,128,0,273513:0:0:0:0:
64,192,273339,1,0,0:0:0:0:
192,192,273339,1,0,0:0:0:50:kick tomb.wav
64,192,273513,1,8,0:0:0:0:
320,192,273513,128,0,273862:0:0:0:0:
192,192,273600,1,0,0:0:0:50:kick tomb.wav
448,192,273687,1,0,0:0:0:50:kick tomb.wav
64,192,273775,1,0,0:0:0:50:kick tomb.wav
192,192,273862,1,2,0:0:0:0:
448,192,273862,128,4,275955:0:0:0:0:
320,192,274036,1,0,0:0:0:50:hihat loud.wav
320,192,274211,1,0,0:0:0:0:
192,192,274211,1,8,0:0:0:0:
64,192,274211,1,0,0:0:0:0:
64,192,274385,1,0,0:0:0:50:hihat loud.wav
320,192,274560,1,0,0:0:0:0:
192,192,274560,1,2,0:0:0:0:
64,192,274734,1,0,0:0:0:50:hihat loud.wav
192,192,274908,1,8,0:0:0:0:
64,192,274908,1,0,0:0:0:0:
320,192,274908,1,0,0:0:0:0:
320,192,275083,1,0,0:0:0:50:hihat loud.wav
64,192,275257,1,0,0:0:0:0:
192,192,275257,1,2,0:0:0:0:
320,192,275432,1,0,0:0:0:50:hihat loud.wav
320,192,275606,1,8,0:0:0:0:
192,192,275606,1,0,0:0:0:0:
64,192,275606,1,0,0:0:0:0:
64,192,275780,1,0,0:0:0:50:hihat loud.wav
320,192,275955,1,0,0:0:0:0:
192,192,275955,1,2,0:0:0:0:
192,192,276129,1,0,0:0:0:50:hihat loud.wav
320,192,276304,1,0,0:0:0:0:
448,192,276304,1,8,0:0:0:0:
64,192,276304,1,0,0:0:0:0:
448,192,276478,1,0,0:0:0:50:hihat loud.wav
192,192,276653,1,2,0:0:0:0:
64,192,276653,128,0,277874:0:0:0:0:
448,192,276827,1,0,0:0:0:50:hihat loud.wav
192,192,277001,1,0,0:0:0:0:
320,192,277001,1,8,0:0:0:0:
448,192,277001,1,0,0:0:0:0:
320,192,277176,1,0,0:0:0:50:hihat loud.wav
192,192,277350,1,2,0:0:0:0:
448,192,277350,1,0,0:0:0:0:
320,192,277525,1,0,0:0:0:50:hihat loud.wav
448,192,277699,1,0,0:0:0:0:
192,192,277699,1,8,0:0:0:0:
320,192,277699,1,0,0:0:0:0:
448,192,277874,1,0,0:0:0:50:hihat loud.wav
192,192,278048,1,0,0:0:0:0:
64,192,278048,1,8,0:0:0:0:
448,192,278048,1,0,0:0:0:0:
320,192,278310,1,0,0:0:0:0:
64,192,278310,1,0,0:0:0:50:kick tomb.wav
192,192,278571,1,0,0:0:0:0:
448,192,278571,1,0,0:0:0:50:kick tomb.wav
64,192,278746,1,8,0:0:0:0:
320,192,278746,128,4,279094:0:0:0:0:
448,192,278746,128,0,279094:0:0:0:0:
64,192,279094,1,8,0:0:0:0:
192,192,279094,1,0,0:0:0:0:
448,192,279182,1,0,0:0:0:50:kick tomb.wav
64,192,279269,1,0,0:0:0:50:kick tomb.wav
192,192,279356,1,0,0:0:0:50:kick tomb.wav
320,192,279443,1,2,0:0:0:0:
448,192,279443,1,4,0:0:0:0:
64,192,279443,128,0,280839:0:0:0:0:
448,192,279618,1,0,0:0:0:50:hihat loud.wav
192,192,279792,1,0,0:0:0:0:
320,192,279792,1,8,0:0:0:0:
448,192,279792,1,0,0:0:0:0:
192,192,279967,1,0,0:0:0:50:hihat loud.wav
320,192,280141,1,2,0:0:0:0:
448,192,280141,1,0,0:0:0:0:
192,192,280315,1,0,0:0:0:50:hihat loud.wav
192,192,280490,1,8,0:0:0:0:
320,192,280490,1,0,0:0:0:0:
448,192,280490,1,0,0:0:0:0:
320,192,280664,1,0,0:0:0:50:hihat loud.wav
448,192,280839,128,0,282234:0:0:0:0:
192,192,280839,1,2,0:0:0:0:
320,192,281013,1,0,0:0:0:50:hihat loud.wav
64,192,281187,1,0,0:0:0:0:
192,192,281187,1,8,0:0:0:0:
320,192,281187,1,0,0:0:0:0:
64,192,281362,1,0,0:0:0:50:hihat loud.wav
192,192,281536,1,2,0:0:0:0:
320,192,281536,1,0,0:0:0:0:
64,192,281711,1,0,0:0:0:50:hihat loud.wav
192,192,281885,1,0,0:0:0:0:
320,192,281885,1,8,0:0:0:0:
64,192,281885,1,0,0:0:0:0:
320,192,282060,1,0,0:0:0:50:hihat loud.wav
64,192,282234,128,0,282583:0:0:0:0:
192,192,282234,1,2,0:0:0:0:
448,192,282408,1,0,0:0:0:50:hihat loud.wav
192,192,282583,1,0,0:0:0:0:
320,192,282583,1,8,0:0:0:0:
448,192,282583,1,0,0:0:0:0:
320,192,282757,1,0,0:0:0:50:hihat loud.wav
192,192,282932,128,0,283280:0:0:0:0:
64,192,282932,1,2,0:0:0:0:
320,192,283106,1,0,0:0:0:50:hihat loud.wav
64,192,283280,1,0,0:0:0:0:
320,192,283280,1,0,0:0:0:0:
448,192,283280,1,8,0:0:0:0:
192,192,283455,1,0,0:0:0:50:hihat loud.wav
320,192,283629,128,0,283978:0:0:0:0:
64,192,283629,1,0,0:0:0:0:
448,192,283629,1,2,0:0:0:0:
192,192,283804,1,0,0:0:0:50:hihat loud.wav
64,192,283978,1,8,0:0:0:0:
192,192,283978,1,0,0:0:0:0:
448,192,283978,1,0,0:0:0:0:
320,192,284153,1,0,0:0:0:50:hihat loud.wav
448,192,284327,128,0,284676:0:0:0:0:
64,192,284327,1,2,0:0:0:0:
192,192,284501,1,0,0:0:0:50:hihat loud.wav
64,192,284676,1,0,0:0:0:0:
192,192,284676,1,8,0:0:0:0:
320,192,284676,128,0,285025:0:0:0:0:
448,192,284850,1,0,0:0:0:50:hihat loud.wav
64,192,285025,128,0,285722:0:0:0:0:
192,192,285025,1,4,0:0:0:0:
448,192,285025,1,2,0:0:0:0:
192,192,285199,1,0,0:0:0:50:hihat loud.wav
192,192,285374,1,0,0:0:0:0:
320,192,285374,1,8,0:0:0:0:
448,192,285374,1,0,0:0:0:0:
448,192,285548,1,0,0:0:0:50:hihat loud.wav
192,192,285722,128,0,286420:0:0:0:0:
320,192,285722,1,2,0:0:0:0:
64,192,285897,1,0,0:0:0:50:hihat loud.wav
64,192,286071,1,0,0:0:0:0:
320,192,286071,1,8,0:0:0:0:
448,192,286071,1,0,0:0:0:0:
448,192,286246,1,0,0:0:0:50:hihat loud.wav
64,192,286420,1,2,0:0:0:0:
320,192,286420,128,0,287118:0:0:0:0:
192,192,286594,1,0,0:0:0:50:hihat loud.wav
64,192,286769,1,0,0:0:0:0:
192,192,286769,1,8,0:0:0:0:
448,192,286769,1,0,0:0:0:0:
448,192,286943,1,0,0:0:0:50:hihat loud.wav
64,192,287118,128,0,287815:0:0:0:0:
192,192,287118,1,2,0:0:0:0:
448,192,287292,1,0,0:0:0:50:hihat loud.wav
192,192,287467,1,0,0:0:0:0:
320,192,287467,1,8,0:0:0:0:
448,192,287467,1,0,0:0:0:0:
192,192,287641,1,0,0:0:0:50:hihat loud.wav
448,192,287815,128,0,288513:0:0:0:0:
320,192,287815,1,2,0:0:0:0:
64,192,287990,1,0,0:0:0:50:hihat loud.wav
64,192,288164,1,0,0:0:0:0:
192,192,288164,1,8,0:0:0:0:
320,192,288164,1,0,0:0:0:0:
320,192,288339,1,0,0:0:0:50:hihat loud.wav
64,192,288513,1,2,0:0:0:0:
192,192,288513,128,0,289211:0:0:0:0:
320,192,288687,1,0,0:0:0:50:hihat loud.wav
64,192,288862,1,0,0:0:0:0:
320,192,288862,1,8,0:0:0:0:
448,192,288862,1,0,0:0:0:0:
64,192,289036,1,0,0:0:0:50:hihat loud.wav
448,192,289036,1,2,0:0:0:0:
64,192,289211,1,2,0:0:0:0:
448,192,289211,128,0,289908:0:0:0:0:
320,192,289211,128,4,289560:0:0:0:0:
64,192,289560,128,0,289908:0:0:0:0:
192,192,289560,1,0,0:0:0:50:kick tomb.wav
192,192,289908,128,0,290432:0:0:0:50:kick tomb.wav
320,192,289908,128,8,290257:0:0:0:0:
64,192,290257,128,4,290606:0:0:0:0:
448,192,290257,1,8,0:0:0:0:
448,192,290606,128,0,290780:0:0:0:0:
192,192,290606,1,8,0:0:0:0:
320,192,290606,1,2,0:0:0:0:
64,192,290780,1,2,0:0:0:0:
192,192,290780,1,0,0:0:0:0:
448,192,290955,128,0,291129:0:0:0:0:
64,192,290955,1,0,0:0:0:0:
320,192,290955,1,8,0:0:0:0:
192,192,291129,1,2,0:0:0:0:
320,192,291129,1,0,0:0:0:0:
448,192,291304,128,0,291478:0:0:0:0:
64,192,291304,1,0,0:0:0:0:
192,192,291304,1,8,0:0:0:0:
64,192,291478,1,0,0:0:0:0:
320,192,291478,1,2,0:0:0:0:
448,192,291653,128,0,291827:0:0:0:0:
192,192,291653,1,8,0:0:0:0:
320,192,291653,1,0,0:0:0:0:
64,192,291827,1,0,0:0:0:0:
192,192,291827,1,2,0:0:0:0:
320,192,291914,1,2,0:0:0:0:
448,192,292001,128,0,292176:0:0:0:0:
64,192,292001,1,0,0:0:0:0:
192,192,292001,1,8,0:0:0:0:
64,192,292176,1,0,0:0:0:0:
320,192,292176,1,2,0:0:0:0:
448,192,292350,128,0,292525:0:0:0:0:
192,192,292350,1,8,0:0:0:0:
320,192,292350,1,0,0:0:0:0:
64,192,292525,1,0,0:0:0:0:
192,192,292525,1,2,0:0:0:0:
448,192,292699,128,0,292874:0:0:0:0:
192,192,292699,1,0,0:0:0:0:
320,192,292699,1,8,0:0:0:0:
64,192,292874,1,2,0:0:0:0:
320,192,292874,1,0,0:0:0:0:
192,192,292961,1,2,0:0:0:0:
448,192,293048,128,0,293222:0:0:0:0:
320,192,293048,1,8,0:0:0:0:
64,192,293048,1,0,0:0:0:0:
192,192,293222,1,2,0:0:0:0:
64,192,293222,1,0,0:0:0:0:
320,192,293310,1,2,0:0:0:0:
64,192,293397,128,0,293571:0:0:0:0:
192,192,293397,1,4,0:0:0:0:
448,192,293397,1,8,0:0:0:0:
320,192,293571,1,2,0:0:0:0:
448,192,293571,1,0,0:0:0:0:
64,192,293746,128,0,293920:0:0:0:0:
192,192,293746,1,0,0:0:0:0:
320,192,293746,1,8,0:0:0:0:
192,192,293920,1,2,0:0:0:0:
448,192,293920,1,0,0:0:0:0:
64,192,294094,128,0,294269:0:0:0:0:
320,192,294094,1,8,0:0:0:0:
448,192,294094,1,0,0:0:0:0:
192,192,294269,1,2,0:0:0:0:
320,192,294269,1,0,0:0:0:0:
64,192,294443,128,0,294618:0:0:0:0:
192,192,294443,1,0,0:0:0:0:
448,192,294443,1,8,0:0:0:0:
320,192,294618,1,2,0:0:0:0:
448,192,294618,1,0,0:0:0:0:
192,192,294705,1,2,0:0:0:0:
64,192,294792,128,0,294967:0:0:0:0:
320,192,294792,1,8,0:0:0:0:
448,192,294792,1,0,0:0:0:0:
192,192,294967,1,2,0:0:0:0:
320,192,294967,1,0,0:0:0:0:
64,192,295141,128,0,295315:0:0:0:0:
192,192,295141,1,8,0:0:0:0:
448,192,295141,1,0,0:0:0:0:
320,192,295315,1,2,0:0:0:0:
448,192,295315,1,0,0:0:0:0:
64,192,295490,128,0,295664:0:0:0:0:
192,192,295490,1,8,0:0:0:0:
320,192,295490,1,0,0:0:0:0:
192,192,295664,1,0,0:0:0:0:
448,192,295664,1,2,0:0:0:0:
320,192,295751,1,2,0:0:0:0:
64,192,295839,128,0,296013:0:0:0:0:
192,192,295839,1,8,0:0:0:0:
448,192,295839,1,0,0:0:0:0:
448,192,296013,1,0,0:0:0:0:
320,192,296013,1,2,0:0:0:0:
192,192,296100,1,2,0:0:0:0:
320,192,296187,128,0,296362:0:0:0:0:
448,192,296187,1,4,0:0:0:0:
64,192,296187,1,8,0:0:0:0:
192,192,296362,1,2,0:0:0:0:
64,192,296362,1,0,0:0:0:0:
320,192,296536,128,0,296711:0:0:0:0:
64,192,296536,1,0,0:0:0:0:
448,192,296536,1,8,0:0:0:0:
192,192,296711,1,2,0:0:0:0:
448,192,296711,1,0,0:0:0:0:
320,192,296885,128,0,297060:0:0:0:0:
192,192,296885,1,8,0:0:0:0:
64,192,296885,1,0,0:0:0:0:
64,192,297060,1,2,0:0:0:0:
448,192,297060,1,0,0:0:0:0:
320,192,297234,128,0,297408:0:0:0:0:
192,192,297234,1,8,0:0:0:0:
64,192,297234,1,0,0:0:0:0:
192,192,297408,1,0,0:0:0:0:
448,192,297408,1,2,0:0:0:0:
64,192,297496,1,2,0:0:0:0:
320,192,297583,128,0,297757:0:0:0:0:
192,192,297583,1,8,0:0:0:0:
448,192,297583,1,0,0:0:0:0:
448,192,297757,1,2,0:0:0:0:
64,192,297757,1,0,0:0:0:0:
64,192,297932,1,8,0:0:0:0:
320,192,297932,128,0,298106:0:0:0:0:
192,192,297932,1,0,0:0:0:0:
64,192,298106,1,2,0:0:0:0:
448,192,298106,1,0,0:0:0:0:
320,192,298280,128,0,298455:0:0:0:0:
192,192,298280,1,8,0:0:0:0:
448,192,298280,1,0,0:0:0:0:
64,192,298455,1,2,0:0:0:0:
448,192,298455,1,0,0:0:0:0:
192,192,298542,1,2,0:0:0:0:
448,192,298629,1,8,0:0:0:0:
64,192,298629,1,0,0:0:0:0:
320,192,298629,128,0,298804:0:0:0:0:
64,192,298804,1,0,0:0:0:0:
192,192,298804,1,2,0:0:0:0:
320,192,298891,1,2,0:0:0:0:
64,192,298978,128,0,299153:0:0:0:0:
192,192,298978,1,4,0:0:0:0:
448,192,298978,1,8,0:0:0:0:
320,192,299153,1,2,0:0:0:0:
448,192,299153,1,0,0:0:0:0:
64,192,299327,128,0,299501:0:0:0:0:
192,192,299327,1,0,0:0:0:0:
320,192,299327,1,8,0:0:0:0:
192,192,299501,1,2,0:0:0:0:
448,192,299501,1,0,0:0:0:0:
64,192,299676,128,0,299850:0:0:0:0:
320,192,299676,1,8,0:0:0:0:
448,192,299676,1,0,0:0:0:0:
192,192,299850,1,2,0:0:0:0:
320,192,299850,1,0,0:0:0:0:
64,192,300025,128,0,300199:0:0:0:0:
192,192,300025,1,0,0:0:0:0:
448,192,300025,1,8,0:0:0:0:
320,192,300199,1,2,0:0:0:0:
448,192,300199,1,0,0:0:0:0:
192,192,300286,1,2,0:0:0:0:
64,192,300374,128,0,300548:0:0:0:0:
320,192,300374,1,8,0:0:0:0:
448,192,300374,1,0,0:0:0:0:
192,192,300548,1,2,0:0:0:0:
320,192,300548,1,0,0:0:0:0:
64,192,300722,128,0,300897:0:0:0:0:
192,192,300722,1,8,0:0:0:0:
448,192,300722,1,0,0:0:0:0:
320,192,300897,1,0,0:0:0:50:kick tomb.wav
448,192,300897,1,0,0:0:0:0:
192,192,301071,1,0,0:0:0:50:kick tomb.wav
64,192,301071,1,0,0:0:0:0:
64,192,301246,1,0,0:0:0:0:
448,192,301246,1,0,0:0:0:0:
320,192,301246,1,8,0:0:0:0:
192,192,301333,1,0,0:0:0:40:snare soft.wav
448,192,301420,1,0,0:0:0:0:
320,192,301420,1,0,0:0:0:50:kick tomb.wav
192,192,301507,1,0,0:0:0:50:kick tomb.wav
64,192,301507,1,0,0:0:0:0:
448,192,301594,1,0,0:0:0:0:
320,192,301594,1,0,0:0:0:50:kick tomb.wav
192,192,301769,1,4,0:0:0:0:
448,192,301769,1,2,0:0:0:0:
64,192,301769,128,0,303164:0:0:0:0:
320,192,301943,1,0,0:0:0:50:hihat loud.wav
192,192,301943,1,2,0:0:0:0:
192,192,302118,1,8,0:0:0:0:
320,192,302118,1,0,0:0:0:0:
448,192,302118,1,0,0:0:0:50:hihat loud.wav
448,192,302292,1,0,0:0:0:50:hihat loud.wav
192,192,302467,1,2,0:0:0:0:
320,192,302467,1,0,0:0:0:50:hihat loud.wav
192,192,302641,1,2,0:0:0:0:
448,192,302641,1,0,0:0:0:50:hihat loud.wav
320,192,302815,1,0,0:0:0:0:
448,192,302815,1,8,0:0:0:0:
192,192,302815,1,0,0:0:0:50:hihat loud.wav
320,192,302990,1,0,0:0:0:50:hihat loud.wav
448,192,303164,128,0,304560:0:0:0:50:hihat loud.wav
192,192,303164,1,2,0:0:0:0:
64,192,303339,1,0,0:0:0:50:hihat loud.wav
320,192,303339,1,2,0:0:0:0:
64,192,303513,1,0,0:0:0:0:
192,192,303513,1,8,0:0:0:0:
320,192,303513,1,0,0:0:0:50:hihat loud.wav
192,192,303687,1,0,0:0:0:50:hihat loud.wav
64,192,303862,1,0,0:0:0:50:hihat loud.wav
320,192,303862,1,2,0:0:0:0:
64,192,304036,1,2,0:0:0:0:
192,192,304036,1,0,0:0:0:50:hihat loud.wav
64,192,304211,1,0,0:0:0:0:
192,192,304211,1,8,0:0:0:0:
320,192,304211,1,0,0:0:0:50:hihat loud.wav
320,192,304385,1,0,0:0:0:50:hihat loud.wav
192,192,304560,128,4,305257:0:0:0:0:
320,192,304560,1,2,0:0:0:0:
64,192,304560,1,4,0:0:0:45:hihat loud.wav
64,192,304734,1,0,0:0:0:50:hihat loud.wav
448,192,304734,1,2,0:0:0:0:
320,192,304908,1,0,0:0:0:50:hihat loud.wav
448,192,304908,1,0,0:0:0:0:
64,192,304908,1,8,0:0:0:0:
320,192,305083,1,0,0:0:0:50:hihat loud.wav
64,192,305257,128,0,305955:0:0:0:50:hihat loud.wav
448,192,305257,1,2,0:0:0:0:
192,192,305432,1,2,0:0:0:0:
320,192,305432,1,0,0:0:0:50:hihat loud.wav
192,192,305606,1,8,0:0:0:0:
320,192,305606,1,0,0:0:0:50:hihat loud.wav
448,192,305606,1,0,0:0:0:0:
192,192,305780,1,0,0:0:0:50:hihat loud.wav
448,192,305955,128,0,306653:0:0:0:50:hihat loud.wav
320,192,305955,1,2,0:0:0:0:
64,192,306129,1,2,0:0:0:0:
192,192,306129,1,0,0:0:0:50:hihat loud.wav
64,192,306304,1,0,0:0:0:0:
192,192,306304,1,8,0:0:0:0:
320,192,306304,1,0,0:0:0:50:hihat loud.wav
320,192,306478,1,0,0:0:0:50:hihat loud.wav
64,192,306653,1,2,0:0:0:0:
192,192,306653,128,0,307350:0:0:0:50:hihat loud.wav
320,192,306827,1,2,0:0:0:0:
448,192,306827,1,0,0:0:0:50:hihat loud.wav
64,192,307001,1,0,0:0:0:0:
320,192,307001,1,8,0:0:0:0:
448,192,307001,1,0,0:0:0:50:hihat loud.wav
64,192,307176,1,8,0:0:0:0:
320,192,307176,1,0,0:0:0:0:
448,192,307176,1,0,0:0:0:50:hihat loud.wav
64,192,307350,1,0,0:0:0:0:
320,192,307350,1,4,0:0:0:0:
448,192,307350,1,2,0:0:0:0:
192,192,307525,1,2,0:0:0:0:
320,192,307525,1,0,0:0:0:0:
64,192,307699,1,0,0:0:0:0:
192,192,307699,1,8,0:0:0:0:
448,192,307699,1,0,0:0:0:50:hihat soft.wav
320,192,307874,1,2,0:0:0:0:
448,192,307874,1,0,0:0:0:0:
192,192,307961,1,0,0:0:0:40:snare soft.wav
64,192,308048,1,0,0:0:0:50:hihat soft.wav
192,192,308135,1,0,0:0:0:40:snare soft.wav
320,192,308222,1,2,0:0:0:0:
448,192,308222,1,0,0:0:0:0:
192,192,308397,1,8,0:0:0:0:
64,192,308397,1,0,0:0:0:0:
448,192,308397,1,0,0:0:0:50:hihat soft.wav
320,192,308571,1,0,0:0:0:50:hihat soft.wav
192,192,308571,1,2,0:0:0:0:
64,192,308746,1,0,0:0:0:50:hihat soft.wav
448,192,308920,1,2,0:0:0:0:
320,192,308920,1,0,0:0:0:50:hihat soft.wav
64,192,309094,1,0,0:0:0:0:
192,192,309094,1,8,0:0:0:0:
448,192,309094,1,0,0:0:0:50:hihat soft.wav
64,192,309269,1,2,0:0:0:0:
320,192,309269,1,0,0:0:0:0:
192,192,309356,1,0,0:0:0:40:snare soft.wav
448,192,309443,1,0,0:0:0:50:hihat soft.wav
320,192,309530,1,0,0:0:0:40:snare soft.wav
64,192,309618,1,0,0:0:0:0:
192,192,309618,1,2,0:0:0:0:
64,192,309792,1,0,0:0:0:0:
320,192,309792,1,8,0:0:0:0:
448,192,309792,1,0,0:0:0:50:hihat soft.wav
192,192,309967,1,2,0:0:0:0:
448,192,309967,1,0,0:0:0:50:hihat soft.wav
64,192,310141,1,4,0:0:0:0:
320,192,310141,1,2,0:0:0:0:
192,192,310315,1,2,0:0:0:0:
448,192,310315,1,0,0:0:0:0:
320,192,310490,1,0,0:0:0:50:hihat soft.wav
64,192,310490,1,0,0:0:0:0:
448,192,310490,1,8,0:0:0:0:
64,192,310664,1,0,0:0:0:0:
192,192,310664,1,2,0:0:0:0:
320,192,310751,1,0,0:0:0:40:snare soft.wav
448,192,310839,1,0,0:0:0:50:hihat soft.wav
192,192,310926,1,0,0:0:0:40:snare soft.wav
64,192,311013,1,0,0:0:0:0:
448,192,311013,1,0,0:0:0:50:hihat soft.wav
64,192,311187,1,0,0:0:0:0:
192,192,311187,1,8,0:0:0:0:
448,192,311187,1,0,0:0:0:50:hihat soft.wav
192,192,311362,1,0,0:0:0:0:
320,192,311362,1,2,0:0:0:0:
64,192,311536,5,0,0:0:0:50:hihat soft.wav
320,192,311711,1,2,0:0:0:0:
448,192,311711,1,0,0:0:0:0:
64,192,311885,1,0,0:0:0:0:
192,192,311885,1,8,0:0:0:0:
448,192,311885,1,0,0:0:0:0:
320,192,312060,1,0,0:0:0:50:hihat soft.wav
64,192,312234,1,0,0:0:0:0:
192,192,312234,1,8,0:0:0:0:
320,192,312321,1,0,0:0:0:50:kick tomb.wav
448,192,312321,1,0,0:0:0:0:
64,192,312408,1,0,0:0:0:0:
192,192,312408,1,0,0:0:0:50:kick tomb.wav
448,192,312496,1,0,0:0:0:50:kick tomb.wav
320,192,312583,128,0,312932:0:0:0:0:
192,192,312583,1,2,0:0:0:0:
64,192,312583,1,4,0:0:0:0:
64,192,312932,128,0,313106:0:0:0:0:
448,192,312932,1,0,0:0:0:40:kick tomb.wav
320,192,313280,1,0,0:0:0:40:snare soft.wav
64,192,313280,1,0,0:0:0:0:
448,192,313280,1,0,0:0:0:0:
64,192,313455,1,0,0:0:0:0:
192,192,313455,1,0,0:0:0:40:kick tomb.wav
320,192,313542,1,0,0:0:0:40:kick tomb.wav
448,192,313542,1,0,0:0:0:0:
192,192,313629,128,0,313717:0:0:0:0:
64,192,313629,1,0,0:0:0:40:kick tomb.wav
192,192,313804,128,0,313978:0:0:0:0:
448,192,313804,1,0,0:0:0:40:kick tomb.wav
320,192,313978,1,0,0:0:0:40:snare soft.wav
64,192,313978,1,0,0:0:0:0:
448,192,313978,1,0,0:0:0:0:
448,192,314153,1,0,0:0:0:0:
64,192,314153,1,0,0:0:0:40:kick tomb.wav
320,192,314240,1,0,0:0:0:0:
192,192,314240,1,0,0:0:0:40:kick tomb.wav
64,192,314327,128,0,314501:0:0:0:0:
448,192,314327,1,0,0:0:0:40:kick tomb.wav
192,192,314501,1,0,0:0:0:40:kick tomb.wav
192,192,314676,128,0,314850:0:0:0:0:
320,192,314676,1,0,0:0:0:40:kick tomb.wav
448,192,314676,1,0,0:0:0:40:snare soft.wav
448,192,314850,1,0,0:0:0:0:
64,192,314850,1,0,0:0:0:40:kick tomb.wav
192,192,314937,1,0,0:0:0:40:kick tomb.wav
320,192,314937,1,0,0:0:0:0:
64,192,315025,1,0,0:0:0:40:kick tomb.wav
448,192,315025,128,0,315199:0:0:0:0:
192,192,315199,128,0,315374:0:0:0:0:
320,192,315374,1,0,0:0:0:40:snare soft.wav
448,192,315374,1,0,0:0:0:0:
64,192,315374,1,0,0:0:0:0:
320,192,315548,1,0,0:0:0:40:kick tomb.wav
448,192,315548,1,0,0:0:0:0:
192,192,315635,1,0,0:0:0:40:kick tomb.wav
64,192,315635,1,0,0:0:0:0:
320,192,315722,1,0,0:0:0:40:kick tomb.wav
448,192,315722,128,0,315897:0:0:0:0:
192,192,316071,1,0,0:0:0:40:snare soft.wav
64,192,316071,1,0,0:0:0:0:
448,192,316071,1,0,0:0:0:0:
320,192,316246,1,0,0:0:0:40:kick tomb.wav
448,192,316246,1,0,0:0:0:0:
64,192,316333,1,0,0:0:0:0:
192,192,316333,1,0,0:0:0:40:kick tomb.wav
320,192,316420,128,0,316507:0:0:0:0:
448,192,316420,1,0,0:0:0:40:kick tomb.wav
320,192,316594,128,0,316769:0:0:0:0:
64,192,316594,1,0,0:0:0:40:kick tomb.wav
448,192,316769,1,0,0:0:0:0:
192,192,316769,1,0,0:0:0:40:snare soft.wav
64,192,316769,1,0,0:0:0:0:
64,192,316943,1,0,0:0:0:0:
448,192,316943,1,0,0:0:0:40:kick tomb.wav
192,192,317030,1,0,0:0:0:0:
320,192,317030,1,0,0:0:0:40:kick tomb.wav
64,192,317118,1,0,0:0:0:40:kick tomb.wav
448,192,317118,128,0,317292:0:0:0:0:
448,192,317467,1,0,0:0:0:40:snare soft.wav
320,192,317467,128,0,317641:0:0:0:0:
64,192,317467,1,0,0:0:0:0:
64,192,317815,1,0,0:0:0:0:
192,192,317815,1,0,0:0:0:45:snare soft.wav
448,192,317815,1,0,0:0:0:0:
64,192,317990,1,0,0:0:0:0:
192,192,317990,1,0,0:0:0:45:snare soft.wav
448,192,318077,1,0,0:0:0:0:
320,192,318077,1,0,0:0:0:45:snare soft.wav
192,192,318164,1,0,0:0:0:45:snare soft.wav
64,192,318164,1,0,0:0:0:0:
448,192,318251,1,0,0:0:0:0:
320,192,318251,1,0,0:0:0:45:snare soft.wav
192,192,318339,1,0,0:0:0:45:snare soft.wav
64,192,318339,1,0,0:0:0:0:
320,192,318426,1,0,0:0:0:45:snare soft.wav
448,192,318513,128,0,322612:0:0:0:0:
64,192,318513,128,4,323048:0:0:0:0:
192,192,318513,1,2,0:0:0:0:
320,192,322612,128,0,323920:0:0:0:0:
448,192,323048,128,0,323920:0:0:0:0:
64,192,323397,128,0,323920:0:0:0:0:
192,192,323746,128,0,323920:0:0:0:0:
