osu file format v14

[General]
AudioFilename: audio.mp3
AudioLeadIn: 0
PreviewTime: 156943
Countdown: 0
SampleSet: Soft
StackLeniency: 0.7
Mode: 3
LetterboxInBreaks: 0
SpecialStyle: 0
WidescreenStoryboard: 0

[Editor]
DistanceSpacing: 1.4
BeatDivisor: 4
GridSize: 4
TimelineZoom: 2

[Metadata]
Title:Don't let you down
TitleUnicode:Don't let you down
Artist:Halozy
ArtistUnicode:Halozy
Creator:Virtue-
Version:Miracles
Source:東方Project
Tags:Touhou Toho Project Arrange Album Eastern Divine Spirit Mausoleum Shinreibyou 東方神霊廟 ~ Ten Desires デザイアドライブ sumijun 長尾ちえみ Viva Evolution dont Seiga Kaku Desire Drive Dubstep Eurobeat R&B Rock Pop Ballade Vocal Chiemi Nagaya Nagao Yoshika Miyako C87 ComicMarket87 Comiket87 すみじゅん HLZY-0021
BeatmapID:1319651
BeatmapSetID:626034

[Difficulty]
HPDrainRate:8.5
CircleSize:4
OverallDifficulty:8.5
ApproachRate:5
SliderMultiplier:1.4
SliderTickRate:1

[Events]
//Background and Video events
0,0,"wall+bg+1.jpg",0,0
//Break Periods
//Storyboard Layer 0 (Background)
//Storyboard Layer 1 (Fail)
//Storyboard Layer 2 (Pass)
//Storyboard Layer 3 (Foreground)
//Storyboard Sound Samples

[TimingPoints]
1277,444.444444444444,4,2,1,40,1,0
58165,-111.111111111111,4,2,1,40,0,0
59943,-108.695652173913,4,2,1,40,0,0
61721,-106.382978723404,4,2,1,40,0,0
63499,-102.040816326531,4,2,1,40,0,0
64832,-100,4,2,1,40,0,0
72388,-100,4,2,1,40,0,1
100832,-100,4,2,1,40,0,0
143499,-111.111111111111,4,2,1,40,0,0
145276,-108.695652173913,4,2,1,40,0,0
147054,-106.382978723404,4,2,1,40,0,0
148832,-102.040816326531,4,2,1,40,0,0
150165,-100,4,2,1,40,0,0
157721,-100,4,2,1,40,0,1
186165,-83.3333333333333,4,2,1,40,0,0
186276,-100,4,2,1,40,0,0
186388,-125,4,2,1,40,0,0
186499,-76.9230769230769,4,2,1,40,0,0
186610,-90.9090909090909,4,2,1,40,0,0
186721,-166.666666666667,4,2,1,40,0,0
186832,-83.3333333333333,4,2,1,40,0,0
186943,-125,4,2,1,40,0,0
187054,-66.6666666666667,4,2,1,40,0,0
187128,-200,4,2,1,40,0,0
187202,-66.6666666666667,4,2,1,40,0,0
187276,-200,4,2,1,40,0,0
187351,-66.6666666666667,4,2,1,40,0,0
187425,-200,4,2,1,40,0,0
187499,-66.6666666666667,4,2,1,40,0,0
187573,-200,4,2,1,40,0,0
187647,-66.6666666666667,4,2,1,40,0,0
187721,-200,4,2,1,40,0,0
187795,-66.6666666666667,4,2,1,40,0,0
187869,-200,4,2,1,40,0,0
187943,-58.8235294117647,4,2,1,40,0,0
187999,-333.333333333333,4,2,1,40,0,0
188054,-58.8235294117647,4,2,1,40,0,0
188110,-333.333333333333,4,2,1,40,0,0
188165,-58.8235294117647,4,2,1,40,0,0
188221,-333.333333333333,4,2,1,40,0,0
188276,-100,4,2,1,40,0,0
188388,-58.8235294117647,4,2,1,40,0,0
188443,-333.333333333333,4,2,1,40,0,0
188499,-58.8235294117647,4,2,1,40,0,0
188554,-333.333333333333,4,2,1,40,0,0
188610,-58.8235294117647,4,2,1,40,0,0
188665,-333.333333333333,4,2,1,40,0,0
188721,-100,4,2,1,40,0,0
188832,-83.3333333333333,4,2,1,40,0,0
188906,-125,4,2,1,40,0,0
188980,-83.3333333333333,4,2,1,40,0,0
189054,-125,4,2,1,40,0,0
189128,-83.3333333333333,4,2,1,40,0,0
189202,-125,4,2,1,40,0,0
189276,-66.6666666666667,4,2,1,40,0,0
189332,-200,4,2,1,40,0,0
189388,-66.6666666666667,4,2,1,40,0,0
189443,-200,4,2,1,40,0,0
189499,-66.6666666666667,4,2,1,40,0,0
189554,-200,4,2,1,40,0,0
189610,-66.6666666666667,4,2,1,40,0,0
189665,-200,4,2,1,40,0,0
189721,-83.3333333333333,4,2,1,40,0,0
189832,-100,4,2,1,40,0,0
189943,-125,4,2,1,40,0,0
190054,-76.923076923077,4,2,1,40,0,0
190165,-90.9090909090909,4,2,1,40,0,0
190276,-166.666666666667,4,2,1,40,0,0
190388,-83.3333333333333,4,2,1,40,0,0
190499,-125,4,2,1,40,0,0
190610,-76.9230769230769,4,2,1,40,0,0
190721,-100,4,2,1,40,0,0
190832,-142.857142857143,4,2,1,40,0,0
190943,-100,4,2,1,40,0,0
191054,-76.9230769230769,4,2,1,40,0,0
191165,-100,4,2,1,40,0,0
191276,-142.857142857143,4,2,1,40,0,0
191388,-100,4,2,1,40,0,0
191499,-76.9230769230769,4,2,1,40,0,0
191610,-100,4,2,1,40,0,0
191721,-142.857142857143,4,2,1,40,0,0
191832,-100,4,2,1,40,0,0
191888,-125,4,2,1,40,0,0
191943,-76.9230769230769,4,2,1,40,0,0
191999,-90.9090909090909,4,2,1,40,0,0
192054,-166.666666666667,4,2,1,40,0,0
192110,-100,4,2,1,40,0,0
192165,-76.9230769230769,4,2,1,40,0,0
192221,-90.9090909090909,4,2,1,40,0,0
192276,-166.666666666667,4,2,1,40,0,0
192332,-100,4,2,1,40,0,0
192388,-76.9230769230769,4,2,1,40,0,0
192443,-142.857142857143,4,2,1,40,0,0
192499,-76.9230769230769,4,2,1,40,0,0
192554,-142.857142857143,4,2,1,40,0,0
192610,-66.6666666666667,4,2,1,40,0,0
192721,-200,4,2,1,40,0,0
192832,-66.6666666666667,4,2,1,40,0,0
192943,-200,4,2,1,40,0,0
193054,-66.6666666666667,4,2,1,40,0,0
193165,-200,4,2,1,40,0,0
193276,-76.9230769230769,4,2,1,40,0,0
193388,-90.9090909090909,4,2,1,40,0,0
193499,-166.666666666667,4,2,1,40,0,0
193610,-90.9090909090909,4,2,1,40,0,0
193665,-111.111111111111,4,2,1,40,0,0
193721,-83.3333333333333,4,2,1,40,0,0
193832,-125,4,2,1,40,0,0
193943,-83.3333333333333,4,2,1,40,0,0
194054,-125,4,2,1,40,0,0
194165,-66.6666666666667,4,2,1,40,0,0
194239,-200,4,2,1,40,0,0
194313,-66.6666666666667,4,2,1,40,0,0
194387,-200,4,2,1,40,0,0
194462,-66.6666666666667,4,2,1,40,0,0
194536,-200,4,2,1,40,0,0
194610,-66.6666666666667,4,2,1,40,0,0
194684,-200,4,2,1,40,0,0
194758,-66.6666666666667,4,2,1,40,0,0
194832,-200,4,2,1,40,0,0
194906,-66.6666666666667,4,2,1,40,0,0
194980,-200,4,2,1,40,0,0
195054,-58.8235294117647,4,2,1,40,0,0
195110,-333.333333333333,4,2,1,40,0,0
195165,-58.8235294117647,4,2,1,40,0,0
195221,-333.333333333333,4,2,1,40,0,0
195276,-58.8235294117647,4,2,1,40,0,0
195332,-333.333333333333,4,2,1,40,0,0
195387,-100,4,2,1,40,0,0
195499,-58.8235294117647,4,2,1,40,0,0
195554,-333.333333333333,4,2,1,40,0,0
195610,-58.8235294117647,4,2,1,40,0,0
195665,-333.333333333333,4,2,1,40,0,0
195721,-58.8235294117647,4,2,1,40,0,0
195776,-333.333333333333,4,2,1,40,0,0
195832,-100,4,2,1,40,0,0
195943,-83.3333333333333,4,2,1,40,0,0
196017,-125,4,2,1,40,0,0
196091,-83.3333333333333,4,2,1,40,0,0
196165,-125,4,2,1,40,0,0
196239,-83.3333333333333,4,2,1,40,0,0
196313,-125,4,2,1,40,0,0
196387,-66.6666666666667,4,2,1,40,0,0
196443,-200,4,2,1,40,0,0
196499,-66.6666666666667,4,2,1,40,0,0
196554,-200,4,2,1,40,0,0
196610,-66.6666666666667,4,2,1,40,0,0
196665,-200,4,2,1,40,0,0
196721,-66.6666666666667,4,2,1,40,0,0
196776,-200,4,2,1,40,0,0
196832,-100,4,2,1,40,0,0
202165,-111.111111111111,4,2,1,40,0,0
203943,-109.89010989011,4,2,1,40,0,0
205721,-108.695652173913,4,2,1,40,0,0
207499,-107.52688172043,4,2,1,40,0,0
209276,-106.382978723404,4,2,1,40,0,0
211054,-105.263157894737,4,2,1,40,0,0
212832,-104.166666666667,4,2,1,40,0,0
214610,-103.092783505155,4,2,1,40,0,0
215721,-102.040816326531,4,2,1,40,0,0
215943,-101.010101010101,4,2,1,40,0,0
216165,-100,4,2,1,40,0,0
230610,-100,4,2,1,40,0,1
259054,-100,4,2,1,40,0,0

[HitObjects]
448,192,388,128,0,1277:0:0:0:0:
64,192,1277,128,2,1499:0:0:0:0:
192,192,1277,1,0,0:0:0:60:LR3_BassDrop.wav
448,192,1499,128,0,1721:0:0:0:0:
64,192,1721,128,0,1943:0:0:0:0:
448,192,1943,128,0,2165:0:0:0:0:
192,192,2165,128,0,2388:0:0:0:0:
320,192,2388,128,0,2610:0:0:0:0:
64,192,2610,128,0,2832:0:0:0:0:
448,192,2832,128,0,3054:0:0:0:0:
192,192,3054,128,0,3276:0:0:0:0:
448,192,3276,128,0,3499:0:0:0:0:
64,192,3499,128,0,3721:0:0:0:0:
192,192,3721,128,0,3943:0:0:0:0:
448,192,3943,128,0,4165:0:0:0:0:
64,192,4165,128,0,4388:0:0:0:0:
320,192,4388,128,0,4610:0:0:0:0:
448,192,4610,128,0,4832:0:0:0:0:
192,192,4832,128,0,5054:0:0:0:0:
64,192,5054,128,0,5276:0:0:0:0:
448,192,5276,128,0,5499:0:0:0:0:
320,192,5499,128,0,5721:0:0:0:0:
64,192,5721,128,0,5943:0:0:0:0:
448,192,5943,128,0,6165:0:0:0:0:
192,192,6165,128,0,6388:0:0:0:0:
320,192,6388,128,0,6610:0:0:0:0:
64,192,6610,128,0,6832:0:0:0:0:
448,192,6832,128,0,7054:0:0:0:0:
320,192,7054,128,0,7276:0:0:0:0:
192,192,7276,128,0,7499:0:0:0:0:
448,192,7499,128,0,7721:0:0:0:0:
64,192,7721,128,0,7943:0:0:0:0:
320,192,7943,128,0,8165:0:0:0:0:
192,192,8165,128,0,8388:0:0:0:0:
448,192,8388,128,0,8610:0:0:0:0:
64,192,8610,128,0,8832:0:0:0:0:
448,192,8832,128,0,9054:0:0:0:0:
64,192,9054,128,0,9276:0:0:0:0:
448,192,9276,128,0,9499:0:0:0:0:
320,192,9499,128,0,9721:0:0:0:0:
192,192,9721,128,0,9943:0:0:0:0:
448,192,9943,128,0,10165:0:0:0:0:
64,192,10165,128,0,10388:0:0:0:0:
192,192,10388,128,0,10610:0:0:0:0:
448,192,10610,128,0,10832:0:0:0:0:
64,192,10832,128,0,11054:0:0:0:0:
320,192,11054,128,0,11276:0:0:0:0:
448,192,11276,128,0,11499:0:0:0:0:
192,192,11499,128,0,11721:0:0:0:0:
320,192,11721,128,0,11943:0:0:0:0:
64,192,11943,128,0,12165:0:0:0:0:
448,192,12165,128,0,12388:0:0:0:0:
320,192,12388,128,0,12610:0:0:0:0:
64,192,12610,128,0,12832:0:0:0:0:
192,192,12832,128,0,13054:0:0:0:0:
448,192,13054,128,0,13276:0:0:0:0:
64,192,13276,128,0,13499:0:0:0:0:
320,192,13499,128,0,13721:0:0:0:0:
192,192,13721,128,0,13943:0:0:0:0:
64,192,13943,128,0,14165:0:0:0:0:
448,192,14165,128,0,14388:0:0:0:0:
192,192,14388,128,0,14610:0:0:0:0:
320,192,14610,128,0,14832:0:0:0:0:
64,192,14832,128,0,15054:0:0:0:0:
448,192,15054,128,0,15276:0:0:0:0:
192,192,15276,128,0,15499:0:0:0:0:
448,192,15499,1,0,0:0:0:40:LR_Clap kick.wav
64,192,15499,128,0,15721:0:0:0:0:
320,192,15499,1,2,0:0:0:0:
192,192,15721,128,0,15943:0:0:0:0:
64,192,15943,1,0,0:0:0:40:LR_Clap kick.wav
448,192,15943,128,0,16165:0:0:0:0:
320,192,16165,128,0,16388:0:0:0:0:
192,192,16388,1,0,0:0:0:40:LR_Clap kick.wav
64,192,16388,128,0,16610:0:0:0:0:
448,192,16610,128,0,16832:0:0:0:0:
320,192,16832,1,0,0:0:0:40:LR_Clap kick.wav
192,192,16832,128,0,17054:0:0:0:0:
64,192,17054,128,0,17276:0:0:0:0:
448,192,17276,1,0,0:0:0:40:LR_Clap kick.wav
320,192,17276,128,0,17499:0:0:0:0:
192,192,17499,128,0,17721:0:0:0:0:
64,192,17721,1,0,0:0:0:40:LR_Clap kick.wav
448,192,17721,128,0,17943:0:0:0:0:
320,192,17943,128,0,18165:0:0:0:0:
192,192,18165,1,0,0:0:0:40:LR_Clap kick.wav
64,192,18165,128,0,18388:0:0:0:0:
320,192,18388,128,0,18610:0:0:0:0:
64,192,18610,1,0,0:0:0:40:LR_Clap kick.wav
448,192,18610,128,0,18832:0:0:0:0:
192,192,18832,128,0,19054:0:0:0:0:
448,192,19054,1,0,0:0:0:40:LR_Clap kick.wav
320,192,19054,128,0,19276:0:0:0:0:
64,192,19276,128,0,19499:0:0:0:0:
448,192,19499,1,0,0:0:0:40:LR_Clap kick.wav
192,192,19499,128,0,19721:0:0:0:0:
320,192,19721,128,0,19943:0:0:0:0:
192,192,19943,1,0,0:0:0:40:LR_Clap kick.wav
64,192,19943,128,0,20165:0:0:0:0:
320,192,20165,128,0,20388:0:0:0:0:
64,192,20388,1,0,0:0:0:40:LR_Clap kick.wav
448,192,20388,128,0,20610:0:0:0:0:
192,192,20610,128,0,20832:0:0:0:0:
320,192,20832,1,0,0:0:0:40:LR_Clap kick.wav
64,192,20832,128,0,21054:0:0:0:0:
448,192,21054,128,0,21276:0:0:0:0:
320,192,21276,1,0,0:0:0:40:LR_Clap kick.wav
192,192,21276,128,0,21499:0:0:0:0:
64,192,21499,128,0,21721:0:0:0:0:
448,192,21721,1,0,0:0:0:40:LR_Clap kick.wav
320,192,21721,128,0,21943:0:0:0:0:
192,192,21943,128,0,22165:0:0:0:0:
64,192,22165,1,0,0:0:0:40:LR_Clap kick.wav
448,192,22165,128,0,22388:0:0:0:0:
320,192,22388,128,0,22610:0:0:0:0:
192,192,22610,1,0,0:0:0:40:LR_Snare Hit.wav
448,192,22610,1,0,0:0:0:40:LR_Clap kick.wav
64,192,22610,128,0,22832:0:0:0:0:
192,192,22832,128,0,23054:0:0:0:0:
64,192,23054,1,0,0:0:0:40:LR_Clap kick.wav
320,192,23054,1,0,0:0:0:40:LR_Snare Hit.wav
448,192,23054,128,0,23276:0:0:0:0:
320,192,23276,128,0,23499:0:0:0:0:
192,192,23499,1,0,0:0:0:40:LR_Clap kick.wav
448,192,23499,1,0,0:0:0:40:LR_Snare Hit.wav
64,192,23499,128,0,23721:0:0:0:0:
448,192,23721,128,0,23943:0:0:0:0:
320,192,23832,1,0,0:0:0:40:LR_Snare Hit.wav
192,192,23943,1,0,0:0:0:40:LR_Clap kick.wav
64,192,23943,128,0,24165:0:0:0:40:LR_Snare Hit.wav
448,192,24165,1,0,0:0:0:40:LR_Snare Hit.wav
320,192,24165,128,0,24388:0:0:0:0:
64,192,24388,1,0,0:0:0:40:LR_Clap kick.wav
192,192,24388,1,0,0:0:0:40:LR_Snare Hit.wav
448,192,24388,128,0,24610:0:0:0:0:
64,192,24610,128,0,24832:0:0:0:0:
192,192,24832,1,0,0:0:0:40:LR_Snare Hit.wav
448,192,24832,1,0,0:0:0:40:LR_Clap kick.wav
320,192,24832,128,0,25054:0:0:0:0:
192,192,25054,128,0,25276:0:0:0:0:
64,192,25276,1,0,0:0:0:40:LR_Clap kick.wav
320,192,25276,1,0,0:0:0:40:LR_Snare Hit.wav
448,192,25276,128,0,25499:0:0:0:0:
64,192,25499,128,0,25721:0:0:0:0:
320,192,25610,1,0,0:0:0:40:LR_Snare Hit.wav
448,192,25721,1,0,0:0:0:40:LR_Clap kick.wav
192,192,25721,128,0,25943:0:0:0:40:LR_Snare Hit.wav
320,192,25943,1,0,0:0:0:40:LR_Snare Hit.wav
64,192,25943,128,0,26165:0:0:0:0:
320,192,26165,1,0,0:0:0:40:LR_Snare Hit.wav
448,192,26165,1,0,0:0:0:40:LR_Clap kick.wav
192,192,26221,1,0,0:0:0:40:LR_Snare Hit.wav
64,192,26276,1,0,0:0:0:40:LR_Snare Hit.wav
448,192,26276,1,0,0:0:0:0:
192,192,26388,1,0,0:0:0:40:LR_Snare Hit.wav
64,192,26388,1,0,0:0:0:0:
320,192,26499,1,0,0:0:0:40:LR_Snare Hit.wav
448,192,26499,1,0,0:0:0:0:
64,192,26610,1,0,0:0:0:40:LR_Clap kick.wav
192,192,26610,1,0,0:0:0:40:LR_Snare Hit.wav
320,192,26665,1,0,0:0:0:40:LR_Snare Hit.wav
64,192,26721,1,0,0:0:0:0:
448,192,26721,1,0,0:0:0:40:LR_Snare Hit.wav
448,192,26832,1,0,0:0:0:0:
320,192,26832,1,0,0:0:0:40:LR_Snare Hit.wav
64,192,26943,1,0,0:0:0:0:
192,192,26943,1,0,0:0:0:40:LR_Snare Hit.wav
448,192,27054,1,0,0:0:0:40:LR_Clap kick.wav
320,192,27054,1,0,0:0:0:40:LR_Snare Hit.wav
192,192,27110,1,0,0:0:0:40:LR_Snare Hit.wav
64,192,27165,1,0,0:0:0:40:LR_Snare Hit.wav
448,192,27165,1,0,0:0:0:0:
192,192,27276,1,0,0:0:0:40:LR_Snare Hit.wav
64,192,27276,1,0,0:0:0:0:
448,192,27388,1,0,0:0:0:0:
320,192,27388,1,0,0:0:0:40:LR_Snare Hit.wav
192,192,27499,1,0,0:0:0:40:LR_Snare Hit.wav
64,192,27499,1,0,0:0:0:40:LR_Clap kick.wav
320,192,27610,1,0,0:0:0:40:LR_Snare Hit.wav
448,192,27610,1,0,0:0:0:0:
192,192,27721,1,0,0:0:0:40:LR_Snare Hit.wav
64,192,27721,1,0,0:0:0:0:
320,192,27832,1,0,0:0:0:40:LR_Snare Hit.wav
448,192,27832,1,0,0:0:0:0:
64,192,27943,1,0,0:0:0:40:LR_Snare Hit.wav
192,192,27999,1,0,0:0:0:40:LR_Snare Hit.wav
320,192,28054,1,0,0:0:0:40:LR_Snare Hit.wav
448,192,28110,1,0,0:0:0:40:LR_Snare Hit.wav
192,192,28165,1,0,0:0:0:40:LR_Snare Hit.wav
64,192,28221,1,0,0:0:0:40:LR_Snare Hit.wav
448,192,28276,1,0,0:0:0:40:LR_Snare Hit.wav
320,192,28332,1,0,0:0:0:40:LR_Snare Hit.wav
192,192,28388,1,0,0:0:0:40:LR_Snare Hit.wav
64,192,28443,1,0,0:0:0:40:LR_Snare Hit.wav
320,192,28499,1,0,0:0:0:40:LR_Snare Hit.wav
448,192,28554,1,0,0:0:0:40:LR_Snare Hit.wav
192,192,28610,1,0,0:0:0:40:LR_Snare Hit.wav
64,192,28665,1,0,0:0:0:40:LR_Snare Hit.wav
448,192,28721,1,0,0:0:0:40:LR_Snare Hit.wav
320,192,28776,1,0,0:0:0:40:LR_Snare Hit.wav
192,192,28832,1,0,0:0:0:40:LR_Snare Hit.wav
64,192,28888,1,0,0:0:0:40:LR_Snare Hit.wav
320,192,28943,1,0,0:0:0:40:LR_Snare Hit.wav
448,192,28999,1,0,0:0:0:40:LR_Snare Hit.wav
64,192,29054,1,0,0:0:0:40:LR_Snare Hit.wav
192,192,29110,1,0,0:0:0:40:LR_Snare Hit.wav
320,192,29165,1,0,0:0:0:40:LR_Snare Hit.wav
448,192,29221,1,0,0:0:0:40:LR_Snare Hit.wav
192,192,29276,1,8,0:0:0:0:
64,192,29276,1,0,0:0:0:0:
320,192,29499,1,0,0:0:0:0:
448,192,29721,1,2,0:0:0:0:
192,192,29721,1,4,0:0:0:0:
64,192,29721,1,0,0:0:0:0:
64,192,30054,1,0,0:0:0:0:
320,192,30165,1,0,0:0:0:0:
448,192,30165,1,2,0:0:0:0:
192,192,30388,1,0,0:0:0:0:
64,192,30610,1,0,0:0:0:0:
448,192,30610,1,2,0:0:0:0:
320,192,30721,1,0,0:0:0:0:
192,192,30943,1,2,0:0:0:0:
64,192,30943,1,0,0:0:0:0:
320,192,31054,1,2,0:0:0:0:
448,192,31054,1,0,0:0:0:0:
192,192,31276,1,2,0:0:0:0:
320,192,31276,1,0,0:0:0:0:
64,192,31499,1,2,0:0:0:0:
448,192,31499,1,0,0:0:0:0:
448,192,31832,1,0,0:0:0:0:
192,192,31943,1,0,0:0:0:0:
64,192,31943,1,2,0:0:0:0:
320,192,32165,1,0,0:0:0:0:
448,192,32388,1,0,0:0:0:0:
64,192,32388,1,2,0:0:0:0:
192,192,32499,1,0,0:0:0:0:
320,192,32721,1,0,0:0:0:0:
448,192,32721,1,2,0:0:0:0:
192,192,32832,1,0,0:0:0:0:
64,192,32832,1,2,0:0:0:0:
192,192,33054,1,2,0:0:0:0:
320,192,33054,1,0,0:0:0:0:
64,192,33276,1,2,0:0:0:0:
448,192,33276,1,0,0:0:0:0:
192,192,33610,1,0,0:0:0:0:
64,192,33721,1,2,0:0:0:0:
448,192,33721,1,0,0:0:0:0:
320,192,33943,1,0,0:0:0:0:
64,192,34165,1,2,0:0:0:0:
192,192,34165,1,0,0:0:0:0:
448,192,34276,1,0,0:0:0:0:
192,192,34499,1,0,0:0:0:0:
64,192,34499,1,2,0:0:0:0:
320,192,34610,1,2,0:0:0:0:
448,192,34610,1,0,0:0:0:0:
192,192,34832,1,2,0:0:0:0:
320,192,34832,1,0,0:0:0:0:
64,192,35054,1,2,0:0:0:0:
448,192,35054,1,0,0:0:0:0:
320,192,35388,1,0,0:0:0:0:
448,192,35499,1,0,0:0:0:0:
64,192,35499,1,2,0:0:0:0:
192,192,35721,1,0,0:0:0:0:
448,192,35943,1,0,0:0:0:0:
320,192,35943,1,2,0:0:0:0:
64,192,36054,1,0,0:0:0:0:
320,192,36276,1,2,0:0:0:0:
448,192,36276,1,0,0:0:0:0:
192,192,36388,1,2,0:0:0:0:
64,192,36388,1,0,0:0:0:40:LR_Clap kick.wav
320,192,36610,1,2,0:0:0:0:
192,192,36610,1,0,0:0:0:40:LR_Clap kick.wav
448,192,36832,1,2,0:0:0:0:
64,192,36832,1,0,0:0:0:0:
192,192,37165,1,0,0:0:0:0:
64,192,37276,1,2,0:0:0:0:
448,192,37276,1,0,0:0:0:50:LR_Clap kick.wav
320,192,37276,1,0,0:0:0:0:
192,192,37499,1,0,0:0:0:0:
64,192,37721,1,2,0:0:0:0:
448,192,37721,1,0,0:0:0:0:
320,192,37832,1,0,0:0:0:0:
64,192,38054,1,0,0:0:0:0:
192,192,38054,1,2,0:0:0:0:
64,192,38165,1,0,0:0:0:0:
320,192,38165,1,2,0:0:0:0:
448,192,38165,1,0,0:0:0:50:LR_Clap kick.wav
192,192,38388,1,2,0:0:0:0:
320,192,38388,1,0,0:0:0:0:
64,192,38610,1,2,0:0:0:0:
448,192,38610,1,0,0:0:0:0:
320,192,38943,1,0,0:0:0:0:
448,192,39054,1,0,0:0:0:50:LR_Clap kick.wav
192,192,39054,1,2,0:0:0:0:
64,192,39054,1,0,0:0:0:0:
320,192,39276,1,0,0:0:0:0:
448,192,39499,1,0,0:0:0:0:
64,192,39499,1,2,0:0:0:0:
192,192,39610,1,0,0:0:0:0:
448,192,39832,1,0,0:0:0:0:
320,192,39832,1,2,0:0:0:0:
448,192,39943,1,0,0:0:0:50:LR_Clap kick.wav
192,192,39943,1,0,0:0:0:0:
64,192,39943,1,2,0:0:0:0:
320,192,40165,1,2,0:0:0:0:
192,192,40165,1,0,0:0:0:0:
448,192,40388,1,0,0:0:0:0:
64,192,40388,1,2,0:0:0:0:
192,192,40721,1,0,0:0:0:0:
64,192,40832,1,0,0:0:0:0:
320,192,40832,1,2,0:0:0:0:
448,192,40832,1,0,0:0:0:50:LR_Clap kick.wav
320,192,41054,1,0,0:0:0:0:
64,192,41276,1,2,0:0:0:0:
448,192,41276,1,0,0:0:0:0:
192,192,41388,1,0,0:0:0:0:
64,192,41610,1,0,0:0:0:0:
320,192,41610,1,2,0:0:0:0:
64,192,41721,1,0,0:0:0:0:
192,192,41721,1,2,0:0:0:0:
448,192,41721,1,0,0:0:0:50:LR_Clap kick.wav
320,192,41943,1,2,0:0:0:0:
192,192,41943,1,0,0:0:0:0:
64,192,42165,1,0,0:0:0:0:
448,192,42165,1,2,0:0:0:0:
320,192,42499,1,0,0:0:0:0:
448,192,42610,1,0,0:0:0:50:LR_Clap kick.wav
192,192,42610,1,0,0:0:0:0:
64,192,42610,1,2,0:0:0:0:
192,192,42832,1,0,0:0:0:0:
448,192,43054,1,0,0:0:0:0:
64,192,43054,1,2,0:0:0:0:
320,192,43165,1,0,0:0:0:0:
64,192,43499,1,0,0:0:0:0:
448,192,43721,1,0,0:0:0:40:LR_Snare Hit.wav
320,192,43776,1,0,0:0:0:40:LR_Snare Hit.wav
192,192,43832,1,0,0:0:0:40:LR_Snare Hit.wav
64,192,43888,1,0,0:0:0:40:LR_Snare Hit.wav
320,192,43943,1,4,0:0:0:0:
448,192,43943,1,2,0:0:0:0:
192,192,44165,1,0,0:0:0:0:
320,192,44276,1,0,0:0:0:0:
64,192,44388,1,0,0:0:0:0:
192,192,44388,1,2,0:0:0:0:
448,192,44388,1,0,0:0:0:50:LR_Clap kick.wav
64,192,44610,1,0,0:0:0:0:
320,192,44832,1,2,0:0:0:0:
448,192,44832,1,0,0:0:0:0:
192,192,44943,1,0,0:0:0:0:
320,192,45165,1,2,0:0:0:0:
448,192,45165,1,0,0:0:0:0:
64,192,45276,1,0,0:0:0:0:
192,192,45276,1,2,0:0:0:0:
448,192,45276,1,0,0:0:0:50:LR_Clap kick.wav
448,192,45499,1,0,0:0:0:0:
320,192,45499,1,2,0:0:0:0:
64,192,45721,1,0,0:0:0:0:
192,192,45721,1,2,0:0:0:0:
320,192,46054,1,0,0:0:0:0:
448,192,46165,1,0,0:0:0:50:LR_Clap kick.wav
192,192,46165,1,2,0:0:0:0:
64,192,46165,1,0,0:0:0:0:
448,192,46388,1,0,0:0:0:0:
192,192,46610,1,2,0:0:0:0:
64,192,46610,1,0,0:0:0:0:
320,192,46721,1,0,0:0:0:0:
192,192,46943,1,2,0:0:0:0:
64,192,46943,1,0,0:0:0:0:
448,192,47054,1,0,0:0:0:50:LR_Clap kick.wav
320,192,47054,1,2,0:0:0:0:
64,192,47054,1,0,0:0:0:0:
64,192,47276,1,0,0:0:0:0:
192,192,47276,1,2,0:0:0:0:
448,192,47276,1,0,0:0:0:50:LR_Clap kick.wav
192,192,47499,1,0,0:0:0:0:
320,192,47499,1,2,0:0:0:0:
192,192,47832,1,0,0:0:0:0:
64,192,47943,1,0,0:0:0:0:
320,192,47943,1,2,0:0:0:0:
448,192,47943,1,0,0:0:0:50:LR_Clap kick.wav
192,192,48165,1,0,0:0:0:0:
448,192,48388,1,0,0:0:0:0:
64,192,48388,1,2,0:0:0:0:
448,192,48610,1,0,0:0:0:0:
64,192,48721,1,0,0:0:0:0:
192,192,48721,1,2,0:0:0:0:
64,192,48832,1,0,0:0:0:0:
192,192,48832,1,2,0:0:0:0:
448,192,48832,1,0,0:0:0:50:LR_Clap kick.wav
64,192,49054,1,0,0:0:0:0:
320,192,49054,1,2,0:0:0:0:
448,192,49276,1,0,0:0:0:0:
192,192,49276,1,2,0:0:0:0:
320,192,49610,1,0,0:0:0:0:
448,192,49721,1,0,0:0:0:50:LR_Clap kick.wav
192,192,49721,1,2,0:0:0:0:
64,192,49721,1,0,0:0:0:0:
320,192,49943,1,0,0:0:0:0:
64,192,50165,1,2,0:0:0:0:
448,192,50165,1,0,0:0:0:0:
64,192,50388,1,0,0:0:0:0:
448,192,50499,1,0,0:0:0:0:
320,192,50499,1,2,0:0:0:0:
448,192,50610,1,0,0:0:0:50:LR_Clap kick.wav
320,192,50610,1,2,0:0:0:0:
64,192,50610,1,0,0:0:0:0:
448,192,50832,1,0,0:0:0:0:
192,192,50832,1,2,0:0:0:0:
64,192,51054,1,2,0:0:0:0:
320,192,51054,1,0,0:0:0:0:
192,192,51388,1,0,0:0:0:0:
320,192,51499,1,2,0:0:0:0:
448,192,51499,1,0,0:0:0:50:LR_Clap kick.wav
64,192,51499,1,0,0:0:0:0:
448,192,51721,1,0,0:0:0:0:
192,192,51943,1,2,0:0:0:0:
64,192,51943,1,0,0:0:0:0:
64,192,52165,1,0,0:0:0:0:
320,192,52276,1,2,0:0:0:0:
448,192,52276,1,0,0:0:0:0:
64,192,52388,1,0,0:0:0:0:
192,192,52388,1,2,0:0:0:0:
448,192,52388,1,0,0:0:0:50:LR_Clap kick.wav
192,192,52610,1,2,0:0:0:0:
320,192,52610,1,0,0:0:0:0:
64,192,52832,1,2,0:0:0:0:
448,192,52832,1,0,0:0:0:0:
320,192,53165,1,0,0:0:0:0:
192,192,53276,1,2,0:0:0:0:
64,192,53276,1,0,0:0:0:0:
448,192,53276,1,0,0:0:0:50:LR_Clap kick.wav
64,192,53499,1,0,0:0:0:0:
320,192,53721,1,2,0:0:0:0:
448,192,53721,1,0,0:0:0:0:
448,192,53943,1,0,0:0:0:0:
192,192,54054,1,2,0:0:0:0:
64,192,54054,1,0,0:0:0:0:
448,192,54165,1,0,0:0:0:50:LR_Clap kick.wav
320,192,54165,1,2,0:0:0:0:
64,192,54165,1,0,0:0:0:0:
320,192,54388,1,0,0:0:0:0:
192,192,54388,1,2,0:0:0:0:
192,192,54610,1,2,0:0:0:0:
448,192,54610,1,0,0:0:0:0:
320,192,54943,1,0,0:0:0:0:
192,192,55054,1,2,0:0:0:0:
64,192,55054,1,0,0:0:0:0:
448,192,55054,1,0,0:0:0:50:LR_Clap kick.wav
64,192,55276,1,0,0:0:0:0:
320,192,55499,1,2,0:0:0:0:
448,192,55499,1,0,0:0:0:0:
448,192,55721,1,0,0:0:0:0:
192,192,55832,1,2,0:0:0:0:
64,192,55832,1,0,0:0:0:0:
448,192,55943,1,0,0:0:0:50:LR_Clap kick.wav
320,192,55943,1,2,0:0:0:0:
64,192,55943,1,0,0:0:0:0:
320,192,56165,1,0,0:0:0:0:
192,192,56165,1,2,0:0:0:0:
448,192,56388,1,0,0:0:0:0:
64,192,56388,1,2,0:0:0:0:
192,192,56721,1,0,0:0:0:0:
320,192,56832,1,2,0:0:0:0:
448,192,56832,1,0,0:0:0:50:LR_Clap kick.wav
64,192,56832,1,0,0:0:0:0:
448,192,57054,1,0,0:0:0:0:
192,192,57276,1,2,0:0:0:0:
64,192,57276,128,0,57610:0:0:0:0:
320,192,57610,1,2,0:0:0:0:
448,192,57610,1,0,0:0:0:0:
64,192,57721,1,0,0:0:0:0:
192,192,57721,1,2,0:0:0:0:
448,192,57721,1,0,0:0:0:50:LR_Clap kick.wav
192,192,57943,1,2,0:0:0:0:
320,192,57943,1,0,0:0:0:0:
448,192,58165,1,0,0:0:0:60:LR3_BassDrop.wav
64,192,58165,128,0,59943:0:0:0:0:
320,192,58165,128,0,58388:0:0:0:0:
192,192,58388,128,0,58610:0:0:0:0:
448,192,58610,128,0,58832:0:0:0:0:
320,192,58832,128,0,59054:0:0:0:0:
192,192,59054,128,0,59276:0:0:0:0:
448,192,59276,128,0,59499:0:0:0:0:
192,192,59499,128,0,59721:0:0:0:0:
320,192,59721,128,0,59943:0:0:0:0:
448,192,59943,128,0,61721:0:0:0:0:
192,192,59943,128,0,60165:0:0:0:0:
64,192,60165,128,0,60388:0:0:0:0:
320,192,60388,128,0,60610:0:0:0:0:
192,192,60610,128,0,60832:0:0:0:0:
64,192,60832,128,0,61054:0:0:0:0:
320,192,61054,128,0,61276:0:0:0:0:
192,192,61276,128,0,61499:0:0:0:0:
320,192,61499,128,0,61721:0:0:0:0:
192,192,61721,128,0,63499:0:0:0:0:
64,192,61721,128,0,61943:0:0:0:0:
320,192,61943,128,0,62165:0:0:0:0:
448,192,62165,128,0,62388:0:0:0:0:
64,192,62388,128,0,62610:0:0:0:0:
448,192,62610,128,0,62832:0:0:0:0:
320,192,62832,128,0,63054:0:0:0:0:
64,192,63054,128,0,63276:0:0:0:0:
320,192,63276,128,0,63499:0:0:0:0:
448,192,63499,128,0,64832:0:0:0:0:
64,192,63499,128,0,63721:0:0:0:0:
320,192,63721,128,0,63943:0:0:0:0:
192,192,63943,128,0,64165:0:0:0:0:
64,192,64165,128,0,64388:0:0:0:0:
320,192,64388,128,0,64610:0:0:0:0:
192,192,64610,128,0,64832:0:0:0:0:
64,192,64832,128,0,65054:0:0:0:0:
448,192,65054,1,0,0:0:0:40:LR_Snare Hit.wav
320,192,65110,1,0,0:0:0:40:LR_Snare Hit.wav
192,192,65165,1,0,0:0:0:40:LR_Snare Hit.wav
64,192,65221,1,0,0:0:0:40:LR_Snare Hit.wav
448,192,65276,1,0,0:0:0:40:LR_Clap kick.wav
320,192,65276,1,4,0:0:0:0:
320,192,65499,1,0,0:0:0:0:
64,192,65721,1,0,0:0:0:40:LR_Snare Hit.wav
192,192,65721,1,0,0:0:0:0:
448,192,65721,1,0,0:0:0:40:LR_Clap kick.wav
192,192,65943,1,0,0:0:0:0:
64,192,66165,1,0,0:0:0:40:LR_Snare Hit.wav
320,192,66165,1,4,0:0:0:0:
448,192,66165,1,0,0:0:0:40:LR_Clap kick.wav
192,192,66165,1,0,0:0:0:0:
320,192,66388,1,0,0:0:0:0:
192,192,66499,1,0,0:0:0:0:
64,192,66499,1,0,0:0:0:40:LR_Snare Hit.wav
320,192,66610,1,0,0:0:0:0:
448,192,66610,1,0,0:0:0:40:LR_Clap kick.wav
64,192,66610,1,0,0:0:0:40:LR_Snare Hit.wav
192,192,66832,1,0,0:0:0:0:
64,192,66832,1,0,0:0:0:40:LR_Snare Hit.wav
448,192,66832,1,0,0:0:0:0:
64,192,67054,1,0,0:0:0:40:LR_Snare Hit.wav
320,192,67054,1,4,0:0:0:0:
448,192,67054,1,0,0:0:0:40:LR_Clap kick.wav
192,192,67054,1,0,0:0:0:0:
320,192,67276,1,0,0:0:0:0:
64,192,67499,1,0,0:0:0:40:LR_Snare Hit.wav
192,192,67499,1,0,0:0:0:0:
448,192,67499,1,0,0:0:0:40:LR_Clap kick.wav
192,192,67721,1,0,0:0:0:40:LR_Snare Hit.wav
320,192,67721,1,0,0:0:0:0:
64,192,67943,1,0,0:0:0:40:LR_Snare Hit.wav
320,192,67943,1,4,0:0:0:0:
448,192,67943,1,0,0:0:0:40:LR_Clap kick.wav
192,192,67943,1,0,0:0:0:0:
448,192,68165,1,0,0:0:0:0:
192,192,68276,1,0,0:0:0:0:
64,192,68276,1,0,0:0:0:40:LR_Snare Hit.wav
320,192,68388,1,0,0:0:0:0:
448,192,68388,1,0,0:0:0:40:LR_Clap kick.wav
64,192,68388,1,0,0:0:0:40:LR_Snare Hit.wav
192,192,68610,1,0,0:0:0:40:LR_Snare Hit.wav
320,192,68610,1,0,0:0:0:0:
64,192,68832,1,0,0:0:0:0:
192,192,68832,1,0,0:0:0:40:LR_Snare Hit.wav
320,192,68888,1,0,0:0:0:40:LR_Snare Hit.wav
448,192,68943,1,0,0:0:0:40:LR_Snare Hit.wav
64,192,68943,1,0,0:0:0:0:
448,192,69054,1,0,0:0:0:0:
320,192,69054,1,0,0:0:0:40:LR_Snare Hit.wav
192,192,69165,1,0,0:0:0:40:LR_Snare Hit.wav
64,192,69165,1,0,0:0:0:0:
448,192,69276,1,0,0:0:0:0:
320,192,69276,1,0,0:0:0:40:LR_Snare Hit.wav
192,192,69332,1,0,0:0:0:40:LR_Snare Hit.wav
448,192,69388,1,0,0:0:0:0:
64,192,69388,1,0,0:0:0:40:LR_Snare Hit.wav
192,192,69499,1,0,0:0:0:40:LR_Snare Hit.wav
64,192,69499,1,0,0:0:0:0:
448,192,69610,1,0,0:0:0:0:
320,192,69610,1,0,0:0:0:40:LR_Snare Hit.wav
64,192,69721,1,0,0:0:0:40:LR_Snare Hit.wav
192,192,69776,1,0,0:0:0:40:LR_Snare Hit.wav
320,192,69832,1,0,0:0:0:40:LR_Snare Hit.wav
448,192,69888,1,0,0:0:0:40:LR_Snare Hit.wav
192,192,69943,1,0,0:0:0:40:LR_Snare Hit.wav
64,192,69999,1,0,0:0:0:40:LR_Snare Hit.wav
320,192,70054,1,0,0:0:0:40:LR_Snare Hit.wav
448,192,70110,1,0,0:0:0:40:LR_Snare Hit.wav
64,192,70165,1,0,0:0:0:40:LR_Snare Hit.wav
192,192,70221,1,0,0:0:0:40:LR_Snare Hit.wav
320,192,70276,1,0,0:0:0:40:LR_Snare Hit.wav
448,192,70332,1,0,0:0:0:40:LR_Snare Hit.wav
192,192,70388,1,0,0:0:0:40:LR_Snare Hit.wav
64,192,70443,1,0,0:0:0:40:LR_Snare Hit.wav
448,192,70499,1,0,0:0:0:40:LR_Snare Hit.wav
320,192,70554,1,0,0:0:0:40:LR_Snare Hit.wav
192,192,70610,1,0,0:0:0:40:LR3_BassDrop.wav
64,192,70610,128,0,71721:0:0:0:0:
448,192,71499,1,0,0:0:0:40:LR_Snare Hit.wav
320,192,71721,128,0,71943:0:0:0:0:
64,192,71832,1,0,0:0:0:0:
192,192,71832,1,0,0:0:0:40:LR_Snare Hit.wav
192,192,71943,128,0,72165:0:0:0:0:
64,192,71943,1,0,0:0:0:0:
448,192,71943,1,8,0:0:0:0:
64,192,72165,128,0,72388:0:0:0:0:
320,192,72165,1,0,0:0:0:40:LR_Snare Hit.wav
192,192,72388,1,2,0:0:0:0:
320,192,72388,1,4,0:0:0:0:
448,192,72388,128,0,72610:0:0:0:0:
192,192,72610,128,0,72832:0:0:0:30:LR3_HiHat Normal.wav
64,192,72832,1,0,0:0:0:0:
448,192,72832,1,8,0:0:0:0:
320,192,72832,128,0,73054:0:0:0:0:
64,192,73054,128,0,73276:0:0:0:30:LR3_HiHat Normal.wav
192,192,73276,1,2,0:0:0:0:
320,192,73276,128,0,73499:0:0:0:0:
64,192,73499,128,0,73721:0:0:0:30:LR3_HiHat Normal.wav
192,192,73610,1,0,0:0:0:0:
320,192,73721,1,8,0:0:0:0:
448,192,73721,128,0,73943:0:0:0:0:
320,192,73943,128,0,74165:0:0:0:30:LR3_HiHat Normal.wav
192,192,74165,1,2,0:0:0:0:
64,192,74165,128,0,74388:0:0:0:0:
192,192,74388,128,0,74610:0:0:0:30:LR3_HiHat Normal.wav
64,192,74610,1,0,0:0:0:0:
448,192,74610,1,8,0:0:0:0:
320,192,74610,128,0,74832:0:0:0:0:
448,192,74832,128,0,75054:0:0:0:30:LR3_HiHat Normal.wav
64,192,75054,1,0,0:0:0:0:
192,192,75054,1,2,0:0:0:0:
192,192,75276,1,0,0:0:0:30:LR3_HiHat Normal.wav
320,192,75388,1,2,0:0:0:0:
448,192,75388,1,0,0:0:0:0:
192,192,75499,1,8,0:0:0:0:
448,192,75499,1,0,0:0:0:0:
64,192,75499,128,0,75721:0:0:0:0:
320,192,75721,128,0,75943:0:0:0:30:LR3_HiHat Normal.wav
448,192,75943,1,2,0:0:0:0:
64,192,75943,128,0,76388:0:0:0:0:
320,192,76165,1,0,0:0:0:30:LR3_HiHat Normal.wav
192,192,76388,1,0,0:0:0:0:
320,192,76388,1,8,0:0:0:0:
448,192,76388,1,0,0:0:0:0:
448,192,76610,128,0,77054:0:0:0:30:LR3_HiHat Normal.wav
64,192,76832,1,2,0:0:0:0:
192,192,76832,1,0,0:0:0:0:
320,192,77054,1,0,0:0:0:30:LR3_HiHat Normal.wav
64,192,77165,1,0,0:0:0:0:
192,192,77165,1,2,0:0:0:0:
64,192,77276,1,0,0:0:0:0:
448,192,77276,1,8,0:0:0:0:
320,192,77276,128,0,77499:0:0:0:0:
192,192,77499,128,0,77721:0:0:0:30:LR3_HiHat Normal.wav
64,192,77499,1,2,0:0:0:0:
320,192,77721,1,2,0:0:0:0:
448,192,77721,1,0,0:0:0:0:
192,192,77943,1,0,0:0:0:30:LR3_HiHat Normal.wav
320,192,78165,1,8,0:0:0:0:
448,192,78165,1,0,0:0:0:0:
64,192,78165,128,0,78388:0:0:0:0:
192,192,78388,128,0,78832:0:0:0:30:LR3_HiHat Normal.wav
64,192,78610,1,0,0:0:0:0:
448,192,78610,1,2,0:0:0:0:
320,192,78832,128,0,79054:0:0:0:30:LR3_HiHat Normal.wav
64,192,78943,1,0,0:0:0:40:LR_Snare Hit.wav
448,192,79054,128,0,79276:0:0:0:0:
192,192,79054,1,8,0:0:0:0:
64,192,79276,1,0,0:0:0:40:LR_Snare Hit.wav
192,192,79332,1,0,0:0:0:40:LR_Snare Hit.wav
448,192,79388,1,0,0:0:0:40:LR_Snare Hit.wav
320,192,79443,1,0,0:0:0:40:LR_Snare Hit.wav
64,192,79499,128,0,79721:0:0:0:0:
192,192,79499,1,2,0:0:0:0:
448,192,79721,128,0,79943:0:0:0:30:LR3_HiHat Normal.wav
320,192,79943,1,0,0:0:0:0:
64,192,79943,1,8,0:0:0:0:
192,192,79943,128,0,80165:0:0:0:0:
320,192,80165,128,0,80388:0:0:0:30:LR3_HiHat Normal.wav
192,192,80388,1,2,0:0:0:0:
64,192,80388,128,0,80610:0:0:0:0:
448,192,80610,128,0,80832:0:0:0:30:LR3_HiHat Normal.wav
320,192,80721,1,0,0:0:0:0:
192,192,80832,1,8,0:0:0:0:
64,192,80832,128,0,81054:0:0:0:0:
192,192,81054,128,0,81276:0:0:0:30:LR3_HiHat Normal.wav
320,192,81276,1,2,0:0:0:0:
448,192,81276,128,0,81499:0:0:0:0:
320,192,81499,128,0,81721:0:0:0:30:LR3_HiHat Normal.wav
448,192,81721,1,0,0:0:0:0:
64,192,81721,1,8,0:0:0:0:
192,192,81721,128,0,81943:0:0:0:0:
64,192,81943,128,0,82165:0:0:0:30:LR3_HiHat Normal.wav
448,192,82165,1,0,0:0:0:0:
320,192,82165,1,2,0:0:0:0:
448,192,82388,1,0,0:0:0:30:LR3_HiHat Normal.wav
192,192,82499,1,2,0:0:0:0:
64,192,82499,1,0,0:0:0:0:
320,192,82610,1,0,0:0:0:0:
64,192,82610,1,8,0:0:0:0:
448,192,82610,128,0,82832:0:0:0:0:
192,192,82832,128,0,83054:0:0:0:30:LR3_HiHat Normal.wav
64,192,83054,1,2,0:0:0:0:
448,192,83054,128,0,83499:0:0:0:0:
320,192,83276,1,0,0:0:0:30:LR3_HiHat Normal.wav
64,192,83499,1,0,0:0:0:0:
320,192,83499,1,0,0:0:0:0:
192,192,83499,1,8,0:0:0:0:
64,192,83721,128,0,84165:0:0:0:30:LR3_HiHat Normal.wav
448,192,83943,1,0,0:0:0:0:
320,192,83943,1,2,0:0:0:0:
192,192,84165,1,0,0:0:0:30:LR3_HiHat Normal.wav
448,192,84276,1,0,0:0:0:0:
320,192,84276,1,2,0:0:0:0:
448,192,84388,1,8,0:0:0:0:
64,192,84388,1,0,0:0:0:0:
192,192,84388,128,0,84610:0:0:0:0:
320,192,84610,128,0,84832:0:0:0:30:LR3_HiHat Normal.wav
448,192,84610,1,0,0:0:0:0:
192,192,84832,1,0,0:0:0:40:LR_Snare Hit.wav
64,192,84832,128,0,86165:0:0:0:0:
320,192,84943,1,0,0:0:0:40:LR_Snare Hit.wav
448,192,85054,1,0,0:0:0:40:LR_Snare Hit.wav
192,192,85165,1,0,0:0:0:40:LR_Snare Hit.wav
448,192,85276,1,0,0:0:0:40:LR_Snare Hit.wav
320,192,85388,1,0,0:0:0:40:LR_Snare Hit.wav
192,192,85499,1,0,0:0:0:40:LR_Snare Hit.wav
448,192,85610,1,0,0:0:0:40:LR_Snare Hit.wav
192,192,85721,1,0,0:0:0:40:LR_Snare Hit.wav
320,192,85832,1,0,0:0:0:40:LR_Snare Hit.wav
448,192,85943,1,0,0:0:0:40:LR_Snare Hit.wav
192,192,86054,1,0,0:0:0:40:LR_Snare Hit.wav
320,192,86165,1,0,0:0:0:40:LR_Snare Hit.wav
448,192,86165,128,0,86388:0:0:0:0:
64,192,86388,1,0,0:0:0:40:LR_Snare Hit.wav
192,192,86443,1,0,0:0:0:40:LR_Snare Hit.wav
448,192,86499,1,0,0:0:0:40:LR_Snare Hit.wav
320,192,86554,1,0,0:0:0:40:LR_Snare Hit.wav
64,192,86610,1,2,0:0:0:0:
192,192,86610,1,4,0:0:0:0:
448,192,86610,1,0,0:0:0:0:
320,192,86832,1,0,0:0:0:30:LR3_HiHat Normal.wav
192,192,86943,1,0,0:0:0:0:
64,192,87054,1,0,0:0:0:0:
320,192,87054,1,8,0:0:0:0:
448,192,87054,1,0,0:0:0:0:
192,192,87276,1,0,0:0:0:30:LR3_HiHat Normal.wav
320,192,87499,1,2,0:0:0:0:
448,192,87499,1,0,0:0:0:0:
64,192,87610,1,0,0:0:0:0:
192,192,87721,1,0,0:0:0:30:LR3_HiHat Normal.wav
320,192,87832,1,2,0:0:0:0:
448,192,87832,1,0,0:0:0:0:
64,192,87943,1,8,0:0:0:0:
320,192,87943,1,0,0:0:0:0:
448,192,87943,1,0,0:0:0:0:
192,192,88165,1,2,0:0:0:0:
320,192,88165,1,0,0:0:0:30:LR3_HiHat Normal.wav
64,192,88388,1,2,0:0:0:0:
448,192,88388,1,0,0:0:0:0:
320,192,88610,1,0,0:0:0:30:LR3_HiHat Normal.wav
192,192,88721,1,0,0:0:0:0:
448,192,88832,1,0,0:0:0:0:
320,192,88832,1,0,0:0:0:0:
64,192,88832,1,8,0:0:0:0:
320,192,89054,1,0,0:0:0:30:LR3_HiHat Normal.wav
192,192,89276,1,2,0:0:0:0:
64,192,89276,1,0,0:0:0:0:
448,192,89388,1,0,0:0:0:0:
320,192,89499,1,0,0:0:0:30:LR3_HiHat Normal.wav
192,192,89610,1,2,0:0:0:0:
64,192,89610,1,0,0:0:0:0:
448,192,89721,1,0,0:0:0:0:
192,192,89721,1,0,0:0:0:0:
64,192,89721,1,8,0:0:0:0:
320,192,89943,1,0,0:0:0:30:LR3_HiHat Normal.wav
192,192,89943,1,2,0:0:0:0:
448,192,90165,1,0,0:0:0:0:
64,192,90165,1,2,0:0:0:0:
192,192,90388,1,0,0:0:0:30:LR3_HiHat Normal.wav
320,192,90499,1,0,0:0:0:0:
192,192,90610,1,0,0:0:0:0:
448,192,90610,1,0,0:0:0:0:
64,192,90610,1,8,0:0:0:0:
320,192,90832,1,0,0:0:0:30:LR3_HiHat Normal.wav
64,192,91054,1,0,0:0:0:0:
192,192,91054,1,2,0:0:0:0:
448,192,91165,1,0,0:0:0:0:
64,192,91276,1,0,0:0:0:30:LR3_HiHat Normal.wav
320,192,91388,1,2,0:0:0:0:
192,192,91388,1,0,0:0:0:0:
64,192,91499,1,0,0:0:0:0:
448,192,91499,1,0,0:0:0:0:
192,192,91499,1,8,0:0:0:0:
320,192,91721,1,0,0:0:0:30:LR3_HiHat Normal.wav
448,192,91721,1,2,0:0:0:0:
64,192,91943,1,0,0:0:0:0:
192,192,91943,1,2,0:0:0:0:
448,192,92165,1,0,0:0:0:30:LR3_HiHat Normal.wav
320,192,92276,1,0,0:0:0:0:
64,192,92388,1,8,0:0:0:0:
192,192,92388,1,0,0:0:0:0:
448,192,92388,1,0,0:0:0:0:
192,192,92610,1,0,0:0:0:30:LR3_HiHat Normal.wav
64,192,92832,1,0,0:0:0:0:
448,192,92832,1,2,0:0:0:0:
192,192,92943,1,0,0:0:0:0:
320,192,93054,1,0,0:0:0:30:LR3_HiHat Normal.wav
64,192,93165,1,0,0:0:0:0:
448,192,93165,1,2,0:0:0:0:
64,192,93276,1,0,0:0:0:0:
320,192,93276,1,8,0:0:0:0:
192,192,93276,1,0,0:0:0:0:
64,192,93499,1,0,0:0:0:40:LR_Snare Hit.wav
192,192,93554,1,0,0:0:0:40:LR_Snare Hit.wav
448,192,93610,1,0,0:0:0:40:LR_Snare Hit.wav
320,192,93665,1,0,0:0:0:40:LR_Snare Hit.wav
192,192,93721,1,8,0:0:0:0:
64,192,93721,1,2,0:0:0:0:
448,192,93721,1,0,0:0:0:0:
320,192,93943,1,0,0:0:0:30:LR3_HiHat Normal.wav
192,192,94054,1,0,0:0:0:0:
320,192,94165,1,0,0:0:0:0:
64,192,94165,1,8,0:0:0:0:
448,192,94165,1,0,0:0:0:0:
192,192,94388,1,0,0:0:0:30:LR3_HiHat Normal.wav
448,192,94610,1,0,0:0:0:0:
64,192,94610,1,2,0:0:0:0:
320,192,94610,1,8,0:0:0:0:
192,192,94721,1,0,0:0:0:0:
448,192,94832,1,0,0:0:0:30:LR3_HiHat Normal.wav
320,192,94943,1,0,0:0:0:0:
192,192,94943,1,2,0:0:0:0:
448,192,95054,1,0,0:0:0:0:
64,192,95054,1,0,0:0:0:0:
320,192,95054,1,8,0:0:0:0:
192,192,95276,1,2,0:0:0:0:
64,192,95276,1,0,0:0:0:30:LR3_HiHat Normal.wav
448,192,95499,1,2,0:0:0:0:
320,192,95499,1,8,0:0:0:0:
192,192,95499,1,0,0:0:0:0:
64,192,95721,1,0,0:0:0:30:LR3_HiHat Normal.wav
320,192,95832,1,0,0:0:0:0:
448,192,95943,1,0,0:0:0:0:
192,192,95943,1,8,0:0:0:0:
64,192,95943,1,2,0:0:0:0:
320,192,96165,1,0,0:0:0:30:LR3_HiHat Normal.wav
448,192,96388,1,0,0:0:0:0:
64,192,96388,1,8,0:0:0:0:
192,192,96388,1,2,0:0:0:0:
320,192,96499,1,0,0:0:0:0:
64,192,96610,1,0,0:0:0:30:LR3_HiHat Normal.wav
320,192,96721,1,2,0:0:0:0:
448,192,96721,1,0,0:0:0:0:
448,192,96832,1,0,0:0:0:0:
192,192,96832,1,8,0:0:0:0:
64,192,96832,1,2,0:0:0:0:
192,192,97054,1,2,0:0:0:0:
320,192,97054,1,0,0:0:0:30:LR3_HiHat Normal.wav
448,192,97276,1,2,0:0:0:0:
320,192,97276,1,0,0:0:0:40:LR_Snare Hit.wav
192,192,97332,1,0,0:0:0:40:LR_Snare Hit.wav
64,192,97388,1,0,0:0:0:40:LR_Snare Hit.wav
448,192,97388,1,0,0:0:0:0:
64,192,97499,1,0,0:0:0:0:
192,192,97499,1,0,0:0:0:40:LR_Snare Hit.wav
320,192,97610,1,0,0:0:0:40:LR_Snare Hit.wav
448,192,97610,1,0,0:0:0:0:
64,192,97721,1,8,0:0:0:0:
192,192,97721,1,0,0:0:0:40:LR_Snare Hit.wav
320,192,97776,1,0,0:0:0:40:LR_Snare Hit.wav
64,192,97832,1,0,0:0:0:0:
448,192,97832,1,0,0:0:0:40:LR_Snare Hit.wav
320,192,97943,1,0,0:0:0:40:LR_Snare Hit.wav
448,192,97943,1,0,0:0:0:0:
64,192,98054,1,0,0:0:0:0:
192,192,98054,1,0,0:0:0:40:LR_Snare Hit.wav
320,192,98165,1,0,0:0:0:40:LR_Snare Hit.wav
448,192,98165,1,2,0:0:0:0:
192,192,98221,1,0,0:0:0:40:LR_Snare Hit.wav
64,192,98276,1,0,0:0:0:40:LR_Snare Hit.wav
448,192,98276,1,0,0:0:0:0:
64,192,98388,1,0,0:0:0:0:
192,192,98388,1,0,0:0:0:40:LR_Snare Hit.wav
320,192,98499,1,0,0:0:0:40:LR_Snare Hit.wav
448,192,98499,1,0,0:0:0:0:
64,192,98610,1,8,0:0:0:0:
192,192,98610,1,0,0:0:0:40:LR_Snare Hit.wav
320,192,98721,1,0,0:0:0:40:LR_Snare Hit.wav
448,192,98721,1,0,0:0:0:0:
64,192,98832,1,0,0:0:0:0:
192,192,98832,1,0,0:0:0:40:LR_Snare Hit.wav
448,192,98943,1,0,0:0:0:0:
320,192,98943,1,0,0:0:0:40:LR_Snare Hit.wav
64,192,99054,1,0,0:0:0:40:LR_Snare Hit.wav
192,192,99110,1,0,0:0:0:40:LR_Snare Hit.wav
320,192,99165,1,0,0:0:0:40:LR_Snare Hit.wav
448,192,99221,1,0,0:0:0:40:LR_Snare Hit.wav
192,192,99276,1,0,0:0:0:40:LR_Snare Hit.wav
64,192,99332,1,0,0:0:0:40:LR_Snare Hit.wav
448,192,99388,1,0,0:0:0:40:LR_Snare Hit.wav
320,192,99443,1,0,0:0:0:40:LR_Snare Hit.wav
192,192,99499,1,0,0:0:0:40:LR_Snare Hit.wav
64,192,99554,1,0,0:0:0:40:LR_Snare Hit.wav
320,192,99610,1,0,0:0:0:40:LR_Snare Hit.wav
448,192,99665,1,0,0:0:0:40:LR_Snare Hit.wav
64,192,99721,1,0,0:0:0:40:LR_Snare Hit.wav
192,192,99776,1,0,0:0:0:40:LR_Snare Hit.wav
320,192,99832,1,0,0:0:0:40:LR_Snare Hit.wav
448,192,99888,1,0,0:0:0:40:LR_Snare Hit.wav
192,192,99943,1,0,0:0:0:40:LR_Snare Hit.wav
64,192,99999,1,0,0:0:0:40:LR_Snare Hit.wav
448,192,100054,1,0,0:0:0:40:LR_Snare Hit.wav
320,192,100110,1,0,0:0:0:40:LR_Snare Hit.wav
64,192,100165,1,0,0:0:0:40:LR_Snare Hit.wav
192,192,100221,1,0,0:0:0:40:LR_Snare Hit.wav
320,192,100276,1,0,0:0:0:40:LR_Snare Hit.wav
448,192,100332,1,0,0:0:0:40:LR_Snare Hit.wav
64,192,100388,1,0,0:0:0:40:LR_Clap DS.wav
192,192,100388,1,0,0:0:0:40:LR_Snare Hit.wav
448,192,100610,1,0,0:0:0:40:LR_Snare Hit.wav
320,192,100665,1,0,0:0:0:40:LR_Snare Hit.wav
64,192,100721,1,0,0:0:0:40:LR_Snare Hit.wav
192,192,100776,1,0,0:0:0:40:LR_Snare Hit.wav
320,192,100832,1,4,0:0:0:0:
64,192,100832,1,2,0:0:0:0:
448,192,100832,128,0,101054:0:0:0:0:
192,192,101054,128,0,101276:0:0:0:30:LR3_HiHat Normal.wav
320,192,101276,1,8,0:0:0:0:
448,192,101276,1,0,0:0:0:0:
64,192,101276,128,0,101499:0:0:0:0:
192,192,101499,128,0,101721:0:0:0:30:LR3_HiHat Normal.wav
64,192,101721,1,2,0:0:0:0:
320,192,101721,128,0,101943:0:0:0:0:
448,192,101943,1,0,0:0:0:30:LR3_HiHat Normal.wav
64,192,102054,1,0,0:0:0:0:
192,192,102054,1,2,0:0:0:0:
64,192,102165,1,8,0:0:0:0:
192,192,102165,1,0,0:0:0:0:
448,192,102165,128,0,102388:0:0:0:0:
320,192,102388,1,0,0:0:0:0:
192,192,102388,128,0,102610:0:0:0:30:LR3_HiHat Normal.wav
64,192,102610,1,2,0:0:0:0:
448,192,102610,128,0,102832:0:0:0:0:
64,192,102832,128,0,103054:0:0:0:30:LR3_HiHat Normal.wav
192,192,103054,1,0,0:0:0:0:
448,192,103054,1,8,0:0:0:0:
320,192,103054,128,0,103276:0:0:0:0:
192,192,103276,128,0,103499:0:0:0:30:LR3_HiHat Normal.wav
448,192,103499,1,2,0:0:0:0:
64,192,103499,128,0,103721:0:0:0:0:
448,192,103721,1,0,0:0:0:30:LR3_HiHat Normal.wav
64,192,103832,1,0,0:0:0:0:
192,192,103832,1,2,0:0:0:0:
64,192,103943,1,0,0:0:0:0:
320,192,103943,1,8,0:0:0:0:
448,192,103943,128,0,104165:0:0:0:0:
320,192,104165,1,2,0:0:0:0:
192,192,104165,128,0,104388:0:0:0:30:LR3_HiHat Normal.wav
64,192,104388,128,0,104610:0:0:0:0:
448,192,104388,1,2,0:0:0:0:
320,192,104610,128,0,104832:0:0:0:30:LR3_HiHat Normal.wav
192,192,104832,1,8,0:0:0:0:
64,192,104832,1,0,0:0:0:0:
448,192,104832,128,0,105054:0:0:0:0:
320,192,105054,128,0,105276:0:0:0:30:LR3_HiHat Normal.wav
448,192,105276,1,2,0:0:0:0:
192,192,105276,128,0,105499:0:0:0:0:
64,192,105499,1,0,0:0:0:30:LR3_HiHat Normal.wav
448,192,105610,1,0,0:0:0:0:
320,192,105610,1,2,0:0:0:0:
448,192,105721,1,8,0:0:0:0:
320,192,105721,1,0,0:0:0:0:
64,192,105721,128,0,105943:0:0:0:0:
192,192,105943,1,2,0:0:0:0:
320,192,105943,128,0,106165:0:0:0:30:LR3_HiHat Normal.wav
64,192,106165,128,0,106388:0:0:0:0:
448,192,106165,1,2,0:0:0:0:
448,192,106388,128,0,106610:0:0:0:30:LR3_HiHat Normal.wav
320,192,106610,1,0,0:0:0:0:
64,192,106610,1,8,0:0:0:0:
192,192,106610,128,0,106832:0:0:0:0:
320,192,106832,128,0,107054:0:0:0:30:LR3_HiHat Normal.wav
64,192,107054,1,2,0:0:0:0:
448,192,107054,128,0,107276:0:0:0:0:
64,192,107276,1,0,0:0:0:30:LR3_HiHat Normal.wav
448,192,107388,1,0,0:0:0:0:
320,192,107388,1,2,0:0:0:0:
448,192,107499,1,0,0:0:0:0:
192,192,107499,1,8,0:0:0:0:
64,192,107499,128,0,107721:0:0:0:0:
192,192,107721,1,2,0:0:0:0:
320,192,107721,128,0,107943:0:0:0:30:LR3_HiHat Normal.wav
448,192,107943,1,2,0:0:0:0:
64,192,107943,128,0,108165:0:0:0:0:
192,192,108165,128,0,108388:0:0:0:30:LR3_HiHat Normal.wav
64,192,108388,1,0,0:0:0:0:
320,192,108388,1,8,0:0:0:0:
448,192,108388,128,0,108610:0:0:0:0:
192,192,108610,128,0,108832:0:0:0:30:LR3_HiHat Normal.wav
448,192,108832,1,2,0:0:0:0:
64,192,108832,128,0,109054:0:0:0:0:
448,192,109054,1,0,0:0:0:30:LR3_HiHat Normal.wav
64,192,109165,1,0,0:0:0:0:
192,192,109165,1,2,0:0:0:0:
64,192,109276,1,0,0:0:0:0:
192,192,109276,1,8,0:0:0:0:
448,192,109276,128,0,109499:0:0:0:0:
320,192,109499,1,2,0:0:0:0:
192,192,109499,128,0,109721:0:0:0:30:LR3_HiHat Normal.wav
64,192,109721,1,2,0:0:0:0:
448,192,109721,128,0,109943:0:0:0:0:
320,192,109943,128,0,110165:0:0:0:30:LR3_HiHat Normal.wav
448,192,110165,1,0,0:0:0:0:
192,192,110165,1,8,0:0:0:0:
64,192,110165,128,0,110388:0:0:0:0:
320,192,110388,128,0,110610:0:0:0:30:LR3_HiHat Normal.wav
64,192,110610,1,2,0:0:0:0:
448,192,110610,128,0,110832:0:0:0:0:
64,192,110832,1,0,0:0:0:30:LR3_HiHat Normal.wav
448,192,110943,1,0,0:0:0:0:
320,192,110943,1,2,0:0:0:0:
448,192,111054,1,0,0:0:0:0:
320,192,111054,1,8,0:0:0:0:
64,192,111054,128,0,111276:0:0:0:0:
192,192,111276,1,2,0:0:0:0:
320,192,111276,128,0,111499:0:0:0:30:LR3_HiHat Normal.wav
448,192,111499,1,2,0:0:0:0:
64,192,111499,128,0,111721:0:0:0:0:
192,192,111721,128,0,111943:0:0:0:30:LR3_HiHat Normal.wav
64,192,111943,1,8,0:0:0:0:
320,192,111943,1,0,0:0:0:0:
448,192,111943,128,0,112165:0:0:0:0:
192,192,112165,128,0,112388:0:0:0:30:LR3_HiHat Normal.wav
448,192,112388,1,2,0:0:0:0:
64,192,112388,128,0,112610:0:0:0:0:
320,192,112610,1,0,0:0:0:30:LR3_HiHat Normal.wav
64,192,112721,1,0,0:0:0:0:
192,192,112721,1,2,0:0:0:0:
64,192,112832,1,8,0:0:0:0:
448,192,112832,1,0,0:0:0:0:
320,192,112832,128,0,113054:0:0:0:0:
192,192,113054,1,2,0:0:0:0:
448,192,113054,128,0,113276:0:0:0:30:LR3_HiHat Normal.wav
64,192,113276,1,2,0:0:0:0:
192,192,113276,1,4,0:0:0:0:
320,192,113276,1,0,0:0:0:0:
448,192,113610,1,0,0:0:0:0:
448,192,113721,128,0,113832:0:0:0:0:
448,192,113943,128,0,114165:0:0:0:0:
192,192,114165,1,2,0:0:0:0:
64,192,114165,128,0,114276:0:0:0:0:
448,192,114276,128,0,114388:0:0:0:0:
320,192,114388,128,0,114499:0:0:0:0:
192,192,114499,1,2,0:0:0:0:
64,192,114499,128,0,114610:0:0:0:0:
192,192,114610,1,0,0:0:0:0:
320,192,114610,1,8,0:0:0:0:
448,192,114610,1,0,0:0:0:0:
192,192,114832,1,0,0:0:0:0:
320,192,114832,1,2,0:0:0:0:
192,192,115054,1,4,0:0:0:0:
64,192,115054,1,2,0:0:0:0:
448,192,115054,1,0,0:0:0:0:
448,192,115388,1,0,0:0:0:0:
64,192,115499,1,0,0:0:0:40:LR_Clap DS.wav
192,192,115499,1,0,0:0:0:40:LR_Clap kick.wav
320,192,115721,1,0,0:0:0:0:
64,192,115943,1,0,0:0:0:40:LR_Clap DS.wav
448,192,115943,1,0,0:0:0:40:LR_Clap kick.wav
192,192,116054,1,0,0:0:0:0:
448,192,116388,1,0,0:0:0:40:LR_Clap DS.wav
320,192,116388,1,0,0:0:0:40:LR_Clap kick.wav
192,192,116610,1,0,0:0:0:0:
64,192,116832,1,0,0:0:0:40:LR_Clap DS.wav
448,192,116832,1,0,0:0:0:40:LR_Clap kick.wav
64,192,117165,1,0,0:0:0:0:
448,192,117276,1,0,0:0:0:40:LR_Clap DS.wav
320,192,117276,1,0,0:0:0:40:LR_Clap kick.wav
192,192,117499,1,0,0:0:0:0:
448,192,117721,1,0,0:0:0:40:LR_Clap DS.wav
64,192,117721,1,0,0:0:0:40:LR_Clap kick.wav
320,192,117832,1,0,0:0:0:0:
64,192,118165,1,0,0:0:0:40:LR_Clap DS.wav
192,192,118165,1,0,0:0:0:40:LR_Clap kick.wav
320,192,118388,1,0,0:0:0:40:LR_Clap DS.wav
192,192,118388,1,0,0:0:0:40:LR_Clap kick.wav
448,192,118610,1,0,0:0:0:40:LR_Clap DS.wav
320,192,118610,1,0,0:0:0:40:LR_Clap kick.wav
64,192,118943,1,0,0:0:0:0:
320,192,119054,1,0,0:0:0:40:LR_Clap DS.wav
448,192,119054,1,0,0:0:0:40:LR_Clap kick.wav
192,192,119276,1,0,0:0:0:0:
64,192,119499,1,0,0:0:0:40:LR_Clap DS.wav
448,192,119499,1,0,0:0:0:40:LR_Clap kick.wav
320,192,119610,1,0,0:0:0:0:
448,192,119943,1,0,0:0:0:40:LR_Clap DS.wav
192,192,119943,1,0,0:0:0:40:LR_Clap kick.wav
64,192,120165,1,0,0:0:0:0:
320,192,120388,1,0,0:0:0:40:LR_Clap DS.wav
192,192,120388,1,0,0:0:0:40:LR_Clap kick.wav
448,192,120721,1,0,0:0:0:0:
192,192,120832,1,0,0:0:0:40:LR_Clap DS.wav
64,192,120832,1,0,0:0:0:40:LR_Clap kick.wav
320,192,121054,1,0,0:0:0:0:
448,192,121276,1,0,0:0:0:40:LR_Clap DS.wav
64,192,121276,1,0,0:0:0:40:LR_Clap kick.wav
192,192,121388,128,0,121721:0:0:0:0:
64,192,121721,1,0,0:0:0:0:
320,192,121721,1,8,0:0:0:0:
448,192,121721,1,0,0:0:0:0:
192,192,121943,1,0,0:0:0:0:
64,192,122165,1,2,0:0:0:0:
448,192,122165,1,4,0:0:0:0:
320,192,122165,1,0,0:0:0:0:
320,192,122499,1,0,0:0:0:0:
448,192,122610,1,2,0:0:0:0:
64,192,122610,1,0,0:0:0:50:LR_Clap kick.wav
192,192,122610,1,0,0:0:0:0:
320,192,122832,1,0,0:0:0:0:
448,192,123054,1,2,0:0:0:0:
64,192,123054,1,0,0:0:0:0:
192,192,123165,1,0,0:0:0:0:
448,192,123388,1,0,0:0:0:0:
320,192,123388,1,2,0:0:0:0:
192,192,123499,1,2,0:0:0:0:
64,192,123499,1,0,0:0:0:50:LR_Clap kick.wav
448,192,123499,1,0,0:0:0:0:
320,192,123721,1,2,0:0:0:0:
192,192,123721,1,0,0:0:0:0:
448,192,123943,1,2,0:0:0:0:
64,192,123943,1,0,0:0:0:0:
192,192,124276,1,0,0:0:0:0:
64,192,124388,1,0,0:0:0:50:LR_Clap kick.wav
320,192,124388,1,2,0:0:0:0:
448,192,124388,1,0,0:0:0:0:
192,192,124610,1,0,0:0:0:0:
64,192,124832,1,0,0:0:0:0:
448,192,124832,1,2,0:0:0:0:
320,192,124943,1,0,0:0:0:0:
64,192,125165,1,0,0:0:0:0:
192,192,125165,1,2,0:0:0:0:
64,192,125276,1,0,0:0:0:50:LR_Clap kick.wav
320,192,125276,1,0,0:0:0:0:
448,192,125276,1,2,0:0:0:0:
192,192,125499,1,2,0:0:0:0:
320,192,125499,1,0,0:0:0:0:
448,192,125499,1,0,0:0:0:50:LR_Clap kick.wav
64,192,125721,1,0,0:0:0:0:
448,192,125721,1,2,0:0:0:0:
320,192,126054,1,0,0:0:0:0:
64,192,126165,1,0,0:0:0:50:LR_Clap kick.wav
448,192,126165,1,0,0:0:0:0:
192,192,126165,1,2,0:0:0:0:
192,192,126388,1,0,0:0:0:0:
448,192,126610,1,2,0:0:0:0:
64,192,126610,1,0,0:0:0:0:
320,192,126721,1,0,0:0:0:0:
448,192,126943,1,0,0:0:0:0:
320,192,126943,1,2,0:0:0:0:
448,192,127054,1,0,0:0:0:0:
320,192,127054,1,2,0:0:0:0:
64,192,127054,1,0,0:0:0:50:LR_Clap kick.wav
192,192,127276,1,2,0:0:0:0:
320,192,127276,1,0,0:0:0:0:
64,192,127499,1,2,0:0:0:0:
192,192,127499,1,4,0:0:0:0:
448,192,127499,128,0,127943:0:0:0:50:LR3_BassDrop.wav
64,192,127943,128,0,128388:0:0:0:0:
448,192,128388,128,0,128536:0:0:0:0:
320,192,128536,128,0,128684:0:0:0:0:
192,192,128684,128,0,128832:0:0:0:0:
448,192,128832,1,0,0:0:0:0:
64,192,128832,1,0,0:0:0:0:
320,192,128832,1,8,0:0:0:0:
64,192,129054,1,0,0:0:0:40:LR_Snare Hit.wav
192,192,129110,1,0,0:0:0:40:LR_Snare Hit.wav
448,192,129165,1,0,0:0:0:40:LR_Snare Hit.wav
320,192,129221,1,0,0:0:0:40:LR_Snare Hit.wav
64,192,129276,5,2,0:0:0:0:
192,192,129276,1,4,0:0:0:0:
448,192,129276,1,0,0:0:0:0:
320,192,129610,1,0,0:0:0:0:
448,192,129721,1,2,0:0:0:0:
64,192,129721,1,0,0:0:0:50:LR_Clap kick.wav
192,192,129721,1,0,0:0:0:0:
448,192,129943,1,0,0:0:0:0:
192,192,130165,1,2,0:0:0:0:
64,192,130165,1,0,0:0:0:0:
320,192,130276,1,0,0:0:0:0:
192,192,130499,1,2,0:0:0:0:
64,192,130499,1,0,0:0:0:0:
448,192,130610,1,0,0:0:0:0:
320,192,130610,1,2,0:0:0:0:
64,192,130610,1,0,0:0:0:50:LR_Clap kick.wav
64,192,130832,1,0,0:0:0:0:
192,192,130832,1,2,0:0:0:0:
320,192,131054,1,2,0:0:0:0:
448,192,131054,1,0,0:0:0:0:
192,192,131388,1,0,0:0:0:0:
64,192,131499,1,0,0:0:0:50:LR_Clap kick.wav
320,192,131499,1,2,0:0:0:0:
448,192,131499,1,0,0:0:0:0:
64,192,131721,1,0,0:0:0:0:
320,192,131943,1,2,0:0:0:0:
448,192,131943,1,0,0:0:0:0:
192,192,132054,1,0,0:0:0:0:
320,192,132276,1,2,0:0:0:0:
448,192,132276,1,0,0:0:0:0:
64,192,132388,1,0,0:0:0:50:LR_Clap kick.wav
192,192,132388,1,0,0:0:0:0:
448,192,132388,1,2,0:0:0:0:
448,192,132610,1,2,0:0:0:0:
320,192,132610,1,0,0:0:0:50:LR_Clap kick.wav
64,192,132610,1,0,0:0:0:0:
192,192,132832,1,2,0:0:0:0:
320,192,132832,1,0,0:0:0:0:
320,192,133165,1,0,0:0:0:0:
448,192,133276,1,2,0:0:0:0:
192,192,133276,1,0,0:0:0:0:
64,192,133276,1,0,0:0:0:50:LR_Clap kick.wav
320,192,133499,1,0,0:0:0:0:
64,192,133721,1,2,0:0:0:0:
448,192,133721,1,0,0:0:0:0:
64,192,133943,1,0,0:0:0:0:
448,192,134054,1,0,0:0:0:0:
320,192,134054,1,2,0:0:0:0:
448,192,134165,1,0,0:0:0:0:
320,192,134165,1,2,0:0:0:0:
64,192,134165,1,0,0:0:0:50:LR_Clap kick.wav
448,192,134388,1,0,0:0:0:0:
192,192,134388,1,2,0:0:0:0:
320,192,134610,1,2,0:0:0:0:
64,192,134610,1,0,0:0:0:0:
192,192,134943,1,0,0:0:0:0:
64,192,135054,1,0,0:0:0:50:LR_Clap kick.wav
320,192,135054,1,2,0:0:0:0:
448,192,135054,1,0,0:0:0:0:
192,192,135276,1,0,0:0:0:0:
448,192,135499,1,2,0:0:0:0:
64,192,135499,1,0,0:0:0:0:
448,192,135721,1,0,0:0:0:0:
64,192,135832,1,0,0:0:0:0:
192,192,135832,1,2,0:0:0:0:
64,192,135943,1,0,0:0:0:50:LR_Clap kick.wav
192,192,135943,1,0,0:0:0:0:
448,192,135943,1,2,0:0:0:0:
320,192,136165,1,2,0:0:0:0:
64,192,136165,1,0,0:0:0:0:
192,192,136388,1,2,0:0:0:0:
448,192,136388,1,0,0:0:0:0:
320,192,136721,1,0,0:0:0:0:
192,192,136832,1,0,0:0:0:0:
64,192,136832,1,0,0:0:0:50:LR_Clap kick.wav
448,192,136832,1,2,0:0:0:0:
64,192,137054,1,0,0:0:0:0:
320,192,137276,1,2,0:0:0:0:
448,192,137276,1,0,0:0:0:0:
448,192,137499,1,0,0:0:0:0:
192,192,137610,1,2,0:0:0:0:
64,192,137610,1,0,0:0:0:0:
448,192,137721,1,0,0:0:0:0:
320,192,137721,1,2,0:0:0:0:
64,192,137721,1,0,0:0:0:50:LR_Clap kick.wav
320,192,137943,1,0,0:0:0:0:
192,192,137943,1,2,0:0:0:0:
64,192,138165,1,2,0:0:0:0:
448,192,138165,1,0,0:0:0:0:
192,192,138499,1,0,0:0:0:0:
320,192,138610,1,2,0:0:0:0:
448,192,138610,1,0,0:0:0:0:
64,192,138610,1,0,0:0:0:50:LR_Clap kick.wav
448,192,138832,1,0,0:0:0:0:
192,192,139054,1,2,0:0:0:0:
64,192,139054,1,0,0:0:0:0:
64,192,139276,1,0,0:0:0:0:
320,192,139388,1,2,0:0:0:0:
448,192,139388,1,0,0:0:0:0:
64,192,139499,1,0,0:0:0:50:LR_Clap kick.wav
192,192,139499,1,0,0:0:0:0:
448,192,139499,1,2,0:0:0:0:
320,192,139721,1,2,0:0:0:0:
192,192,139721,1,0,0:0:0:0:
64,192,139943,1,2,0:0:0:0:
448,192,139943,1,0,0:0:0:0:
192,192,140276,1,0,0:0:0:0:
320,192,140388,1,2,0:0:0:0:
448,192,140388,1,0,0:0:0:0:
64,192,140388,1,0,0:0:0:50:LR_Clap kick.wav
448,192,140610,1,0,0:0:0:0:
192,192,140832,1,2,0:0:0:0:
64,192,140832,1,0,0:0:0:0:
64,192,141054,1,0,0:0:0:0:
320,192,141165,1,2,0:0:0:0:
448,192,141165,1,0,0:0:0:0:
64,192,141276,1,0,0:0:0:50:LR_Clap kick.wav
192,192,141276,1,0,0:0:0:0:
448,192,141276,1,2,0:0:0:0:
192,192,141499,1,0,0:0:0:0:
320,192,141499,1,2,0:0:0:0:
448,192,141721,1,0,0:0:0:60:LR3_BassDrop.wav
64,192,141721,1,0,0:0:0:0:
192,192,142054,1,0,0:0:0:0:
448,192,142388,1,0,0:0:0:0:
320,192,142610,128,0,143054:0:0:0:0:
64,192,143054,128,0,143499:0:0:0:0:
448,192,143499,128,0,145276:0:0:0:0:
320,192,143499,1,0,0:0:0:30:LR3_BassDrop.wav
192,192,143499,1,0,0:0:0:50:LR_Clap kick.wav
320,192,143721,1,0,0:0:0:0:
64,192,143943,1,0,0:0:0:0:
192,192,143943,1,0,0:0:0:50:LR_Clap kick.wav
320,192,144165,1,0,0:0:0:0:
64,192,144388,1,0,0:0:0:0:
192,192,144388,1,0,0:0:0:50:LR_Clap kick.wav
320,192,144610,1,0,0:0:0:0:
64,192,144832,1,0,0:0:0:0:
192,192,144832,1,0,0:0:0:50:LR_Clap kick.wav
320,192,145054,1,0,0:0:0:0:
192,192,145276,128,0,147054:0:0:0:0:
64,192,145276,1,0,0:0:0:50:LR_Clap kick.wav
320,192,145499,1,0,0:0:0:0:
320,192,145721,1,0,0:0:0:0:
448,192,145721,1,0,0:0:0:50:LR_Clap kick.wav
64,192,145943,1,0,0:0:0:0:
320,192,146165,1,0,0:0:0:0:
448,192,146165,1,0,0:0:0:50:LR_Clap kick.wav
64,192,146388,1,0,0:0:0:0:
320,192,146610,1,0,0:0:0:0:
448,192,146610,1,0,0:0:0:50:LR_Clap kick.wav
64,192,146832,1,0,0:0:0:0:
448,192,147054,128,0,148832:0:0:0:0:
320,192,147054,1,0,0:0:0:50:LR_Clap kick.wav
192,192,147276,1,0,0:0:0:0:
64,192,147499,1,0,0:0:0:0:
320,192,147499,1,0,0:0:0:50:LR_Clap kick.wav
192,192,147721,1,0,0:0:0:0:
64,192,147943,1,0,0:0:0:0:
320,192,147943,1,0,0:0:0:50:LR_Clap kick.wav
192,192,148165,1,0,0:0:0:0:
64,192,148388,1,0,0:0:0:0:
320,192,148388,1,0,0:0:0:50:LR_Clap kick.wav
192,192,148610,1,0,0:0:0:0:
64,192,148832,128,0,150165:0:0:0:0:
320,192,148832,1,0,0:0:0:50:LR_Clap kick.wav
320,192,149054,1,0,0:0:0:0:
192,192,149276,5,0,0:0:0:50:LR_Clap kick.wav
448,192,149276,1,0,0:0:0:0:
320,192,149499,1,0,0:0:0:0:
192,192,149721,1,0,0:0:0:50:LR_Clap kick.wav
448,192,149721,1,0,0:0:0:0:
320,192,149943,1,0,0:0:0:0:
448,192,150165,1,0,0:0:0:0:
192,192,150165,1,0,0:0:0:50:LR_Clap kick.wav
64,192,150388,5,0,0:0:0:40:LR_Snare Hit.wav
192,192,150443,1,0,0:0:0:40:LR_Snare Hit.wav
320,192,150499,1,0,0:0:0:40:LR_Snare Hit.wav
448,192,150554,1,0,0:0:0:40:LR_Snare Hit.wav
192,192,150610,1,0,0:0:0:40:LR_Clap kick.wav
64,192,150610,1,4,0:0:0:0:
192,192,150832,1,0,0:0:0:0:
448,192,151054,1,0,0:0:0:40:LR_Snare Hit.wav
320,192,151054,1,0,0:0:0:0:
64,192,151054,1,0,0:0:0:40:LR_Clap kick.wav
320,192,151276,1,0,0:0:0:0:
448,192,151499,1,0,0:0:0:40:LR_Snare Hit.wav
192,192,151499,1,4,0:0:0:0:
64,192,151499,1,0,0:0:0:40:LR_Clap kick.wav
320,192,151499,1,0,0:0:0:0:
192,192,151721,1,0,0:0:0:0:
448,192,151832,1,0,0:0:0:40:LR_Snare Hit.wav
320,192,151832,1,0,0:0:0:0:
192,192,151943,1,0,0:0:0:0:
64,192,151943,1,0,0:0:0:40:LR_Clap kick.wav
448,192,151943,1,0,0:0:0:40:LR_Snare Hit.wav
320,192,152165,1,0,0:0:0:0:
448,192,152165,1,0,0:0:0:40:LR_Snare Hit.wav
64,192,152165,1,0,0:0:0:0:
64,192,152388,1,0,0:0:0:40:LR_Clap kick.wav
320,192,152388,1,0,0:0:0:0:
192,192,152388,1,4,0:0:0:0:
448,192,152388,1,0,0:0:0:40:LR_Snare Hit.wav
192,192,152610,1,0,0:0:0:0:
448,192,152832,1,0,0:0:0:40:LR_Snare Hit.wav
320,192,152832,1,0,0:0:0:0:
64,192,152832,1,0,0:0:0:40:LR_Clap kick.wav
320,192,153054,1,0,0:0:0:40:LR_Snare Hit.wav
192,192,153054,1,0,0:0:0:0:
448,192,153276,1,0,0:0:0:40:LR_Snare Hit.wav
192,192,153276,1,4,0:0:0:0:
64,192,153276,1,0,0:0:0:40:LR_Clap kick.wav
320,192,153276,1,0,0:0:0:0:
64,192,153499,1,0,0:0:0:0:
448,192,153610,1,0,0:0:0:40:LR_Snare Hit.wav
320,192,153610,1,0,0:0:0:0:
192,192,153721,1,0,0:0:0:0:
64,192,153721,1,0,0:0:0:40:LR_Clap kick.wav
448,192,153721,1,0,0:0:0:40:LR_Snare Hit.wav
320,192,153943,1,0,0:0:0:40:LR_Snare Hit.wav
192,192,153943,1,0,0:0:0:0:
320,192,154165,1,0,0:0:0:40:LR_Snare Hit.wav
448,192,154165,1,0,0:0:0:40:LR_Clap kick.wav
192,192,154221,1,0,0:0:0:40:LR_Snare Hit.wav
448,192,154276,1,0,0:0:0:0:
64,192,154276,1,0,0:0:0:40:LR_Snare Hit.wav
64,192,154388,1,0,0:0:0:0:
192,192,154388,1,0,0:0:0:40:LR_Snare Hit.wav
320,192,154499,1,0,0:0:0:40:LR_Snare Hit.wav
448,192,154499,1,0,0:0:0:0:
192,192,154610,1,0,0:0:0:40:LR_Snare Hit.wav
64,192,154610,1,0,0:0:0:40:LR_Clap kick.wav
320,192,154665,1,0,0:0:0:40:LR_Snare Hit.wav
448,192,154721,1,0,0:0:0:40:LR_Snare Hit.wav
64,192,154721,1,0,0:0:0:0:
320,192,154832,1,0,0:0:0:40:LR_Snare Hit.wav
448,192,154832,1,0,0:0:0:0:
192,192,154943,1,0,0:0:0:40:LR_Snare Hit.wav
64,192,154943,1,0,0:0:0:0:
448,192,155054,1,0,0:0:0:40:LR_Snare Hit.wav
320,192,155110,1,0,0:0:0:40:LR_Snare Hit.wav
192,192,155165,1,0,0:0:0:40:LR_Snare Hit.wav
64,192,155221,1,0,0:0:0:40:LR_Snare Hit.wav
320,192,155276,1,0,0:0:0:40:LR_Snare Hit.wav
448,192,155332,1,0,0:0:0:40:LR_Snare Hit.wav
192,192,155388,1,0,0:0:0:40:LR_Snare Hit.wav
64,192,155443,1,0,0:0:0:40:LR_Snare Hit.wav
448,192,155499,1,0,0:0:0:40:LR_Snare Hit.wav
320,192,155554,1,0,0:0:0:40:LR_Snare Hit.wav
192,192,155610,1,0,0:0:0:40:LR_Snare Hit.wav
64,192,155665,1,0,0:0:0:40:LR_Snare Hit.wav
320,192,155721,1,0,0:0:0:40:LR_Snare Hit.wav
448,192,155776,1,0,0:0:0:40:LR_Snare Hit.wav
64,192,155832,1,0,0:0:0:40:LR_Snare Hit.wav
192,192,155888,1,0,0:0:0:40:LR_Snare Hit.wav
448,192,155943,128,0,157054:0:0:0:0:
320,192,155943,1,0,0:0:0:40:LR3_BassDrop.wav
64,192,156832,1,0,0:0:0:40:LR_Snare Hit.wav
192,192,157054,128,0,157276:0:0:0:40:LR_Snare Hit.wav
448,192,157165,1,0,0:0:0:0:
320,192,157165,1,0,0:0:0:40:LR_Snare Hit.wav
320,192,157276,128,0,157499:0:0:0:0:
448,192,157276,1,0,0:0:0:0:
64,192,157276,1,8,0:0:0:0:
448,192,157499,128,0,157721:0:0:0:0:
192,192,157499,1,0,0:0:0:40:LR_Snare Hit.wav
320,192,157721,1,2,0:0:0:0:
192,192,157721,1,4,0:0:0:0:
64,192,157721,128,0,157943:0:0:0:0:
320,192,157943,128,0,158165:0:0:0:30:LR3_HiHat Normal.wav
448,192,158165,1,0,0:0:0:0:
64,192,158165,1,8,0:0:0:0:
192,192,158165,128,0,158388:0:0:0:0:
448,192,158388,128,0,158610:0:0:0:30:LR3_HiHat Normal.wav
320,192,158610,1,2,0:0:0:0:
192,192,158610,128,0,158832:0:0:0:0:
448,192,158832,128,0,159054:0:0:0:30:LR3_HiHat Normal.wav
320,192,158943,1,0,0:0:0:0:
192,192,159054,1,8,0:0:0:0:
64,192,159054,128,0,159276:0:0:0:0:
192,192,159276,128,0,159499:0:0:0:30:LR3_HiHat Normal.wav
320,192,159499,1,2,0:0:0:0:
448,192,159499,128,0,159721:0:0:0:0:
320,192,159721,128,0,159943:0:0:0:30:LR3_HiHat Normal.wav
448,192,159943,1,0,0:0:0:0:
64,192,159943,1,8,0:0:0:0:
192,192,159943,128,0,160165:0:0:0:0:
64,192,160165,128,0,160388:0:0:0:30:LR3_HiHat Normal.wav
448,192,160388,1,0,0:0:0:0:
320,192,160388,1,2,0:0:0:0:
320,192,160610,1,0,0:0:0:30:LR3_HiHat Normal.wav
192,192,160721,1,2,0:0:0:0:
64,192,160721,1,0,0:0:0:0:
320,192,160832,1,8,0:0:0:0:
64,192,160832,1,0,0:0:0:0:
448,192,160832,128,0,161054:0:0:0:0:
192,192,161054,128,0,161276:0:0:0:30:LR3_HiHat Normal.wav
64,192,161276,1,2,0:0:0:0:
448,192,161276,128,0,161721:0:0:0:0:
192,192,161499,1,0,0:0:0:30:LR3_HiHat Normal.wav
320,192,161721,1,0,0:0:0:0:
192,192,161721,1,8,0:0:0:0:
64,192,161721,1,0,0:0:0:0:
64,192,161943,128,0,162388:0:0:0:30:LR3_HiHat Normal.wav
448,192,162165,1,2,0:0:0:0:
320,192,162165,1,0,0:0:0:0:
192,192,162388,1,0,0:0:0:30:LR3_HiHat Normal.wav
448,192,162499,1,0,0:0:0:0:
320,192,162499,1,2,0:0:0:0:
448,192,162610,1,0,0:0:0:0:
64,192,162610,1,8,0:0:0:0:
192,192,162610,128,0,162832:0:0:0:0:
320,192,162832,128,0,163054:0:0:0:30:LR3_HiHat Normal.wav
448,192,162832,1,2,0:0:0:0:
192,192,163054,1,2,0:0:0:0:
64,192,163054,1,0,0:0:0:0:
320,192,163276,1,0,0:0:0:30:LR3_HiHat Normal.wav
192,192,163499,1,8,0:0:0:0:
64,192,163499,1,0,0:0:0:0:
448,192,163499,128,0,163721:0:0:0:0:
320,192,163721,128,0,164165:0:0:0:30:LR3_HiHat Normal.wav
448,192,163943,1,0,0:0:0:0:
64,192,163943,1,2,0:0:0:0:
192,192,164165,128,0,164388:0:0:0:30:LR3_HiHat Normal.wav
320,192,164276,1,0,0:0:0:40:LR_Snare Hit.wav
64,192,164388,128,0,164610:0:0:0:0:
448,192,164388,1,8,0:0:0:0:
448,192,164610,1,0,0:0:0:40:LR_Snare Hit.wav
320,192,164665,1,0,0:0:0:40:LR_Snare Hit.wav
64,192,164721,1,0,0:0:0:40:LR_Snare Hit.wav
192,192,164776,1,0,0:0:0:40:LR_Snare Hit.wav
320,192,164832,1,2,0:0:0:0:
448,192,164832,128,0,165054:0:0:0:0:
192,192,165054,1,0,0:0:0:30:LR3_HiHat Normal.wav
64,192,165276,1,0,0:0:0:0:
448,192,165276,1,8,0:0:0:0:
320,192,165276,128,0,165499:0:0:0:0:
64,192,165499,128,0,165721:0:0:0:30:LR3_HiHat Normal.wav
192,192,165721,1,2,0:0:0:0:
320,192,165721,128,0,165943:0:0:0:0:
64,192,165943,128,0,166165:0:0:0:30:LR3_HiHat Normal.wav
192,192,166054,1,0,0:0:0:0:
320,192,166165,1,8,0:0:0:0:
448,192,166165,128,0,166388:0:0:0:0:
320,192,166388,128,0,166610:0:0:0:30:LR3_HiHat Normal.wav
192,192,166610,1,2,0:0:0:0:
64,192,166610,128,0,166832:0:0:0:0:
192,192,166832,128,0,167054:0:0:0:30:LR3_HiHat Normal.wav
320,192,167054,128,0,167276:0:0:0:0:
64,192,167054,1,0,0:0:0:0:
448,192,167054,1,8,0:0:0:0:
448,192,167276,128,0,167499:0:0:0:30:LR3_HiHat Normal.wav
64,192,167499,1,0,0:0:0:0:
192,192,167499,1,2,0:0:0:0:
64,192,167721,1,0,0:0:0:30:LR3_HiHat Normal.wav
320,192,167832,1,2,0:0:0:0:
448,192,167832,1,0,0:0:0:0:
192,192,167943,1,0,0:0:0:0:
448,192,167943,1,8,0:0:0:0:
64,192,167943,128,0,168165:0:0:0:0:
320,192,168165,128,0,168388:0:0:0:30:LR3_HiHat Normal.wav
448,192,168388,1,2,0:0:0:0:
64,192,168388,128,0,168832:0:0:0:0:
192,192,168610,1,0,0:0:0:30:LR3_HiHat Normal.wav
448,192,168832,1,0,0:0:0:0:
192,192,168832,1,0,0:0:0:0:
320,192,168832,1,8,0:0:0:0:
448,192,169054,128,0,169499:0:0:0:30:LR3_HiHat Normal.wav
64,192,169276,1,0,0:0:0:0:
192,192,169276,1,2,0:0:0:0:
320,192,169499,1,0,0:0:0:30:LR3_HiHat Normal.wav
64,192,169610,1,0,0:0:0:0:
192,192,169610,1,2,0:0:0:0:
64,192,169721,1,8,0:0:0:0:
448,192,169721,1,0,0:0:0:0:
320,192,169721,128,0,169943:0:0:0:0:
192,192,169943,128,0,170165:0:0:0:30:LR3_HiHat Normal.wav
64,192,169943,1,0,0:0:0:0:
320,192,170165,1,0,0:0:0:40:LR_Snare Hit.wav
448,192,170165,128,0,171499:0:0:0:0:
64,192,170276,1,0,0:0:0:40:LR_Snare Hit.wav
192,192,170276,1,0,0:0:0:0:
192,192,170499,1,0,0:0:0:40:LR_Snare Hit.wav
320,192,170499,1,0,0:0:0:0:
64,192,170610,1,0,0:0:0:40:LR_Snare Hit.wav
320,192,170610,1,0,0:0:0:0:
64,192,170832,1,0,0:0:0:0:
192,192,170832,1,0,0:0:0:40:LR_Snare Hit.wav
320,192,171054,1,0,0:0:0:40:LR_Snare Hit.wav
192,192,171128,1,0,0:0:0:40:LR_Snare Hit.wav
64,192,171202,1,0,0:0:0:40:LR_Snare Hit.wav
320,192,171276,1,0,0:0:0:40:LR_Snare Hit.wav
64,192,171351,1,0,0:0:0:40:LR_Snare Hit.wav
192,192,171425,1,0,0:0:0:40:LR_Snare Hit.wav
320,192,171499,1,0,0:0:0:40:LR_Snare Hit.wav
64,192,171499,128,0,171721:0:0:0:0:
448,192,171721,1,0,0:0:0:40:LR_Snare Hit.wav
320,192,171776,1,0,0:0:0:40:LR_Snare Hit.wav
64,192,171832,1,0,0:0:0:40:LR_Snare Hit.wav
192,192,171888,1,0,0:0:0:40:LR_Snare Hit.wav
448,192,171943,1,2,0:0:0:0:
320,192,171943,1,4,0:0:0:0:
64,192,171943,1,0,0:0:0:0:
192,192,172165,1,0,0:0:0:30:LR3_HiHat Normal.wav
320,192,172276,1,0,0:0:0:0:
64,192,172388,1,0,0:0:0:0:
192,192,172388,1,8,0:0:0:0:
448,192,172388,1,0,0:0:0:0:
320,192,172610,1,0,0:0:0:30:LR3_HiHat Normal.wav
192,192,172832,1,2,0:0:0:0:
64,192,172832,1,0,0:0:0:0:
448,192,172943,1,0,0:0:0:0:
320,192,173054,1,0,0:0:0:30:LR3_HiHat Normal.wav
192,192,173165,1,2,0:0:0:0:
64,192,173165,1,0,0:0:0:0:
448,192,173276,1,8,0:0:0:0:
192,192,173276,1,0,0:0:0:0:
64,192,173276,1,0,0:0:0:0:
192,192,173499,1,0,0:0:0:30:LR3_HiHat Normal.wav
320,192,173499,1,2,0:0:0:0:
448,192,173721,1,2,0:0:0:0:
64,192,173721,1,0,0:0:0:0:
192,192,173943,1,0,0:0:0:30:LR3_HiHat Normal.wav
320,192,174054,1,0,0:0:0:0:
64,192,174165,1,0,0:0:0:0:
192,192,174165,1,0,0:0:0:0:
448,192,174165,1,8,0:0:0:0:
192,192,174388,1,0,0:0:0:30:LR3_HiHat Normal.wav
320,192,174610,1,2,0:0:0:0:
448,192,174610,1,0,0:0:0:0:
64,192,174721,1,0,0:0:0:0:
192,192,174832,1,0,0:0:0:30:LR3_HiHat Normal.wav
320,192,174943,1,2,0:0:0:0:
448,192,174943,1,0,0:0:0:0:
64,192,175054,1,0,0:0:0:0:
320,192,175054,1,0,0:0:0:0:
448,192,175054,1,8,0:0:0:0:
192,192,175276,1,0,0:0:0:30:LR3_HiHat Normal.wav
320,192,175276,1,2,0:0:0:0:
64,192,175499,1,0,0:0:0:0:
448,192,175499,1,2,0:0:0:0:
320,192,175721,1,0,0:0:0:30:LR3_HiHat Normal.wav
192,192,175832,1,0,0:0:0:0:
320,192,175943,1,0,0:0:0:0:
64,192,175943,1,0,0:0:0:0:
448,192,175943,1,8,0:0:0:0:
192,192,176165,1,0,0:0:0:30:LR3_HiHat Normal.wav
448,192,176388,1,0,0:0:0:0:
320,192,176388,1,2,0:0:0:0:
64,192,176499,1,0,0:0:0:0:
448,192,176610,1,0,0:0:0:30:LR3_HiHat Normal.wav
192,192,176721,1,2,0:0:0:0:
320,192,176721,1,0,0:0:0:0:
448,192,176832,1,0,0:0:0:0:
64,192,176832,1,0,0:0:0:0:
320,192,176832,1,8,0:0:0:0:
64,192,177054,1,2,0:0:0:0:
192,192,177054,1,0,0:0:0:30:LR3_HiHat Normal.wav
448,192,177276,1,0,0:0:0:0:
320,192,177276,1,2,0:0:0:0:
64,192,177499,1,0,0:0:0:30:LR3_HiHat Normal.wav
192,192,177610,1,0,0:0:0:0:
448,192,177721,1,8,0:0:0:0:
320,192,177721,1,0,0:0:0:0:
64,192,177721,1,0,0:0:0:0:
320,192,177943,1,0,0:0:0:30:LR3_HiHat Normal.wav
448,192,178165,1,0,0:0:0:0:
64,192,178165,1,2,0:0:0:0:
320,192,178276,1,0,0:0:0:0:
64,192,178388,1,0,0:0:0:30:LR3_HiHat Normal.wav
448,192,178499,1,0,0:0:0:0:
320,192,178499,1,2,0:0:0:0:
448,192,178610,1,0,0:0:0:0:
192,192,178610,1,8,0:0:0:0:
64,192,178610,1,0,0:0:0:0:
448,192,178832,1,0,0:0:0:40:LR_Snare Hit.wav
320,192,178888,1,0,0:0:0:40:LR_Snare Hit.wav
64,192,178943,1,0,0:0:0:40:LR_Snare Hit.wav
192,192,178999,1,0,0:0:0:40:LR_Snare Hit.wav
448,192,179054,1,2,0:0:0:0:
64,192,179054,1,0,0:0:0:0:
320,192,179054,1,8,0:0:0:0:
192,192,179276,1,0,0:0:0:30:LR3_HiHat Normal.wav
320,192,179388,1,0,0:0:0:0:
192,192,179499,1,0,0:0:0:0:
448,192,179499,1,8,0:0:0:0:
64,192,179499,1,0,0:0:0:0:
320,192,179721,1,0,0:0:0:30:LR3_HiHat Normal.wav
64,192,179943,1,0,0:0:0:0:
448,192,179943,1,2,0:0:0:0:
192,192,179943,1,8,0:0:0:0:
320,192,180054,1,0,0:0:0:0:
64,192,180165,1,0,0:0:0:30:LR3_HiHat Normal.wav
192,192,180276,1,0,0:0:0:0:
320,192,180276,1,2,0:0:0:0:
64,192,180388,1,0,0:0:0:0:
448,192,180388,1,0,0:0:0:0:
192,192,180388,1,8,0:0:0:0:
320,192,180610,1,2,0:0:0:0:
448,192,180610,1,0,0:0:0:30:LR3_HiHat Normal.wav
320,192,180832,1,0,0:0:0:0:
64,192,180832,1,2,0:0:0:0:
192,192,180832,1,8,0:0:0:0:
448,192,181054,1,0,0:0:0:30:LR3_HiHat Normal.wav
192,192,181165,1,0,0:0:0:0:
64,192,181276,1,0,0:0:0:0:
320,192,181276,1,8,0:0:0:0:
448,192,181276,1,2,0:0:0:0:
192,192,181499,1,0,0:0:0:30:LR3_HiHat Normal.wav
64,192,181721,1,0,0:0:0:0:
448,192,181721,1,8,0:0:0:0:
320,192,181721,1,2,0:0:0:0:
192,192,181832,1,0,0:0:0:0:
448,192,181943,1,0,0:0:0:30:LR3_HiHat Normal.wav
64,192,182054,1,0,0:0:0:0:
192,192,182054,1,2,0:0:0:0:
64,192,182165,1,0,0:0:0:0:
320,192,182165,1,8,0:0:0:0:
448,192,182165,1,2,0:0:0:0:
320,192,182388,1,2,0:0:0:0:
192,192,182388,1,0,0:0:0:30:LR3_HiHat Normal.wav
64,192,182610,1,2,0:0:0:0:
192,192,182610,1,0,0:0:0:40:LR_Snare Hit.wav
320,192,182665,1,0,0:0:0:40:LR_Snare Hit.wav
64,192,182721,1,0,0:0:0:0:
448,192,182721,1,0,0:0:0:40:LR_Snare Hit.wav
320,192,182832,1,0,0:0:0:40:LR_Snare Hit.wav
448,192,182832,1,0,0:0:0:0:
192,192,182943,1,0,0:0:0:40:LR_Snare Hit.wav
64,192,182943,1,0,0:0:0:0:
448,192,183054,1,8,0:0:0:0:
320,192,183054,1,0,0:0:0:40:LR_Snare Hit.wav
192,192,183110,1,0,0:0:0:40:LR_Snare Hit.wav
448,192,183165,1,0,0:0:0:0:
64,192,183165,1,0,0:0:0:40:LR_Snare Hit.wav
192,192,183276,1,0,0:0:0:40:LR_Snare Hit.wav
64,192,183276,1,0,0:0:0:0:
448,192,183388,1,0,0:0:0:0:
320,192,183388,1,0,0:0:0:40:LR_Snare Hit.wav
64,192,183499,1,2,0:0:0:0:
192,192,183499,1,0,0:0:0:40:LR_Snare Hit.wav
320,192,183554,1,0,0:0:0:40:LR_Snare Hit.wav
448,192,183610,1,0,0:0:0:40:LR_Snare Hit.wav
64,192,183610,1,0,0:0:0:0:
448,192,183721,1,0,0:0:0:0:
320,192,183721,1,0,0:0:0:40:LR_Snare Hit.wav
192,192,183832,1,0,0:0:0:40:LR_Snare Hit.wav
64,192,183832,1,0,0:0:0:0:
448,192,183943,1,8,0:0:0:0:
320,192,183943,1,0,0:0:0:40:LR_Snare Hit.wav
64,192,184054,1,0,0:0:0:0:
192,192,184054,1,0,0:0:0:40:LR_Snare Hit.wav
448,192,184165,1,0,0:0:0:0:
320,192,184165,1,0,0:0:0:40:LR_Snare Hit.wav
64,192,184276,1,0,0:0:0:0:
192,192,184276,1,0,0:0:0:40:LR_Snare Hit.wav
448,192,184388,1,0,0:0:0:40:LR_Snare Hit.wav
320,192,184443,1,0,0:0:0:40:LR_Snare Hit.wav
192,192,184499,1,0,0:0:0:40:LR_Snare Hit.wav
64,192,184554,1,0,0:0:0:40:LR_Snare Hit.wav
320,192,184610,1,0,0:0:0:40:LR_Snare Hit.wav
448,192,184665,1,0,0:0:0:40:LR_Snare Hit.wav
64,192,184721,1,0,0:0:0:40:LR_Snare Hit.wav
192,192,184776,1,0,0:0:0:40:LR_Snare Hit.wav
320,192,184832,1,0,0:0:0:40:LR_Snare Hit.wav
448,192,184888,1,0,0:0:0:40:LR_Snare Hit.wav
192,192,184943,1,0,0:0:0:40:LR_Snare Hit.wav
64,192,184999,1,0,0:0:0:40:LR_Snare Hit.wav
448,192,185054,1,0,0:0:0:40:LR_Snare Hit.wav
320,192,185110,1,0,0:0:0:40:LR_Snare Hit.wav
192,192,185165,1,0,0:0:0:40:LR_Snare Hit.wav
64,192,185221,1,0,0:0:0:40:LR_Snare Hit.wav
320,192,185276,1,0,0:0:0:40:LR_Snare Hit.wav
448,192,185332,1,0,0:0:0:40:LR_Snare Hit.wav
64,192,185388,1,0,0:0:0:40:LR_Snare Hit.wav
192,192,185443,1,0,0:0:0:40:LR_Snare Hit.wav
448,192,185499,1,0,0:0:0:40:LR_Snare Hit.wav
320,192,185554,1,0,0:0:0:40:LR_Snare Hit.wav
192,192,185610,1,0,0:0:0:40:LR_Snare Hit.wav
64,192,185665,1,0,0:0:0:40:LR_Snare Hit.wav
448,192,185721,1,0,0:0:0:40:LR_Clap DS.wav
320,192,185721,1,0,0:0:0:40:LR_Snare Hit.wav
64,192,185943,1,0,0:0:0:40:LR_Snare Hit.wav
192,192,185999,1,0,0:0:0:40:LR_Snare Hit.wav
448,192,186054,1,0,0:0:0:40:LR_Snare Hit.wav
320,192,186110,1,0,0:0:0:40:LR_Snare Hit.wav
448,192,186165,1,2,0:0:0:0:
64,192,186165,1,0,0:0:0:0:
192,192,186165,1,0,0:0:0:50:LR3_BassDrop.wav
320,192,186499,1,0,0:0:0:0:
192,192,186832,1,0,0:0:0:0:
320,192,187054,1,8,0:0:0:0:
448,192,187054,1,0,0:0:0:0:
64,192,187054,128,0,187202:0:0:0:0:
192,192,187202,128,0,187351:0:0:0:0:
320,192,187351,128,0,187499:0:0:0:0:
448,192,187499,128,0,187647:0:0:0:0:
64,192,187647,128,0,187795:0:0:0:0:
192,192,187795,128,0,187943:0:0:0:0:
448,192,187943,128,0,188276:0:0:0:0:
320,192,187943,128,2,188276:0:0:0:0:
320,192,188388,128,0,188721:0:0:0:0:
448,192,188388,128,0,188721:0:0:0:0:
448,192,188832,1,0,0:0:0:0:
320,192,188832,1,8,0:0:0:0:
64,192,188832,128,0,188980:0:0:0:0:
192,192,188980,128,0,189128:0:0:0:0:
448,192,189128,128,0,189276:0:0:0:0:
64,192,189276,128,0,189388:0:0:0:0:
448,192,189388,128,0,189499:0:0:0:0:
64,192,189499,128,0,189610:0:0:0:0:
448,192,189610,128,0,189721:0:0:0:0:
64,192,189721,1,0,0:0:0:0:
192,192,189721,1,0,0:0:0:40:LR3_BassDrop.wav
448,192,190054,1,0,0:0:0:0:
320,192,190388,1,0,0:0:0:0:
448,192,190610,1,8,0:0:0:0:
64,192,190610,128,0,190943:0:0:0:0:
192,192,190610,128,0,190943:0:0:0:0:
192,192,191054,128,0,191388:0:0:0:0:
64,192,191054,128,0,191388:0:0:0:0:
320,192,191499,128,0,191832:0:0:0:40:LR3_BassDrop.wav
448,192,191499,128,0,191832:0:0:0:0:
192,192,191832,1,0,0:0:0:0:
64,192,191943,128,0,192054:0:0:0:0:
64,192,192165,128,0,192276:0:0:0:0:
320,192,192388,1,8,0:0:0:0:
448,192,192388,1,0,0:0:0:0:
64,192,192388,1,0,0:0:0:0:
320,192,192499,1,8,0:0:0:0:
448,192,192499,1,0,0:0:0:0:
64,192,192610,1,0,0:0:0:0:
192,192,192610,1,2,0:0:0:0:
64,192,192832,1,0,0:0:0:0:
320,192,192832,1,8,0:0:0:0:
448,192,192832,1,0,0:0:0:0:
192,192,193054,1,2,0:0:0:0:
320,192,193054,1,0,0:0:0:0:
64,192,193276,1,4,0:0:0:0:
192,192,193276,1,0,0:0:0:40:LR3_BassDrop.wav
448,192,193276,1,2,0:0:0:0:
192,192,193610,1,0,0:0:0:0:
64,192,193721,1,0,0:0:0:0:
448,192,193721,1,0,0:0:0:0:
320,192,193721,1,8,0:0:0:0:
320,192,193943,1,0,0:0:0:0:
192,192,194165,1,8,0:0:0:0:
448,192,194165,128,0,194314:0:0:0:0:
64,192,194165,1,0,0:0:0:40:LR_Clap DS.wav
320,192,194314,128,0,194462:0:0:0:0:
192,192,194462,128,0,194610:0:0:0:0:
64,192,194610,128,0,194758:0:0:0:0:
448,192,194610,1,0,0:0:0:0:
320,192,194610,1,8,0:0:0:0:
192,192,194758,128,0,194906:0:0:0:0:
320,192,194906,128,0,195054:0:0:0:0:
64,192,195054,128,0,195388:0:0:0:0:
192,192,195054,128,0,195388:0:0:0:0:
448,192,195054,1,2,0:0:0:0:
448,192,195499,1,8,0:0:0:0:
64,192,195499,128,0,195832:0:0:0:0:
192,192,195499,128,0,195832:0:0:0:0:
448,192,195943,128,0,196091:0:0:0:0:
64,192,195943,1,0,0:0:0:40:LR_Clap DS.wav
192,192,195943,1,8,0:0:0:0:
64,192,196091,128,0,196239:0:0:0:0:
320,192,196239,128,0,196388:0:0:0:0:
448,192,196388,128,0,196499:0:0:0:0:
64,192,196388,1,0,0:0:0:0:
192,192,196388,1,8,0:0:0:0:
64,192,196499,128,0,196610:0:0:0:0:
448,192,196610,128,0,196721:0:0:0:0:
192,192,196721,128,0,196832:0:0:0:0:
448,192,196832,1,0,0:0:0:40:LR3_BassDrop.wav
64,192,196832,1,0,0:0:0:40:LR_Snare Hit.wav
320,192,196943,1,0,0:0:0:0:
192,192,196943,1,0,0:0:0:40:LR_Snare Hit.wav
64,192,197054,1,0,0:0:0:40:LR_Snare Hit.wav
448,192,197054,1,0,0:0:0:0:
320,192,197165,1,0,0:0:0:0:
192,192,197165,1,0,0:0:0:40:LR_Snare Hit.wav
64,192,197276,1,0,0:0:0:40:LR_Snare Hit.wav
448,192,197276,1,0,0:0:0:0:
320,192,197388,1,0,0:0:0:0:
192,192,197388,1,0,0:0:0:40:LR_Snare Hit.wav
64,192,197499,1,0,0:0:0:40:LR_Snare Hit.wav
448,192,197499,1,0,0:0:0:0:
192,192,197610,1,0,0:0:0:40:LR_Snare Hit.wav
320,192,197721,1,0,0:0:0:40:LR_Snare Hit.wav
448,192,197721,1,8,0:0:0:0:
64,192,197721,1,0,0:0:0:0:
192,192,197832,1,0,0:0:0:40:LR_Snare Hit.wav
320,192,197943,1,0,0:0:0:40:LR_Snare Hit.wav
448,192,197943,1,0,0:0:0:0:
64,192,198054,1,0,0:0:0:0:
192,192,198054,1,0,0:0:0:40:LR_Snare Hit.wav
320,192,198165,1,0,0:0:0:40:LR_Snare Hit.wav
448,192,198165,1,0,0:0:0:0:
64,192,198276,1,0,0:0:0:0:
192,192,198276,1,0,0:0:0:40:LR_Snare Hit.wav
320,192,198388,1,0,0:0:0:40:LR_Snare Hit.wav
448,192,198388,1,0,0:0:0:0:
64,192,198499,1,0,0:0:0:0:
192,192,198499,1,0,0:0:0:40:LR_Snare Hit.wav
448,192,198610,1,0,0:0:0:40:LR_Snare Hit.wav
320,192,198665,1,0,0:0:0:40:LR_Snare Hit.wav
192,192,198721,1,0,0:0:0:40:LR_Snare Hit.wav
64,192,198776,1,0,0:0:0:40:LR_Snare Hit.wav
320,192,198832,1,0,0:0:0:40:LR_Snare Hit.wav
448,192,198888,1,0,0:0:0:40:LR_Snare Hit.wav
64,192,198943,1,0,0:0:0:40:LR_Snare Hit.wav
192,192,198999,1,0,0:0:0:40:LR_Snare Hit.wav
320,192,199054,1,0,0:0:0:40:LR_Snare Hit.wav
448,192,199110,1,0,0:0:0:40:LR_Snare Hit.wav
192,192,199165,1,0,0:0:0:40:LR_Snare Hit.wav
64,192,199221,1,0,0:0:0:40:LR_Snare Hit.wav
320,192,199276,1,0,0:0:0:40:LR_Snare Hit.wav
448,192,199332,1,0,0:0:0:40:LR_Snare Hit.wav
64,192,199388,1,0,0:0:0:40:LR_Snare Hit.wav
192,192,199443,1,0,0:0:0:40:LR_Snare Hit.wav
320,192,199499,1,0,0:0:0:40:LR_Snare Hit.wav
448,192,199499,1,8,0:0:0:0:
192,192,199554,1,0,0:0:0:40:LR_Snare Hit.wav
64,192,199610,1,0,0:0:0:40:LR_Snare Hit.wav
448,192,199665,1,0,0:0:0:40:LR_Snare Hit.wav
320,192,199721,1,0,0:0:0:40:LR_Snare Hit.wav
192,192,199776,1,0,0:0:0:40:LR_Snare Hit.wav
64,192,199832,1,0,0:0:0:40:LR_Snare Hit.wav
448,192,199888,1,0,0:0:0:40:LR_Snare Hit.wav
192,192,199943,1,0,0:0:0:40:LR_Snare Hit.wav
320,192,199943,1,8,0:0:0:0:
64,192,199999,1,0,0:0:0:40:LR_Snare Hit.wav
448,192,200054,1,0,0:0:0:40:LR_Snare Hit.wav
320,192,200110,1,0,0:0:0:40:LR_Snare Hit.wav
192,192,200165,1,0,0:0:0:40:LR_Snare Hit.wav
64,192,200221,1,0,0:0:0:40:LR_Snare Hit.wav
448,192,200276,1,0,0:0:0:40:LR_Snare Hit.wav
320,192,200332,1,0,0:0:0:40:LR_Snare Hit.wav
192,192,200388,1,0,0:0:0:40:LR3_BassDrop.wav
64,192,200388,128,0,201276:0:0:0:0:
448,192,201276,1,0,0:0:0:40:LR_Snare Hit.wav
320,192,201276,1,0,0:0:0:0:
192,192,201499,1,0,0:0:0:0:
448,192,201610,1,0,0:0:0:0:
320,192,201610,1,2,0:0:0:0:
64,192,201721,1,0,0:0:0:0:
192,192,201721,1,8,0:0:0:0:
448,192,201721,1,0,0:0:0:0:
64,192,201943,1,0,0:0:0:40:LR_Snare Hit.wav
192,192,201999,1,0,0:0:0:40:LR_Snare Hit.wav
448,192,202054,1,0,0:0:0:40:LR_Snare Hit.wav
320,192,202110,1,0,0:0:0:40:LR_Snare Hit.wav
192,192,202165,1,0,0:0:0:40:LR3_BassDrop.wav
448,192,202165,128,0,203943:0:0:0:0:
64,192,202165,128,0,202388:0:0:0:0:
320,192,202388,128,0,202610:0:0:0:0:
64,192,202610,128,0,202832:0:0:0:0:
192,192,202832,128,0,203054:0:0:0:0:
320,192,203054,128,0,203276:0:0:0:0:
64,192,203276,128,0,203499:0:0:0:0:
320,192,203499,128,0,203721:0:0:0:0:
192,192,203721,128,0,203943:0:0:0:0:
64,192,203943,128,0,205721:0:0:0:0:
320,192,203943,128,0,204165:0:0:0:0:
448,192,204165,128,0,204388:0:0:0:0:
192,192,204388,128,0,204610:0:0:0:0:
320,192,204610,128,0,204832:0:0:0:0:
448,192,204832,128,0,205054:0:0:0:0:
192,192,205054,128,0,205276:0:0:0:0:
320,192,205276,128,0,205499:0:0:0:0:
192,192,205499,128,0,205721:0:0:0:0:
320,192,205721,128,0,207499:0:0:0:0:
448,192,205721,128,0,205943:0:0:0:0:
64,192,205943,128,0,206165:0:0:0:0:
192,192,206165,128,0,206388:0:0:0:0:
448,192,206388,128,0,206610:0:0:0:0:
64,192,206610,128,0,206832:0:0:0:0:
192,192,206832,128,0,207054:0:0:0:0:
64,192,207054,128,0,207276:0:0:0:0:
448,192,207276,128,0,207499:0:0:0:0:
64,192,207499,128,0,209276:0:0:0:0:
192,192,207499,128,0,207721:0:0:0:0:
448,192,207721,128,0,207943:0:0:0:0:
320,192,207943,128,0,208165:0:0:0:0:
192,192,208165,128,0,208388:0:0:0:0:
320,192,208388,128,0,208610:0:0:0:0:
448,192,208610,128,0,208832:0:0:0:0:
192,192,208832,128,0,209054:0:0:0:0:
320,192,209054,128,0,209276:0:0:0:0:
448,192,209276,128,0,211054:0:0:0:0:
192,192,209276,128,0,209499:0:0:0:0:
64,192,209499,128,0,209721:0:0:0:0:
192,192,209721,128,0,209943:0:0:0:0:
64,192,209943,128,0,210165:0:0:0:0:
192,192,210165,128,0,210388:0:0:0:0:
320,192,210388,128,0,210610:0:0:0:0:
64,192,210610,128,0,210832:0:0:0:0:
320,192,210832,128,0,211054:0:0:0:0:
192,192,211054,128,0,212832:0:0:0:0:
64,192,211054,128,0,211276:0:0:0:0:
448,192,211276,128,0,211499:0:0:0:0:
320,192,211499,128,0,211721:0:0:0:0:
64,192,211721,128,0,211943:0:0:0:0:
448,192,211943,128,0,212165:0:0:0:0:
320,192,212165,128,0,212388:0:0:0:0:
64,192,212388,128,0,212610:0:0:0:0:
320,192,212610,128,0,212832:0:0:0:0:
448,192,212832,128,0,214610:0:0:0:0:
64,192,212832,128,0,213054:0:0:0:0:
192,192,213054,128,0,213276:0:0:0:0:
320,192,213276,128,0,213499:0:0:0:0:
64,192,213499,128,0,213721:0:0:0:0:
320,192,213721,128,0,213943:0:0:0:0:
192,192,213943,128,0,214165:0:0:0:0:
64,192,214165,128,0,214388:0:0:0:0:
320,192,214388,128,0,214610:0:0:0:0:
64,192,214610,128,0,216388:0:0:0:0:
192,192,214610,128,0,214832:0:0:0:0:
448,192,214832,128,0,215054:0:0:0:0:
192,192,215054,128,0,215276:0:0:0:0:
320,192,215276,128,0,215499:0:0:0:0:
448,192,215499,128,0,215721:0:0:0:0:
320,192,215721,128,0,215943:0:0:0:0:
192,192,215943,128,0,216165:0:0:0:0:
448,192,216165,128,0,216388:0:0:0:0:
320,192,216388,1,0,0:0:0:40:LR3_BassDrop.wav
192,192,216388,128,0,216610:0:0:0:50:LR_Clap kick.wav
448,192,216610,128,0,216832:0:0:0:0:
64,192,216832,128,0,217054:0:0:0:0:
320,192,216832,1,0,0:0:0:50:LR_Clap kick.wav
192,192,217054,128,0,217276:0:0:0:0:
448,192,217276,128,0,217499:0:0:0:0:
64,192,217276,1,0,0:0:0:50:LR_Clap kick.wav
64,192,217499,128,0,217721:0:0:0:0:
192,192,217721,128,0,217943:0:0:0:0:
320,192,217721,1,0,0:0:0:50:LR_Clap kick.wav
448,192,217943,128,0,218165:0:0:0:0:
64,192,218165,128,0,218388:0:0:0:0:
192,192,218165,1,0,0:0:0:50:LR_Clap kick.wav
320,192,218388,128,0,218610:0:0:0:0:
192,192,218610,128,0,218832:0:0:0:0:
448,192,218610,1,0,0:0:0:50:LR_Clap kick.wav
64,192,218832,128,0,219054:0:0:0:0:
320,192,219054,1,0,0:0:0:50:LR_Clap kick.wav
448,192,219054,1,0,0:0:0:0:
448,192,219276,128,0,219499:0:0:0:0:
192,192,219499,128,0,219721:0:0:0:0:
64,192,219499,1,0,0:0:0:50:LR_Clap kick.wav
320,192,219721,128,0,219943:0:0:0:0:
64,192,219943,128,0,220388:0:0:0:0:
448,192,219943,1,0,0:0:0:50:LR_Clap kick.wav
320,192,220388,1,0,0:0:0:50:LR_Clap kick.wav
448,192,220388,1,0,0:0:0:0:
448,192,220610,128,0,221054:0:0:0:0:
64,192,220832,1,0,0:0:0:0:
192,192,220832,1,0,0:0:0:50:LR_Clap kick.wav
320,192,221054,128,0,221276:0:0:0:0:
64,192,221276,128,0,221499:0:0:0:0:
192,192,221276,1,0,0:0:0:50:LR_Clap kick.wav
192,192,221499,128,0,221721:0:0:0:0:
64,192,221721,1,0,0:0:0:0:
448,192,221721,1,0,0:0:0:50:LR_Clap kick.wav
320,192,221943,128,0,222165:0:0:0:0:
64,192,222165,128,0,222388:0:0:0:0:
192,192,222165,1,0,0:0:0:50:LR_Clap kick.wav
320,192,222388,128,0,223054:0:0:0:0:
64,192,222610,1,0,0:0:0:0:
448,192,222610,1,0,0:0:0:50:LR_Clap kick.wav
192,192,222832,128,0,223054:0:0:0:0:
64,192,223054,128,0,223276:0:0:0:0:
448,192,223054,1,0,0:0:0:50:LR_Clap kick.wav
448,192,223276,1,0,0:0:0:40:LR_Snare Hit.wav
320,192,223332,1,0,0:0:0:40:LR_Snare Hit.wav
192,192,223388,1,0,0:0:0:40:LR_Snare Hit.wav
64,192,223443,1,0,0:0:0:40:LR_Snare Hit.wav
448,192,223499,1,0,0:0:0:40:LR_Clap kick.wav
320,192,223499,1,4,0:0:0:0:
320,192,223721,1,0,0:0:0:0:
448,192,223943,1,0,0:0:0:40:LR_Clap kick.wav
64,192,223943,1,0,0:0:0:40:LR_Snare Hit.wav
192,192,223943,1,0,0:0:0:0:
192,192,224165,1,0,0:0:0:0:
192,192,224388,1,0,0:0:0:0:
448,192,224388,1,0,0:0:0:40:LR_Clap kick.wav
64,192,224388,1,0,0:0:0:40:LR_Snare Hit.wav
320,192,224388,1,4,0:0:0:0:
320,192,224610,1,0,0:0:0:0:
64,192,224721,1,0,0:0:0:40:LR_Snare Hit.wav
192,192,224721,1,0,0:0:0:0:
448,192,224832,1,0,0:0:0:40:LR_Clap kick.wav
320,192,224832,1,0,0:0:0:0:
64,192,224832,1,0,0:0:0:40:LR_Snare Hit.wav
448,192,225054,1,0,0:0:0:0:
192,192,225054,1,0,0:0:0:0:
64,192,225054,1,0,0:0:0:40:LR_Snare Hit.wav
64,192,225276,1,0,0:0:0:40:LR_Snare Hit.wav
320,192,225276,1,4,0:0:0:0:
448,192,225276,1,0,0:0:0:40:LR_Clap kick.wav
192,192,225276,1,0,0:0:0:0:
320,192,225499,1,0,0:0:0:0:
192,192,225721,1,0,0:0:0:0:
448,192,225721,1,0,0:0:0:40:LR_Clap kick.wav
64,192,225721,1,0,0:0:0:40:LR_Snare Hit.wav
192,192,225943,1,0,0:0:0:40:LR_Snare Hit.wav
320,192,225943,1,0,0:0:0:0:
192,192,226165,1,0,0:0:0:0:
64,192,226165,1,0,0:0:0:40:LR_Snare Hit.wav
320,192,226165,1,4,0:0:0:0:
448,192,226165,1,0,0:0:0:40:LR_Clap kick.wav
448,192,226388,1,0,0:0:0:0:
192,192,226499,1,0,0:0:0:0:
64,192,226499,1,0,0:0:0:40:LR_Snare Hit.wav
64,192,226610,1,0,0:0:0:40:LR_Snare Hit.wav
320,192,226610,1,0,0:0:0:0:
448,192,226610,1,0,0:0:0:40:LR_Clap kick.wav
192,192,226832,1,0,0:0:0:40:LR_Snare Hit.wav
320,192,226832,1,0,0:0:0:0:
192,192,227054,1,0,0:0:0:40:LR_Snare Hit.wav
64,192,227054,1,0,0:0:0:40:LR_Clap kick.wav
320,192,227110,1,0,0:0:0:40:LR_Snare Hit.wav
448,192,227165,1,0,0:0:0:40:LR_Snare Hit.wav
64,192,227165,1,0,0:0:0:0:
448,192,227276,1,0,0:0:0:0:
320,192,227276,1,0,0:0:0:40:LR_Snare Hit.wav
64,192,227388,1,0,0:0:0:0:
192,192,227388,1,0,0:0:0:40:LR_Snare Hit.wav
320,192,227499,1,0,0:0:0:40:LR_Snare Hit.wav
448,192,227499,1,0,0:0:0:40:LR_Clap kick.wav
192,192,227554,1,0,0:0:0:40:LR_Snare Hit.wav
64,192,227610,1,0,0:0:0:40:LR_Snare Hit.wav
448,192,227610,1,0,0:0:0:0:
192,192,227721,1,0,0:0:0:40:LR_Snare Hit.wav
64,192,227721,1,0,0:0:0:0:
448,192,227832,1,0,0:0:0:0:
320,192,227832,1,0,0:0:0:40:LR_Snare Hit.wav
64,192,227943,1,0,0:0:0:40:LR_Snare Hit.wav
192,192,227999,1,0,0:0:0:40:LR_Snare Hit.wav
320,192,228054,1,0,0:0:0:40:LR_Snare Hit.wav
448,192,228110,1,0,0:0:0:40:LR_Snare Hit.wav
192,192,228165,1,0,0:0:0:40:LR_Snare Hit.wav
64,192,228221,1,0,0:0:0:40:LR_Snare Hit.wav
320,192,228276,1,0,0:0:0:40:LR_Snare Hit.wav
448,192,228332,1,0,0:0:0:40:LR_Snare Hit.wav
64,192,228388,1,0,0:0:0:40:LR_Snare Hit.wav
192,192,228443,1,0,0:0:0:40:LR_Snare Hit.wav
320,192,228499,1,0,0:0:0:40:LR_Snare Hit.wav
448,192,228554,1,0,0:0:0:40:LR_Snare Hit.wav
192,192,228610,1,0,0:0:0:40:LR_Snare Hit.wav
64,192,228665,1,0,0:0:0:40:LR_Snare Hit.wav
448,192,228721,1,0,0:0:0:40:LR_Snare Hit.wav
320,192,228776,1,0,0:0:0:40:LR_Snare Hit.wav
64,192,228832,128,0,229943:0:0:0:0:
192,192,228832,1,0,0:0:0:40:LR3_BassDrop.wav
448,192,229054,1,0,0:0:0:30:LR3_HiHat Normal.wav
192,192,229276,1,0,0:0:0:30:LR3_HiHat Normal.wav
320,192,229388,1,0,0:0:0:0:
448,192,229499,1,0,0:0:0:30:LR3_HiHat Normal.wav
448,192,229721,1,0,0:0:0:30:LR3_HiHat Normal.wav
320,192,229832,1,0,0:0:0:0:
448,192,229943,128,0,230165:0:0:0:30:LR3_HiHat Normal.wav
64,192,230165,1,0,0:0:0:0:
320,192,230165,1,8,0:0:0:0:
192,192,230165,128,0,230388:0:0:0:0:
320,192,230388,1,0,0:0:0:40:LR_Snare Hit.wav
448,192,230388,1,0,0:0:0:0:
64,192,230443,1,0,0:0:0:0:
192,192,230499,1,0,0:0:0:0:
320,192,230554,1,0,0:0:0:0:
192,192,230610,1,2,0:0:0:0:
448,192,230610,128,0,230832:0:0:0:0:
64,192,230610,1,4,0:0:0:0:
192,192,230832,128,0,231054:0:0:0:30:LR3_HiHat Normal.wav
64,192,231054,1,0,0:0:0:0:
448,192,231054,1,8,0:0:0:0:
320,192,231054,128,0,231276:0:0:0:0:
64,192,231276,128,0,231499:0:0:0:30:LR3_HiHat Normal.wav
192,192,231499,1,2,0:0:0:0:
320,192,231499,128,0,231721:0:0:0:0:
64,192,231721,128,0,231943:0:0:0:30:LR3_HiHat Normal.wav
192,192,231832,1,0,0:0:0:0:
320,192,231943,1,8,0:0:0:0:
448,192,231943,128,0,232165:0:0:0:0:
320,192,232165,128,0,232388:0:0:0:30:LR3_HiHat Normal.wav
192,192,232388,1,2,0:0:0:0:
64,192,232388,128,0,232610:0:0:0:0:
192,192,232610,128,0,232832:0:0:0:30:LR3_HiHat Normal.wav
320,192,232832,128,0,233054:0:0:0:0:
64,192,232832,1,0,0:0:0:0:
448,192,232832,1,8,0:0:0:0:
448,192,233054,128,0,233276:0:0:0:30:LR3_HiHat Normal.wav
64,192,233276,1,0,0:0:0:0:
192,192,233276,1,2,0:0:0:0:
64,192,233499,1,0,0:0:0:30:LR3_HiHat Normal.wav
320,192,233610,1,2,0:0:0:0:
448,192,233610,1,0,0:0:0:0:
192,192,233721,1,8,0:0:0:0:
448,192,233721,1,0,0:0:0:0:
64,192,233721,128,0,233943:0:0:0:0:
320,192,233943,128,0,234165:0:0:0:30:LR3_HiHat Normal.wav
64,192,234165,128,0,234610:0:0:0:0:
448,192,234165,1,2,0:0:0:0:
320,192,234388,1,0,0:0:0:30:LR3_HiHat Normal.wav
192,192,234610,1,0,0:0:0:0:
320,192,234610,1,8,0:0:0:0:
448,192,234610,1,0,0:0:0:0:
448,192,234832,128,0,235276:0:0:0:30:LR3_HiHat Normal.wav
64,192,235054,1,2,0:0:0:0:
192,192,235054,1,0,0:0:0:0:
320,192,235276,1,0,0:0:0:30:LR3_HiHat Normal.wav
192,192,235388,1,2,0:0:0:0:
64,192,235388,1,0,0:0:0:0:
64,192,235499,1,0,0:0:0:0:
448,192,235499,1,8,0:0:0:0:
320,192,235499,128,0,235721:0:0:0:0:
192,192,235721,128,0,235943:0:0:0:30:LR3_HiHat Normal.wav
64,192,235721,1,2,0:0:0:0:
320,192,235943,1,2,0:0:0:0:
448,192,235943,1,0,0:0:0:0:
192,192,236165,128,0,236388:0:0:0:30:LR3_HiHat Normal.wav
320,192,236388,1,8,0:0:0:0:
448,192,236388,1,0,0:0:0:0:
64,192,236388,128,0,236610:0:0:0:0:
192,192,236610,128,0,237054:0:0:0:30:LR3_HiHat Normal.wav
64,192,236832,1,0,0:0:0:0:
448,192,236832,1,2,0:0:0:0:
320,192,237054,128,0,237276:0:0:0:30:LR3_HiHat Normal.wav
64,192,237165,1,0,0:0:0:40:LR_Snare Hit.wav
448,192,237276,128,0,237499:0:0:0:0:
192,192,237276,1,8,0:0:0:0:
64,192,237499,1,0,0:0:0:40:LR_Snare Hit.wav
192,192,237554,1,0,0:0:0:40:LR_Snare Hit.wav
448,192,237610,1,0,0:0:0:40:LR_Snare Hit.wav
320,192,237665,1,0,0:0:0:40:LR_Snare Hit.wav
64,192,237721,128,0,237943:0:0:0:0:
192,192,237721,1,2,0:0:0:0:
320,192,237943,128,0,238165:0:0:0:30:LR3_HiHat Normal.wav
448,192,238165,1,0,0:0:0:0:
64,192,238165,1,8,0:0:0:0:
192,192,238165,128,0,238388:0:0:0:0:
448,192,238388,128,0,238610:0:0:0:30:LR3_HiHat Normal.wav
192,192,238610,128,0,238832:0:0:0:0:
320,192,238610,1,2,0:0:0:0:
448,192,238832,128,0,239054:0:0:0:30:LR3_HiHat Normal.wav
320,192,238943,1,0,0:0:0:0:
192,192,239054,1,8,0:0:0:0:
64,192,239054,128,0,239276:0:0:0:0:
192,192,239276,128,0,239499:0:0:0:30:LR3_HiHat Normal.wav
448,192,239499,1,2,0:0:0:0:
320,192,239499,128,0,239721:0:0:0:0:
64,192,239721,128,0,239943:0:0:0:30:LR3_HiHat Normal.wav
320,192,239943,1,0,0:0:0:0:
192,192,239943,1,8,0:0:0:0:
448,192,239943,128,0,240165:0:0:0:0:
192,192,240165,128,0,240388:0:0:0:30:LR3_HiHat Normal.wav
448,192,240388,1,0,0:0:0:0:
320,192,240388,1,2,0:0:0:0:
448,192,240610,1,0,0:0:0:30:LR3_HiHat Normal.wav
192,192,240721,1,2,0:0:0:0:
64,192,240721,1,0,0:0:0:0:
320,192,240832,1,0,0:0:0:0:
64,192,240832,1,8,0:0:0:0:
448,192,240832,128,0,241054:0:0:0:0:
192,192,241054,128,0,241276:0:0:0:30:LR3_HiHat Normal.wav
448,192,241276,128,0,241721:0:0:0:0:
64,192,241276,1,2,0:0:0:0:
320,192,241499,1,0,0:0:0:30:LR3_HiHat Normal.wav
64,192,241721,1,0,0:0:0:0:
320,192,241721,1,0,0:0:0:0:
192,192,241721,1,8,0:0:0:0:
64,192,241943,128,0,242388:0:0:0:30:LR3_HiHat Normal.wav
448,192,242165,1,0,0:0:0:0:
320,192,242165,1,2,0:0:0:0:
192,192,242388,1,0,0:0:0:30:LR3_HiHat Normal.wav
320,192,242499,1,2,0:0:0:0:
448,192,242499,1,0,0:0:0:0:
448,192,242610,1,8,0:0:0:0:
64,192,242610,1,0,0:0:0:0:
192,192,242610,128,0,242832:0:0:0:0:
320,192,242832,128,0,243054:0:0:0:30:LR3_HiHat Normal.wav
448,192,242832,1,0,0:0:0:0:
192,192,243054,1,0,0:0:0:40:LR_Snare Hit.wav
64,192,243054,128,0,244388:0:0:0:0:
320,192,243165,1,0,0:0:0:40:LR_Snare Hit.wav
448,192,243276,1,0,0:0:0:40:LR_Snare Hit.wav
192,192,243388,1,0,0:0:0:40:LR_Snare Hit.wav
448,192,243499,1,0,0:0:0:40:LR_Snare Hit.wav
320,192,243610,1,0,0:0:0:40:LR_Snare Hit.wav
192,192,243721,1,0,0:0:0:40:LR_Snare Hit.wav
448,192,243832,1,0,0:0:0:40:LR_Snare Hit.wav
192,192,243943,1,0,0:0:0:40:LR_Snare Hit.wav
320,192,244054,1,0,0:0:0:40:LR_Snare Hit.wav
448,192,244165,1,0,0:0:0:40:LR_Snare Hit.wav
192,192,244276,1,0,0:0:0:40:LR_Snare Hit.wav
448,192,244388,128,0,244610:0:0:0:0:
320,192,244388,1,0,0:0:0:40:LR_Snare Hit.wav
64,192,244610,1,0,0:0:0:40:LR_Snare Hit.wav
192,192,244665,1,0,0:0:0:40:LR_Snare Hit.wav
448,192,244721,1,0,0:0:0:40:LR_Snare Hit.wav
320,192,244776,1,0,0:0:0:40:LR_Snare Hit.wav
64,192,244832,1,2,0:0:0:0:
192,192,244832,1,4,0:0:0:0:
448,192,244832,1,0,0:0:0:0:
320,192,245054,1,0,0:0:0:30:LR3_HiHat Normal.wav
192,192,245165,1,0,0:0:0:0:
64,192,245276,1,0,0:0:0:0:
320,192,245276,1,8,0:0:0:0:
448,192,245276,1,0,0:0:0:0:
192,192,245499,1,0,0:0:0:30:LR3_HiHat Normal.wav
320,192,245721,1,2,0:0:0:0:
448,192,245721,1,0,0:0:0:0:
64,192,245832,1,0,0:0:0:0:
192,192,245943,1,0,0:0:0:30:LR3_HiHat Normal.wav
448,192,246054,1,0,0:0:0:0:
320,192,246054,1,2,0:0:0:0:
64,192,246165,1,8,0:0:0:0:
320,192,246165,1,0,0:0:0:0:
448,192,246165,1,0,0:0:0:0:
192,192,246388,1,2,0:0:0:0:
320,192,246388,1,0,0:0:0:30:LR3_HiHat Normal.wav
64,192,246610,1,2,0:0:0:0:
448,192,246610,1,0,0:0:0:0:
320,192,246832,1,0,0:0:0:30:LR3_HiHat Normal.wav
192,192,246943,1,0,0:0:0:0:
64,192,247054,1,8,0:0:0:0:
448,192,247054,1,0,0:0:0:0:
320,192,247054,1,0,0:0:0:0:
320,192,247276,1,0,0:0:0:30:LR3_HiHat Normal.wav
192,192,247499,1,2,0:0:0:0:
64,192,247499,1,0,0:0:0:0:
448,192,247610,1,0,0:0:0:0:
320,192,247721,1,0,0:0:0:30:LR3_HiHat Normal.wav
192,192,247832,1,2,0:0:0:0:
64,192,247832,1,0,0:0:0:0:
192,192,247943,1,0,0:0:0:0:
64,192,247943,1,8,0:0:0:0:
448,192,247943,1,0,0:0:0:0:
320,192,248165,1,0,0:0:0:30:LR3_HiHat Normal.wav
192,192,248165,1,2,0:0:0:0:
448,192,248388,1,0,0:0:0:0:
64,192,248388,1,2,0:0:0:0:
192,192,248610,1,0,0:0:0:30:LR3_HiHat Normal.wav
320,192,248721,1,0,0:0:0:0:
64,192,248832,1,8,0:0:0:0:
192,192,248832,1,0,0:0:0:0:
448,192,248832,1,0,0:0:0:0:
320,192,249054,1,0,0:0:0:30:LR3_HiHat Normal.wav
64,192,249276,1,0,0:0:0:0:
192,192,249276,1,2,0:0:0:0:
448,192,249388,1,0,0:0:0:0:
64,192,249499,1,0,0:0:0:30:LR3_HiHat Normal.wav
320,192,249610,1,2,0:0:0:0:
192,192,249610,1,0,0:0:0:0:
192,192,249721,1,8,0:0:0:0:
64,192,249721,1,0,0:0:0:0:
448,192,249721,1,0,0:0:0:0:
320,192,249943,1,0,0:0:0:30:LR3_HiHat Normal.wav
448,192,249943,1,2,0:0:0:0:
64,192,250165,1,0,0:0:0:0:
192,192,250165,1,2,0:0:0:0:
448,192,250388,1,0,0:0:0:30:LR3_HiHat Normal.wav
320,192,250499,1,0,0:0:0:0:
192,192,250610,1,0,0:0:0:0:
64,192,250610,1,8,0:0:0:0:
448,192,250610,1,0,0:0:0:0:
192,192,250832,1,0,0:0:0:30:LR3_HiHat Normal.wav
64,192,251054,1,0,0:0:0:0:
448,192,251054,1,2,0:0:0:0:
192,192,251165,1,0,0:0:0:0:
448,192,251276,1,0,0:0:0:30:LR3_HiHat Normal.wav
64,192,251388,1,0,0:0:0:0:
192,192,251388,1,2,0:0:0:0:
64,192,251499,1,0,0:0:0:0:
320,192,251499,1,8,0:0:0:0:
448,192,251499,1,0,0:0:0:0:
64,192,251721,1,0,0:0:0:40:LR_Snare Hit.wav
192,192,251776,1,0,0:0:0:40:LR_Snare Hit.wav
448,192,251832,1,0,0:0:0:40:LR_Snare Hit.wav
320,192,251888,1,0,0:0:0:40:LR_Snare Hit.wav
192,192,251943,1,8,0:0:0:0:
64,192,251943,1,2,0:0:0:0:
448,192,251943,1,0,0:0:0:0:
320,192,252165,1,0,0:0:0:30:LR3_HiHat Normal.wav
192,192,252276,1,0,0:0:0:0:
448,192,252388,1,0,0:0:0:0:
64,192,252388,1,8,0:0:0:0:
320,192,252388,1,0,0:0:0:0:
192,192,252610,1,0,0:0:0:30:LR3_HiHat Normal.wav
448,192,252832,1,0,0:0:0:0:
64,192,252832,1,2,0:0:0:0:
320,192,252832,1,8,0:0:0:0:
192,192,252943,1,0,0:0:0:0:
448,192,253054,1,0,0:0:0:30:LR3_HiHat Normal.wav
320,192,253165,1,0,0:0:0:0:
192,192,253165,1,2,0:0:0:0:
64,192,253276,1,0,0:0:0:0:
320,192,253276,1,8,0:0:0:0:
448,192,253276,1,0,0:0:0:0:
192,192,253499,1,2,0:0:0:0:
64,192,253499,1,0,0:0:0:30:LR3_HiHat Normal.wav
448,192,253721,1,2,0:0:0:0:
320,192,253721,1,8,0:0:0:0:
192,192,253721,1,0,0:0:0:0:
64,192,253943,1,0,0:0:0:30:LR3_HiHat Normal.wav
320,192,254054,1,0,0:0:0:0:
192,192,254165,1,8,0:0:0:0:
64,192,254165,1,2,0:0:0:0:
448,192,254165,1,0,0:0:0:0:
320,192,254388,1,0,0:0:0:30:LR3_HiHat Normal.wav
448,192,254610,1,0,0:0:0:0:
64,192,254610,1,8,0:0:0:0:
192,192,254610,1,2,0:0:0:0:
320,192,254721,1,0,0:0:0:0:
64,192,254832,1,0,0:0:0:30:LR3_HiHat Normal.wav
320,192,254943,1,2,0:0:0:0:
448,192,254943,1,0,0:0:0:0:
192,192,255054,1,8,0:0:0:0:
64,192,255054,1,2,0:0:0:0:
448,192,255054,1,0,0:0:0:0:
192,192,255276,1,2,0:0:0:0:
320,192,255276,1,0,0:0:0:30:LR3_HiHat Normal.wav
448,192,255499,1,2,0:0:0:0:
320,192,255499,1,0,0:0:0:40:LR_Snare Hit.wav
192,192,255554,1,0,0:0:0:40:LR_Snare Hit.wav
448,192,255610,1,0,0:0:0:0:
64,192,255610,1,0,0:0:0:40:LR_Snare Hit.wav
192,192,255721,1,0,0:0:0:40:LR_Snare Hit.wav
64,192,255721,1,0,0:0:0:0:
320,192,255832,1,0,0:0:0:40:LR_Snare Hit.wav
448,192,255832,1,0,0:0:0:0:
64,192,255943,1,8,0:0:0:0:
192,192,255943,1,0,0:0:0:40:LR_Snare Hit.wav
320,192,255999,1,0,0:0:0:40:LR_Snare Hit.wav
64,192,256054,1,0,0:0:0:0:
448,192,256054,1,0,0:0:0:40:LR_Snare Hit.wav
320,192,256165,1,0,0:0:0:40:LR_Snare Hit.wav
448,192,256165,1,0,0:0:0:0:
192,192,256276,1,0,0:0:0:40:LR_Snare Hit.wav
64,192,256276,1,0,0:0:0:0:
320,192,256388,1,0,0:0:0:40:LR_Snare Hit.wav
448,192,256388,1,2,0:0:0:0:
192,192,256443,1,0,0:0:0:40:LR_Snare Hit.wav
64,192,256499,1,0,0:0:0:40:LR_Snare Hit.wav
448,192,256499,1,0,0:0:0:0:
64,192,256610,1,0,0:0:0:0:
192,192,256610,1,0,0:0:0:40:LR_Snare Hit.wav
448,192,256721,1,0,0:0:0:0:
320,192,256721,1,0,0:0:0:40:LR_Snare Hit.wav
64,192,256832,1,8,0:0:0:0:
192,192,256832,1,0,0:0:0:40:LR_Snare Hit.wav
320,192,256943,1,0,0:0:0:40:LR_Snare Hit.wav
448,192,256943,1,0,0:0:0:0:
64,192,257054,1,0,0:0:0:0:
192,192,257054,1,0,0:0:0:40:LR_Snare Hit.wav
448,192,257165,1,0,0:0:0:0:
320,192,257165,1,0,0:0:0:40:LR_Snare Hit.wav
64,192,257276,1,0,0:0:0:40:LR_Snare Hit.wav
192,192,257332,1,0,0:0:0:40:LR_Snare Hit.wav
320,192,257388,1,0,0:0:0:40:LR_Snare Hit.wav
448,192,257443,1,0,0:0:0:40:LR_Snare Hit.wav
192,192,257499,1,0,0:0:0:40:LR_Snare Hit.wav
64,192,257554,1,0,0:0:0:40:LR_Snare Hit.wav
448,192,257610,1,0,0:0:0:40:LR_Snare Hit.wav
320,192,257665,1,0,0:0:0:40:LR_Snare Hit.wav
192,192,257721,1,0,0:0:0:40:LR_Snare Hit.wav
64,192,257776,1,0,0:0:0:40:LR_Snare Hit.wav
320,192,257832,1,0,0:0:0:40:LR_Snare Hit.wav
448,192,257888,1,0,0:0:0:40:LR_Snare Hit.wav
64,192,257943,1,0,0:0:0:40:LR_Snare Hit.wav
192,192,257999,1,0,0:0:0:40:LR_Snare Hit.wav
320,192,258054,1,0,0:0:0:40:LR_Snare Hit.wav
448,192,258110,1,0,0:0:0:40:LR_Snare Hit.wav
192,192,258165,1,0,0:0:0:40:LR_Snare Hit.wav
64,192,258221,1,0,0:0:0:40:LR_Snare Hit.wav
448,192,258276,1,0,0:0:0:40:LR_Snare Hit.wav
320,192,258332,1,0,0:0:0:40:LR_Snare Hit.wav
64,192,258388,1,0,0:0:0:40:LR_Snare Hit.wav
192,192,258443,1,0,0:0:0:40:LR_Snare Hit.wav
320,192,258499,1,0,0:0:0:40:LR_Snare Hit.wav
448,192,258554,1,0,0:0:0:40:LR_Snare Hit.wav
64,192,258610,1,0,0:0:0:40:LR_Clap DS.wav
192,192,258610,1,0,0:0:0:40:LR_Snare Hit.wav
448,192,258832,1,0,0:0:0:40:LR_Snare Hit.wav
320,192,258888,1,0,0:0:0:40:LR_Snare Hit.wav
64,192,258943,1,0,0:0:0:40:LR_Snare Hit.wav
192,192,258999,1,0,0:0:0:40:LR_Snare Hit.wav
320,192,259054,1,4,0:0:0:0:
64,192,259054,1,2,0:0:0:0:
448,192,259054,128,0,259276:0:0:0:0:
192,192,259276,128,0,259499:0:0:0:30:LR3_HiHat Normal.wav
320,192,259499,1,8,0:0:0:0:
448,192,259499,1,0,0:0:0:0:
64,192,259499,128,0,259721:0:0:0:0:
192,192,259721,128,0,259943:0:0:0:30:LR3_HiHat Normal.wav
64,192,259943,1,2,0:0:0:0:
320,192,259943,128,0,260165:0:0:0:0:
448,192,260165,1,0,0:0:0:30:LR3_HiHat Normal.wav
192,192,260276,1,2,0:0:0:0:
64,192,260276,1,0,0:0:0:0:
64,192,260388,1,8,0:0:0:0:
192,192,260388,1,0,0:0:0:0:
448,192,260388,128,0,260610:0:0:0:0:
320,192,260610,1,0,0:0:0:0:
192,192,260610,128,0,260832:0:0:0:30:LR3_HiHat Normal.wav
64,192,260832,1,2,0:0:0:0:
448,192,260832,128,0,261054:0:0:0:0:
64,192,261054,128,0,261276:0:0:0:30:LR3_HiHat Normal.wav
192,192,261276,1,0,0:0:0:0:
448,192,261276,1,8,0:0:0:0:
320,192,261276,128,0,261499:0:0:0:0:
192,192,261499,128,0,261721:0:0:0:30:LR3_HiHat Normal.wav
448,192,261721,1,2,0:0:0:0:
64,192,261721,128,0,261943:0:0:0:0:
448,192,261943,1,0,0:0:0:30:LR3_HiHat Normal.wav
64,192,262054,1,0,0:0:0:0:
192,192,262054,1,2,0:0:0:0:
64,192,262165,1,0,0:0:0:0:
320,192,262165,1,8,0:0:0:0:
448,192,262165,128,0,262388:0:0:0:0:
320,192,262388,1,2,0:0:0:0:
192,192,262388,128,0,262610:0:0:0:30:LR3_HiHat Normal.wav
64,192,262610,128,0,262832:0:0:0:0:
448,192,262610,1,2,0:0:0:0:
320,192,262832,128,0,263054:0:0:0:30:LR3_HiHat Normal.wav
192,192,263054,1,8,0:0:0:0:
64,192,263054,1,0,0:0:0:0:
448,192,263054,128,0,263276:0:0:0:0:
320,192,263276,128,0,263499:0:0:0:30:LR3_HiHat Normal.wav
448,192,263499,1,2,0:0:0:0:
192,192,263499,128,0,263721:0:0:0:0:
64,192,263721,1,0,0:0:0:30:LR3_HiHat Normal.wav
448,192,263832,1,0,0:0:0:0:
320,192,263832,1,2,0:0:0:0:
448,192,263943,1,8,0:0:0:0:
320,192,263943,1,0,0:0:0:0:
64,192,263943,128,0,264165:0:0:0:0:
320,192,264165,128,0,264388:0:0:0:30:LR3_HiHat Normal.wav
192,192,264165,1,2,0:0:0:0:
64,192,264388,128,0,264610:0:0:0:0:
448,192,264388,1,2,0:0:0:0:
448,192,264610,128,0,264832:0:0:0:30:LR3_HiHat Normal.wav
320,192,264832,1,0,0:0:0:0:
64,192,264832,1,8,0:0:0:0:
192,192,264832,128,0,265054:0:0:0:0:
320,192,265054,128,0,265276:0:0:0:30:LR3_HiHat Normal.wav
64,192,265276,1,2,0:0:0:0:
448,192,265276,128,0,265499:0:0:0:0:
64,192,265499,1,0,0:0:0:30:LR3_HiHat Normal.wav
320,192,265610,1,2,0:0:0:0:
448,192,265610,1,0,0:0:0:0:
448,192,265721,1,0,0:0:0:0:
192,192,265721,1,8,0:0:0:0:
64,192,265721,128,0,265943:0:0:0:0:
192,192,265943,1,2,0:0:0:0:
320,192,265943,128,0,266165:0:0:0:30:LR3_HiHat Normal.wav
448,192,266165,1,2,0:0:0:0:
64,192,266165,128,0,266388:0:0:0:0:
192,192,266388,128,0,266610:0:0:0:30:LR3_HiHat Normal.wav
64,192,266610,1,0,0:0:0:0:
320,192,266610,1,8,0:0:0:0:
448,192,266610,128,0,266832:0:0:0:0:
192,192,266832,128,0,267054:0:0:0:30:LR3_HiHat Normal.wav
64,192,267054,128,0,267276:0:0:0:0:
448,192,267054,1,2,0:0:0:0:
448,192,267276,1,0,0:0:0:30:LR3_HiHat Normal.wav
64,192,267388,1,0,0:0:0:0:
192,192,267388,1,2,0:0:0:0:
64,192,267499,1,0,0:0:0:0:
192,192,267499,1,8,0:0:0:0:
448,192,267499,128,0,267721:0:0:0:0:
320,192,267721,1,2,0:0:0:0:
192,192,267721,128,0,267943:0:0:0:30:LR3_HiHat Normal.wav
64,192,267943,1,2,0:0:0:0:
448,192,267943,128,0,268165:0:0:0:0:
320,192,268165,128,0,268388:0:0:0:30:LR3_HiHat Normal.wav
192,192,268388,1,8,0:0:0:0:
64,192,268388,128,0,268610:0:0:0:0:
448,192,268388,1,0,0:0:0:0:
320,192,268610,128,0,268832:0:0:0:30:LR3_HiHat Normal.wav
64,192,268832,1,2,0:0:0:0:
448,192,268832,128,0,269054:0:0:0:0:
192,192,269054,1,0,0:0:0:30:LR3_HiHat Normal.wav
448,192,269165,1,0,0:0:0:0:
320,192,269165,1,2,0:0:0:0:
320,192,269276,1,8,0:0:0:0:
448,192,269276,1,0,0:0:0:0:
64,192,269276,128,0,269499:0:0:0:0:
192,192,269499,1,2,0:0:0:0:
448,192,269499,128,0,269721:0:0:0:30:LR3_HiHat Normal.wav
64,192,269721,1,2,0:0:0:0:
192,192,269721,1,0,0:0:0:40:LR_Snare Hit.wav
320,192,269776,1,0,0:0:0:40:LR_Snare Hit.wav
64,192,269832,1,0,0:0:0:0:
448,192,269832,1,0,0:0:0:40:LR_Snare Hit.wav
320,192,269943,1,0,0:0:0:40:LR_Snare Hit.wav
448,192,269943,1,0,0:0:0:0:
192,192,270054,1,0,0:0:0:40:LR_Snare Hit.wav
64,192,270054,1,0,0:0:0:0:
448,192,270165,1,8,0:0:0:0:
320,192,270165,1,0,0:0:0:40:LR_Snare Hit.wav
192,192,270221,1,0,0:0:0:40:LR_Snare Hit.wav
448,192,270276,1,0,0:0:0:0:
64,192,270276,1,0,0:0:0:40:LR_Snare Hit.wav
192,192,270388,1,0,0:0:0:40:LR_Snare Hit.wav
64,192,270388,1,0,0:0:0:0:
448,192,270499,1,0,0:0:0:0:
320,192,270499,1,0,0:0:0:40:LR_Snare Hit.wav
64,192,270610,1,2,0:0:0:0:
192,192,270610,1,0,0:0:0:40:LR_Snare Hit.wav
320,192,270665,1,0,0:0:0:40:LR_Snare Hit.wav
448,192,270721,1,0,0:0:0:40:LR_Snare Hit.wav
64,192,270721,1,0,0:0:0:0:
448,192,270832,1,0,0:0:0:0:
320,192,270832,1,0,0:0:0:40:LR_Snare Hit.wav
192,192,270943,1,0,0:0:0:40:LR_Snare Hit.wav
64,192,270943,1,2,0:0:0:0:
448,192,271054,1,8,0:0:0:0:
320,192,271054,1,0,0:0:0:40:LR_Snare Hit.wav
64,192,271165,1,0,0:0:0:0:
192,192,271165,1,0,0:0:0:40:LR_Snare Hit.wav
448,192,271276,1,0,0:0:0:0:
320,192,271276,1,0,0:0:0:40:LR_Snare Hit.wav
64,192,271388,1,0,0:0:0:0:
192,192,271388,1,0,0:0:0:40:LR_Snare Hit.wav
448,192,271499,1,0,0:0:0:40:LR_Snare Hit.wav
320,192,271554,1,0,0:0:0:40:LR_Snare Hit.wav
192,192,271610,1,0,0:0:0:40:LR_Snare Hit.wav
64,192,271665,1,0,0:0:0:40:LR_Snare Hit.wav
320,192,271721,1,0,0:0:0:40:LR_Snare Hit.wav
448,192,271776,1,0,0:0:0:40:LR_Snare Hit.wav
64,192,271832,1,0,0:0:0:40:LR_Snare Hit.wav
192,192,271888,1,0,0:0:0:40:LR_Snare Hit.wav
320,192,271943,1,0,0:0:0:40:LR_Snare Hit.wav
448,192,271999,1,0,0:0:0:40:LR_Snare Hit.wav
192,192,272054,1,0,0:0:0:40:LR_Snare Hit.wav
64,192,272110,1,0,0:0:0:40:LR_Snare Hit.wav
448,192,272165,1,0,0:0:0:40:LR_Snare Hit.wav
320,192,272221,1,0,0:0:0:40:LR_Snare Hit.wav
192,192,272276,1,0,0:0:0:40:LR_Snare Hit.wav
64,192,272332,1,0,0:0:0:40:LR_Snare Hit.wav
320,192,272388,1,0,0:0:0:40:LR_Snare Hit.wav
448,192,272443,1,0,0:0:0:40:LR_Snare Hit.wav
64,192,272499,1,0,0:0:0:40:LR_Snare Hit.wav
192,192,272554,1,0,0:0:0:40:LR_Snare Hit.wav
448,192,272610,1,0,0:0:0:40:LR_Snare Hit.wav
320,192,272665,1,0,0:0:0:40:LR_Snare Hit.wav
192,192,272721,1,0,0:0:0:40:LR_Snare Hit.wav
64,192,272776,1,0,0:0:0:40:LR_Snare Hit.wav
448,192,272832,1,0,0:0:0:40:LR_Clap DS.wav
320,192,272832,1,0,0:0:0:40:LR_Snare Hit.wav
64,192,273054,1,0,0:0:0:40:LR_Snare Hit.wav
192,192,273110,1,0,0:0:0:40:LR_Snare Hit.wav
448,192,273165,1,0,0:0:0:40:LR_Snare Hit.wav
320,192,273221,1,0,0:0:0:40:LR_Snare Hit.wav
64,192,273276,1,2,0:0:0:0:
192,192,273276,1,0,0:0:0:50:LR3_BassDrop.wav
448,192,273276,128,0,273499:0:0:0:0:
64,192,273499,128,0,273721:0:0:0:0:
448,192,273721,128,0,273943:0:0:0:0:
64,192,273943,128,0,274165:0:0:0:0:
320,192,274165,128,0,274388:0:0:0:0:
192,192,274388,128,0,274610:0:0:0:0:
64,192,274610,128,0,274832:0:0:0:0:
448,192,274832,128,0,275054:0:0:0:0:
320,192,274832,128,0,275276:0:0:0:0:
192,192,275054,128,0,275276:0:0:0:0:
64,192,275276,128,0,275499:0:0:0:0:
448,192,275499,128,0,275721:0:0:0:0:
192,192,275721,128,0,275943:0:0:0:0:
320,192,275943,128,0,276165:0:0:0:0:
64,192,276165,128,0,276388:0:0:0:0:
448,192,276388,128,0,276610:0:0:0:0:
192,192,276610,128,0,277721:0:0:0:0:
320,192,276610,128,0,276832:0:0:0:0:
64,192,276832,128,0,277054:0:0:0:0:
448,192,277054,128,0,277276:0:0:0:0:
320,192,277276,128,0,277499:0:0:0:0:
64,192,277499,128,0,277721:0:0:0:0:
448,192,277721,128,0,277943:0:0:0:0:
320,192,277943,128,0,278165:0:0:0:0:
64,192,278165,128,0,278388:0:0:0:0:
448,192,278388,128,0,278610:0:0:0:0:
192,192,278610,128,0,278832:0:0:0:0:
448,192,278832,128,0,279054:0:0:0:0:
64,192,279054,128,0,279276:0:0:0:0:
320,192,279276,128,0,279721:0:0:0:0:
192,192,279276,128,0,279499:0:0:0:0:
448,192,279499,128,0,279721:0:0:0:0:
64,192,279721,128,0,279943:0:0:0:0:
448,192,279943,128,0,280165:0:0:0:0:
192,192,280165,128,0,280388:0:0:0:0:
448,192,280388,128,0,282165:0:0:0:0:
320,192,280388,128,0,280610:0:0:0:0:
64,192,280610,128,0,280832:0:0:0:0:
320,192,280832,128,0,281054:0:0:0:0:
64,192,281054,128,0,281276:0:0:0:0:
192,192,281276,128,0,281499:0:0:0:0:
64,192,281499,128,0,281721:0:0:0:0:
320,192,281721,128,0,281943:0:0:0:0:
192,192,281943,128,0,282165:0:0:0:0:
64,192,282165,128,0,282388:0:0:0:0:
448,192,282388,128,0,282610:0:0:0:0:
192,192,282610,128,0,283054:0:0:0:0:
64,192,282610,128,0,282832:0:0:0:0:
448,192,282832,128,0,283054:0:0:0:0:
64,192,283054,128,0,283499:0:0:0:0:
320,192,283054,128,0,283276:0:0:0:0:
192,192,283276,128,0,283499:0:0:0:0:
448,192,283499,128,0,283943:0:0:0:0:
320,192,283499,128,0,283721:0:0:0:0:
192,192,283721,128,0,283943:0:0:0:0:
64,192,283943,128,0,284832:0:0:0:0:
320,192,283943,128,0,284165:0:0:0:0:
448,192,284165,128,0,284388:0:0:0:0:
192,192,284388,128,0,284610:0:0:0:0:
448,192,284610,128,0,284832:0:0:0:0:
320,192,284832,128,0,285499:0:0:0:0:
192,192,284832,128,0,285054:0:0:0:0:
64,192,285054,128,0,285276:0:0:0:0:
192,192,285276,128,0,285499:0:0:0:0:
448,192,285499,128,0,287276:0:0:0:0:
64,192,285499,128,0,285721:0:0:0:0:
320,192,285721,128,0,285943:0:0:0:0:
64,192,285943,128,0,286165:0:0:0:0:
192,192,286165,128,0,286388:0:0:0:0:
320,192,286388,128,0,286610:0:0:0:0:
64,192,286610,128,0,286832:0:0:0:0:
192,192,286832,128,0,287054:0:0:0:0:
320,192,287054,128,0,287276:0:0:0:0:
64,192,287276,128,0,287499:0:0:0:0:
192,192,287443,1,0,0:0:0:40:LR_Clap kick.wav
448,192,287499,128,0,287721:0:0:0:50:LR3_BassDrop.wav
320,192,287499,1,0,0:0:0:0:
192,192,287721,128,0,287943:0:0:0:0:
448,192,287943,128,0,288165:0:0:0:0:
192,192,288165,128,0,288388:0:0:0:0:
448,192,288388,128,0,288610:0:0:0:0:
64,192,288610,128,0,288832:0:0:0:0:
320,192,288832,128,0,289054:0:0:0:0:
64,192,289054,128,0,289276:0:0:0:0:
192,192,289054,128,0,289499:0:0:0:0:
448,192,289276,128,0,289499:0:0:0:0:
320,192,289499,128,0,289721:0:0:0:0:
64,192,289721,128,0,289943:0:0:0:0:
320,192,289943,128,0,290165:0:0:0:0:
192,192,290165,128,0,290388:0:0:0:0:
448,192,290388,128,0,290610:0:0:0:0:
64,192,290610,128,0,290832:0:0:0:0:
320,192,290832,128,0,291943:0:0:0:0:
192,192,290832,128,0,291054:0:0:0:0:
448,192,291054,128,0,291276:0:0:0:0:
64,192,291276,128,0,291499:0:0:0:0:
192,192,291499,128,0,291721:0:0:0:0:
448,192,291721,128,0,291943:0:0:0:0:
64,192,291943,128,0,292165:0:0:0:0:
192,192,292165,128,0,292388:0:0:0:0:
448,192,292388,128,0,292610:0:0:0:0:
64,192,292610,128,0,292832:0:0:0:0:
320,192,292832,128,0,293054:0:0:0:0:
64,192,293054,128,0,293276:0:0:0:0:
448,192,293276,128,0,293499:0:0:0:0:
192,192,293499,128,0,293943:0:0:0:0:
320,192,293499,128,0,293721:0:0:0:0:
64,192,293721,128,0,293943:0:0:0:0:
448,192,293943,128,0,294165:0:0:0:0:
64,192,294165,128,0,294388:0:0:0:0:
320,192,294388,128,0,294610:0:0:0:0:
64,192,294610,128,0,296388:0:0:0:0:
192,192,294610,128,0,294832:0:0:0:0:
448,192,294832,128,0,295054:0:0:0:0:
192,192,295054,128,0,295276:0:0:0:0:
448,192,295276,128,0,295499:0:0:0:0:
320,192,295499,128,0,295721:0:0:0:0:
448,192,295721,128,0,295943:0:0:0:0:
192,192,295943,128,0,296165:0:0:0:0:
320,192,296165,128,0,296388:0:0:0:0:
448,192,296388,128,0,296610:0:0:0:0:
64,192,296610,128,0,296832:0:0:0:0:
320,192,296832,128,0,297276:0:0:0:0:
448,192,296832,128,0,297054:0:0:0:0:
64,192,297054,128,0,297276:0:0:0:0:
448,192,297276,128,0,297721:0:0:0:0:
192,192,297276,128,0,297499:0:0:0:0:
320,192,297499,128,0,297721:0:0:0:0:
64,192,297721,128,0,298165:0:0:0:0:
192,192,297721,128,0,297943:0:0:0:0:
320,192,297943,128,0,298165:0:0:0:0:
448,192,298165,128,0,299054:0:0:0:0:
192,192,298165,128,0,298388:0:0:0:0:
64,192,298388,128,0,298610:0:0:0:0:
320,192,298610,128,0,298832:0:0:0:0:
64,192,298832,128,0,299054:0:0:0:0:
192,192,299054,128,0,299721:0:0:0:0:
320,192,299054,128,0,299276:0:0:0:0:
448,192,299276,128,0,299499:0:0:0:0:
320,192,299499,128,0,299721:0:0:0:0:
64,192,299721,128,0,301721:0:0:0:0:
448,192,299721,128,0,299943:0:0:0:0:
192,192,299943,128,0,300165:0:0:0:0:
448,192,300165,128,0,300388:0:0:0:0:
320,192,300388,128,0,300610:0:0:0:0:
192,192,300610,128,0,300832:0:0:0:0:
448,192,300832,128,0,301054:0:0:0:0:
320,192,301054,128,0,301276:0:0:0:0:
192,192,301276,128,0,301499:0:0:0:0:
448,192,301499,128,0,301721:0:0:0:0:
320,192,301721,1,0,0:0:0:50:LR3_BassDrop.wav
192,192,301721,1,2,0:0:0:0:
