osu file format v14

[General]
AudioFilename: audio.mp3
AudioLeadIn: 0
PreviewTime: 93484
Countdown: 0
SampleSet: Normal
StackLeniency: 0.7
Mode: 1
LetterboxInBreaks: 0
WidescreenStoryboard: 1

[Editor]
Bookmarks: 40258,78531,143563,231821,303484
DistanceSpacing: 0.1
BeatDivisor: 4
GridSize: 4
TimelineZoom: 2.200001

[Metadata]
Title:Deconstruction Star
TitleUnicode:Deconstruction Star
Artist:Halozy
ArtistUnicode:Halozy
Creator:vrnl
Version:Kira Kira
Source:東方永夜抄 ~ Imperishable Night
Tags:Starry Presto すみじゅん sumijun アサヒ Asahi ほたる Hotaru プレインエイジア Plain Asia Keine Kamishirasawa 上白沢 慧音 Eiyashou Touhou 幻想郷 Gensokyo 東方Project c77
BeatmapID:1765694
BeatmapSetID:627036

[Difficulty]
HPDrainRate:4
CircleSize:2
OverallDifficulty:6.5
ApproachRate:5
SliderMultiplier:1.4
SliderTickRate:1

[Events]
//Background and Video events
0,0,"maxresdefault.jpg",0,0
//Break Periods
//Storyboard Layer 0 (Background)
//Storyboard Layer 1 (Fail)
//Storyboard Layer 2 (Pass)
//Storyboard Layer 3 (Foreground)
//Storyboard Sound Samples

[TimingPoints]
582,387.096774193548,4,1,0,50,1,8
1162,387.096774193548,4,1,0,55,1,0
13549,-100,4,1,0,75,0,0
26032,-100,4,1,0,45,0,0
28065,-100,4,1,0,55,0,0
28452,-100,4,1,0,65,0,0
29032,-83.3333333333333,4,1,0,80,0,0
52355,-84.0336134453781,4,1,0,80,0,0
52452,-84.7457627118644,4,1,0,80,0,0
52549,-85.4700854700855,4,1,0,80,0,0
52645,-86.2068965517241,4,1,0,80,0,0
52742,-86.9565217391304,4,1,0,80,0,0
52839,-87.719298245614,4,1,0,80,0,0
52936,-88.4955752212389,4,1,0,80,0,0
53032,-89.2857142857143,4,1,0,80,0,0
53129,-90.0900900900901,4,1,0,80,0,0
53226,-90.9090909090909,4,1,0,80,0,0
53323,-91.743119266055,4,1,0,80,0,0
53420,-92.5925925925926,4,1,0,80,0,0
53516,-93.4579439252336,4,1,0,80,0,0
53613,-94.3396226415094,4,1,0,80,0,0
53710,-95.2380952380952,4,1,0,80,0,0
53807,-96.1538461538461,4,1,0,80,0,0
54194,-100,4,1,0,50,0,0
59613,-100,4,1,0,60,0,0
60000,-100,4,1,0,75,0,0
63871,-100,4,1,0,50,0,0
64065,-100,4,1,0,60,0,0
64258,-100,4,1,0,75,0,0
66387,-100,4,1,0,65,0,0
75484,-100,4,1,0,70,0,0
76839,-90.9090909090909,4,1,0,70,0,0
77032,-83.3333333333333,4,1,0,85,0,0
77420,-76.9230769230769,4,1,0,85,0,0
77807,-71.4285714285714,4,1,0,85,0,0
78194,-66.6666666666667,4,1,0,85,0,0
78581,-100,4,1,0,80,0,0
87871,-99.009900990099,4,1,0,90,0,0
87968,-98.0392156862745,4,1,0,90,0,0
88065,-97.0873786407767,4,1,0,90,0,0
88161,-96.1538461538461,4,1,0,90,0,0
88258,-95.2380952380952,4,1,0,90,0,0
88452,-94.3396226415094,4,1,0,90,0,0
88645,-93.4579439252336,4,1,0,90,0,0
88742,-92.5925925925926,4,1,0,90,0,0
88839,-91.743119266055,4,1,0,90,0,0
88936,-90.9090909090909,4,1,0,90,0,0
89032,-90.0900900900901,4,1,0,90,0,0
89226,-89.2857142857143,4,1,0,90,0,0
89420,-88.4955752212389,4,1,0,90,0,0
89516,-87.719298245614,4,1,0,90,0,0
89613,-86.9565217391304,4,1,0,90,0,0
89710,-86.2068965517241,4,1,0,90,0,0
89807,-85.4700854700855,4,1,0,90,0,0
90000,-84.7457627118644,4,1,0,90,0,0
90194,-84.0336134453781,4,1,0,90,0,0
90291,-83.3333333333333,4,1,0,95,0,0
90387,-82.6446280991736,4,1,0,95,0,0
90484,-81.9672131147541,4,1,0,95,0,0
90581,-81.3008130081301,4,1,0,95,0,0
90774,-80.6451612903226,4,1,0,95,0,0
90968,-80,4,1,0,95,0,0
92710,-80,4,1,0,30,0,0
93484,-80,4,1,0,50,0,0
94065,-80,4,1,0,90,0,1
117484,-80,4,1,0,50,0,1
118452,-80,4,1,0,90,0,1
118839,-80,4,1,0,90,0,0
120387,-100,4,1,0,50,0,0
121936,-100,4,1,0,35,0,0
123484,-100,4,1,0,40,0,0
124258,-100,4,1,0,50,0,0
126387,-95.2380952380952,4,1,0,55,0,0
127161,-90.9090909090909,4,1,0,60,0,0
127936,-86.9565217391304,4,1,0,65,0,0
128323,-83.3333333333333,4,1,0,70,0,0
129097,-80,4,1,0,75,0,0
130258,-80,4,1,0,80,0,0
130645,-80,4,1,0,85,0,0
131226,-100,4,1,0,90,0,0
131420,-100,4,1,0,75,0,0
141871,-90.9090909090909,4,1,0,75,0,0
142065,-83.3333333333333,4,1,0,85,0,0
142452,-76.9230769230769,4,1,0,85,0,0
142839,-71.4285714285714,4,1,0,85,0,0
143226,-66.6666666666667,4,1,0,85,0,0
143613,-100,4,1,0,80,0,0
152903,-99.009900990099,4,1,0,90,0,0
153000,-98.0392156862745,4,1,0,90,0,0
153097,-97.0873786407767,4,1,0,90,0,0
153194,-96.1538461538461,4,1,0,90,0,0
153291,-95.2380952380952,4,1,0,90,0,0
153484,-94.3396226415094,4,1,0,90,0,0
153678,-93.4579439252336,4,1,0,90,0,0
153774,-92.5925925925926,4,1,0,90,0,0
153871,-91.743119266055,4,1,0,90,0,0
153968,-90.9090909090909,4,1,0,90,0,0
154065,-90.0900900900901,4,1,0,90,0,0
154258,-89.2857142857143,4,1,0,90,0,0
154452,-88.4955752212389,4,1,0,90,0,0
154549,-87.719298245614,4,1,0,90,0,0
154645,-86.9565217391304,4,1,0,90,0,0
154742,-86.2068965517241,4,1,0,90,0,0
154839,-85.4700854700855,4,1,0,90,0,0
155032,-84.7457627118644,4,1,0,90,0,0
155226,-84.0336134453781,4,1,0,90,0,0
155323,-83.3333333333333,4,1,0,95,0,0
155420,-82.6446280991736,4,1,0,95,0,0
155516,-81.9672131147541,4,1,0,95,0,0
155613,-81.3008130081301,4,1,0,95,0,0
155807,-80.6451612903226,4,1,0,95,0,0
156000,-80,4,1,0,95,0,0
157742,-80,4,1,0,30,0,0
158516,-80,4,1,0,50,0,0
159097,-80,4,1,0,95,0,1
182516,-80,4,1,0,50,0,1
183484,-80,4,1,0,90,0,1
183871,-80,4,1,0,90,0,0
184645,-100,4,1,0,50,0,0
195291,-66.6666666666667,4,1,0,50,0,0
195871,-66.6666666666667,4,1,0,75,0,0
196258,-66.6666666666667,4,1,0,80,0,0
196645,-76.9230769230769,4,1,0,70,0,0
197032,-83.3333333333333,4,1,0,60,0,0
197420,-90.9090909090909,4,1,0,50,0,0
197807,-100,4,1,0,50,0,0
208065,-111.111111111111,4,1,0,50,0,0
208258,-107.52688172043,4,1,0,50,0,0
208452,-103.092783505155,4,1,0,50,0,0
208645,-100,4,1,0,50,0,0
210194,-100,4,1,0,60,0,0
231871,-99.009900990099,4,1,0,65,0,0
232065,-98.0392156862745,4,1,0,65,0,0
232258,-97.0873786407767,4,1,0,65,0,0
232452,-96.1538461538461,4,1,0,65,0,0
232645,-95.2380952380952,4,1,0,70,0,0
245420,-57.1428571428571,4,1,0,85,0,0
246000,-95.2380952380952,4,1,0,70,0,0
248516,-57.1428571428571,4,1,0,85,0,0
249097,-95.2380952380952,4,1,0,70,0,0
251226,-95.2380952380952,4,1,0,90,0,0
251613,-95.2380952380952,4,1,0,70,0,0
252000,-95.2380952380952,4,1,0,75,0,0
255097,-95.2380952380952,4,1,0,80,0,0
258194,-95.2380952380952,4,1,0,85,0,0
258291,-94.3396226415094,4,1,0,85,0,0
258387,-93.8967136150235,4,1,0,85,0,0
258484,-93.4579439252336,4,1,0,85,0,0
258581,-93.0232558139535,4,1,0,85,0,0
258678,-92.5925925925926,4,1,0,85,0,0
258774,-92.1658986175115,4,1,0,85,0,0
258871,-91.743119266055,4,1,0,85,0,0
258968,-91.324200913242,4,1,0,85,0,0
259065,-90.9090909090909,4,1,0,85,0,0
259161,-90.4977375565611,4,1,0,85,0,0
259258,-90.0900900900901,4,1,0,85,0,0
259355,-89.6860986547085,4,1,0,85,0,0
259452,-89.2857142857143,4,1,0,85,0,0
259549,-88.4955752212389,4,1,0,85,0,0
259645,-88.4955752212389,4,1,0,85,0,0
259742,-88.1057268722467,4,1,0,90,0,0
259839,-87.719298245614,4,1,0,90,0,0
259936,-87.3362445414847,4,1,0,90,0,0
260032,-86.9565217391304,4,1,0,90,0,0
260129,-86.5051903114187,4,1,0,90,0,0
260226,-86.2068965517241,4,1,0,90,0,0
260323,-86.2068965517241,4,1,0,90,0,0
260420,-85.8369098712446,4,1,0,90,0,0
260516,-85.4700854700855,4,1,0,90,0,0
261291,-83.3333333333333,4,1,0,90,0,0
263613,-83.3333333333333,4,1,0,95,0,0
264387,-50,4,1,0,90,0,0
264774,-83.3333333333333,4,1,0,70,0,0
264968,-85.4700854700855,4,1,0,70,0,0
265355,-87.719298245614,4,1,0,70,0,0
265742,-90.0900900900901,4,1,0,70,0,0
266129,-92.5925925925926,4,1,0,70,0,0
266516,-95.2380952380952,4,1,0,70,0,0
266903,-93.4579439252336,4,1,0,65,0,0
267097,-90.9090909090909,4,1,0,65,0,0
267291,-86.9565217391304,4,1,0,65,0,0
267484,-80,4,1,0,90,0,1
292258,-83.3333333333333,4,1,0,90,0,0
315968,-84.7457627118644,4,1,0,85,0,0
316065,-86.2068965517241,4,1,0,85,0,0
316161,-87.719298245614,4,1,0,85,0,0
316258,-89.2857142857143,4,1,0,85,0,0
316355,-90.9090909090909,4,1,0,80,0,0
316452,-92.5925925925926,4,1,0,80,0,0
316549,-94.3396226415094,4,1,0,80,0,0
316645,-96.1538461538461,4,1,0,80,0,0
316742,-98.0392156862745,4,1,0,80,0,0
316839,-100,4,1,0,75,0,0
316936,-102.040816326531,4,1,0,75,0,0

[HitObjects]
292,184,582,5,0,0:0:0:0:
292,184,775,1,2,0:0:0:0:
292,184,969,1,0,0:0:0:0:
292,184,1162,1,2,0:0:0:0:
292,184,1549,1,2,0:0:0:0:
292,184,1936,1,2,0:0:0:0:
168,100,2129,1,0,0:0:0:0:
292,184,2516,1,0,0:0:0:0:
292,184,2903,1,2,0:0:0:0:
292,184,3096,1,0,0:0:0:0:
292,184,3290,1,0,0:0:0:0:
196,57,3387,1,2,0:0:0:0:
312,160,3483,1,2,0:0:0:0:
312,160,3677,1,0,0:0:0:0:
312,160,3870,1,2,0:0:0:0:
312,160,4064,1,0,0:0:0:0:
312,160,4257,1,0,0:0:0:0:
312,160,4645,1,2,0:0:0:0:
312,160,4838,1,0,0:0:0:0:
312,160,5225,1,2,0:0:0:0:
312,160,5419,1,2,0:0:0:0:
312,160,5612,1,0,0:0:0:0:
52,140,5807,1,0,0:0:0:0:
308,152,5999,1,0,0:0:0:0:
308,152,6193,1,2,0:0:0:0:
272,136,6387,1,2,0:0:0:0:
272,136,6580,1,2,0:0:0:0:
204,112,6774,1,0,0:0:0:0:
204,112,6968,1,2,0:0:0:0:
204,112,7161,1,0,0:0:0:0:
352,192,7354,1,2,0:0:0:0:
292,184,7742,1,2,0:0:0:0:
292,184,8129,1,2,0:0:0:0:
216,232,8323,1,0,0:0:0:0:
292,184,8710,1,0,0:0:0:0:
292,184,9097,1,2,0:0:0:0:
292,184,9291,1,0,0:0:0:0:
292,184,9484,1,0,0:0:0:0:
193,55,9581,1,2,0:0:0:0:
312,160,9678,1,2,0:0:0:0:
308,92,9871,1,2,0:0:0:0:
308,92,10065,1,0,0:0:0:0:
308,92,10258,1,0,0:0:0:0:
308,92,10452,1,0,0:0:0:0:
304,92,10645,1,2,0:0:0:0:
304,92,10839,1,0,0:0:0:0:
220,156,11032,1,0,0:0:0:0:
304,92,11420,1,2,0:0:0:0:
304,92,11613,1,2,0:0:0:0:
220,144,11807,1,0,0:0:0:0:
304,92,12000,1,0,0:0:0:0:
304,92,12194,1,2,0:0:0:0:
304,92,12387,1,2,0:0:0:0:
304,92,12581,1,0,0:0:0:0:
40,128,12774,1,0,0:0:0:0:
160,96,12968,1,0,0:0:0:0:
160,96,13161,1,2,0:0:0:0:
160,96,13355,1,0,0:0:0:0:
356,160,13550,1,6,0:0:0:0:
280,160,13743,1,0,0:0:0:0:
280,160,13840,1,0,0:0:0:0:
280,160,13936,1,2,0:0:0:0:
196,216,14129,1,0,0:0:0:0:
196,216,14323,1,2,0:0:0:0:
168,112,14420,1,2,0:0:0:0:
196,216,14517,1,0,0:0:0:0:
308,59,14613,1,0,0:0:0:0:
240,192,14710,1,2,0:0:0:0:
240,192,14904,1,2,0:0:0:0:
240,192,15097,1,0,0:0:0:0:
240,192,15291,1,2,0:0:0:0:
128,40,15387,1,0,0:0:0:0:
240,192,15484,1,0,0:0:0:0:
240,192,15678,1,0,0:0:0:0:
168,112,15774,1,2,0:0:0:0:
240,192,15871,1,0,0:0:0:0:
276,120,16065,1,0,0:0:0:0:
276,120,16162,1,0,0:0:0:0:
276,120,16258,1,2,0:0:0:0:
276,120,16452,1,2,0:0:0:0:
276,112,16646,1,0,0:0:0:0:
276,120,16839,1,0,0:0:0:0:
276,120,17033,1,2,0:0:0:0:
276,120,17129,1,2,0:0:0:0:
276,120,17226,1,0,0:0:0:0:
276,120,17323,1,0,0:0:0:0:
276,120,17420,1,2,0:0:0:0:
280,120,17613,1,2,0:0:0:0:
276,120,17807,1,0,0:0:0:0:
276,120,17904,1,2,0:0:0:0:
276,120,18000,1,0,0:0:0:0:
276,120,18097,1,2,0:0:0:0:
276,120,18194,1,2,0:0:0:0:
276,112,18388,1,2,0:0:0:0:
276,112,18581,1,2,0:0:0:0:
276,112,18678,1,2,0:0:0:0:
276,112,18775,1,0,0:0:0:0:
276,112,18968,1,2,0:0:0:0:
276,112,19065,1,0,0:0:0:0:
276,112,19162,1,2,0:0:0:0:
272,108,19258,1,0,0:0:0:0:
272,108,19355,1,0,0:0:0:0:
268,108,19549,1,0,0:0:0:0:
344,156,19645,1,0,0:0:0:0:
268,108,19742,1,6,0:0:0:0:
348,208,19936,1,2,0:0:0:0:
360,164,20129,1,0,0:0:0:0:
360,164,20323,1,2,0:0:0:0:
360,164,20420,1,0,0:0:0:0:
360,164,20517,1,2,0:0:0:0:
44,128,20613,1,2,0:0:0:0:
228,108,20710,1,0,0:0:0:0:
228,108,20903,1,2,0:0:0:0:
364,160,21097,1,0,0:0:0:0:
228,108,21194,1,0,0:0:0:0:
228,108,21291,1,0,0:0:0:0:
280,164,21484,1,2,0:0:0:0:
280,164,21678,1,0,0:0:0:0:
356,88,21774,1,0,0:0:0:0:
280,164,21871,1,2,0:0:0:0:
280,164,21968,1,2,0:0:0:0:
280,164,22065,1,0,0:0:0:0:
300,156,22258,1,2,0:0:0:0:
172,92,22355,1,2,0:0:0:0:
300,156,22452,1,0,0:0:0:0:
300,156,22646,1,2,0:0:0:0:
164,84,22742,1,0,0:0:0:0:
300,156,22839,1,2,0:0:0:0:
360,132,23033,1,2,0:0:0:0:
360,132,23226,1,0,0:0:0:0:
360,132,23323,1,0,0:0:0:0:
360,132,23420,1,2,0:0:0:0:
360,132,23517,1,0,0:0:0:0:
360,132,23613,1,2,0:0:0:0:
360,132,23807,1,2,0:0:0:0:
360,132,24000,1,0,0:0:0:0:
360,132,24097,1,2,0:0:0:0:
364,136,24194,1,0,0:0:0:0:
364,136,24291,1,2,0:0:0:0:
364,136,24388,1,2,0:0:0:0:
288,168,24581,1,0,0:0:0:0:
288,168,24678,1,0,0:0:0:0:
288,168,24775,1,2,0:0:0:0:
288,168,24968,1,0,0:0:0:0:
288,168,25065,1,2,0:0:0:0:
288,168,25161,1,0,0:0:0:0:
288,168,25355,1,0,0:0:0:0:
288,168,25452,1,0,0:0:0:0:
288,168,25549,1,2,0:0:0:0:
292,160,25742,1,2,0:0:0:0:
292,160,25839,1,2,0:0:0:0:
292,160,25936,1,4,0:0:0:0:
256,192,27484,12,0,28839,0:0:0:0:
340,176,29032,5,0,0:0:0:0:
348,176,29130,1,2,0:0:0:0:
352,44,29227,1,0,0:0:0:0:
352,44,29291,1,2,0:0:0:0:
256,120,29355,1,2,0:0:0:0:
280,56,29420,1,0,0:0:0:0:
344,164,29517,1,2,0:0:0:0:
344,164,29613,1,2,0:0:0:0:
92,112,29710,1,2,0:0:0:0:
348,160,29807,1,0,0:0:0:0:
348,160,29904,1,2,0:0:0:0:
348,160,30000,1,0,0:0:0:0:
348,160,30097,1,2,0:0:0:0:
348,160,30194,1,0,0:0:0:0:
348,160,30291,1,2,0:0:0:0:
348,160,30388,1,0,0:0:0:0:
348,160,30452,1,2,0:0:0:0:
260,180,30516,1,2,0:0:0:0:
348,160,30581,1,0,0:0:0:0:
308,80,30678,1,2,0:0:0:0:
308,80,30775,1,0,0:0:0:0:
308,80,30871,1,2,0:0:0:0:
308,80,30968,1,0,0:0:0:0:
308,80,31065,1,2,0:0:0:0:
308,80,31162,1,2,0:0:0:0:
308,80,31258,1,0,0:0:0:0:
308,80,31355,1,2,0:0:0:0:
312,104,31452,1,2,0:0:0:0:
312,104,31549,1,0,0:0:0:0:
312,104,31646,1,2,0:0:0:0:
312,104,31742,1,0,0:0:0:0:
312,104,31839,1,0,0:0:0:0:
312,104,31936,1,2,0:0:0:0:
312,104,32033,1,2,0:0:0:0:
316,80,32129,1,0,0:0:0:0:
316,80,32226,1,2,0:0:0:0:
304,84,32323,1,0,0:0:0:0:
276,88,32387,1,2,0:0:0:0:
372,104,32452,1,2,0:0:0:0:
276,88,32517,1,0,0:0:0:0:
276,88,32613,1,0,0:0:0:0:
276,88,32710,1,2,0:0:0:0:
64,128,32807,1,2,0:0:0:0:
284,80,32904,1,0,0:0:0:0:
288,80,33000,1,2,0:0:0:0:
288,80,33097,1,0,0:0:0:0:
280,80,33194,1,2,0:0:0:0:
280,80,33291,1,0,0:0:0:0:
332,52,33388,1,2,0:0:0:0:
332,52,33484,1,0,0:0:0:0:
332,52,33549,1,2,0:0:0:0:
252,160,33613,1,2,0:0:0:0:
332,52,33678,1,0,0:0:0:0:
412,144,33774,1,0,0:0:0:0:
412,144,33871,1,2,0:0:0:0:
412,144,33968,1,2,0:0:0:0:
412,144,34065,1,0,0:0:0:0:
412,144,34162,1,2,0:0:0:0:
412,144,34258,1,0,0:0:0:0:
412,144,34355,1,2,0:0:0:0:
412,144,34452,1,2,0:0:0:0:
412,144,34549,1,0,0:0:0:0:
256,144,34646,1,2,0:0:0:0:
256,144,34742,1,0,0:0:0:0:
256,144,34839,1,2,0:0:0:0:
256,144,34936,1,0,0:0:0:0:
256,144,35033,1,0,0:0:0:0:
256,144,35129,1,0,0:0:0:0:
256,144,35226,1,2,0:0:0:0:
296,116,35323,1,2,0:0:0:0:
296,116,35420,1,0,0:0:0:0:
292,112,35484,1,0,0:0:0:0:
292,112,35549,1,0,0:0:0:0:
292,112,35613,1,2,0:0:0:0:
296,108,35710,1,2,0:0:0:0:
296,108,35807,1,0,0:0:0:0:
296,108,35903,1,2,0:0:0:0:
168,104,36000,1,2,0:0:0:0:
296,120,36097,1,0,0:0:0:0:
296,120,36194,1,2,0:0:0:0:
296,120,36291,1,0,0:0:0:0:
296,120,36388,1,2,0:0:0:0:
296,120,36484,1,0,0:0:0:0:
296,120,36581,1,2,0:0:0:0:
296,120,36678,1,2,0:0:0:0:
304,176,36775,1,0,0:0:0:0:
392,172,36871,1,0,0:0:0:0:
224,128,36968,1,2,0:0:0:0:
224,128,37065,1,0,0:0:0:0:
224,128,37162,1,2,0:0:0:0:
224,128,37258,1,0,0:0:0:0:
224,128,37355,1,2,0:0:0:0:
224,128,37452,1,2,0:0:0:0:
224,128,37549,1,0,0:0:0:0:
228,120,37646,1,0,0:0:0:0:
228,120,37742,1,2,0:0:0:0:
228,120,37839,1,2,0:0:0:0:
228,120,37936,1,0,0:0:0:0:
228,120,38033,1,2,0:0:0:0:
228,120,38129,1,0,0:0:0:0:
228,120,38226,1,0,0:0:0:0:
228,120,38323,1,0,0:0:0:0:
320,168,38420,1,2,0:0:0:0:
320,168,38517,1,0,0:0:0:0:
260,180,38581,1,2,0:0:0:0:
260,180,38645,1,2,0:0:0:0:
312,152,38710,1,0,0:0:0:0:
312,152,38807,1,0,0:0:0:0:
168,64,38903,1,0,0:0:0:0:
312,152,39000,1,2,0:0:0:0:
276,108,39097,1,0,0:0:0:0:
296,148,39194,1,2,0:0:0:0:
296,148,39291,1,0,0:0:0:0:
296,148,39388,1,2,0:0:0:0:
296,148,39484,1,0,0:0:0:0:
296,148,39581,1,2,0:0:0:0:
296,148,39678,1,0,0:0:0:0:
296,148,39774,1,2,0:0:0:0:
296,148,39871,1,0,0:0:0:0:
328,96,39968,1,0,0:0:0:0:
328,96,40065,1,2,0:0:0:0:
328,96,40162,1,0,0:0:0:0:
328,96,40258,1,2,0:0:0:0:
328,96,40355,1,2,0:0:0:0:
176,176,40452,1,0,0:0:0:0:
184,172,40549,1,0,0:0:0:0:
264,168,40646,1,2,0:0:0:0:
264,176,40742,1,2,0:0:0:0:
268,176,40839,1,0,0:0:0:0:
268,176,40936,1,0,0:0:0:0:
412,144,41033,1,2,0:0:0:0:
412,144,41081,1,2,0:0:0:0:
236,116,41129,1,2,0:0:0:0:
140,92,41178,1,2,0:0:0:0:
180,144,41226,1,0,0:0:0:0:
340,176,41420,5,0,0:0:0:0:
348,176,41516,1,2,0:0:0:0:
352,44,41613,1,0,0:0:0:0:
352,44,41679,1,2,0:0:0:0:
256,120,41743,1,2,0:0:0:0:
280,56,41808,1,0,0:0:0:0:
344,164,41903,1,2,0:0:0:0:
344,164,42001,1,2,0:0:0:0:
196,108,42098,1,2,0:0:0:0:
348,160,42195,1,0,0:0:0:0:
348,160,42292,1,2,0:0:0:0:
348,160,42388,1,0,0:0:0:0:
348,160,42485,1,2,0:0:0:0:
348,160,42582,1,0,0:0:0:0:
348,160,42679,1,2,0:0:0:0:
348,160,42774,1,0,0:0:0:0:
348,160,42840,1,2,0:0:0:0:
260,180,42904,1,2,0:0:0:0:
348,160,42969,1,0,0:0:0:0:
308,80,43066,1,2,0:0:0:0:
308,80,43161,1,0,0:0:0:0:
308,80,43258,1,2,0:0:0:0:
308,80,43356,1,0,0:0:0:0:
308,80,43453,1,2,0:0:0:0:
308,80,43550,1,2,0:0:0:0:
308,80,43646,1,0,0:0:0:0:
308,80,43743,1,2,0:0:0:0:
312,104,43840,1,2,0:0:0:0:
312,104,43937,1,0,0:0:0:0:
312,104,44032,1,2,0:0:0:0:
312,104,44130,1,0,0:0:0:0:
312,104,44227,1,0,0:0:0:0:
312,104,44324,1,2,0:0:0:0:
312,104,44421,1,2,0:0:0:0:
316,80,44517,1,0,0:0:0:0:
316,80,44614,1,2,0:0:0:0:
304,84,44711,1,0,0:0:0:0:
276,88,44775,1,2,0:0:0:0:
372,104,44840,1,2,0:0:0:0:
276,88,44903,1,0,0:0:0:0:
276,88,45001,1,2,0:0:0:0:
276,88,45098,1,0,0:0:0:0:
64,128,45194,1,0,0:0:0:0:
284,80,45292,1,0,0:0:0:0:
288,80,45388,1,2,0:0:0:0:
288,80,45485,1,0,0:0:0:0:
280,80,45582,1,2,0:0:0:0:
280,80,45679,1,0,0:0:0:0:
332,52,45774,1,2,0:0:0:0:
332,52,45872,1,0,0:0:0:0:
332,52,45937,1,2,0:0:0:0:
252,160,46001,1,2,0:0:0:0:
332,52,46066,1,0,0:0:0:0:
412,144,46162,1,0,0:0:0:0:
412,144,46259,1,2,0:0:0:0:
412,144,46356,1,2,0:0:0:0:
412,144,46453,1,0,0:0:0:0:
412,144,46550,1,2,0:0:0:0:
412,144,46646,1,0,0:0:0:0:
412,144,46743,1,2,0:0:0:0:
412,144,46840,1,2,0:0:0:0:
412,144,46937,1,0,0:0:0:0:
256,144,47032,1,2,0:0:0:0:
256,144,47130,1,0,0:0:0:0:
256,144,47227,1,2,0:0:0:0:
256,144,47324,1,0,0:0:0:0:
256,144,47421,1,0,0:0:0:0:
256,144,47517,1,0,0:0:0:0:
256,144,47614,1,2,0:0:0:0:
296,116,47711,1,2,0:0:0:0:
296,116,47808,1,0,0:0:0:0:
292,112,47872,1,0,0:0:0:0:
292,112,47937,1,0,0:0:0:0:
292,112,48001,1,2,0:0:0:0:
296,108,48098,1,2,0:0:0:0:
296,108,48195,1,0,0:0:0:0:
296,108,48291,1,2,0:0:0:0:
168,104,48388,1,2,0:0:0:0:
296,120,48485,1,0,0:0:0:0:
296,120,48582,1,2,0:0:0:0:
296,120,48679,1,0,0:0:0:0:
296,120,48774,1,0,0:0:0:0:
296,120,48872,1,0,0:0:0:0:
296,120,48969,1,2,0:0:0:0:
296,120,49066,1,0,0:0:0:0:
304,176,49161,1,2,0:0:0:0:
392,172,49259,1,2,0:0:0:0:
224,128,49356,1,2,0:0:0:0:
224,128,49453,1,0,0:0:0:0:
224,128,49550,1,2,0:0:0:0:
224,128,49646,1,0,0:0:0:0:
224,128,49743,1,2,0:0:0:0:
224,128,49840,1,2,0:0:0:0:
224,128,49937,1,0,0:0:0:0:
228,120,50032,1,0,0:0:0:0:
228,120,50130,1,2,0:0:0:0:
228,120,50227,1,2,0:0:0:0:
228,120,50324,1,0,0:0:0:0:
228,120,50421,1,2,0:0:0:0:
228,120,50517,1,0,0:0:0:0:
228,120,50614,1,0,0:0:0:0:
228,120,50711,1,0,0:0:0:0:
320,168,50808,1,2,0:0:0:0:
320,168,50903,1,0,0:0:0:0:
260,180,50969,1,2,0:0:0:0:
260,180,51033,1,2,0:0:0:0:
312,152,51098,5,0,0:0:0:0:
312,152,51195,1,2,0:0:0:0:
168,64,51291,1,0,0:0:0:0:
312,152,51388,1,2,0:0:0:0:
276,108,51485,1,0,0:0:0:0:
296,148,51582,1,0,0:0:0:0:
296,148,51679,1,2,0:0:0:0:
296,148,51774,1,2,0:0:0:0:
296,148,51872,1,0,0:0:0:0:
296,148,51969,1,2,0:0:0:0:
296,148,52066,1,0,0:0:0:0:
296,148,52162,1,0,0:0:0:0:
296,148,52258,1,0,0:0:0:0:
328,96,52355,1,2,0:0:0:0:
328,96,52452,1,0,0:0:0:0:
328,96,52549,1,0,0:0:0:0:
328,96,52645,1,2,0:0:0:0:
328,96,52742,1,2,0:0:0:0:
176,176,52839,1,0,0:0:0:0:
184,172,52936,1,2,0:0:0:0:
264,168,53033,1,0,0:0:0:0:
264,176,53129,1,0,0:0:0:0:
268,176,53226,1,0,0:0:0:0:
268,176,53323,1,0,0:0:0:0:
412,144,53420,1,2,0:0:0:0:
412,144,53516,1,2,0:0:0:0:
412,144,53613,1,0,0:0:0:0:
280,80,53710,1,0,0:0:0:0:
216,80,53807,1,6,0:0:0:0:
224,212,54194,1,0,0:0:0:0:
247,128,54291,1,2,0:0:0:0:
247,128,54484,1,2,0:0:0:0:
247,128,54581,1,0,0:0:0:0:
128,148,54678,1,0,0:0:0:0:
128,148,54871,1,0,0:0:0:0:
352,92,54968,1,0,0:0:0:0:
196,216,55161,1,0,0:0:0:0:
352,92,55355,1,0,0:0:0:0:
352,120,55742,1,0,0:0:0:0:
352,120,55839,1,2,0:0:0:0:
352,120,56032,1,2,0:0:0:0:
352,120,56129,1,0,0:0:0:0:
120,144,56226,1,0,0:0:0:0:
120,144,56420,1,0,0:0:0:0:
352,120,56516,1,0,0:0:0:0:
196,216,56710,1,0,0:0:0:0:
268,96,56903,1,0,0:0:0:0:
352,120,57291,1,0,0:0:0:0:
352,120,57388,1,2,0:0:0:0:
352,120,57582,1,2,0:0:0:0:
352,120,57678,1,0,0:0:0:0:
128,96,57774,1,0,0:0:0:0:
128,96,57968,1,0,0:0:0:0:
352,120,58066,1,0,0:0:0:0:
196,216,58258,1,0,0:0:0:0:
268,96,58452,1,0,0:0:0:0:
352,120,58839,1,0,0:0:0:0:
352,120,58936,1,2,0:0:0:0:
352,120,59130,1,2,0:0:0:0:
352,120,59226,1,0,0:0:0:0:
128,96,59323,1,0,0:0:0:0:
128,96,59516,1,0,0:0:0:0:
296,80,59613,1,0,0:0:0:0:
296,80,59677,1,0,0:0:0:0:
296,80,59742,1,0,0:0:0:0:
296,80,59806,1,0,0:0:0:0:
296,80,59871,1,0,0:0:0:0:
296,80,59935,1,0,0:0:0:0:
296,80,60000,1,2,0:0:0:0:
376,120,60193,1,0,0:0:0:0:
376,120,60387,1,2,0:0:0:0:
376,120,60483,1,0,0:0:0:0:
276,164,60678,1,0,0:0:0:0:
376,120,60774,1,0,0:0:0:0:
376,120,60871,1,0,0:0:0:0:
276,164,61065,1,0,0:0:0:0:
376,120,61161,1,2,0:0:0:0:
376,120,61354,1,0,0:0:0:0:
376,120,61548,1,0,0:0:0:0:
376,120,61741,1,0,0:0:0:0:
376,120,61935,1,2,0:0:0:0:
172,96,62032,1,0,0:0:0:0:
276,164,62226,1,0,0:0:0:0:
376,120,62322,1,0,0:0:0:0:
376,120,62420,1,0,0:0:0:0:
60,144,62613,1,0,0:0:0:0:
376,120,62709,1,2,0:0:0:0:
376,120,62902,1,0,0:0:0:0:
376,120,63097,1,0,0:0:0:0:
376,120,63291,1,0,0:0:0:0:
376,120,63484,1,2,0:0:0:0:
376,120,63581,1,0,0:0:0:0:
116,144,63774,1,0,0:0:0:0:
304,80,63870,1,0,0:0:0:0:
304,80,63935,1,0,0:0:0:0:
304,80,63999,1,0,0:0:0:0:
304,80,64064,1,2,0:0:0:0:
304,80,64128,1,2,0:0:0:0:
304,80,64193,1,2,0:0:0:0:
304,80,64257,1,2,0:0:0:0:
352,128,64451,1,0,0:0:0:0:
376,144,64645,1,6,0:0:0:0:
280,152,65419,1,6,0:0:0:0:
280,152,65806,1,6,0:0:0:0:
432,188,66193,1,4,0:0:0:0:
352,80,66387,1,0,0:0:0:0:
356,128,66483,1,0,0:0:0:0:
356,128,66580,1,2,0:0:0:0:
296,160,66774,1,2,0:0:0:0:
288,160,66967,1,2,0:0:0:0:
292,156,67161,1,2,0:0:0:0:
292,156,67354,1,0,0:0:0:0:
180,152,67742,1,0,0:0:0:0:
292,148,67936,1,0,0:0:0:0:
292,148,68129,1,2,0:0:0:0:
292,148,68322,1,0,0:0:0:0:
288,148,68516,1,0,0:0:0:0:
308,184,68709,1,0,0:0:0:0:
308,184,68806,1,2,0:0:0:0:
308,184,68903,1,2,0:0:0:0:
180,152,69291,1,0,0:0:0:0:
252,216,69483,1,0,0:0:0:0:
252,216,69677,1,2,0:0:0:0:
252,216,69870,1,0,0:0:0:0:
252,216,70064,1,2,0:0:0:0:
252,216,70257,1,2,0:0:0:0:
252,216,70354,1,2,0:0:0:0:
252,216,70451,1,0,0:0:0:0:
180,152,70839,1,0,0:0:0:0:
384,200,71032,1,0,0:0:0:0:
384,200,71225,1,2,0:0:0:0:
384,200,71419,1,0,0:0:0:0:
384,200,71612,1,2,0:0:0:0:
284,136,71806,1,2,0:0:0:0:
284,136,71903,1,2,0:0:0:0:
284,136,71999,1,0,0:0:0:0:
284,136,72193,1,2,0:0:0:0:
316,240,72291,1,2,0:0:0:0:
384,200,72387,1,0,0:0:0:0:
416,184,72580,1,2,0:0:0:0:
416,184,72774,1,2,0:0:0:0:
416,184,72967,1,0,0:0:0:0:
416,184,73161,1,2,0:0:0:0:
416,184,73354,1,0,0:0:0:0:
416,184,73451,1,0,0:0:0:0:
416,184,73548,1,2,0:0:0:0:
180,152,73936,1,0,0:0:0:0:
348,104,74128,1,0,0:0:0:0:
348,104,74322,1,2,0:0:0:0:
348,104,74516,1,0,0:0:0:0:
348,104,74709,1,2,0:0:0:0:
348,104,74903,1,0,0:0:0:0:
348,104,74999,1,0,0:0:0:0:
348,104,75096,1,2,0:0:0:0:
180,152,75484,1,0,0:0:0:0:
404,176,75677,1,0,0:0:0:0:
404,176,75870,1,2,0:0:0:0:
404,176,76064,1,2,0:0:0:0:
404,176,76257,1,0,0:0:0:0:
404,176,76451,1,0,0:0:0:0:
328,184,76548,1,0,0:0:0:0:
404,176,76645,1,2,0:0:0:0:
404,176,76838,1,0,0:0:0:0:
468,124,77032,1,6,0:0:0:0:
468,124,77420,1,6,0:0:0:0:
468,124,77807,1,4,0:0:0:0:
468,124,78194,1,6,0:0:0:0:
320,180,78581,1,2,0:0:0:0:
320,180,78677,1,2,0:0:0:0:
320,180,78774,1,0,0:0:0:0:
320,180,78870,1,0,0:0:0:0:
320,180,78967,1,2,0:0:0:0:
264,156,79161,1,2,0:0:0:0:
264,156,79354,1,0,0:0:0:0:
264,156,79451,1,0,0:0:0:0:
264,156,79548,1,2,0:0:0:0:
264,156,79645,1,0,0:0:0:0:
264,156,79741,1,0,0:0:0:0:
264,156,79935,1,2,0:0:0:0:
264,156,80128,1,0,0:0:0:0:
264,156,80322,1,2,0:0:0:0:
264,156,80419,1,2,0:0:0:0:
264,156,80516,1,0,0:0:0:0:
264,156,80709,1,0,0:0:0:0:
264,156,80806,1,2,0:0:0:0:
264,156,80903,1,2,0:0:0:0:
264,156,81096,1,2,0:0:0:0:
264,156,81193,1,2,0:0:0:0:
264,156,81290,1,0,0:0:0:0:
264,156,81483,1,0,0:0:0:0:
264,156,81677,1,0,0:0:0:0:
264,156,81774,1,0,0:0:0:0:
264,156,81870,1,0,0:0:0:0:
264,156,81967,1,0,0:0:0:0:
264,156,82064,1,2,0:0:0:0:
264,156,82257,1,0,0:0:0:0:
264,156,82451,1,2,0:0:0:0:
264,156,82549,1,2,0:0:0:0:
264,148,82645,1,0,0:0:0:0:
264,156,82742,1,0,0:0:0:0:
264,156,82839,1,2,0:0:0:0:
204,88,83032,1,0,0:0:0:0:
264,156,83225,1,0,0:0:0:0:
316,152,83419,1,2,0:0:0:0:
316,152,83516,1,2,0:0:0:0:
316,152,83612,1,0,0:0:0:0:
316,152,83806,1,0,0:0:0:0:
316,152,83903,1,0,0:0:0:0:
316,152,83999,1,2,0:0:0:0:
316,152,84193,1,2,0:0:0:0:
316,152,84290,1,0,0:0:0:0:
316,152,84387,1,0,0:0:0:0:
316,152,84580,1,0,0:0:0:0:
316,152,84774,1,2,0:0:0:0:
232,120,84870,1,2,0:0:0:0:
232,120,84967,1,0,0:0:0:0:
232,120,85064,1,0,0:0:0:0:
232,120,85161,1,2,0:0:0:0:
232,120,85354,1,2,0:0:0:0:
232,120,85548,1,0,0:0:0:0:
288,180,85645,1,0,0:0:0:0:
288,180,85742,1,2,0:0:0:0:
288,180,85839,1,2,0:0:0:0:
272,88,85936,1,0,0:0:0:0:
272,88,86128,1,2,0:0:0:0:
272,88,86322,1,0,0:0:0:0:
376,144,86516,1,0,0:0:0:0:
324,120,86613,1,0,0:0:0:0:
376,144,86709,1,2,0:0:0:0:
376,144,86903,1,2,0:0:0:0:
376,144,87000,1,0,0:0:0:0:
376,144,87097,1,0,0:0:0:0:
376,144,87290,1,0,0:0:0:0:
156,44,87387,1,0,0:0:0:0:
376,144,87483,1,2,0:0:0:0:
376,144,87678,1,2,0:0:0:0:
376,144,87871,1,0,0:0:0:0:
368,180,87968,1,0,0:0:0:0:
368,180,88065,1,0,0:0:0:0:
368,180,88161,1,0,0:0:0:0:
368,180,88258,1,2,0:0:0:0:
368,180,88452,1,2,0:0:0:0:
368,180,88645,1,0,0:0:0:0:
368,180,88742,1,0,0:0:0:0:
368,180,88839,1,0,0:0:0:0:
368,180,88936,1,2,0:0:0:0:
368,180,89032,1,2,0:0:0:0:
368,180,89226,1,2,0:0:0:0:
368,180,89420,1,0,0:0:0:0:
368,180,89517,1,0,0:0:0:0:
368,180,89613,1,2,0:0:0:0:
368,180,89710,1,2,0:0:0:0:
368,180,89807,1,2,0:0:0:0:
372,176,90000,1,2,0:0:0:0:
372,176,90194,1,0,0:0:0:0:
372,176,90291,1,2,0:0:0:0:
372,176,90388,1,2,0:0:0:0:
372,176,90484,1,2,0:0:0:0:
372,176,90581,1,2,0:0:0:0:
372,176,90775,1,2,0:0:0:0:
372,176,90968,1,2,0:0:0:0:
372,176,91064,1,0,0:0:0:0:
372,176,91161,1,2,0:0:0:0:
372,176,91257,1,0,0:0:0:0:
372,176,91354,1,2,0:0:0:0:
372,176,91451,1,2,0:0:0:0:
372,176,91548,1,0,0:0:0:0:
372,176,91645,1,2,0:0:0:0:
372,176,91741,1,0,0:0:0:0:
372,176,91838,1,0,0:0:0:0:
372,176,91935,1,2,0:0:0:0:
372,176,92032,1,0,0:0:0:0:
360,116,92128,1,2,0:0:0:0:
360,116,92178,1,2,0:0:0:0:
360,116,92226,1,2,0:0:0:0:
128,112,92274,1,2,0:0:0:0:
360,116,92322,1,0,0:0:0:0:
440,136,92419,1,0,0:0:0:0:
440,136,92516,1,2,0:0:0:0:
376,172,93483,1,0,0:0:0:0:
376,172,93677,1,2,0:0:0:0:
376,172,93870,1,0,0:0:0:0:
432,132,94065,1,6,0:0:0:0:
284,112,94257,1,0,0:0:0:0:
284,112,94451,1,2,0:0:0:0:
284,112,94548,1,0,0:0:0:0:
284,112,94645,1,2,0:0:0:0:
284,112,94741,1,2,0:0:0:0:
284,112,94838,1,0,0:0:0:0:
284,112,95032,1,0,0:0:0:0:
284,112,95225,1,2,0:0:0:0:
284,112,95419,1,2,0:0:0:0:
216,124,95516,1,0,0:0:0:0:
284,112,95612,1,0,0:0:0:0:
184,32,95710,1,0,0:0:0:0:
268,104,95806,1,2,0:0:0:0:
268,104,95999,1,0,0:0:0:0:
268,104,96193,1,2,0:0:0:0:
268,104,96290,1,0,0:0:0:0:
144,120,96484,1,0,0:0:0:0:
268,104,96580,1,2,0:0:0:0:
268,104,96677,1,0,0:0:0:0:
268,104,96774,1,2,0:0:0:0:
268,104,96870,1,2,0:0:0:0:
268,104,96968,1,0,0:0:0:0:
272,96,97161,1,2,0:0:0:0:
372,128,97354,1,0,0:0:0:0:
372,128,97548,1,2,0:0:0:0:
372,128,97645,1,2,0:0:0:0:
372,128,97741,1,0,0:0:0:0:
372,128,97838,1,0,0:0:0:0:
372,128,97935,1,2,0:0:0:0:
376,124,98129,1,0,0:0:0:0:
376,124,98322,1,2,0:0:0:0:
376,124,98419,1,2,0:0:0:0:
304,224,98516,1,0,0:0:0:0:
344,108,98612,1,2,0:0:0:0:
160,108,98807,1,0,0:0:0:0:
344,108,98903,1,2,0:0:0:0:
344,108,98999,1,2,0:0:0:0:
344,108,99096,1,0,0:0:0:0:
344,108,99291,1,2,0:0:0:0:
344,108,99484,1,0,0:0:0:0:
172,104,99581,1,0,0:0:0:0:
344,108,99678,1,2,0:0:0:0:
344,108,99774,1,0,0:0:0:0:
176,84,99968,1,0,0:0:0:0:
340,112,100064,1,2,0:0:0:0:
208,92,100161,1,2,0:0:0:0:
340,112,100257,1,0,0:0:0:0:
296,132,100451,1,0,0:0:0:0:
296,132,100548,1,0,0:0:0:0:
296,132,100645,1,2,0:0:0:0:
296,132,100838,1,0,0:0:0:0:
296,132,101032,1,2,0:0:0:0:
112,104,101129,1,2,0:0:0:0:
368,160,101226,1,0,0:0:0:0:
368,160,101419,1,0,0:0:0:0:
368,160,101612,1,2,0:0:0:0:
76,124,101710,1,2,0:0:0:0:
368,160,101806,1,2,0:0:0:0:
304,120,101999,1,2,0:0:0:0:
304,120,102096,1,0,0:0:0:0:
304,120,102193,1,0,0:0:0:0:
304,120,102387,1,0,0:0:0:0:
304,120,102483,1,2,0:0:0:0:
304,120,102678,1,0,0:0:0:0:
304,120,102774,1,2,0:0:0:0:
304,120,102871,1,0,0:0:0:0:
304,120,102968,1,2,0:0:0:0:
304,120,103161,1,0,0:0:0:0:
132,72,103258,1,0,0:0:0:0:
304,120,103354,1,2,0:0:0:0:
264,132,103548,1,2,0:0:0:0:
264,132,103741,1,0,0:0:0:0:
180,80,103839,1,2,0:0:0:0:
264,132,103935,1,0,0:0:0:0:
264,132,104128,1,2,0:0:0:0:
264,132,104225,1,2,0:0:0:0:
264,132,104322,1,0,0:0:0:0:
328,116,104516,1,0,0:0:0:0:
328,116,104612,1,2,0:0:0:0:
328,116,104806,1,2,0:0:0:0:
328,116,104903,1,0,0:0:0:0:
356,136,105096,1,0,0:0:0:0:
356,136,105193,1,0,0:0:0:0:
356,136,105290,1,2,0:0:0:0:
356,136,105387,1,0,0:0:0:0:
356,136,105483,1,0,0:0:0:0:
356,136,105580,1,0,0:0:0:0:
352,136,105677,1,2,0:0:0:0:
332,136,105870,1,2,0:0:0:0:
332,136,105967,1,0,0:0:0:0:
332,136,106064,1,2,0:0:0:0:
332,136,106161,1,0,0:0:0:0:
296,84,106257,1,0,0:0:0:0:
296,84,106307,1,0,0:0:0:0:
296,84,106355,1,0,0:0:0:0:
40,136,106403,1,0,0:0:0:0:
296,84,106451,1,2,0:0:0:0:
284,112,106645,1,0,0:0:0:0:
284,112,106839,1,2,0:0:0:0:
284,112,106936,1,2,0:0:0:0:
284,112,107033,1,2,0:0:0:0:
284,112,107129,1,0,0:0:0:0:
284,112,107226,1,0,0:0:0:0:
284,112,107420,1,0,0:0:0:0:
284,112,107613,1,2,0:0:0:0:
284,112,107807,1,2,0:0:0:0:
216,124,107904,1,0,0:0:0:0:
284,112,108000,1,0,0:0:0:0:
184,32,108098,1,0,0:0:0:0:
268,104,108194,1,2,0:0:0:0:
268,104,108387,1,0,0:0:0:0:
268,104,108581,1,2,0:0:0:0:
268,104,108678,1,0,0:0:0:0:
144,120,108872,1,0,0:0:0:0:
268,104,108968,1,2,0:0:0:0:
268,104,109065,1,0,0:0:0:0:
268,104,109162,1,2,0:0:0:0:
268,104,109258,1,2,0:0:0:0:
268,104,109355,1,2,0:0:0:0:
272,96,109549,1,2,0:0:0:0:
372,128,109742,1,0,0:0:0:0:
372,128,109936,1,2,0:0:0:0:
372,128,110033,1,0,0:0:0:0:
372,128,110129,1,0,0:0:0:0:
372,128,110226,1,2,0:0:0:0:
372,128,110323,1,2,0:0:0:0:
376,124,110517,1,0,0:0:0:0:
376,124,110710,1,2,0:0:0:0:
376,124,110807,1,0,0:0:0:0:
304,224,110904,1,2,0:0:0:0:
344,108,111000,1,2,0:0:0:0:
160,108,111195,1,0,0:0:0:0:
344,108,111291,1,2,0:0:0:0:
344,108,111387,1,2,0:0:0:0:
344,108,111484,1,0,0:0:0:0:
344,108,111679,1,2,0:0:0:0:
344,108,111872,1,2,0:0:0:0:
172,104,111969,1,0,0:0:0:0:
344,108,112066,1,2,0:0:0:0:
344,108,112162,1,0,0:0:0:0:
176,84,112356,1,0,0:0:0:0:
340,112,112452,1,2,0:0:0:0:
208,92,112549,1,0,0:0:0:0:
340,112,112645,1,6,0:0:0:0:
296,132,112839,1,0,0:0:0:0:
296,132,112936,1,0,0:0:0:0:
296,132,113033,1,2,0:0:0:0:
296,132,113226,1,0,0:0:0:0:
296,132,113323,1,2,0:0:0:0:
296,132,113420,1,2,0:0:0:0:
368,160,113614,1,0,0:0:0:0:
368,160,113807,1,0,0:0:0:0:
368,160,114000,1,0,0:0:0:0:
136,12,114097,1,0,0:0:0:0:
368,160,114194,1,6,0:0:0:0:
304,120,114387,1,2,0:0:0:0:
304,120,114484,1,2,0:0:0:0:
304,120,114581,1,0,0:0:0:0:
304,120,114775,1,0,0:0:0:0:
304,120,114871,1,2,0:0:0:0:
304,120,115066,1,0,0:0:0:0:
304,120,115162,1,2,0:0:0:0:
304,120,115259,1,0,0:0:0:0:
304,120,115356,1,2,0:0:0:0:
132,72,115453,1,2,0:0:0:0:
304,120,115549,1,0,0:0:0:0:
132,72,115646,1,0,0:0:0:0:
304,120,115742,1,6,0:0:0:0:
264,132,115936,1,2,0:0:0:0:
264,132,116129,1,0,0:0:0:0:
180,80,116227,1,2,0:0:0:0:
264,132,116323,1,0,0:0:0:0:
264,132,116516,1,6,0:0:0:0:
264,132,116710,1,0,0:0:0:0:
328,116,116904,1,0,0:0:0:0:
328,116,117000,1,2,0:0:0:0:
56,128,117097,1,0,0:0:0:0:
328,116,117194,1,0,0:0:0:0:
328,116,117291,1,6,0:0:0:0:
256,192,117484,12,0,118258,0:0:0:0:
332,136,118452,5,6,0:0:0:0:
280,80,118839,1,6,0:0:0:0:
256,192,121935,12,0,124839,0:0:0:0:
272,208,125032,5,4,0:0:0:0:
328,144,125225,1,0,0:0:0:0:
328,144,125322,1,0,0:0:0:0:
328,144,125419,1,2,0:0:0:0:
328,144,125516,1,0,0:0:0:0:
324,148,125612,1,0,0:0:0:0:
324,148,125709,1,0,0:0:0:0:
340,84,125806,1,2,0:0:0:0:
340,84,125903,1,0,0:0:0:0:
332,104,125999,1,0,0:0:0:0:
336,108,126096,1,0,0:0:0:0:
336,108,126193,1,2,0:0:0:0:
336,120,126387,1,2,0:0:0:0:
336,120,126483,1,0,0:0:0:0:
336,120,126580,1,2,0:0:0:0:
336,120,126677,1,0,0:0:0:0:
336,120,126774,1,0,0:0:0:0:
336,120,126870,1,0,0:0:0:0:
336,120,126967,1,2,0:0:0:0:
336,120,127161,1,2,0:0:0:0:
336,120,127257,1,0,0:0:0:0:
336,120,127354,1,2,0:0:0:0:
336,120,127451,1,2,0:0:0:0:
336,120,127548,1,0,0:0:0:0:
336,120,127645,1,0,0:0:0:0:
336,120,127741,1,2,0:0:0:0:
336,120,127936,1,0,0:0:0:0:
336,120,128033,1,0,0:0:0:0:
336,120,128129,1,2,0:0:0:0:
380,200,128323,1,0,0:0:0:0:
380,200,128420,1,0,0:0:0:0:
380,200,128517,1,2,0:0:0:0:
380,200,128613,1,2,0:0:0:0:
380,200,128710,1,0,0:0:0:0:
380,200,128807,1,0,0:0:0:0:
380,200,128904,1,2,0:0:0:0:
380,200,129097,1,2,0:0:0:0:
376,200,129194,1,2,0:0:0:0:
376,200,129291,1,2,0:0:0:0:
376,200,129388,1,0,0:0:0:0:
376,200,129484,1,2,0:0:0:0:
376,200,129581,1,2,0:0:0:0:
376,200,129678,1,0,0:0:0:0:
376,184,129775,1,0,0:0:0:0:
376,184,129871,1,0,0:0:0:0:
376,184,129968,1,0,0:0:0:0:
376,184,130065,1,2,0:0:0:0:
216,148,130161,1,0,0:0:0:0:
372,176,130258,1,2,0:0:0:0:
340,144,130355,1,2,0:0:0:0:
340,144,130452,1,2,0:0:0:0:
340,144,130646,1,0,0:0:0:0:
340,144,130742,1,0,0:0:0:0:
340,144,130839,1,6,0:0:0:0:
464,196,131226,1,4,0:0:0:0:
328,236,131420,1,0,0:0:0:0:
328,236,131612,1,2,0:0:0:0:
328,236,131806,1,2,0:0:0:0:
328,236,131999,1,2,0:0:0:0:
328,236,132193,1,0,0:0:0:0:
324,232,132290,1,0,0:0:0:0:
324,232,132387,1,2,0:0:0:0:
136,120,132774,1,0,0:0:0:0:
408,216,132967,1,0,0:0:0:0:
408,216,133161,1,2,0:0:0:0:
408,216,133354,1,2,0:0:0:0:
408,216,133548,1,0,0:0:0:0:
408,216,133741,1,2,0:0:0:0:
408,216,133838,1,2,0:0:0:0:
408,216,133935,1,2,0:0:0:0:
136,120,134323,1,0,0:0:0:0:
368,160,134516,1,2,0:0:0:0:
368,160,134709,1,2,0:0:0:0:
368,160,134903,1,0,0:0:0:0:
368,160,135096,1,2,0:0:0:0:
368,160,135290,1,2,0:0:0:0:
296,152,135387,1,0,0:0:0:0:
296,152,135483,1,2,0:0:0:0:
136,120,135871,1,0,0:0:0:0:
296,212,136064,1,2,0:0:0:0:
296,212,136257,1,0,0:0:0:0:
296,212,136451,1,0,0:0:0:0:
296,212,136645,1,2,0:0:0:0:
380,136,136838,1,2,0:0:0:0:
380,136,136936,1,2,0:0:0:0:
380,136,137032,1,0,0:0:0:0:
432,148,137225,1,2,0:0:0:0:
332,160,137323,1,2,0:0:0:0:
432,148,137419,1,0,0:0:0:0:
312,248,137612,1,0,0:0:0:0:
460,232,137806,1,2,0:0:0:0:
360,184,137999,1,2,0:0:0:0:
360,184,138193,1,2,0:0:0:0:
360,184,138387,1,0,0:0:0:0:
360,184,138483,1,0,0:0:0:0:
360,184,138580,1,0,0:0:0:0:
136,120,138968,1,0,0:0:0:0:
276,232,139161,1,0,0:0:0:0:
328,228,139354,1,2,0:0:0:0:
328,228,139548,1,2,0:0:0:0:
328,228,139741,1,0,0:0:0:0:
328,228,139935,1,0,0:0:0:0:
328,228,140032,1,0,0:0:0:0:
328,228,140128,1,2,0:0:0:0:
136,120,140516,1,0,0:0:0:0:
424,268,140709,1,2,0:0:0:0:
424,268,140903,1,2,0:0:0:0:
424,268,141096,1,0,0:0:0:0:
424,268,141290,1,0,0:0:0:0:
424,268,141483,1,2,0:0:0:0:
388,212,141580,1,0,0:0:0:0:
424,268,141677,1,2,0:0:0:0:
424,268,141870,1,0,0:0:0:0:
296,180,142065,1,6,0:0:0:0:
296,180,142452,1,6,0:0:0:0:
296,180,142839,1,4,0:0:0:0:
296,180,143226,1,6,0:0:0:0:
320,180,143613,1,2,0:0:0:0:
320,180,143709,1,2,0:0:0:0:
320,180,143806,1,0,0:0:0:0:
320,180,143902,1,0,0:0:0:0:
320,180,143999,1,2,0:0:0:0:
264,156,144193,1,2,0:0:0:0:
264,156,144387,1,0,0:0:0:0:
264,156,144484,1,0,0:0:0:0:
264,156,144581,1,2,0:0:0:0:
264,156,144678,1,0,0:0:0:0:
264,156,144774,1,2,0:0:0:0:
264,156,144968,1,2,0:0:0:0:
264,156,145161,1,0,0:0:0:0:
264,156,145355,1,0,0:0:0:0:
264,156,145452,1,2,0:0:0:0:
264,156,145549,1,2,0:0:0:0:
264,156,145742,1,2,0:0:0:0:
264,156,145839,1,0,0:0:0:0:
264,156,145936,1,0,0:0:0:0:
264,156,146129,1,2,0:0:0:0:
264,156,146226,1,0,0:0:0:0:
264,156,146323,1,2,0:0:0:0:
264,156,146516,1,0,0:0:0:0:
264,156,146710,1,0,0:0:0:0:
264,156,146807,1,0,0:0:0:0:
264,156,146903,1,0,0:0:0:0:
264,156,147000,1,0,0:0:0:0:
264,156,147097,1,2,0:0:0:0:
264,156,147291,1,0,0:0:0:0:
264,156,147484,1,2,0:0:0:0:
264,156,147581,1,2,0:0:0:0:
264,148,147678,1,0,0:0:0:0:
264,156,147774,1,0,0:0:0:0:
264,156,147871,1,2,0:0:0:0:
264,156,148064,1,2,0:0:0:0:
264,156,148257,1,0,0:0:0:0:
316,152,148451,1,2,0:0:0:0:
316,152,148548,1,2,0:0:0:0:
316,152,148644,1,0,0:0:0:0:
316,152,148838,1,0,0:0:0:0:
316,152,148935,1,0,0:0:0:0:
316,152,149031,1,2,0:0:0:0:
316,152,149225,1,2,0:0:0:0:
316,152,149322,1,0,0:0:0:0:
316,152,149419,1,0,0:0:0:0:
316,152,149613,1,0,0:0:0:0:
316,152,149807,1,2,0:0:0:0:
232,120,149903,1,2,0:0:0:0:
148,52,150000,1,0,0:0:0:0:
232,120,150097,1,0,0:0:0:0:
232,120,150194,1,2,0:0:0:0:
232,120,150387,1,0,0:0:0:0:
232,120,150581,1,2,0:0:0:0:
236,120,150678,1,0,0:0:0:0:
272,88,150774,1,2,0:0:0:0:
308,212,150871,1,2,0:0:0:0:
272,88,150968,1,0,0:0:0:0:
272,88,151161,1,0,0:0:0:0:
272,88,151355,1,2,0:0:0:0:
376,144,151549,1,0,0:0:0:0:
288,192,151645,1,0,0:0:0:0:
376,144,151742,1,2,0:0:0:0:
376,144,151936,1,2,0:0:0:0:
376,144,152032,1,2,0:0:0:0:
376,144,152129,1,0,0:0:0:0:
200,96,152323,1,0,0:0:0:0:
200,96,152420,1,0,0:0:0:0:
376,144,152516,1,2,0:0:0:0:
228,68,152710,1,0,0:0:0:0:
376,144,152903,1,2,0:0:0:0:
368,180,153000,1,0,0:0:0:0:
368,180,153097,1,0,0:0:0:0:
368,180,153194,1,0,0:0:0:0:
368,180,153291,1,0,0:0:0:0:
368,180,153484,1,0,0:0:0:0:
368,180,153678,1,2,0:0:0:0:
368,180,153774,1,2,0:0:0:0:
368,180,153871,1,0,0:0:0:0:
368,180,153968,1,0,0:0:0:0:
368,180,154065,1,0,0:0:0:0:
368,180,154258,1,0,0:0:0:0:
368,180,154452,1,2,0:0:0:0:
368,180,154549,1,2,0:0:0:0:
368,180,154645,1,2,0:0:0:0:
368,180,154742,1,0,0:0:0:0:
368,180,154839,1,0,0:0:0:0:
372,176,155032,1,0,0:0:0:0:
372,176,155226,1,2,0:0:0:0:
372,176,155323,1,2,0:0:0:0:
372,176,155420,1,2,0:0:0:0:
372,176,155516,1,2,0:0:0:0:
372,176,155613,1,0,0:0:0:0:
372,176,155807,1,2,0:0:0:0:
372,176,156000,1,0,0:0:0:0:
372,176,156096,1,2,0:0:0:0:
372,176,156193,1,0,0:0:0:0:
372,176,156291,1,2,0:0:0:0:
372,176,156387,1,0,0:0:0:0:
372,176,156484,1,0,0:0:0:0:
372,176,156581,1,2,0:0:0:0:
372,176,156678,1,0,0:0:0:0:
372,176,156774,1,2,0:0:0:0:
372,176,156871,1,2,0:0:0:0:
372,176,156968,1,0,0:0:0:0:
372,176,157065,1,2,0:0:0:0:
360,116,157161,1,0,0:0:0:0:
360,116,157210,1,0,0:0:0:0:
360,116,157258,1,0,0:0:0:0:
40,136,157307,1,0,0:0:0:0:
360,116,157355,1,2,0:0:0:0:
440,136,157452,1,2,0:0:0:0:
440,136,157549,1,0,0:0:0:0:
376,172,158516,1,0,0:0:0:0:
376,172,158710,1,2,0:0:0:0:
376,172,158902,1,0,0:0:0:0:
432,132,159097,1,6,0:0:0:0:
284,112,159291,1,0,0:0:0:0:
284,112,159483,1,2,0:0:0:0:
284,112,159580,1,2,0:0:0:0:
284,112,159677,1,2,0:0:0:0:
284,112,159773,1,2,0:0:0:0:
284,112,159870,1,0,0:0:0:0:
284,112,160064,1,0,0:0:0:0:
284,112,160257,1,2,0:0:0:0:
284,112,160451,1,2,0:0:0:0:
216,124,160548,1,2,0:0:0:0:
284,112,160644,1,0,0:0:0:0:
184,32,160742,1,0,0:0:0:0:
268,104,160838,1,2,0:0:0:0:
268,104,161031,1,0,0:0:0:0:
268,104,161225,1,2,0:0:0:0:
268,104,161322,1,0,0:0:0:0:
144,120,161516,1,0,0:0:0:0:
268,104,161612,1,2,0:0:0:0:
268,104,161709,1,0,0:0:0:0:
268,104,161806,1,2,0:0:0:0:
268,104,161902,1,2,0:0:0:0:
268,104,161999,1,0,0:0:0:0:
272,96,162193,1,2,0:0:0:0:
372,128,162386,1,0,0:0:0:0:
372,128,162580,1,2,0:0:0:0:
372,128,162677,1,2,0:0:0:0:
372,128,162773,1,0,0:0:0:0:
372,128,162870,1,0,0:0:0:0:
372,128,162967,1,2,0:0:0:0:
376,124,163161,1,2,0:0:0:0:
376,124,163354,1,2,0:0:0:0:
376,124,163451,1,2,0:0:0:0:
304,224,163548,1,0,0:0:0:0:
344,108,163644,1,2,0:0:0:0:
160,108,163839,1,0,0:0:0:0:
344,108,163935,1,2,0:0:0:0:
344,108,164031,1,0,0:0:0:0:
344,108,164128,1,2,0:0:0:0:
344,108,164323,1,2,0:0:0:0:
344,108,164516,1,0,0:0:0:0:
172,104,164613,1,0,0:0:0:0:
344,108,164710,1,2,0:0:0:0:
344,108,164806,1,0,0:0:0:0:
176,84,165000,1,0,0:0:0:0:
340,112,165096,1,2,0:0:0:0:
208,92,165193,1,2,0:0:0:0:
340,112,165291,1,0,0:0:0:0:
296,132,165483,1,0,0:0:0:0:
296,132,165580,1,0,0:0:0:0:
296,132,165677,1,2,0:0:0:0:
296,132,165870,1,2,0:0:0:0:
296,132,166064,1,2,0:0:0:0:
112,104,166161,1,2,0:0:0:0:
368,160,166258,1,0,0:0:0:0:
368,160,166451,1,0,0:0:0:0:
368,160,166644,1,2,0:0:0:0:
144,148,166742,1,0,0:0:0:0:
368,160,166838,1,2,0:0:0:0:
304,120,167031,1,2,0:0:0:0:
304,120,167128,1,0,0:0:0:0:
304,120,167225,1,0,0:0:0:0:
304,120,167419,1,0,0:0:0:0:
304,120,167515,1,2,0:0:0:0:
304,120,167710,1,0,0:0:0:0:
304,120,167806,1,2,0:0:0:0:
304,120,167903,1,0,0:0:0:0:
304,120,168000,1,0,0:0:0:0:
304,120,168193,1,2,0:0:0:0:
304,120,168386,1,2,0:0:0:0:
264,132,168580,1,0,0:0:0:0:
264,132,168773,1,2,0:0:0:0:
132,136,168871,1,0,0:0:0:0:
264,132,168967,1,2,0:0:0:0:
264,132,169160,1,2,0:0:0:0:
264,132,169257,1,2,0:0:0:0:
264,132,169354,1,0,0:0:0:0:
328,116,169548,1,0,0:0:0:0:
328,116,169644,1,2,0:0:0:0:
328,116,169838,1,2,0:0:0:0:
328,116,169935,1,0,0:0:0:0:
356,136,170128,1,0,0:0:0:0:
356,136,170225,1,0,0:0:0:0:
356,136,170322,1,2,0:0:0:0:
356,136,170419,1,0,0:0:0:0:
356,136,170515,1,0,0:0:0:0:
356,136,170612,1,0,0:0:0:0:
352,136,170709,1,2,0:0:0:0:
332,136,170902,1,2,0:0:0:0:
332,136,170999,1,0,0:0:0:0:
332,136,171096,1,2,0:0:0:0:
332,136,171193,1,0,0:0:0:0:
296,84,171291,1,0,0:0:0:0:
296,84,171339,1,0,0:0:0:0:
296,84,171387,1,0,0:0:0:0:
40,136,171435,1,0,0:0:0:0:
296,84,171483,1,2,0:0:0:0:
284,112,171677,1,0,0:0:0:0:
284,112,171871,1,2,0:0:0:0:
284,112,171968,1,0,0:0:0:0:
284,112,172065,1,2,0:0:0:0:
284,112,172161,1,0,0:0:0:0:
68,128,172258,1,2,0:0:0:0:
284,112,172452,1,0,0:0:0:0:
284,112,172645,1,2,0:0:0:0:
284,112,172839,1,2,0:0:0:0:
216,124,172936,1,2,0:0:0:0:
284,112,173032,1,0,0:0:0:0:
184,32,173130,1,0,0:0:0:0:
268,104,173226,1,2,0:0:0:0:
268,104,173419,1,0,0:0:0:0:
268,104,173613,1,0,0:0:0:0:
268,104,173710,1,2,0:0:0:0:
144,120,173904,1,0,0:0:0:0:
268,104,174000,1,2,0:0:0:0:
268,104,174097,1,0,0:0:0:0:
268,104,174194,1,2,0:0:0:0:
268,104,174290,1,2,0:0:0:0:
268,104,174387,1,0,0:0:0:0:
264,80,174485,1,0,0:0:0:0:
272,96,174581,1,2,0:0:0:0:
372,128,174774,1,0,0:0:0:0:
372,128,174968,1,2,0:0:0:0:
372,128,175065,1,0,0:0:0:0:
372,128,175161,1,0,0:0:0:0:
372,128,175258,1,0,0:0:0:0:
372,128,175355,1,2,0:0:0:0:
376,124,175549,1,0,0:0:0:0:
376,124,175742,1,2,0:0:0:0:
376,124,175839,1,0,0:0:0:0:
304,224,175936,1,0,0:0:0:0:
344,108,176032,1,2,0:0:0:0:
160,108,176227,1,0,0:0:0:0:
344,108,176323,1,2,0:0:0:0:
344,108,176419,1,2,0:0:0:0:
344,108,176516,1,0,0:0:0:0:
344,108,176711,1,2,0:0:0:0:
344,108,176904,1,2,0:0:0:0:
172,104,177001,1,0,0:0:0:0:
344,108,177098,1,2,0:0:0:0:
344,108,177194,1,0,0:0:0:0:
176,84,177388,1,0,0:0:0:0:
340,112,177484,1,2,0:0:0:0:
208,92,177581,1,0,0:0:0:0:
340,112,177677,1,6,0:0:0:0:
296,132,177871,1,0,0:0:0:0:
296,132,177968,1,0,0:0:0:0:
296,132,178065,1,2,0:0:0:0:
296,132,178258,1,0,0:0:0:0:
296,132,178452,1,2,0:0:0:0:
112,104,178549,1,2,0:0:0:0:
368,160,178646,1,0,0:0:0:0:
368,160,178839,1,0,0:0:0:0:
368,160,179032,1,2,0:0:0:0:
128,96,179129,1,0,0:0:0:0:
368,160,179226,1,6,0:0:0:0:
304,120,179419,1,2,0:0:0:0:
304,120,179516,1,2,0:0:0:0:
304,120,179613,1,0,0:0:0:0:
304,120,179807,1,0,0:0:0:0:
304,120,179903,1,2,0:0:0:0:
304,120,180098,1,0,0:0:0:0:
304,120,180194,1,2,0:0:0:0:
304,120,180291,1,0,0:0:0:0:
304,120,180388,1,2,0:0:0:0:
132,72,180485,1,0,0:0:0:0:
304,120,180581,1,0,0:0:0:0:
132,72,180678,1,0,0:0:0:0:
304,120,180774,1,6,0:0:0:0:
264,132,180968,1,2,0:0:0:0:
264,132,181161,1,0,0:0:0:0:
180,80,181259,1,2,0:0:0:0:
264,132,181355,1,0,0:0:0:0:
264,132,181548,1,6,0:0:0:0:
264,132,181742,1,0,0:0:0:0:
328,116,181936,1,0,0:0:0:0:
328,116,182032,1,2,0:0:0:0:
56,128,182129,1,0,0:0:0:0:
328,116,182226,1,0,0:0:0:0:
328,116,182323,1,6,0:0:0:0:
256,192,182516,12,0,183291,0:0:0:0:
280,80,183484,5,6,0:0:0:0:
280,80,183871,1,6,0:0:0:0:
188,151,184645,1,0,0:0:0:0:
328,96,185420,1,2,0:0:0:0:
272,88,186967,1,0,0:0:0:0:
320,240,187741,1,2,0:0:0:0:
280,116,188515,1,0,0:0:0:0:
304,108,190064,1,0,0:0:0:0:
308,48,190838,1,2,0:0:0:0:
300,60,191612,1,0,0:0:0:0:
304,64,193160,1,0,0:0:0:0:
280,92,193935,1,2,0:0:0:0:
388,172,194709,1,0,0:0:0:0:
256,192,195291,12,0,196065,0:0:0:0:
268,152,196258,5,4,0:0:0:0:
356,172,196645,1,2,0:0:0:0:
356,172,197032,1,2,0:0:0:0:
356,172,197420,1,2,0:0:0:0:
356,172,197807,1,0,0:0:0:0:
280,120,199354,1,0,0:0:0:0:
296,80,200128,1,2,0:0:0:0:
312,148,200902,1,2,0:0:0:0:
336,104,202451,1,0,0:0:0:0:
332,64,203225,1,2,0:0:0:0:
348,172,203999,5,2,0:0:0:0:
344,140,205548,1,0,0:0:0:0:
348,172,206322,1,2,0:0:0:0:
360,112,207097,1,0,0:0:0:0:
148,92,208065,1,0,0:0:0:0:
148,92,208258,1,2,0:0:0:0:
148,92,208452,1,0,0:0:0:0:
328,108,208645,1,2,0:0:0:0:
336,168,209032,1,2,0:0:0:0:
336,168,209226,1,2,0:0:0:0:
336,168,209420,1,0,0:0:0:0:
280,160,209613,1,2,0:0:0:0:
146,170,209807,1,0,0:0:0:0:
228,100,210000,1,0,0:0:0:0:
133,179,210194,1,0,0:0:0:0:
292,104,210386,1,2,0:0:0:0:
292,104,210580,1,0,0:0:0:0:
292,104,210773,1,0,0:0:0:0:
396,216,210871,1,2,0:0:0:0:
146,222,210968,1,2,0:0:0:0:
186,127,211161,1,0,0:0:0:0:
292,104,211354,1,0,0:0:0:0:
288,96,211549,1,2,0:0:0:0:
292,104,211742,1,2,0:0:0:0:
284,100,212128,1,2,0:0:0:0:
132,108,212226,1,0,0:0:0:0:
284,100,212323,1,0,0:0:0:0:
284,100,212515,1,2,0:0:0:0:
296,208,212709,1,0,0:0:0:0:
280,104,212902,1,2,0:0:0:0:
112,96,213000,1,0,0:0:0:0:
168,44,213194,1,2,0:0:0:0:
105,139,213291,1,2,0:0:0:0:
296,208,213483,1,2,0:0:0:0:
296,208,213677,1,0,0:0:0:0:
296,208,213871,1,2,0:0:0:0:
296,208,214064,1,0,0:0:0:0:
196,192,214258,1,0,0:0:0:0:
104,56,214355,1,0,0:0:0:0:
185,132,214452,1,0,0:0:0:0:
424,236,214838,1,0,0:0:0:0:
336,168,215226,1,2,0:0:0:0:
146,170,215420,1,0,0:0:0:0:
336,168,215614,1,2,0:0:0:0:
280,160,215807,1,0,0:0:0:0:
146,170,216000,1,0,0:0:0:0:
228,100,216194,1,2,0:0:0:0:
186,127,216387,1,0,0:0:0:0:
292,104,216580,1,2,0:0:0:0:
292,104,216774,1,0,0:0:0:0:
292,104,216967,1,0,0:0:0:0:
396,216,217065,1,2,0:0:0:0:
188,88,217161,1,2,0:0:0:0:
186,127,217355,1,0,0:0:0:0:
292,104,217548,1,0,0:0:0:0:
288,96,217743,1,2,0:0:0:0:
292,104,217935,1,2,0:0:0:0:
284,100,218322,1,2,0:0:0:0:
284,100,218517,1,0,0:0:0:0:
92,104,218613,1,0,0:0:0:0:
284,100,218709,1,2,0:0:0:0:
296,208,218903,1,2,0:0:0:0:
176,92,219097,1,0,0:0:0:0:
176,92,219194,1,2,0:0:0:0:
280,104,219484,1,0,0:0:0:0:
169,84,220065,1,0,0:0:0:0:
169,84,220258,1,2,0:0:0:0:
144,124,220452,1,0,0:0:0:0:
296,208,220645,1,2,0:0:0:0:
144,124,220839,1,0,0:0:0:0:
220,168,221031,1,6,0:0:0:0:
336,168,221420,1,2,0:0:0:0:
169,84,221613,1,0,0:0:0:0:
336,168,221808,1,2,0:0:0:0:
280,160,222001,1,0,0:0:0:0:
169,84,222194,1,0,0:0:0:0:
228,100,222388,1,2,0:0:0:0:
73,132,222581,1,0,0:0:0:0:
292,104,222774,1,2,0:0:0:0:
292,104,222968,1,0,0:0:0:0:
292,104,223161,1,0,0:0:0:0:
396,216,223259,1,2,0:0:0:0:
134,158,223355,1,2,0:0:0:0:
186,127,223549,1,2,0:0:0:0:
292,104,223742,1,0,0:0:0:0:
288,96,223937,1,2,0:0:0:0:
292,104,224129,1,0,0:0:0:0:
284,100,224516,1,2,0:0:0:0:
134,158,224710,1,0,0:0:0:0:
284,100,224903,1,2,0:0:0:0:
296,208,225097,1,0,0:0:0:0:
280,104,225290,1,2,0:0:0:0:
44,88,225387,1,0,0:0:0:0:
264,80,225581,1,2,0:0:0:0:
134,158,225678,1,2,0:0:0:0:
296,208,225871,1,2,0:0:0:0:
296,208,226065,1,0,0:0:0:0:
296,208,226258,1,2,0:0:0:0:
132,100,226452,1,0,0:0:0:0:
284,136,226645,1,0,0:0:0:0:
116,84,226742,1,0,0:0:0:0:
134,158,226839,1,2,0:0:0:0:
252,88,227226,1,6,0:0:0:0:
408,236,227613,1,0,0:0:0:0:
408,236,227807,1,2,0:0:0:0:
408,236,228000,1,2,0:0:0:0:
316,192,228194,1,0,0:0:0:0:
134,158,228387,1,0,0:0:0:0:
312,164,228581,1,0,0:0:0:0:
200,200,228774,1,6,0:0:0:0:
176,64,228968,1,0,0:0:0:0:
244,148,229161,1,2,0:0:0:0:
240,116,229355,1,0,0:0:0:0:
240,116,229452,1,2,0:0:0:0:
213,148,229549,1,2,0:0:0:0:
364,160,229742,1,2,0:0:0:0:
364,160,229936,1,0,0:0:0:0:
364,160,230129,1,0,0:0:0:0:
364,160,230323,1,6,0:0:0:0:
248,120,230516,1,0,0:0:0:0:
440,128,230710,1,2,0:0:0:0:
440,128,230903,1,0,0:0:0:0:
352,164,231097,1,6,0:0:0:0:
312,116,231290,1,0,0:0:0:0:
312,116,231484,1,2,0:0:0:0:
312,116,231581,1,0,0:0:0:0:
312,116,231871,1,6,0:0:0:0:
296,208,232065,1,0,0:0:0:0:
296,208,232258,1,2,0:0:0:0:
296,208,232452,1,0,0:0:0:0:
296,208,232645,1,2,0:0:0:0:
296,208,232840,1,2,0:0:0:0:
300,200,232937,1,2,0:0:0:0:
296,208,233033,1,0,0:0:0:0:
296,208,233227,1,0,0:0:0:0:
256,164,233420,1,6,0:0:0:0:
368,136,233613,1,0,0:0:0:0:
368,136,233710,1,0,0:0:0:0:
368,136,233807,1,2,0:0:0:0:
260,96,234000,1,0,0:0:0:0:
260,96,234097,1,2,0:0:0:0:
260,96,234194,1,2,0:0:0:0:
328,104,234387,1,0,0:0:0:0:
328,104,234484,1,0,0:0:0:0:
328,104,234581,1,2,0:0:0:0:
328,104,234773,1,0,0:0:0:0:
256,164,234967,1,2,0:0:0:0:
368,136,235161,1,0,0:0:0:0:
368,136,235258,1,0,0:0:0:0:
368,136,235355,1,2,0:0:0:0:
260,96,235548,1,2,0:0:0:0:
260,96,235645,1,2,0:0:0:0:
260,96,235742,1,2,0:0:0:0:
328,104,235935,1,0,0:0:0:0:
328,104,236032,1,0,0:0:0:0:
328,104,236129,1,2,0:0:0:0:
328,104,236322,1,0,0:0:0:0:
256,164,236515,1,2,0:0:0:0:
368,136,236709,1,0,0:0:0:0:
368,136,236806,1,0,0:0:0:0:
368,136,236903,1,2,0:0:0:0:
260,96,237096,1,0,0:0:0:0:
260,96,237193,1,2,0:0:0:0:
260,96,237290,1,2,0:0:0:0:
328,104,237483,1,0,0:0:0:0:
328,104,237580,1,0,0:0:0:0:
328,104,237677,1,2,0:0:0:0:
328,104,237870,1,0,0:0:0:0:
256,164,238064,1,2,0:0:0:0:
368,136,238258,1,0,0:0:0:0:
368,136,238355,1,0,0:0:0:0:
368,136,238452,1,2,0:0:0:0:
260,96,238645,1,2,0:0:0:0:
260,96,238742,1,2,0:0:0:0:
260,96,238839,1,2,0:0:0:0:
328,104,239032,1,0,0:0:0:0:
328,104,239129,1,0,0:0:0:0:
328,104,239226,1,2,0:0:0:0:
328,104,239419,1,0,0:0:0:0:
256,164,239612,1,2,0:0:0:0:
368,136,239806,1,0,0:0:0:0:
368,136,239902,1,0,0:0:0:0:
368,136,240000,1,2,0:0:0:0:
260,96,240193,1,0,0:0:0:0:
260,96,240290,1,2,0:0:0:0:
260,96,240387,1,2,0:0:0:0:
328,104,240580,1,0,0:0:0:0:
328,104,240677,1,0,0:0:0:0:
328,104,240774,1,2,0:0:0:0:
328,104,240967,1,0,0:0:0:0:
256,164,241160,1,2,0:0:0:0:
368,136,241354,1,0,0:0:0:0:
368,136,241451,1,0,0:0:0:0:
368,136,241548,1,2,0:0:0:0:
260,96,241741,1,2,0:0:0:0:
260,96,241838,1,2,0:0:0:0:
260,96,241935,1,2,0:0:0:0:
328,104,242128,1,0,0:0:0:0:
328,104,242225,1,0,0:0:0:0:
328,104,242322,1,2,0:0:0:0:
328,104,242515,1,0,0:0:0:0:
256,164,242709,1,2,0:0:0:0:
368,136,242903,1,0,0:0:0:0:
368,136,243000,1,0,0:0:0:0:
368,136,243097,1,2,0:0:0:0:
260,96,243290,1,0,0:0:0:0:
260,96,243387,1,2,0:0:0:0:
260,96,243484,1,2,0:0:0:0:
328,104,243677,1,0,0:0:0:0:
328,104,243774,1,0,0:0:0:0:
328,104,243871,1,2,0:0:0:0:
328,104,244064,1,0,0:0:0:0:
256,164,244257,1,2,0:0:0:0:
368,136,244451,1,0,0:0:0:0:
368,136,244548,1,0,0:0:0:0:
368,136,244645,1,2,0:0:0:0:
260,96,244838,1,2,0:0:0:0:
260,96,244935,1,2,0:0:0:0:
260,96,245032,1,2,0:0:0:0:
328,104,245225,1,0,0:0:0:0:
328,104,245420,1,6,0:0:0:0:
344,192,245807,1,6,0:0:0:0:
484,164,246000,1,0,0:0:0:0:
484,164,246096,1,0,0:0:0:0:
484,164,246193,1,2,0:0:0:0:
484,164,246386,1,2,0:0:0:0:
484,164,246483,1,2,0:0:0:0:
484,164,246580,1,2,0:0:0:0:
264,128,246773,1,0,0:0:0:0:
264,128,246870,1,0,0:0:0:0:
264,128,246967,1,2,0:0:0:0:
264,128,247160,1,0,0:0:0:0:
268,116,247354,1,2,0:0:0:0:
272,116,247548,1,0,0:0:0:0:
272,116,247644,1,0,0:0:0:0:
272,116,247741,1,2,0:0:0:0:
272,116,247935,1,2,0:0:0:0:
272,116,248031,1,2,0:0:0:0:
272,116,248128,1,2,0:0:0:0:
268,116,248322,1,2,0:0:0:0:
272,116,248516,1,4,0:0:0:0:
384,152,248903,1,4,0:0:0:0:
300,232,249097,1,0,0:0:0:0:
300,232,249193,1,0,0:0:0:0:
300,232,249290,1,2,0:0:0:0:
296,148,249483,1,2,0:0:0:0:
296,148,249580,1,2,0:0:0:0:
296,148,249677,1,2,0:0:0:0:
296,148,249870,1,0,0:0:0:0:
296,148,249967,1,0,0:0:0:0:
296,148,250064,1,2,0:0:0:0:
312,104,250257,1,0,0:0:0:0:
312,104,250451,1,6,0:0:0:0:
312,104,250644,1,0,0:0:0:0:
312,104,250741,1,0,0:0:0:0:
312,104,250838,1,2,0:0:0:0:
312,104,251031,1,0,0:0:0:0:
312,104,251128,1,0,0:0:0:0:
412,116,251226,1,2,0:0:0:0:
412,116,251291,1,2,0:0:0:0:
412,116,251355,1,2,0:0:0:0:
412,116,251420,1,0,0:0:0:0:
272,172,251484,1,0,0:0:0:0:
184,160,251549,1,0,0:0:0:0:
272,172,251613,1,2,0:0:0:0:
416,232,251999,1,6,0:0:0:0:
456,208,252193,1,0,0:0:0:0:
336,120,252291,1,0,0:0:0:0:
304,212,252386,1,2,0:0:0:0:
304,212,252580,1,0,0:0:0:0:
304,212,252773,1,6,0:0:0:0:
312,40,252968,1,2,0:0:0:0:
304,212,253160,1,0,0:0:0:0:
364,132,253354,1,0,0:0:0:0:
364,132,253548,1,6,0:0:0:0:
364,120,253741,1,0,0:0:0:0:
364,132,253839,1,0,0:0:0:0:
252,104,253936,1,2,0:0:0:0:
364,132,254128,1,0,0:0:0:0:
364,132,254322,1,6,0:0:0:0:
364,132,254515,1,2,0:0:0:0:
364,136,254709,1,0,0:0:0:0:
364,132,254902,1,2,0:0:0:0:
364,132,255096,1,6,0:0:0:0:
364,132,255290,1,2,0:0:0:0:
364,132,255386,1,0,0:0:0:0:
364,132,255483,1,2,0:0:0:0:
368,84,255580,1,2,0:0:0:0:
368,84,255677,1,2,0:0:0:0:
432,144,255870,1,6,0:0:0:0:
432,144,256064,1,2,0:0:0:0:
432,144,256257,1,0,0:0:0:0:
432,144,256451,1,0,0:0:0:0:
432,144,256644,1,6,0:0:0:0:
380,216,256838,1,2,0:0:0:0:
288,188,256937,1,2,0:0:0:0:
380,216,257032,1,0,0:0:0:0:
380,216,257129,1,0,0:0:0:0:
380,216,257226,1,2,0:0:0:0:
380,216,257419,1,6,0:0:0:0:
336,108,257612,1,2,0:0:0:0:
336,108,257806,1,0,0:0:0:0:
336,108,257999,1,2,0:0:0:0:
464,180,258194,1,2,0:0:0:0:
464,180,258291,1,2,0:0:0:0:
464,180,258387,1,2,0:0:0:0:
464,180,258484,1,2,0:0:0:0:
456,176,258581,1,0,0:0:0:0:
456,176,258678,1,2,0:0:0:0:
456,176,258774,1,0,0:0:0:0:
456,176,258871,1,2,0:0:0:0:
456,176,258968,1,0,0:0:0:0:
456,176,259065,1,0,0:0:0:0:
456,176,259161,1,0,0:0:0:0:
456,176,259258,1,0,0:0:0:0:
448,160,259355,1,2,0:0:0:0:
448,160,259452,1,0,0:0:0:0:
448,160,259549,1,2,0:0:0:0:
448,160,259645,1,0,0:0:0:0:
448,160,259742,1,2,0:0:0:0:
448,160,259839,1,2,0:0:0:0:
448,160,259936,1,2,0:0:0:0:
448,160,260032,1,2,0:0:0:0:
448,160,260129,1,0,0:0:0:0:
440,160,260226,1,2,0:0:0:0:
440,160,260323,1,0,0:0:0:0:
440,160,260420,1,2,0:0:0:0:
440,160,260516,1,0,0:0:0:0:
440,160,260612,1,0,0:0:0:0:
440,160,260709,1,0,0:0:0:0:
440,160,260806,1,0,0:0:0:0:
436,156,260902,1,2,0:0:0:0:
436,156,260999,1,0,0:0:0:0:
436,156,261096,1,2,0:0:0:0:
296,140,261291,1,2,0:0:0:0:
296,140,261354,1,0,0:0:0:0:
296,140,261419,1,0,0:0:0:0:
296,140,261483,1,0,0:0:0:0:
296,140,261580,1,0,0:0:0:0:
296,140,261677,1,2,0:0:0:0:
296,140,261741,1,0,0:0:0:0:
296,140,261806,1,0,0:0:0:0:
296,140,261870,1,0,0:0:0:0:
296,140,261967,1,0,0:0:0:0:
296,140,262064,1,2,0:0:0:0:
296,140,262128,1,2,0:0:0:0:
296,140,262193,1,0,0:0:0:0:
296,140,262257,1,0,0:0:0:0:
296,140,262354,1,0,0:0:0:0:
296,140,262451,1,2,0:0:0:0:
296,140,262515,1,2,0:0:0:0:
296,140,262580,1,0,0:0:0:0:
296,140,262644,1,0,0:0:0:0:
188,88,262742,1,0,0:0:0:0:
388,208,262839,1,2,0:0:0:0:
396,208,262902,1,2,0:0:0:0:
336,224,262967,1,2,0:0:0:0:
336,224,263031,1,0,0:0:0:0:
288,272,263128,1,0,0:0:0:0:
216,180,263225,1,2,0:0:0:0:
284,88,263290,1,2,0:0:0:0:
284,88,263354,1,2,0:0:0:0:
216,180,263420,1,0,0:0:0:0:
288,272,263515,1,0,0:0:0:0:
284,88,263613,1,2,0:0:0:0:
216,180,263677,1,2,0:0:0:0:
216,180,263741,1,2,0:0:0:0:
216,180,263806,1,2,0:0:0:0:
288,272,263902,1,2,0:0:0:0:
216,180,264000,1,2,0:0:0:0:
216,180,264064,1,2,0:0:0:0:
216,180,264128,1,2,0:0:0:0:
216,180,264193,1,2,0:0:0:0:
428,188,264387,1,4,0:0:0:0:
320,192,264774,1,2,0:0:0:0:
320,192,264968,1,0,0:0:0:0:
320,192,265065,1,2,0:0:0:0:
320,192,265161,1,2,0:0:0:0:
320,192,265355,1,0,0:0:0:0:
320,192,265452,1,0,0:0:0:0:
320,192,265549,1,2,0:0:0:0:
320,192,265742,1,0,0:0:0:0:
320,192,265936,1,2,0:0:0:0:
432,120,266129,1,0,0:0:0:0:
432,120,266226,1,0,0:0:0:0:
432,120,266323,1,0,0:0:0:0:
432,120,266516,1,0,0:0:0:0:
432,120,266613,1,0,0:0:0:0:
432,120,266710,1,0,0:0:0:0:
320,196,266903,1,0,0:0:0:0:
320,196,267097,1,2,0:0:0:0:
320,196,267291,1,0,0:0:0:0:
432,132,267484,1,6,0:0:0:0:
284,112,267678,1,0,0:0:0:0:
284,112,267870,1,2,0:0:0:0:
284,112,267967,1,0,0:0:0:0:
284,112,268064,1,2,0:0:0:0:
284,112,268160,1,2,0:0:0:0:
284,112,268257,1,0,0:0:0:0:
284,112,268451,1,0,0:0:0:0:
284,112,268644,1,2,0:0:0:0:
284,112,268838,1,2,0:0:0:0:
216,124,268935,1,0,0:0:0:0:
284,112,269031,1,0,0:0:0:0:
184,32,269129,1,0,0:0:0:0:
268,104,269225,1,2,0:0:0:0:
268,104,269420,1,0,0:0:0:0:
268,104,269612,1,2,0:0:0:0:
268,104,269709,1,0,0:0:0:0:
144,120,269903,1,0,0:0:0:0:
268,104,269999,1,2,0:0:0:0:
268,104,270096,1,0,0:0:0:0:
268,104,270193,1,2,0:0:0:0:
268,104,270291,1,2,0:0:0:0:
268,104,270386,1,0,0:0:0:0:
272,96,270580,1,2,0:0:0:0:
372,128,270773,1,0,0:0:0:0:
372,128,270967,1,2,0:0:0:0:
372,128,271064,1,2,0:0:0:0:
372,128,271160,1,0,0:0:0:0:
372,128,271257,1,0,0:0:0:0:
372,128,271354,1,2,0:0:0:0:
376,124,271548,1,0,0:0:0:0:
376,124,271741,1,2,0:0:0:0:
376,124,271838,1,2,0:0:0:0:
304,224,271935,1,0,0:0:0:0:
344,108,272031,1,2,0:0:0:0:
160,108,272226,1,0,0:0:0:0:
344,108,272322,1,2,0:0:0:0:
344,108,272420,1,2,0:0:0:0:
344,108,272515,1,0,0:0:0:0:
344,108,272710,1,2,0:0:0:0:
344,108,272903,1,0,0:0:0:0:
172,104,273000,1,0,0:0:0:0:
344,108,273097,1,2,0:0:0:0:
344,108,273193,1,0,0:0:0:0:
176,84,273387,1,0,0:0:0:0:
340,112,273483,1,2,0:0:0:0:
208,92,273580,1,2,0:0:0:0:
340,112,273678,1,0,0:0:0:0:
296,132,273870,1,0,0:0:0:0:
296,132,273967,1,0,0:0:0:0:
296,132,274064,1,2,0:0:0:0:
296,132,274257,1,0,0:0:0:0:
296,132,274451,1,2,0:0:0:0:
112,104,274548,1,2,0:0:0:0:
368,160,274645,1,0,0:0:0:0:
368,160,274838,1,0,0:0:0:0:
368,160,275031,1,2,0:0:0:0:
76,124,275129,1,2,0:0:0:0:
368,160,275225,1,2,0:0:0:0:
304,120,275420,1,2,0:0:0:0:
304,120,275515,1,0,0:0:0:0:
304,120,275612,1,0,0:0:0:0:
304,120,275806,1,0,0:0:0:0:
304,120,275902,1,2,0:0:0:0:
304,120,276097,1,0,0:0:0:0:
304,120,276193,1,2,0:0:0:0:
304,120,276290,1,0,0:0:0:0:
304,120,276387,1,2,0:0:0:0:
304,120,276580,1,0,0:0:0:0:
132,72,276677,1,0,0:0:0:0:
304,120,276773,1,2,0:0:0:0:
264,132,276967,1,2,0:0:0:0:
264,132,277160,1,0,0:0:0:0:
180,80,277258,1,2,0:0:0:0:
264,132,277354,1,0,0:0:0:0:
264,132,277549,1,2,0:0:0:0:
264,132,277644,1,2,0:0:0:0:
264,132,277741,1,0,0:0:0:0:
328,116,277935,1,0,0:0:0:0:
328,116,278031,1,2,0:0:0:0:
328,116,278225,1,2,0:0:0:0:
328,116,278322,1,0,0:0:0:0:
356,136,278515,1,0,0:0:0:0:
356,136,278612,1,0,0:0:0:0:
356,136,278709,1,2,0:0:0:0:
356,136,278806,1,0,0:0:0:0:
356,136,278902,1,0,0:0:0:0:
356,136,278999,1,0,0:0:0:0:
352,136,279096,1,2,0:0:0:0:
332,136,279291,1,2,0:0:0:0:
332,136,279386,1,0,0:0:0:0:
332,136,279483,1,2,0:0:0:0:
332,136,279580,1,0,0:0:0:0:
296,84,279678,1,0,0:0:0:0:
296,84,279726,1,0,0:0:0:0:
296,84,279774,1,0,0:0:0:0:
40,136,279822,1,0,0:0:0:0:
296,84,279870,1,2,0:0:0:0:
284,112,280064,1,0,0:0:0:0:
284,112,280258,1,2,0:0:0:0:
284,112,280355,1,2,0:0:0:0:
284,112,280452,1,2,0:0:0:0:
284,112,280548,1,0,0:0:0:0:
284,112,280645,1,0,0:0:0:0:
284,112,280839,1,0,0:0:0:0:
284,112,281032,1,2,0:0:0:0:
284,112,281226,1,2,0:0:0:0:
216,124,281323,1,0,0:0:0:0:
284,112,281419,1,0,0:0:0:0:
184,32,281517,1,0,0:0:0:0:
268,104,281613,1,2,0:0:0:0:
268,104,281806,1,0,0:0:0:0:
268,104,282000,1,2,0:0:0:0:
268,104,282097,1,0,0:0:0:0:
144,120,282291,1,0,0:0:0:0:
268,104,282387,1,2,0:0:0:0:
268,104,282484,1,0,0:0:0:0:
268,104,282581,1,2,0:0:0:0:
268,104,282677,1,2,0:0:0:0:
268,104,282774,1,2,0:0:0:0:
272,96,282968,1,2,0:0:0:0:
372,128,283161,1,0,0:0:0:0:
372,128,283355,1,2,0:0:0:0:
372,128,283452,1,0,0:0:0:0:
372,128,283548,1,0,0:0:0:0:
372,128,283645,1,2,0:0:0:0:
372,128,283742,1,2,0:0:0:0:
376,124,283936,1,0,0:0:0:0:
376,124,284129,1,2,0:0:0:0:
376,124,284226,1,0,0:0:0:0:
304,224,284323,1,2,0:0:0:0:
344,108,284419,1,2,0:0:0:0:
160,108,284614,1,0,0:0:0:0:
344,108,284710,1,2,0:0:0:0:
344,108,284806,1,2,0:0:0:0:
344,108,284903,1,0,0:0:0:0:
344,108,285098,1,2,0:0:0:0:
344,108,285291,1,2,0:0:0:0:
172,104,285388,1,0,0:0:0:0:
344,108,285485,1,2,0:0:0:0:
344,108,285581,1,0,0:0:0:0:
176,84,285775,1,0,0:0:0:0:
340,112,285871,1,2,0:0:0:0:
208,92,285968,1,0,0:0:0:0:
340,112,286064,1,6,0:0:0:0:
296,132,286258,1,0,0:0:0:0:
296,132,286355,1,0,0:0:0:0:
296,132,286452,1,2,0:0:0:0:
296,132,286645,1,0,0:0:0:0:
296,132,286742,1,2,0:0:0:0:
296,132,286839,1,2,0:0:0:0:
368,160,287033,1,0,0:0:0:0:
368,160,287226,1,0,0:0:0:0:
368,160,287419,1,0,0:0:0:0:
136,12,287516,1,0,0:0:0:0:
368,160,287613,1,6,0:0:0:0:
304,120,287806,1,2,0:0:0:0:
304,120,287903,1,2,0:0:0:0:
304,120,288000,1,0,0:0:0:0:
304,120,288194,1,0,0:0:0:0:
304,120,288290,1,2,0:0:0:0:
304,120,288485,1,0,0:0:0:0:
304,120,288581,1,2,0:0:0:0:
304,120,288678,1,0,0:0:0:0:
304,120,288775,1,2,0:0:0:0:
132,72,288872,1,2,0:0:0:0:
304,120,288968,1,0,0:0:0:0:
132,72,289065,1,0,0:0:0:0:
304,120,289161,1,6,0:0:0:0:
264,132,289355,1,2,0:0:0:0:
264,132,289548,1,0,0:0:0:0:
180,80,289646,1,2,0:0:0:0:
264,132,289742,5,0,0:0:0:0:
264,132,289935,1,6,0:0:0:0:
264,132,290129,1,0,0:0:0:0:
328,116,290323,1,0,0:0:0:0:
328,116,290419,1,2,0:0:0:0:
56,128,290516,1,0,0:0:0:0:
328,116,290613,1,0,0:0:0:0:
328,116,290710,1,6,0:0:0:0:
256,192,290903,12,0,291678,0:0:0:0:
308,208,291870,5,6,0:0:0:0:
340,176,292258,5,0,0:0:0:0:
348,176,292356,1,2,0:0:0:0:
352,44,292453,1,0,0:0:0:0:
352,44,292517,1,2,0:0:0:0:
256,120,292581,1,2,0:0:0:0:
280,56,292646,1,0,0:0:0:0:
344,164,292743,1,2,0:0:0:0:
344,164,292839,1,2,0:0:0:0:
92,112,292936,1,2,0:0:0:0:
348,160,293033,1,0,0:0:0:0:
348,160,293130,1,2,0:0:0:0:
348,160,293226,1,0,0:0:0:0:
348,160,293323,1,2,0:0:0:0:
348,160,293420,1,0,0:0:0:0:
348,160,293517,1,2,0:0:0:0:
348,160,293614,1,0,0:0:0:0:
348,160,293678,1,2,0:0:0:0:
260,180,293742,1,2,0:0:0:0:
348,160,293807,1,0,0:0:0:0:
308,80,293904,1,2,0:0:0:0:
308,80,294001,1,0,0:0:0:0:
308,80,294097,1,2,0:0:0:0:
308,80,294194,1,0,0:0:0:0:
308,80,294291,1,2,0:0:0:0:
308,80,294388,1,2,0:0:0:0:
308,80,294484,1,0,0:0:0:0:
308,80,294581,1,2,0:0:0:0:
312,104,294678,1,2,0:0:0:0:
312,104,294775,1,0,0:0:0:0:
312,104,294872,1,2,0:0:0:0:
312,104,294968,1,0,0:0:0:0:
312,104,295065,1,0,0:0:0:0:
312,104,295162,1,2,0:0:0:0:
312,104,295259,1,2,0:0:0:0:
316,80,295355,1,0,0:0:0:0:
316,80,295452,1,2,0:0:0:0:
304,84,295549,1,0,0:0:0:0:
276,88,295613,1,2,0:0:0:0:
372,104,295678,1,2,0:0:0:0:
276,88,295743,1,0,0:0:0:0:
276,88,295839,1,0,0:0:0:0:
276,88,295936,1,2,0:0:0:0:
64,128,296033,1,2,0:0:0:0:
284,80,296130,1,0,0:0:0:0:
288,80,296226,1,2,0:0:0:0:
288,80,296323,1,0,0:0:0:0:
280,80,296420,1,2,0:0:0:0:
280,80,296517,1,0,0:0:0:0:
332,52,296614,1,2,0:0:0:0:
332,52,296710,1,0,0:0:0:0:
332,52,296775,1,2,0:0:0:0:
252,160,296839,1,2,0:0:0:0:
332,52,296904,1,0,0:0:0:0:
412,144,297000,1,0,0:0:0:0:
412,144,297097,1,2,0:0:0:0:
412,144,297194,1,2,0:0:0:0:
412,144,297291,1,0,0:0:0:0:
412,144,297388,1,2,0:0:0:0:
412,144,297484,1,0,0:0:0:0:
412,144,297581,1,2,0:0:0:0:
412,144,297678,1,2,0:0:0:0:
412,144,297775,1,0,0:0:0:0:
256,144,297872,1,2,0:0:0:0:
256,144,297968,1,0,0:0:0:0:
256,144,298065,1,2,0:0:0:0:
256,144,298162,1,0,0:0:0:0:
256,144,298259,1,0,0:0:0:0:
256,144,298355,1,0,0:0:0:0:
256,144,298452,1,2,0:0:0:0:
296,116,298549,1,2,0:0:0:0:
296,116,298646,1,0,0:0:0:0:
292,112,298710,1,0,0:0:0:0:
292,112,298775,1,0,0:0:0:0:
292,112,298839,1,2,0:0:0:0:
296,108,298936,1,2,0:0:0:0:
296,108,299033,1,0,0:0:0:0:
296,108,299129,1,2,0:0:0:0:
168,104,299226,1,2,0:0:0:0:
296,120,299323,1,0,0:0:0:0:
296,120,299420,1,2,0:0:0:0:
296,120,299517,1,0,0:0:0:0:
296,120,299614,1,2,0:0:0:0:
296,120,299710,1,0,0:0:0:0:
296,120,299807,1,2,0:0:0:0:
296,120,299904,1,2,0:0:0:0:
304,176,300001,1,0,0:0:0:0:
392,172,300097,1,0,0:0:0:0:
224,128,300194,1,2,0:0:0:0:
224,128,300291,1,0,0:0:0:0:
224,128,300388,1,2,0:0:0:0:
224,128,300484,1,0,0:0:0:0:
224,128,300581,1,2,0:0:0:0:
224,128,300678,1,2,0:0:0:0:
224,128,300775,1,0,0:0:0:0:
228,120,300872,1,0,0:0:0:0:
228,120,300968,1,2,0:0:0:0:
228,120,301065,1,2,0:0:0:0:
228,120,301162,1,0,0:0:0:0:
228,120,301259,1,2,0:0:0:0:
228,120,301355,1,0,0:0:0:0:
228,120,301452,1,0,0:0:0:0:
228,120,301549,1,0,0:0:0:0:
320,168,301646,1,2,0:0:0:0:
320,168,301743,1,0,0:0:0:0:
260,180,301807,1,2,0:0:0:0:
260,180,301871,1,2,0:0:0:0:
312,152,301936,1,0,0:0:0:0:
312,152,302033,1,0,0:0:0:0:
168,64,302129,1,0,0:0:0:0:
312,152,302226,1,2,0:0:0:0:
276,108,302323,1,0,0:0:0:0:
296,148,302420,1,2,0:0:0:0:
296,148,302517,1,0,0:0:0:0:
296,148,302614,1,2,0:0:0:0:
296,148,302710,1,0,0:0:0:0:
296,148,302807,1,2,0:0:0:0:
296,148,302904,1,0,0:0:0:0:
296,148,303000,1,2,0:0:0:0:
296,148,303097,1,0,0:0:0:0:
328,96,303194,1,0,0:0:0:0:
328,96,303291,1,2,0:0:0:0:
328,96,303388,1,0,0:0:0:0:
328,96,303484,1,2,0:0:0:0:
328,96,303581,1,2,0:0:0:0:
176,176,303678,1,0,0:0:0:0:
184,172,303775,1,0,0:0:0:0:
264,168,303872,1,2,0:0:0:0:
264,176,303968,1,2,0:0:0:0:
268,176,304065,1,0,0:0:0:0:
268,176,304162,1,0,0:0:0:0:
412,144,304259,1,2,0:0:0:0:
412,144,304307,1,2,0:0:0:0:
236,116,304355,1,2,0:0:0:0:
140,92,304404,1,2,0:0:0:0:
180,144,304452,1,0,0:0:0:0:
340,176,304646,5,0,0:0:0:0:
348,176,304742,1,2,0:0:0:0:
352,44,304839,1,0,0:0:0:0:
352,44,304905,1,2,0:0:0:0:
256,120,304969,1,2,0:0:0:0:
280,56,305034,1,0,0:0:0:0:
344,164,305129,1,2,0:0:0:0:
344,164,305227,1,2,0:0:0:0:
196,108,305324,1,2,0:0:0:0:
348,160,305421,1,0,0:0:0:0:
348,160,305518,1,2,0:0:0:0:
348,160,305614,1,0,0:0:0:0:
348,160,305711,1,2,0:0:0:0:
348,160,305808,1,0,0:0:0:0:
348,160,305905,1,2,0:0:0:0:
348,160,306000,1,0,0:0:0:0:
348,160,306066,1,2,0:0:0:0:
260,180,306130,1,2,0:0:0:0:
348,160,306195,1,0,0:0:0:0:
308,80,306292,1,2,0:0:0:0:
308,80,306387,1,0,0:0:0:0:
308,80,306484,1,2,0:0:0:0:
308,80,306582,1,0,0:0:0:0:
308,80,306679,1,2,0:0:0:0:
308,80,306776,1,2,0:0:0:0:
308,80,306872,1,0,0:0:0:0:
308,80,306969,1,2,0:0:0:0:
312,104,307066,1,2,0:0:0:0:
312,104,307163,1,0,0:0:0:0:
312,104,307258,1,2,0:0:0:0:
312,104,307356,1,0,0:0:0:0:
312,104,307453,1,0,0:0:0:0:
312,104,307550,1,2,0:0:0:0:
312,104,307647,1,2,0:0:0:0:
316,80,307743,1,0,0:0:0:0:
316,80,307840,1,2,0:0:0:0:
304,84,307937,1,0,0:0:0:0:
276,88,308001,1,2,0:0:0:0:
372,104,308066,1,2,0:0:0:0:
276,88,308129,1,0,0:0:0:0:
276,88,308227,1,2,0:0:0:0:
276,88,308324,1,0,0:0:0:0:
64,128,308420,1,0,0:0:0:0:
284,80,308518,1,0,0:0:0:0:
288,80,308614,1,2,0:0:0:0:
288,80,308711,1,0,0:0:0:0:
280,80,308808,1,2,0:0:0:0:
280,80,308905,1,0,0:0:0:0:
332,52,309000,1,2,0:0:0:0:
332,52,309098,1,0,0:0:0:0:
332,52,309163,1,2,0:0:0:0:
252,160,309227,1,2,0:0:0:0:
332,52,309292,1,0,0:0:0:0:
412,144,309388,1,0,0:0:0:0:
412,144,309485,1,2,0:0:0:0:
412,144,309582,1,2,0:0:0:0:
412,144,309679,1,0,0:0:0:0:
412,144,309776,1,2,0:0:0:0:
412,144,309872,1,0,0:0:0:0:
412,144,309969,1,2,0:0:0:0:
412,144,310066,1,2,0:0:0:0:
412,144,310163,1,0,0:0:0:0:
256,144,310258,1,2,0:0:0:0:
256,144,310356,1,0,0:0:0:0:
256,144,310453,1,2,0:0:0:0:
256,144,310550,1,0,0:0:0:0:
256,144,310647,1,0,0:0:0:0:
256,144,310743,1,0,0:0:0:0:
256,144,310840,1,2,0:0:0:0:
296,116,310937,1,2,0:0:0:0:
296,116,311034,1,0,0:0:0:0:
292,112,311098,1,0,0:0:0:0:
292,112,311163,1,0,0:0:0:0:
292,112,311227,1,2,0:0:0:0:
296,108,311324,1,2,0:0:0:0:
296,108,311421,1,0,0:0:0:0:
296,108,311517,1,2,0:0:0:0:
168,104,311614,1,2,0:0:0:0:
296,120,311711,1,0,0:0:0:0:
296,120,311808,1,2,0:0:0:0:
296,120,311905,1,0,0:0:0:0:
296,120,312000,1,0,0:0:0:0:
296,120,312098,1,0,0:0:0:0:
296,120,312195,1,2,0:0:0:0:
296,120,312292,1,0,0:0:0:0:
304,176,312387,1,2,0:0:0:0:
392,172,312485,1,2,0:0:0:0:
224,128,312582,1,2,0:0:0:0:
224,128,312679,1,0,0:0:0:0:
224,128,312776,1,2,0:0:0:0:
224,128,312872,1,0,0:0:0:0:
224,128,312969,1,2,0:0:0:0:
224,128,313066,1,2,0:0:0:0:
224,128,313163,1,0,0:0:0:0:
228,120,313258,1,0,0:0:0:0:
228,120,313356,1,2,0:0:0:0:
228,120,313453,1,2,0:0:0:0:
228,120,313550,1,0,0:0:0:0:
228,120,313647,1,2,0:0:0:0:
228,120,313743,1,0,0:0:0:0:
228,120,313840,1,0,0:0:0:0:
228,120,313937,1,0,0:0:0:0:
320,168,314034,1,2,0:0:0:0:
320,168,314129,1,0,0:0:0:0:
260,180,314195,1,2,0:0:0:0:
260,180,314259,1,2,0:0:0:0:
312,152,314324,5,0,0:0:0:0:
312,152,314421,1,2,0:0:0:0:
168,64,314517,1,0,0:0:0:0:
312,152,314614,1,2,0:0:0:0:
276,108,314711,5,0,0:0:0:0:
296,148,314808,1,0,0:0:0:0:
296,148,314905,1,2,0:0:0:0:
296,148,315000,1,2,0:0:0:0:
296,148,315098,1,0,0:0:0:0:
296,148,315195,1,2,0:0:0:0:
296,148,315292,1,0,0:0:0:0:
296,148,315388,1,0,0:0:0:0:
296,148,315484,1,0,0:0:0:0:
328,96,315581,1,2,0:0:0:0:
328,96,315678,1,0,0:0:0:0:
328,96,315774,1,0,0:0:0:0:
328,96,315871,1,2,0:0:0:0:
328,96,315968,1,2,0:0:0:0:
176,176,316065,1,0,0:0:0:0:
184,172,316161,1,2,0:0:0:0:
264,168,316258,1,0,0:0:0:0:
264,176,316355,1,0,0:0:0:0:
268,176,316452,1,0,0:0:0:0:
268,176,316549,1,0,0:0:0:0:
412,144,316645,1,2,0:0:0:0:
412,144,316742,1,2,0:0:0:0:
412,144,316839,1,0,0:0:0:0:
280,80,316936,1,2,0:0:0:0:
