osu file format v14

[General]
AudioFilename: audio.mp3
AudioLeadIn: 0
PreviewTime: 28154
Countdown: 1
SampleSet: Soft
StackLeniency: 0.7
Mode: 0
LetterboxInBreaks: 0
WidescreenStoryboard: 1

[Editor]
Bookmarks: 9960,14219,15960,29702,32799,48283,49057,49831,51380,54477,54864,55251,55638,56025,57186,57573,57960,58348,58735,59122,59509,59896,60283,60670,61057,61444,61831,62219,62606,62993,63380,64154,64541,64928,65702,66477,67251,68025,69186,73251,76444,77896,79444,81960,84281,84668,85055,85442,86989,87377,87764,88151
DistanceSpacing: 0.8
BeatDivisor: 4
GridSize: 4
TimelineZoom: 1

[Metadata]
Title:Deconstruction Star
TitleUnicode:Deconstruction Star
Artist:Halozy
ArtistUnicode:Halozy
Creator:bretty
Version:Stars
Source:
Tags:Touhou Keine Remix Plain Asia Lyrics Vocal
BeatmapID:1319825
BeatmapSetID:626140

[Difficulty]
HPDrainRate:4
CircleSize:4
OverallDifficulty:8
ApproachRate:9
SliderMultiplier:1.39999990463257
SliderTickRate:1

[Events]
//Background and Video events
0,0,"278002.jpg",0,0
//Break Periods
//Storyboard Layer 0 (Background)
//Storyboard Layer 1 (Fail)
//Storyboard Layer 2 (Pass)
//Storyboard Layer 3 (Foreground)
//Storyboard Sound Samples

[TimingPoints]
90,387.096774193548,4,2,0,100,1,0
39864,387.096774193548,4,2,0,100,1,0
40541,387.096774193548,4,2,0,100,1,0
75379,387.096774193548,4,2,0,100,1,0
75960,387.096774193548,4,2,0,100,1,0
80798,387.096774193548,4,2,0,100,1,0
81960,387.096774193548,4,2,0,100,1,0
81960,387.096774193548,4,2,0,100,1,0
81960,387.096774193548,4,2,0,100,1,0
82153,387.096774193548,4,2,0,100,1,0
83894,387.096774193548,4,2,0,100,1,0
84281,387.096774193548,4,2,0,100,1,0
84377,387.096774193548,4,2,0,100,1,0
84668,387.096774193548,4,2,0,100,1,0
84668,387.096774193548,4,2,0,100,1,0
85055,387.096774193548,4,2,0,100,1,0
87377,387.096774193548,4,2,0,100,1,0
87764,387.096774193548,4,2,0,100,1,0
88151,387.096774193548,4,2,0,100,1,0

[HitObjects]
184,204,4348,5,0,0:0:0:0:
220,244,4541,1,0,0:0:0:0:
140,164,4735,1,0,0:0:0:0:
100,128,4928,1,0,0:0:0:0:
304,128,5315,5,0,0:0:0:0:
376,128,5702,2,0,P|392:188|372:212,1,70
204,232,6283,1,0,0:0:0:0:
204,112,6670,1,0,0:0:0:0:
400,112,6864,1,0,0:0:0:0:
400,200,7057,2,0,L|400:240,1,35
256,236,8412,5,0,0:0:0:0:
208,184,8993,1,0,0:0:0:0:
208,184,9186,2,0,P|208:108|212:104,1,70
304,116,9960,2,0,P|304:188|296:196,1,70
256,184,10251,2,0,L|256:140,1,35
164,220,10541,5,0,0:0:0:0:
76,220,10735,1,0,0:0:0:0:
76,308,10928,1,0,0:0:0:0:
164,308,11122,1,0,0:0:0:0:
256,192,11509,1,0,0:0:0:0:
256,192,11896,2,0,P|276:264|264:276,1,70
248,136,12477,1,0,0:0:0:0:
256,144,12864,1,0,0:0:0:0:
256,144,13057,1,0,0:0:0:0:
256,144,13251,2,0,L|256:106,1,35
204,240,14412,5,0,0:0:0:0:
316,140,14606,1,0,0:0:0:0:
260,192,14799,1,0,0:0:0:0:
312,240,15186,5,0,0:0:0:0:
204,136,15380,1,0,0:0:0:0:
260,192,15573,1,0,0:0:0:0:
172,192,15960,5,0,0:0:0:0:
340,192,16154,1,0,0:0:0:0:
256,192,16348,1,0,0:0:0:0:
84,128,16735,5,0,0:0:0:0:
260,128,16928,1,0,0:0:0:0:
172,132,17122,2,0,L|228:164,2,35
284,96,17509,1,0,0:0:0:0:
284,96,17606,1,0,0:0:0:0:
284,96,17703,1,0,0:0:0:0:
364,92,17896,1,0,0:0:0:0:
364,128,17993,1,0,0:0:0:0:
364,156,18089,1,0,0:0:0:0:
360,268,18283,6,0,L|360:232,2,35
184,268,18670,2,0,L|184:232,2,35
204,76,19057,5,0,0:0:0:0:
256,24,19154,1,0,0:0:0:0:
304,80,19251,1,0,0:0:0:0:
188,144,19444,5,0,0:0:0:0:
256,96,19541,1,0,0:0:0:0:
320,144,19638,1,0,0:0:0:0:
172,216,19831,5,0,0:0:0:0:
256,176,19928,1,0,0:0:0:0:
332,216,20025,1,0,0:0:0:0:
152,280,20219,5,0,0:0:0:0:
256,244,20316,1,0,0:0:0:0:
352,284,20412,1,0,0:0:0:0:
256,236,20606,1,0,0:0:0:0:
256,236,20702,2,0,L|256:180,1,35
88,72,20993,1,0,0:0:0:0:
88,72,21089,2,0,L|132:72,1,35
424,72,21380,1,0,0:0:0:0:
424,72,21477,2,0,L|380:72,1,35
208,84,21767,6,0,P|296:76|316:92,2,105
196,264,22541,1,0,0:0:0:0:
256,192,22735,1,0,0:0:0:0:
256,192,22831,2,0,L|292:148,2,35
128,100,23315,5,0,0:0:0:0:
128,100,23412,1,0,0:0:0:0:
128,100,23509,1,0,0:0:0:0:
384,100,23702,2,0,L|432:100,2,35
144,104,24089,1,0,0:0:0:0:
144,104,24186,1,0,0:0:0:0:
144,104,24283,2,0,L|144:200,2,70
248,80,24864,5,0,0:0:0:0:
288,80,24960,1,0,0:0:0:0:
328,80,25057,1,0,0:0:0:0:
248,152,25251,5,0,0:0:0:0:
296,152,25348,1,0,0:0:0:0:
344,152,25444,1,0,0:0:0:0:
248,224,25638,5,0,0:0:0:0:
304,224,25735,1,0,0:0:0:0:
360,224,25831,1,0,0:0:0:0:
108,108,26025,5,0,0:0:0:0:
108,108,26219,1,0,0:0:0:0:
108,108,26412,1,0,0:0:0:0:
112,112,26606,2,0,L|112:216,1,105
136,288,26993,5,0,0:0:0:0:
200,240,27186,1,0,0:0:0:0:
220,168,27380,1,0,0:0:0:0:
240,100,27573,1,0,0:0:0:0:
196,96,27670,2,0,L|152:96,1,35
48,124,28154,6,0,B|172:48|304:36|336:64|500:156|408:140|536:28|400:268|388:276,1,560
256,192,29896,12,0,31831,0:0:0:0:
256,192,32799,5,0,0:0:0:0:
275,220,32895,1,0,0:0:0:0:
303,241,32992,1,0,0:0:0:0:
337,250,33089,1,0,0:0:0:0:
372,248,33186,1,0,0:0:0:0:
403,234,33282,1,0,0:0:0:0:
429,210,33379,1,0,0:0:0:0:
444,179,33476,1,0,0:0:0:0:
448,144,33573,1,0,0:0:0:0:
440,110,33669,5,0,0:0:0:0:
421,81,33766,1,0,0:0:0:0:
394,60,33863,1,0,0:0:0:0:
360,50,33960,1,0,0:0:0:0:
326,51,34057,1,0,0:0:0:0:
293,65,34153,1,0,0:0:0:0:
268,88,34250,1,0,0:0:0:0:
251,119,34347,1,0,0:0:0:0:
240,160,34444,1,0,0:0:0:0:
228,184,34541,2,0,L|184:172,4,35
180,188,35025,5,0,0:0:0:0:
191,220,35121,1,0,0:0:0:0:
188,255,35218,1,0,0:0:0:0:
171,285,35315,1,0,0:0:0:0:
142,304,35412,1,0,0:0:0:0:
108,309,35508,1,0,0:0:0:0:
75,300,35605,1,0,0:0:0:0:
49,276,35702,1,0,0:0:0:0:
35,244,35799,1,0,0:0:0:0:
56,208,35896,1,0,0:0:0:0:
107,201,35992,5,0,0:0:0:0:
159,207,36089,1,0,0:0:0:0:
210,221,36186,1,0,0:0:0:0:
260,237,36283,1,0,0:0:0:0:
311,243,36379,1,0,0:0:0:0:
337,201,36476,1,0,0:0:0:0:
340,148,36573,1,0,0:0:0:0:
300,120,36670,1,0,0:0:0:0:
240,116,36766,1,0,0:0:0:0:
182,126,36863,1,0,0:0:0:0:
132,157,36960,1,0,0:0:0:0:
105,209,37057,5,0,0:0:0:0:
124,264,37154,1,0,0:0:0:0:
193,259,37250,1,0,0:0:0:0:
263,250,37347,1,0,0:0:0:0:
331,235,37444,1,0,0:0:0:0:
396,209,37541,1,0,0:0:0:0:
427,152,37637,1,0,0:0:0:0:
385,97,37734,1,0,0:0:0:0:
320,120,37831,2,0,L|268:148,11,35
240,120,38993,5,0,0:0:0:0:
233,171,39089,1,0,0:0:0:0:
253,219,39186,1,0,0:0:0:0:
293,252,39283,1,0,0:0:0:0:
344,261,39380,1,0,0:0:0:0:
394,245,39476,1,0,0:0:0:0:
429,206,39573,1,0,0:0:0:0:
441,156,39670,1,0,0:0:0:0:
427,106,39767,1,0,0:0:0:0:
376,60,39864,2,0,P|304:24|244:88,1,179.999995231628
312,108,40154,2,0,P|272:184|196:156,1,179.999995231628
156,216,40444,2,0,P|208:296|212:300,1,89.9999976158142
296,316,40638,5,0,0:0:0:0:
345,298,40734,1,0,0:0:0:0:
382,262,40831,1,0,0:0:0:0:
402,214,40928,1,0,0:0:0:0:
400,162,41025,1,0,0:0:0:0:
376,116,41121,1,0,0:0:0:0:
336,83,41218,1,0,0:0:0:0:
285,70,41315,1,0,0:0:0:0:
234,79,41412,1,0,0:0:0:0:
196,116,41509,5,0,0:0:0:0:
167,150,41605,1,0,0:0:0:0:
161,194,41702,1,0,0:0:0:0:
179,235,41799,1,0,0:0:0:0:
217,259,41896,1,0,0:0:0:0:
262,259,41992,1,0,0:0:0:0:
300,234,42089,1,0,0:0:0:0:
319,194,42186,1,0,0:0:0:0:
316,152,42283,1,0,0:0:0:0:
304,108,42380,5,0,0:0:0:0:
282,96,42476,1,0,0:0:0:0:
258,95,42573,1,0,0:0:0:0:
235,105,42670,1,0,0:0:0:0:
219,123,42767,1,0,0:0:0:0:
214,135,42863,1,0,0:0:0:0:
213,141,42960,1,0,0:0:0:0:
216,151,43057,1,0,0:0:0:0:
223,159,43154,1,0,0:0:0:0:
231,165,43250,5,0,0:0:0:0:
242,167,43347,1,0,0:0:0:0:
252,166,43444,1,0,0:0:0:0:
261,161,43541,1,0,0:0:0:0:
268,153,43637,1,0,0:0:0:0:
272,144,43734,1,0,0:0:0:0:
272,144,43831,6,0,L|312:104,5,34.9999976158142
312,100,44412,1,0,0:0:0:0:
342,83,44508,1,0,0:0:0:0:
377,82,44605,5,0,0:0:0:0:
409,95,44702,1,0,0:0:0:0:
431,122,44799,1,0,0:0:0:0:
440,155,44895,1,0,0:0:0:0:
433,189,44992,1,0,0:0:0:0:
412,217,45089,1,0,0:0:0:0:
349,114,45186,1,0,0:0:0:0:
297,67,45282,1,0,0:0:0:0:
230,51,45379,1,0,0:0:0:0:
164,68,45476,5,0,0:0:0:0:
114,117,45573,1,0,0:0:0:0:
94,185,45669,1,0,0:0:0:0:
110,252,45766,1,0,0:0:0:0:
156,303,45863,1,0,0:0:0:0:
221,327,45960,1,0,0:0:0:0:
292,320,46057,1,0,0:0:0:0:
349,280,46153,1,0,0:0:0:0:
378,218,46250,1,0,0:0:0:0:
372,149,46347,1,0,0:0:0:0:
333,92,46444,5,0,0:0:0:0:
270,63,46540,1,0,0:0:0:0:
201,70,46637,1,0,0:0:0:0:
145,110,46734,1,0,0:0:0:0:
148,180,46831,5,0,0:0:0:0:
147,208,46927,1,0,0:0:0:0:
147,236,47024,1,0,0:0:0:0:
147,264,47121,1,0,0:0:0:0:
148,288,47219,2,0,P|148:348|148:344,9,34.9999976158142
300,300,48186,1,0,0:0:0:0:
321,288,48282,1,0,0:0:0:0:
340,272,48379,1,0,0:0:0:0:
354,253,48476,1,0,0:0:0:0:
364,230,48573,5,0,0:0:0:0:
369,206,48669,1,0,0:0:0:0:
368,182,48766,1,0,0:0:0:0:
362,158,48863,1,0,0:0:0:0:
350,137,48960,1,0,0:0:0:0:
336,116,49057,2,0,L|304:84,8,34.9999976158142
280,80,49928,1,0,0:0:0:0:
255,66,50024,1,0,0:0:0:0:
228,60,50121,1,0,0:0:0:0:
200,63,50218,5,0,0:0:0:0:
174,73,50315,1,0,0:0:0:0:
153,91,50411,1,0,0:0:0:0:
138,114,50508,1,0,0:0:0:0:
130,141,50605,1,0,0:0:0:0:
131,169,50702,1,0,0:0:0:0:
136,196,50799,2,0,L|152:232,6,34.9999976158142
164,248,51477,5,0,0:0:0:0:
149,216,51573,1,0,0:0:0:0:
154,182,51670,1,0,0:0:0:0:
176,155,51767,1,0,0:0:0:0:
208,143,51864,1,0,0:0:0:0:
242,151,51960,1,0,0:0:0:0:
267,174,52057,1,0,0:0:0:0:
292,196,52154,1,0,0:0:0:0:
319,215,52250,1,0,0:0:0:0:
350,202,52347,1,0,0:0:0:0:
356,169,52444,1,0,0:0:0:0:
332,128,52541,5,0,0:0:0:0:
303,108,52638,1,0,0:0:0:0:
277,85,52735,1,0,0:0:0:0:
252,61,52832,1,0,0:0:0:0:
228,35,52929,1,0,0:0:0:0:
197,21,53025,1,0,0:0:0:0:
162,27,53122,1,0,0:0:0:0:
132,43,53219,1,0,0:0:0:0:
102,62,53316,1,0,0:0:0:0:
84,92,53412,6,0,L|64:144,10,34.9999976158142
56,160,54477,5,0,0:0:0:0:
214,352,54864,5,0,0:0:0:0:
364,52,55251,5,0,0:0:0:0:
124,231,55638,5,0,0:0:0:0:
406,297,56025,5,0,0:0:0:0:
45,160,57186,6,0,P|133:106|173:115,1,139.999990463257
368,84,57960,5,0,0:0:0:0:
256,340,58348,1,0,0:0:0:0:
144,84,58735,1,0,0:0:0:0:
368,264,59122,1,0,0:0:0:0:
144,264,59509,1,0,0:0:0:0:
256,44,59896,5,0,0:0:0:0:
144,300,60283,1,0,0:0:0:0:
368,300,60670,1,0,0:0:0:0:
368,88,61057,1,0,0:0:0:0:
144,88,61444,1,0,0:0:0:0:
256,64,61831,5,0,0:0:0:0:
376,192,62219,1,0,0:0:0:0:
136,192,62606,1,0,0:0:0:0:
256,320,62993,1,0,0:0:0:0:
232,192,63380,6,0,L|276:192,4,34.9999976158142
156,72,63960,5,0,0:0:0:0:
156,96,64057,2,0,L|156:144,1,34.9999976158142
356,72,64734,5,0,0:0:0:0:
356,96,64831,2,0,L|356:144,1,34.9999976158142
256,68,65509,5,0,0:0:0:0:
256,92,65606,2,0,P|256:128|256:144,1,34.9999976158142
256,316,66283,5,0,0:0:0:0:
256,292,66380,2,0,P|256:256|256:240,1,34.9999976158142
156,312,67057,5,0,0:0:0:0:
156,288,67154,2,0,L|156:240,1,34.9999976158142
356,312,67831,5,0,0:0:0:0:
356,288,67928,2,0,L|356:240,1,34.9999976158142
256,192,68412,5,0,0:0:0:0:
184,188,69186,2,0,P|256:92|328:192,1,279.999980926513
260,184,70154,5,0,0:0:0:0:
260,184,70348,1,0,0:0:0:0:
260,184,70541,1,0,0:0:0:0:
256,192,70735,2,0,P|256:140|252:140,2,69.9999952316283
256,272,71702,5,0,0:0:0:0:
168,232,71896,1,0,0:0:0:0:
164,136,72089,2,0,P|180:68|248:56,1,139.999990463257
241,53,72670,1,0,0:0:0:0:
104,196,73251,6,0,P|124:148|148:124,1,69.9999952316283
192,92,73638,1,0,0:0:0:0:
288,88,73831,1,0,0:0:0:0:
192,104,74025,1,0,0:0:0:0:
280,52,74219,1,0,0:0:0:0:
136,176,74799,5,0,0:0:0:0:
136,176,74993,1,0,0:0:0:0:
136,176,75186,1,0,0:0:0:0:
140,180,75380,2,0,L|204:180,2,44.9999952316285
128,92,76347,5,0,0:0:0:0:
384,292,76541,1,0,0:0:0:0:
128,92,76734,1,0,0:0:0:0:
384,92,76928,5,0,0:0:0:0:
128,292,77122,1,0,0:0:0:0:
384,92,77315,1,0,0:0:0:0:
340,144,77896,2,0,L|388:228,1,69.9999952316285
224,120,78283,2,0,P|276:100|308:128,1,69.9999952316285
192,180,78670,2,0,L|152:248,1,69.9999952316285
128,96,79444,5,0,0:0:0:0:
384,96,79637,5,0,0:0:0:0:
128,288,79831,5,0,0:0:0:0:
384,288,80025,5,0,0:0:0:0:
128,96,80218,5,0,0:0:0:0:
384,96,80412,5,0,0:0:0:0:
128,288,80605,5,0,0:0:0:0:
384,288,80798,2,0,L|416:248,3,50.0000005960464
128,232,82347,5,0,0:0:0:0:
152,120,82540,1,0,0:0:0:0:
152,120,82637,1,0,0:0:0:0:
152,120,82734,1,0,0:0:0:0:
304,164,82927,5,0,0:0:0:0:
344,168,83023,1,0,0:0:0:0:
384,172,83120,1,0,0:0:0:0:
276,252,83313,1,0,0:0:0:0:
240,252,83410,1,0,0:0:0:0:
200,252,83507,1,0,0:0:0:0:
108,168,83701,5,0,0:0:0:0:
136,144,83798,1,0,0:0:0:0:
164,148,83894,2,0,P|256:112|284:200,1,190.000000596047
288,200,84281,2,0,P|176:276|168:156,1,300.000000596047,2|0,0:0|0:0,0:0:0:0:
168,140,84668,2,0,P|296:52|296:200,1,359.999990463257
112,112,85247,5,0,0:0:0:0:
112,112,85344,1,0,0:0:0:0:
112,112,85441,2,0,L|144:204,1,69.9999952316285
160,228,85731,1,0,0:0:0:0:
260,306,85828,1,0,0:0:0:0:
210,267,85925,1,0,0:0:0:0:
210,267,86215,5,0,0:0:0:0:
156,272,86989,2,0,L|276:196,1,139.999990463257
236,140,87377,2,0,L|48:256,1,209.999990463257
108,352,87764,2,0,L|380:176,1,299.999990463257
