osu file format v14

[General]
AudioFilename: audio.mp3
AudioLeadIn: 0
PreviewTime: 270680
Countdown: 0
SampleSet: None
StackLeniency: 0.7
Mode: 3
LetterboxInBreaks: 0
SpecialStyle: 0
WidescreenStoryboard: 0

[Editor]
DistanceSpacing: 1.2
BeatDivisor: 4
GridSize: 32
TimelineZoom: 2.4

[Metadata]
Title:Deconstruction Star
TitleUnicode:Deconstruction Star
Artist:Halozy
ArtistUnicode:Halozy
Creator:NekoPoiLTE
Version:Lunatic of Star
Source:東方永夜抄 ~ Imperishable Night.
Tags:
BeatmapID:1419785
BeatmapSetID:671506

[Difficulty]
HPDrainRate:8
CircleSize:4
OverallDifficulty:8
ApproachRate:5
SliderMultiplier:1.4
SliderTickRate:1

[Events]
//Background and Video events
0,0,"07 BG.jpg",0,0
//Break Periods
2,122812,124896
//Storyboard Layer 0 (Background)
//Storyboard Layer 1 (Fail)
//Storyboard Layer 2 (Pass)
//Storyboard Layer 3 (Foreground)
//Storyboard Sound Samples

[TimingPoints]
0,387.096774193548,4,1,0,23,1,0
32806,-100,4,1,0,23,0,1
57580,-100,4,1,0,23,0,0
97841,-100,4,1,0,23,0,1
122618,-100,4,1,0,23,0,0
162870,-100,4,1,0,23,0,1
187645,-100,4,1,0,23,0,0
271258,-100,4,1,0,23,0,1
294483,-100,4,1,0,23,0,0
296032,-100,4,1,0,23,0,1
317709,-100,4,1,0,23,0,0

[HitObjects]
448,192,4935,5,0,0:0:0:0:
320,192,5129,1,0,0:0:0:0:
192,192,5322,1,0,0:0:0:0:
320,192,5516,1,0,0:0:0:0:
448,192,5709,1,0,0:0:0:0:
192,192,5903,1,0,0:0:0:0:
448,192,6096,1,0,0:0:0:0:
192,192,6290,1,0,0:0:0:0:
448,192,6483,1,0,0:0:0:0:
320,192,6677,1,0,0:0:0:0:
64,192,6870,1,0,0:0:0:0:
448,192,7064,1,0,0:0:0:0:
64,192,7258,1,0,0:0:0:0:
192,192,7451,1,0,0:0:0:0:
320,192,7645,1,0,0:0:0:0:
448,192,7838,1,0,0:0:0:0:
320,192,8032,1,0,0:0:0:0:
64,192,8419,1,0,0:0:0:0:
192,192,8612,1,0,0:0:0:0:
320,192,8806,1,0,0:0:0:0:
64,192,8999,1,0,0:0:0:0:
448,192,9193,1,0,0:0:0:0:
320,192,9387,1,0,0:0:0:0:
192,192,9580,1,0,0:0:0:0:
448,192,9774,1,0,0:0:0:0:
64,192,9967,1,0,0:0:0:0:
192,192,10161,1,0,0:0:0:0:
320,192,10354,1,0,0:0:0:0:
64,192,11129,1,0,0:0:0:0:
192,192,11322,1,0,0:0:0:0:
320,192,11516,1,0,0:0:0:0:
192,192,11709,1,0,0:0:0:0:
320,192,11903,1,0,0:0:0:0:
448,192,12096,1,0,0:0:0:0:
320,192,12290,1,0,0:0:0:0:
192,192,12483,1,0,0:0:0:0:
64,192,12677,1,0,0:0:0:0:
192,192,12870,1,0,0:0:0:0:
448,192,13064,1,0,0:0:0:0:
320,192,13258,1,0,0:0:0:0:
192,192,13451,1,0,0:0:0:0:
64,192,13645,1,0,0:0:0:0:
192,192,13838,1,0,0:0:0:0:
320,192,14032,1,0,0:0:0:0:
448,192,14225,1,0,0:0:0:0:
64,192,14419,1,0,0:0:0:0:
320,192,14612,1,0,0:0:0:0:
192,192,14806,1,0,0:0:0:0:
64,192,14999,1,0,0:0:0:0:
448,192,15193,1,0,0:0:0:0:
320,192,15387,1,0,0:0:0:0:
192,192,15580,1,0,0:0:0:0:
64,192,15774,1,0,0:0:0:0:
320,192,15967,1,0,0:0:0:0:
448,192,16161,1,0,0:0:0:0:
320,192,16354,1,0,0:0:0:0:
192,192,16548,128,0,17322:0:0:0:0:
448,192,17322,1,0,0:0:0:0:
64,192,17322,1,0,0:0:0:0:
320,192,17516,1,0,0:0:0:0:
192,192,17612,1,0,0:0:0:0:
320,192,17709,1,0,0:0:0:0:
64,192,17709,1,0,0:0:0:0:
448,192,17709,1,0,0:0:0:0:
192,192,17903,1,0,0:0:0:0:
320,192,17999,1,0,0:0:0:0:
192,192,18096,1,0,0:0:0:0:
448,192,18096,1,0,0:0:0:0:
64,192,18290,1,0,0:0:0:0:
320,192,18387,1,0,0:0:0:0:
192,192,18483,1,0,0:0:0:0:
448,192,18483,1,0,0:0:0:0:
64,192,18483,1,0,0:0:0:0:
320,192,18677,1,0,0:0:0:0:
192,192,18774,1,0,0:0:0:0:
64,192,18870,1,0,0:0:0:0:
320,192,18870,1,0,0:0:0:0:
448,192,19064,1,0,0:0:0:0:
320,192,19161,1,0,0:0:0:0:
448,192,19258,1,0,0:0:0:0:
192,192,19258,1,0,0:0:0:0:
64,192,19258,1,0,0:0:0:0:
320,192,19451,1,0,0:0:0:0:
192,192,19548,1,0,0:0:0:0:
320,192,19645,1,0,0:0:0:0:
64,192,19645,1,0,0:0:0:0:
192,192,19838,1,0,0:0:0:0:
320,192,19935,1,0,0:0:0:0:
64,192,20032,1,0,0:0:0:0:
192,192,20032,1,0,0:0:0:0:
448,192,20032,1,0,0:0:0:0:
192,192,20225,1,0,0:0:0:0:
64,192,20322,1,0,0:0:0:0:
320,192,20419,1,0,0:0:0:0:
448,192,20419,1,0,0:0:0:0:
192,192,20612,1,0,0:0:0:0:
64,192,20709,1,0,0:0:0:0:
192,192,20806,1,0,0:0:0:0:
320,192,20806,1,0,0:0:0:0:
448,192,20806,1,0,0:0:0:0:
64,192,20999,1,0,0:0:0:0:
192,192,21096,1,0,0:0:0:0:
320,192,21193,1,0,0:0:0:0:
448,192,21193,1,0,0:0:0:0:
192,192,21387,1,0,0:0:0:0:
320,192,21483,1,0,0:0:0:0:
448,192,21580,1,0,0:0:0:0:
192,192,21580,1,0,0:0:0:0:
64,192,21580,1,0,0:0:0:0:
320,192,21774,1,0,0:0:0:0:
192,192,21870,1,0,0:0:0:0:
64,192,21967,1,0,0:0:0:0:
448,192,21967,1,0,0:0:0:0:
320,192,22161,1,0,0:0:0:0:
192,192,22258,1,0,0:0:0:0:
64,192,22354,1,0,0:0:0:0:
320,192,22354,1,0,0:0:0:0:
448,192,22354,1,0,0:0:0:0:
192,192,22548,1,0,0:0:0:0:
320,192,22645,1,0,0:0:0:0:
64,192,22741,1,0,0:0:0:0:
448,192,22741,1,0,0:0:0:0:
192,192,22935,1,0,0:0:0:0:
64,192,23032,1,0,0:0:0:0:
192,192,23129,1,0,0:0:0:0:
320,192,23129,1,0,0:0:0:0:
448,192,23129,1,0,0:0:0:0:
320,192,23322,1,0,0:0:0:0:
448,192,23419,1,0,0:0:0:0:
64,192,23516,1,0,0:0:0:0:
320,192,23516,1,0,0:0:0:0:
192,192,23709,1,0,0:0:0:0:
320,192,23806,1,0,0:0:0:0:
64,192,23903,1,0,0:0:0:0:
192,192,23903,1,0,0:0:0:0:
448,192,23903,1,0,0:0:0:0:
320,192,24096,1,0,0:0:0:0:
192,192,24193,1,0,0:0:0:0:
320,192,24290,1,0,0:0:0:0:
448,192,24290,1,0,0:0:0:0:
192,192,24483,1,0,0:0:0:0:
64,192,24580,1,0,0:0:0:0:
192,192,24677,1,0,0:0:0:0:
320,192,24677,1,0,0:0:0:0:
448,192,24677,1,0,0:0:0:0:
320,192,24870,1,0,0:0:0:0:
448,192,24967,1,0,0:0:0:0:
192,192,25064,1,0,0:0:0:0:
320,192,25064,1,0,0:0:0:0:
64,192,25258,1,0,0:0:0:0:
192,192,25354,1,0,0:0:0:0:
64,192,25451,1,0,0:0:0:0:
320,192,25451,1,0,0:0:0:0:
448,192,25451,1,0,0:0:0:0:
192,192,25645,1,0,0:0:0:0:
64,192,25741,1,0,0:0:0:0:
192,192,25838,1,0,0:0:0:0:
320,192,25838,1,0,0:0:0:0:
448,192,26032,1,0,0:0:0:0:
320,192,26129,1,0,0:0:0:0:
192,192,26225,1,0,0:0:0:0:
64,192,26225,1,0,0:0:0:0:
448,192,26225,1,0,0:0:0:0:
320,192,26419,1,0,0:0:0:0:
192,192,26516,1,0,0:0:0:0:
64,192,26612,1,0,0:0:0:0:
448,192,26612,1,0,0:0:0:0:
192,192,26806,1,0,0:0:0:0:
320,192,26903,1,0,0:0:0:0:
448,192,26999,1,0,0:0:0:0:
192,192,26999,1,0,0:0:0:0:
64,192,26999,1,0,0:0:0:0:
320,192,27193,1,0,0:0:0:0:
448,192,27290,1,0,0:0:0:0:
320,192,27387,1,0,0:0:0:0:
192,192,27387,1,0,0:0:0:0:
64,192,27580,1,0,0:0:0:0:
192,192,27677,1,0,0:0:0:0:
320,192,27774,1,0,0:0:0:0:
448,192,27774,1,0,0:0:0:0:
64,192,27774,1,0,0:0:0:0:
192,192,27967,1,0,0:0:0:0:
64,192,28064,1,0,0:0:0:0:
192,192,28161,1,0,0:0:0:0:
320,192,28161,1,0,0:0:0:0:
448,192,28354,1,0,0:0:0:0:
320,192,28451,1,0,0:0:0:0:
64,192,28548,1,0,0:0:0:0:
192,192,28548,1,0,0:0:0:0:
448,192,28548,1,0,0:0:0:0:
320,192,28741,1,0,0:0:0:0:
448,192,28838,1,0,0:0:0:0:
320,192,28935,1,0,0:0:0:0:
192,192,28935,1,0,0:0:0:0:
64,192,29129,1,0,0:0:0:0:
192,192,29225,1,0,0:0:0:0:
64,192,29322,1,0,0:0:0:0:
320,192,29322,1,0,0:0:0:0:
448,192,29322,1,0,0:0:0:0:
192,192,29516,1,0,0:0:0:0:
320,192,29612,1,0,0:0:0:0:
192,192,29709,1,0,0:0:0:0:
64,192,29709,1,0,0:0:0:0:
448,192,29709,1,0,0:0:0:0:
192,192,31645,128,0,32419:0:0:0:0:
64,192,32806,1,0,0:0:0:0:
448,192,32806,1,0,0:0:0:0:
320,192,32903,1,0,0:0:0:0:
192,192,32999,1,0,0:0:0:0:
64,192,33096,1,0,0:0:0:0:
192,192,33193,1,0,0:0:0:0:
320,192,33193,1,0,0:0:0:0:
448,192,33290,1,0,0:0:0:0:
320,192,33387,1,0,0:0:0:0:
192,192,33483,1,0,0:0:0:0:
64,192,33580,1,0,0:0:0:0:
448,192,33580,1,0,0:0:0:0:
192,192,33677,1,0,0:0:0:0:
320,192,33774,1,0,0:0:0:0:
448,192,33870,1,0,0:0:0:0:
320,192,33967,1,0,0:0:0:0:
64,192,33967,1,0,0:0:0:0:
192,192,34064,1,0,0:0:0:0:
320,192,34161,1,0,0:0:0:0:
448,192,34258,1,0,0:0:0:0:
320,192,34354,1,0,0:0:0:0:
192,192,34354,1,0,0:0:0:0:
64,192,34451,1,0,0:0:0:0:
192,192,34548,1,0,0:0:0:0:
320,192,34645,1,0,0:0:0:0:
448,192,34741,1,0,0:0:0:0:
64,192,34741,1,0,0:0:0:0:
320,192,34838,1,0,0:0:0:0:
192,192,34935,1,0,0:0:0:0:
64,192,35032,1,0,0:0:0:0:
192,192,35129,1,0,0:0:0:0:
448,192,35129,1,0,0:0:0:0:
320,192,35225,1,0,0:0:0:0:
192,192,35322,1,0,0:0:0:0:
64,192,35419,1,0,0:0:0:0:
192,192,35516,1,0,0:0:0:0:
320,192,35516,1,0,0:0:0:0:
448,192,35612,1,0,0:0:0:0:
320,192,35709,1,0,0:0:0:0:
192,192,35806,1,0,0:0:0:0:
64,192,35903,1,0,0:0:0:0:
448,192,35903,1,0,0:0:0:0:
192,192,35999,1,0,0:0:0:0:
320,192,36096,1,0,0:0:0:0:
192,192,36193,1,0,0:0:0:0:
64,192,36290,1,0,0:0:0:0:
448,192,36290,1,0,0:0:0:0:
192,192,36387,1,0,0:0:0:0:
320,192,36483,1,0,0:0:0:0:
448,192,36580,1,0,0:0:0:0:
192,192,36677,1,0,0:0:0:0:
64,192,36677,1,0,0:0:0:0:
320,192,36774,1,0,0:0:0:0:
448,192,36870,1,0,0:0:0:0:
320,192,36967,1,0,0:0:0:0:
64,192,37064,1,0,0:0:0:0:
448,192,37064,1,0,0:0:0:0:
320,192,37161,1,0,0:0:0:0:
192,192,37258,1,0,0:0:0:0:
64,192,37354,1,0,0:0:0:0:
192,192,37451,1,0,0:0:0:0:
448,192,37451,1,0,0:0:0:0:
320,192,37548,1,0,0:0:0:0:
192,192,37645,1,0,0:0:0:0:
64,192,37741,1,0,0:0:0:0:
320,192,37838,1,0,0:0:0:0:
448,192,37838,1,0,0:0:0:0:
192,192,37935,1,0,0:0:0:0:
64,192,38032,1,0,0:0:0:0:
192,192,38129,1,0,0:0:0:0:
448,192,38225,1,0,0:0:0:0:
64,192,38225,1,0,0:0:0:0:
192,192,38322,1,0,0:0:0:0:
320,192,38419,1,0,0:0:0:0:
448,192,38516,1,0,0:0:0:0:
320,192,38612,1,0,0:0:0:0:
192,192,38612,1,0,0:0:0:0:
64,192,38709,1,0,0:0:0:0:
192,192,38806,1,0,0:0:0:0:
320,192,38903,1,0,0:0:0:0:
448,192,38999,1,0,0:0:0:0:
64,192,38999,1,0,0:0:0:0:
320,192,39096,1,0,0:0:0:0:
192,192,39193,1,0,0:0:0:0:
320,192,39290,1,0,0:0:0:0:
448,192,39387,1,0,0:0:0:0:
64,192,39387,1,0,0:0:0:0:
320,192,39483,1,0,0:0:0:0:
192,192,39580,1,0,0:0:0:0:
64,192,39677,1,0,0:0:0:0:
320,192,39774,1,0,0:0:0:0:
448,192,39774,1,0,0:0:0:0:
192,192,39870,1,0,0:0:0:0:
64,192,39967,1,0,0:0:0:0:
192,192,40064,1,0,0:0:0:0:
448,192,40161,1,0,0:0:0:0:
64,192,40161,1,0,0:0:0:0:
192,192,40258,1,0,0:0:0:0:
320,192,40354,1,0,0:0:0:0:
448,192,40451,1,0,0:0:0:0:
192,192,40548,1,0,0:0:0:0:
320,192,40548,1,0,0:0:0:0:
64,192,40645,1,0,0:0:0:0:
192,192,40741,1,0,0:0:0:0:
320,192,40838,1,0,0:0:0:0:
448,192,40935,1,0,0:0:0:0:
64,192,40935,1,0,0:0:0:0:
320,192,41032,1,0,0:0:0:0:
192,192,41129,1,0,0:0:0:0:
320,192,41225,1,0,0:0:0:0:
448,192,41322,1,0,0:0:0:0:
64,192,41322,1,0,0:0:0:0:
320,192,41419,1,0,0:0:0:0:
192,192,41516,1,0,0:0:0:0:
64,192,41612,1,0,0:0:0:0:
320,192,41709,1,0,0:0:0:0:
448,192,41709,1,0,0:0:0:0:
192,192,41806,1,0,0:0:0:0:
320,192,41903,1,0,0:0:0:0:
192,192,41999,1,0,0:0:0:0:
64,192,42096,1,0,0:0:0:0:
448,192,42096,1,0,0:0:0:0:
192,192,42193,1,0,0:0:0:0:
320,192,42290,1,0,0:0:0:0:
192,192,42387,1,0,0:0:0:0:
64,192,42483,1,0,0:0:0:0:
448,192,42483,1,0,0:0:0:0:
192,192,42580,1,0,0:0:0:0:
320,192,42677,1,0,0:0:0:0:
448,192,42774,1,0,0:0:0:0:
320,192,42870,1,0,0:0:0:0:
192,192,42870,1,0,0:0:0:0:
64,192,42967,1,0,0:0:0:0:
192,192,43064,1,0,0:0:0:0:
320,192,43161,1,0,0:0:0:0:
192,192,43258,1,0,0:0:0:0:
64,192,43258,1,0,0:0:0:0:
320,192,43354,1,0,0:0:0:0:
192,192,43451,1,0,0:0:0:0:
320,192,43548,1,0,0:0:0:0:
448,192,43645,1,0,0:0:0:0:
64,192,43645,1,0,0:0:0:0:
320,192,43741,1,0,0:0:0:0:
192,192,43838,1,0,0:0:0:0:
64,192,43935,1,0,0:0:0:0:
448,192,44032,1,0,0:0:0:0:
320,192,44032,1,0,0:0:0:0:
192,192,44129,1,0,0:0:0:0:
320,192,44225,1,0,0:0:0:0:
192,192,44322,1,0,0:0:0:0:
64,192,44419,1,0,0:0:0:0:
448,192,44419,1,0,0:0:0:0:
320,192,44516,1,0,0:0:0:0:
64,192,44612,1,0,0:0:0:0:
448,192,44612,1,0,0:0:0:0:
320,192,44709,1,0,0:0:0:0:
64,192,44838,1,0,0:0:0:0:
192,192,44903,1,0,0:0:0:0:
448,192,44967,1,0,0:0:0:0:
320,192,45032,1,0,0:0:0:0:
192,192,45096,1,0,0:0:0:0:
64,192,45193,1,0,0:0:0:0:
320,192,45193,1,0,0:0:0:0:
448,192,45193,1,0,0:0:0:0:
192,192,45290,1,0,0:0:0:0:
320,192,45387,1,0,0:0:0:0:
192,192,45483,1,0,0:0:0:0:
64,192,45580,1,0,0:0:0:0:
448,192,45580,1,0,0:0:0:0:
192,192,45677,1,0,0:0:0:0:
320,192,45774,1,0,0:0:0:0:
448,192,45870,1,0,0:0:0:0:
320,192,45967,1,0,0:0:0:0:
192,192,45967,1,0,0:0:0:0:
64,192,46064,1,0,0:0:0:0:
192,192,46161,1,0,0:0:0:0:
320,192,46258,1,0,0:0:0:0:
64,192,46354,1,0,0:0:0:0:
448,192,46354,1,0,0:0:0:0:
192,192,46451,1,0,0:0:0:0:
320,192,46548,1,0,0:0:0:0:
448,192,46645,1,0,0:0:0:0:
320,192,46741,1,0,0:0:0:0:
192,192,46741,1,0,0:0:0:0:
64,192,46838,1,0,0:0:0:0:
192,192,46935,1,0,0:0:0:0:
320,192,47032,1,0,0:0:0:0:
448,192,47129,1,0,0:0:0:0:
64,192,47129,1,0,0:0:0:0:
320,192,47225,1,0,0:0:0:0:
192,192,47322,1,0,0:0:0:0:
320,192,47419,1,0,0:0:0:0:
448,192,47516,1,0,0:0:0:0:
64,192,47516,1,0,0:0:0:0:
320,192,47612,1,0,0:0:0:0:
192,192,47709,1,0,0:0:0:0:
64,192,47806,1,0,0:0:0:0:
320,192,47903,1,0,0:0:0:0:
448,192,47903,1,0,0:0:0:0:
192,192,47999,1,0,0:0:0:0:
320,192,48096,1,0,0:0:0:0:
192,192,48193,1,0,0:0:0:0:
64,192,48290,1,0,0:0:0:0:
448,192,48290,1,0,0:0:0:0:
320,192,48387,1,0,0:0:0:0:
192,192,48483,1,0,0:0:0:0:
64,192,48580,1,0,0:0:0:0:
320,192,48677,1,0,0:0:0:0:
192,192,48677,1,0,0:0:0:0:
448,192,48774,1,0,0:0:0:0:
64,192,48870,1,0,0:0:0:0:
448,192,48967,1,0,0:0:0:0:
192,192,49064,1,0,0:0:0:0:
64,192,49064,1,0,0:0:0:0:
320,192,49161,1,0,0:0:0:0:
192,192,49258,1,0,0:0:0:0:
320,192,49354,1,0,0:0:0:0:
64,192,49451,1,0,0:0:0:0:
448,192,49451,1,0,0:0:0:0:
192,192,49548,1,0,0:0:0:0:
320,192,49645,1,0,0:0:0:0:
448,192,49741,1,0,0:0:0:0:
192,192,49838,1,0,0:0:0:0:
64,192,49838,1,0,0:0:0:0:
320,192,49935,1,0,0:0:0:0:
192,192,50032,1,0,0:0:0:0:
320,192,50129,1,0,0:0:0:0:
448,192,50225,1,0,0:0:0:0:
64,192,50225,1,0,0:0:0:0:
320,192,50322,1,0,0:0:0:0:
192,192,50419,1,0,0:0:0:0:
64,192,50516,1,0,0:0:0:0:
192,192,50612,1,0,0:0:0:0:
320,192,50612,1,0,0:0:0:0:
448,192,50709,1,0,0:0:0:0:
320,192,50806,1,0,0:0:0:0:
192,192,50903,1,0,0:0:0:0:
64,192,50999,1,0,0:0:0:0:
448,192,50999,1,0,0:0:0:0:
320,192,51096,1,0,0:0:0:0:
64,192,51193,1,0,0:0:0:0:
448,192,51193,1,0,0:0:0:0:
320,192,51290,1,0,0:0:0:0:
64,192,51387,1,0,0:0:0:0:
448,192,51387,1,0,0:0:0:0:
320,192,51483,1,0,0:0:0:0:
192,192,51580,1,0,0:0:0:0:
320,192,51677,1,0,0:0:0:0:
192,192,51774,1,0,0:0:0:0:
64,192,51774,1,0,0:0:0:0:
320,192,51870,1,0,0:0:0:0:
448,192,51967,1,0,0:0:0:0:
320,192,52064,1,0,0:0:0:0:
192,192,52161,1,0,0:0:0:0:
64,192,52161,1,0,0:0:0:0:
320,192,52258,1,0,0:0:0:0:
192,192,52354,1,0,0:0:0:0:
320,192,52451,1,0,0:0:0:0:
64,192,52548,1,0,0:0:0:0:
448,192,52548,1,0,0:0:0:0:
320,192,52645,1,0,0:0:0:0:
192,192,52741,1,0,0:0:0:0:
64,192,52838,1,0,0:0:0:0:
192,192,52935,1,0,0:0:0:0:
320,192,52935,1,0,0:0:0:0:
448,192,53032,1,0,0:0:0:0:
320,192,53129,1,0,0:0:0:0:
192,192,53225,1,0,0:0:0:0:
64,192,53322,1,0,0:0:0:0:
448,192,53322,1,0,0:0:0:0:
192,192,53419,1,0,0:0:0:0:
320,192,53516,1,0,0:0:0:0:
448,192,53612,1,0,0:0:0:0:
320,192,53709,1,0,0:0:0:0:
192,192,53709,1,0,0:0:0:0:
64,192,53806,1,0,0:0:0:0:
192,192,53903,1,0,0:0:0:0:
320,192,53999,1,0,0:0:0:0:
448,192,54096,1,0,0:0:0:0:
64,192,54096,1,0,0:0:0:0:
320,192,54193,1,0,0:0:0:0:
192,192,54290,1,0,0:0:0:0:
64,192,54387,1,0,0:0:0:0:
192,192,54483,1,0,0:0:0:0:
448,192,54483,1,0,0:0:0:0:
320,192,54580,1,0,0:0:0:0:
192,192,54677,1,0,0:0:0:0:
320,192,54774,1,0,0:0:0:0:
448,192,54870,1,0,0:0:0:0:
64,192,54870,1,0,0:0:0:0:
320,192,54967,1,0,0:0:0:0:
192,192,55064,1,0,0:0:0:0:
64,192,55161,1,0,0:0:0:0:
192,192,55258,1,0,0:0:0:0:
448,192,55258,1,0,0:0:0:0:
320,192,55354,1,0,0:0:0:0:
192,192,55451,1,0,0:0:0:0:
64,192,55548,1,0,0:0:0:0:
192,192,55645,1,0,0:0:0:0:
448,192,55645,1,0,0:0:0:0:
320,192,55741,1,0,0:0:0:0:
448,192,55838,1,0,0:0:0:0:
320,192,55935,1,0,0:0:0:0:
192,192,56032,1,0,0:0:0:0:
64,192,56032,1,0,0:0:0:0:
320,192,56129,1,0,0:0:0:0:
448,192,56225,1,0,0:0:0:0:
64,192,56322,1,0,0:0:0:0:
448,192,56419,1,0,0:0:0:0:
64,192,56516,1,0,0:0:0:0:
448,192,56612,1,0,0:0:0:0:
64,192,56709,1,0,0:0:0:0:
448,192,56806,1,0,0:0:0:0:
64,192,56903,1,0,0:0:0:0:
448,192,56999,1,0,0:0:0:0:
64,192,57096,1,0,0:0:0:0:
320,192,57193,1,0,0:0:0:0:
192,192,57193,1,0,0:0:0:0:
448,192,57290,1,0,0:0:0:0:
320,192,57387,1,0,0:0:0:0:
192,192,57483,1,0,0:0:0:0:
64,192,57580,1,0,0:0:0:0:
448,192,57580,1,0,0:0:0:0:
320,192,57774,1,0,0:0:0:0:
192,192,57967,1,0,0:0:0:0:
64,192,57967,1,0,0:0:0:0:
448,192,58064,1,0,0:0:0:0:
448,192,58258,1,0,0:0:0:0:
320,192,58354,1,0,0:0:0:0:
192,192,58354,1,0,0:0:0:0:
64,192,58451,1,0,0:0:0:0:
64,192,58645,1,0,0:0:0:0:
320,192,58741,1,0,0:0:0:0:
448,192,58741,1,0,0:0:0:0:
192,192,58935,1,0,0:0:0:0:
64,192,59129,1,0,0:0:0:0:
448,192,59129,1,0,0:0:0:0:
320,192,59322,1,0,0:0:0:0:
192,192,59516,1,0,0:0:0:0:
64,192,59516,1,0,0:0:0:0:
448,192,59612,1,0,0:0:0:0:
448,192,59806,1,0,0:0:0:0:
320,192,59903,1,0,0:0:0:0:
192,192,59903,1,0,0:0:0:0:
64,192,59999,1,0,0:0:0:0:
64,192,60193,1,0,0:0:0:0:
192,192,60290,1,0,0:0:0:0:
320,192,60290,1,0,0:0:0:0:
448,192,60483,1,0,0:0:0:0:
320,192,60677,1,0,0:0:0:0:
64,192,60677,1,0,0:0:0:0:
192,192,60870,1,0,0:0:0:0:
448,192,61064,1,0,0:0:0:0:
320,192,61064,1,0,0:0:0:0:
64,192,61161,1,0,0:0:0:0:
64,192,61354,1,0,0:0:0:0:
448,192,61451,1,0,0:0:0:0:
320,192,61451,1,0,0:0:0:0:
192,192,61558,1,0,0:0:0:0:
192,192,61741,1,0,0:0:0:0:
320,192,61838,1,0,0:0:0:0:
448,192,61838,1,0,0:0:0:0:
64,192,62032,1,0,0:0:0:0:
192,192,62225,1,0,0:0:0:0:
320,192,62225,1,0,0:0:0:0:
448,192,62419,1,0,0:0:0:0:
64,192,62612,1,0,0:0:0:0:
320,192,62612,1,0,0:0:0:0:
192,192,62709,1,0,0:0:0:0:
192,192,62903,1,0,0:0:0:0:
64,192,62999,1,0,0:0:0:0:
320,192,62999,1,0,0:0:0:0:
448,192,63096,1,0,0:0:0:0:
448,192,63290,1,0,0:0:0:0:
64,192,63354,1,0,0:0:0:0:
192,192,63419,1,0,0:0:0:0:
320,192,63483,1,0,0:0:0:0:
448,192,63548,1,0,0:0:0:0:
64,192,63612,1,0,0:0:0:0:
192,192,63677,1,0,0:0:0:0:
320,192,63741,1,0,0:0:0:0:
448,192,63806,1,0,0:0:0:0:
64,192,63806,1,0,0:0:0:0:
192,192,64161,1,0,0:0:0:0:
64,192,64161,1,0,0:0:0:0:
448,192,64161,1,0,0:0:0:0:
320,192,64548,1,0,0:0:0:0:
192,192,64548,1,0,0:0:0:0:
64,192,64935,1,0,0:0:0:0:
448,192,64935,1,0,0:0:0:0:
320,192,64935,1,0,0:0:0:0:
64,192,65322,1,0,0:0:0:0:
192,192,65322,1,0,0:0:0:0:
64,192,65709,1,0,0:0:0:0:
192,192,65709,1,0,0:0:0:0:
448,192,65709,1,0,0:0:0:0:
320,192,66096,1,0,0:0:0:0:
448,192,66096,1,0,0:0:0:0:
320,192,66483,1,0,0:0:0:0:
192,192,66483,1,0,0:0:0:0:
64,192,66483,1,0,0:0:0:0:
64,192,66870,1,0,0:0:0:0:
448,192,66870,1,0,0:0:0:0:
192,192,67258,1,0,0:0:0:0:
320,192,67258,1,0,0:0:0:0:
448,192,67258,1,0,0:0:0:0:
64,192,67645,1,0,0:0:0:0:
192,192,67645,1,0,0:0:0:0:
448,192,67741,1,0,0:0:0:0:
320,192,67806,1,0,0:0:0:0:
192,192,67870,1,0,0:0:0:0:
64,192,67935,1,0,0:0:0:0:
320,192,67999,1,0,0:0:0:0:
448,192,68064,1,0,0:0:0:0:
320,192,68419,1,0,0:0:0:0:
192,192,68419,1,0,0:0:0:0:
192,192,69193,1,0,0:0:0:0:
320,192,69193,1,0,0:0:0:0:
64,192,69580,1,0,0:0:0:0:
448,192,69580,1,0,0:0:0:0:
192,192,69967,1,0,0:0:0:0:
64,192,69967,1,0,0:0:0:0:
320,192,69967,1,0,0:0:0:0:
448,192,69967,1,0,0:0:0:0:
448,192,70354,1,0,0:0:0:0:
192,192,70354,1,0,0:0:0:0:
64,192,70354,1,0,0:0:0:0:
320,192,70741,1,0,0:0:0:0:
448,192,70741,1,0,0:0:0:0:
192,192,71129,1,0,0:0:0:0:
320,192,71129,1,0,0:0:0:0:
448,192,71129,1,0,0:0:0:0:
64,192,71516,1,0,0:0:0:0:
448,192,71516,1,0,0:0:0:0:
320,192,71709,1,0,0:0:0:0:
448,192,71903,1,0,0:0:0:0:
192,192,71903,1,0,0:0:0:0:
64,192,71903,1,0,0:0:0:0:
320,192,72290,1,0,0:0:0:0:
448,192,72290,1,0,0:0:0:0:
192,192,72483,1,0,0:0:0:0:
64,192,72677,1,0,0:0:0:0:
320,192,72677,1,0,0:0:0:0:
448,192,72677,1,0,0:0:0:0:
320,192,73064,1,0,0:0:0:0:
192,192,73064,128,0,73258:0:0:0:0:
64,192,73451,1,0,0:0:0:0:
192,192,73451,1,0,0:0:0:0:
448,192,73451,1,0,0:0:0:0:
64,192,73838,1,0,0:0:0:0:
320,192,73838,1,0,0:0:0:0:
192,192,74225,1,0,0:0:0:0:
320,192,74225,1,0,0:0:0:0:
448,192,74225,1,0,0:0:0:0:
64,192,74612,1,0,0:0:0:0:
192,192,74612,1,0,0:0:0:0:
320,192,74806,1,0,0:0:0:0:
448,192,74999,1,0,0:0:0:0:
192,192,74999,1,0,0:0:0:0:
64,192,74999,1,0,0:0:0:0:
320,192,75387,1,0,0:0:0:0:
448,192,75387,1,0,0:0:0:0:
192,192,75580,1,0,0:0:0:0:
64,192,75774,1,0,0:0:0:0:
320,192,75774,1,0,0:0:0:0:
448,192,75774,1,0,0:0:0:0:
192,192,75967,1,0,0:0:0:0:
448,192,76161,1,0,0:0:0:0:
320,192,76161,128,0,76354:0:0:0:0:
448,192,76548,1,0,0:0:0:0:
192,192,76548,1,0,0:0:0:0:
64,192,76548,1,0,0:0:0:0:
448,192,76935,1,0,0:0:0:0:
64,192,76935,1,0,0:0:0:0:
320,192,77322,1,0,0:0:0:0:
192,192,77322,1,0,0:0:0:0:
64,192,77322,1,0,0:0:0:0:
192,192,77709,1,0,0:0:0:0:
448,192,77709,1,0,0:0:0:0:
320,192,77903,1,0,0:0:0:0:
64,192,78096,1,0,0:0:0:0:
192,192,78096,1,0,0:0:0:0:
448,192,78096,1,0,0:0:0:0:
64,192,78483,1,0,0:0:0:0:
192,192,78483,1,0,0:0:0:0:
448,192,78677,1,0,0:0:0:0:
320,192,78870,1,0,0:0:0:0:
64,192,78870,1,0,0:0:0:0:
192,192,78870,1,0,0:0:0:0:
64,192,79258,1,0,0:0:0:0:
448,192,79258,128,0,79451:0:0:0:0:
448,192,79645,1,0,0:0:0:0:
320,192,79645,1,0,0:0:0:0:
192,192,79645,1,0,0:0:0:0:
192,192,80032,1,0,0:0:0:0:
64,192,80032,1,0,0:0:0:0:
320,192,80225,1,0,0:0:0:0:
448,192,80419,1,0,0:0:0:0:
192,192,80419,1,0,0:0:0:0:
64,192,80419,1,0,0:0:0:0:
64,192,80806,1,0,0:0:0:0:
448,192,80806,1,0,0:0:0:0:
320,192,80806,1,0,0:0:0:0:
64,192,81193,128,0,81580:0:0:0:0:
320,192,81580,128,0,81967:0:0:0:0:
192,192,81967,1,0,0:0:0:0:
64,192,82354,1,0,0:0:0:0:
192,192,82354,1,0,0:0:0:0:
320,192,82354,1,0,0:0:0:0:
448,192,82354,1,0,0:0:0:0:
192,192,82548,1,0,0:0:0:0:
320,192,82741,1,0,0:0:0:0:
448,192,82741,1,0,0:0:0:0:
64,192,82741,1,0,0:0:0:0:
192,192,82935,1,0,0:0:0:0:
64,192,83129,1,0,0:0:0:0:
320,192,83129,1,0,0:0:0:0:
448,192,83322,1,0,0:0:0:0:
320,192,83516,1,0,0:0:0:0:
192,192,83516,1,0,0:0:0:0:
64,192,83516,1,0,0:0:0:0:
448,192,83709,1,0,0:0:0:0:
320,192,83903,1,0,0:0:0:0:
192,192,83903,1,0,0:0:0:0:
64,192,84096,1,0,0:0:0:0:
192,192,84290,1,0,0:0:0:0:
448,192,84290,1,0,0:0:0:0:
320,192,84290,1,0,0:0:0:0:
320,192,84483,1,0,0:0:0:0:
64,192,84677,1,0,0:0:0:0:
448,192,84677,1,0,0:0:0:0:
192,192,84870,1,0,0:0:0:0:
64,192,85064,1,0,0:0:0:0:
320,192,85064,1,0,0:0:0:0:
448,192,85064,1,0,0:0:0:0:
192,192,85258,1,0,0:0:0:0:
64,192,85451,1,0,0:0:0:0:
320,192,85451,1,0,0:0:0:0:
448,192,85645,1,0,0:0:0:0:
320,192,85838,1,0,0:0:0:0:
192,192,85838,1,0,0:0:0:0:
64,192,85838,1,0,0:0:0:0:
192,192,86032,1,0,0:0:0:0:
320,192,86225,1,0,0:0:0:0:
448,192,86225,1,0,0:0:0:0:
64,192,86419,1,0,0:0:0:0:
192,192,86612,1,0,0:0:0:0:
320,192,86612,1,0,0:0:0:0:
448,192,86612,1,0,0:0:0:0:
320,192,86806,1,0,0:0:0:0:
192,192,86999,1,0,0:0:0:0:
64,192,86999,1,0,0:0:0:0:
320,192,87193,1,0,0:0:0:0:
448,192,87387,1,0,0:0:0:0:
192,192,87387,1,0,0:0:0:0:
64,192,87387,1,0,0:0:0:0:
320,192,87580,1,0,0:0:0:0:
192,192,87774,1,0,0:0:0:0:
64,192,87774,1,0,0:0:0:0:
448,192,87967,1,0,0:0:0:0:
320,192,88161,1,0,0:0:0:0:
192,192,88161,1,0,0:0:0:0:
64,192,88161,1,0,0:0:0:0:
192,192,88354,1,0,0:0:0:0:
64,192,88548,1,0,0:0:0:0:
448,192,88548,128,0,88935:0:0:0:0:
192,192,88548,1,0,0:0:0:0:
320,192,88741,1,0,0:0:0:0:
320,192,88935,1,0,0:0:0:0:
192,192,88935,1,0,0:0:0:0:
64,192,88935,1,0,0:0:0:0:
192,192,89129,1,0,0:0:0:0:
64,192,89322,1,0,0:0:0:0:
320,192,89322,1,0,0:0:0:0:
192,192,89516,1,0,0:0:0:0:
448,192,89709,1,0,0:0:0:0:
64,192,89709,1,0,0:0:0:0:
320,192,89709,1,0,0:0:0:0:
192,192,89903,1,0,0:0:0:0:
448,192,90096,1,0,0:0:0:0:
64,192,90096,128,0,90483:0:0:0:0:
192,192,90096,1,0,0:0:0:0:
320,192,90290,1,0,0:0:0:0:
448,192,90483,1,0,0:0:0:0:
320,192,90483,1,0,0:0:0:0:
192,192,90483,128,0,90870:0:0:0:0:
320,192,90677,1,0,0:0:0:0:
448,192,90870,1,0,0:0:0:0:
64,192,90870,1,0,0:0:0:0:
320,192,90870,128,0,91258:0:0:0:0:
192,192,91064,1,0,0:0:0:0:
64,192,91258,1,0,0:0:0:0:
192,192,91258,1,0,0:0:0:0:
448,192,91258,128,0,91645:0:0:0:0:
320,192,91451,1,0,0:0:0:0:
320,192,91645,1,0,0:0:0:0:
192,192,91645,1,0,0:0:0:0:
64,192,91645,128,0,92419:0:0:0:0:
448,192,91838,1,0,0:0:0:0:
320,192,92032,1,0,0:0:0:0:
192,192,92032,1,0,0:0:0:0:
448,192,92225,1,0,0:0:0:0:
192,192,92419,1,0,0:0:0:0:
320,192,92419,1,0,0:0:0:0:
448,192,92419,128,0,93193:0:0:0:0:
64,192,92612,1,0,0:0:0:0:
192,192,92806,1,0,0:0:0:0:
320,192,92806,1,0,0:0:0:0:
320,192,92999,1,0,0:0:0:0:
64,192,93193,1,0,0:0:0:0:
320,192,93193,1,0,0:0:0:0:
192,192,93193,128,0,93967:0:0:0:0:
448,192,93387,1,0,0:0:0:0:
320,192,93580,1,0,0:0:0:0:
64,192,93580,1,0,0:0:0:0:
448,192,93774,5,0,0:0:0:0:
64,192,93967,5,0,0:0:0:0:
448,192,93967,1,0,0:0:0:0:
320,192,93967,128,0,94741:0:0:0:0:
192,192,94161,1,0,0:0:0:0:
64,192,94354,1,0,0:0:0:0:
448,192,94354,1,0,0:0:0:0:
448,192,94548,1,0,0:0:0:0:
192,192,94741,1,0,0:0:0:0:
64,192,94741,1,0,0:0:0:0:
320,192,94935,5,0,0:0:0:0:
448,192,94935,1,0,0:0:0:0:
64,192,95129,1,0,0:0:0:0:
192,192,95129,1,0,0:0:0:0:
448,192,95322,1,0,0:0:0:0:
320,192,95322,1,0,0:0:0:0:
64,192,95516,1,0,0:0:0:0:
192,192,95516,1,0,0:0:0:0:
448,192,95709,1,0,0:0:0:0:
320,192,95709,1,0,0:0:0:0:
64,192,95870,1,0,0:0:0:0:
192,192,95935,1,0,0:0:0:0:
448,192,95999,1,0,0:0:0:0:
320,192,96064,1,0,0:0:0:0:
192,192,96129,1,0,0:0:0:0:
64,192,96129,1,0,0:0:0:0:
448,192,96193,1,0,0:0:0:0:
320,192,96193,1,0,0:0:0:0:
192,192,96258,1,0,0:0:0:0:
64,192,96258,1,0,0:0:0:0:
64,192,96967,128,0,97451:0:0:0:0:
192,192,97451,1,0,0:0:0:0:
448,192,97451,1,0,0:0:0:0:
64,192,97838,1,0,0:0:0:0:
320,192,97838,1,0,0:0:0:0:
448,192,97838,1,0,0:0:0:0:
192,192,98032,1,0,0:0:0:0:
320,192,98225,1,0,0:0:0:0:
448,192,98225,1,0,0:0:0:0:
64,192,98322,1,0,0:0:0:0:
192,192,98419,1,0,0:0:0:0:
320,192,98516,1,0,0:0:0:0:
64,192,98612,128,0,98999:0:0:0:0:
448,192,98612,1,0,0:0:0:0:
192,192,98612,1,0,0:0:0:0:
320,192,98709,1,0,0:0:0:0:
192,192,98806,1,0,0:0:0:0:
448,192,98903,1,0,0:0:0:0:
320,192,98999,1,0,0:0:0:0:
192,192,98999,1,0,0:0:0:0:
448,192,99096,1,0,0:0:0:0:
320,192,99193,1,0,0:0:0:0:
192,192,99290,1,0,0:0:0:0:
64,192,99387,1,0,0:0:0:0:
448,192,99387,1,0,0:0:0:0:
192,192,99483,1,0,0:0:0:0:
64,192,99580,1,0,0:0:0:0:
192,192,99677,1,0,0:0:0:0:
320,192,99774,1,0,0:0:0:0:
448,192,99774,1,0,0:0:0:0:
192,192,99870,1,0,0:0:0:0:
320,192,99967,1,0,0:0:0:0:
192,192,100064,1,0,0:0:0:0:
64,192,100161,1,0,0:0:0:0:
448,192,100161,1,0,0:0:0:0:
192,192,100258,1,0,0:0:0:0:
320,192,100354,1,0,0:0:0:0:
448,192,100451,1,0,0:0:0:0:
64,192,100548,1,0,0:0:0:0:
320,192,100548,1,0,0:0:0:0:
192,192,100645,1,0,0:0:0:0:
320,192,100741,1,0,0:0:0:0:
448,192,100838,1,0,0:0:0:0:
320,192,100935,1,0,0:0:0:0:
192,192,100935,128,0,101322:0:0:0:0:
64,192,100935,1,0,0:0:0:0:
448,192,101032,1,0,0:0:0:0:
320,192,101129,1,0,0:0:0:0:
448,192,101225,1,0,0:0:0:0:
320,192,101322,1,0,0:0:0:0:
64,192,101322,1,0,0:0:0:0:
448,192,101419,1,0,0:0:0:0:
320,192,101516,1,0,0:0:0:0:
192,192,101612,1,0,0:0:0:0:
64,192,101709,1,0,0:0:0:0:
320,192,101709,128,0,102096:0:0:0:0:
448,192,101709,1,0,0:0:0:0:
192,192,101806,1,0,0:0:0:0:
448,192,101903,1,0,0:0:0:0:
64,192,101999,1,0,0:0:0:0:
192,192,102096,1,0,0:0:0:0:
448,192,102096,1,0,0:0:0:0:
64,192,102193,1,0,0:0:0:0:
192,192,102290,1,0,0:0:0:0:
320,192,102387,1,0,0:0:0:0:
64,192,102483,1,0,0:0:0:0:
448,192,102483,128,0,102870:0:0:0:0:
192,192,102483,1,0,0:0:0:0:
320,192,102580,1,0,0:0:0:0:
192,192,102677,1,0,0:0:0:0:
64,192,102774,1,0,0:0:0:0:
192,192,102870,1,0,0:0:0:0:
320,192,102870,1,0,0:0:0:0:
64,192,102967,1,0,0:0:0:0:
192,192,103064,1,0,0:0:0:0:
320,192,103161,1,0,0:0:0:0:
448,192,103258,1,0,0:0:0:0:
64,192,103258,1,0,0:0:0:0:
320,192,103354,1,0,0:0:0:0:
192,192,103451,1,0,0:0:0:0:
64,192,103548,1,0,0:0:0:0:
192,192,103645,1,0,0:0:0:0:
448,192,103645,1,0,0:0:0:0:
320,192,103741,1,0,0:0:0:0:
192,192,103838,1,0,0:0:0:0:
64,192,103935,1,0,0:0:0:0:
320,192,104032,1,0,0:0:0:0:
448,192,104032,128,0,104419:0:0:0:0:
192,192,104032,1,0,0:0:0:0:
64,192,104129,1,0,0:0:0:0:
192,192,104225,1,0,0:0:0:0:
320,192,104322,1,0,0:0:0:0:
192,192,104419,1,0,0:0:0:0:
64,192,104419,1,0,0:0:0:0:
320,192,104516,1,0,0:0:0:0:
192,192,104612,1,0,0:0:0:0:
320,192,104709,1,0,0:0:0:0:
448,192,104806,1,0,0:0:0:0:
64,192,104806,128,0,105193:0:0:0:0:
192,192,104806,1,0,0:0:0:0:
320,192,104903,1,0,0:0:0:0:
192,192,104999,1,0,0:0:0:0:
320,192,105096,1,0,0:0:0:0:
448,192,105193,1,0,0:0:0:0:
192,192,105193,1,0,0:0:0:0:
320,192,105290,1,0,0:0:0:0:
192,192,105387,1,0,0:0:0:0:
64,192,105483,1,0,0:0:0:0:
448,192,105580,1,0,0:0:0:0:
320,192,105580,128,0,105967:0:0:0:0:
192,192,105580,1,0,0:0:0:0:
64,192,105677,1,0,0:0:0:0:
192,192,105774,1,0,0:0:0:0:
448,192,105870,1,0,0:0:0:0:
192,192,105967,1,0,0:0:0:0:
64,192,105967,1,0,0:0:0:0:
448,192,106064,1,0,0:0:0:0:
320,192,106161,1,0,0:0:0:0:
192,192,106258,1,0,0:0:0:0:
64,192,106354,1,0,0:0:0:0:
448,192,106354,1,0,0:0:0:0:
192,192,106451,1,0,0:0:0:0:
320,192,106548,1,0,0:0:0:0:
192,192,106645,1,0,0:0:0:0:
64,192,106741,1,0,0:0:0:0:
320,192,106741,1,0,0:0:0:0:
448,192,106741,1,0,0:0:0:0:
192,192,106838,1,0,0:0:0:0:
320,192,106935,1,0,0:0:0:0:
448,192,107032,1,0,0:0:0:0:
192,192,107129,128,0,107516:0:0:0:0:
320,192,107129,1,0,0:0:0:0:
64,192,107129,1,0,0:0:0:0:
448,192,107225,1,0,0:0:0:0:
320,192,107322,1,0,0:0:0:0:
64,192,107419,1,0,0:0:0:0:
320,192,107516,1,0,0:0:0:0:
448,192,107516,1,0,0:0:0:0:
64,192,107612,1,0,0:0:0:0:
192,192,107709,1,0,0:0:0:0:
320,192,107806,1,0,0:0:0:0:
64,192,107903,1,0,0:0:0:0:
448,192,107903,128,0,108290:0:0:0:0:
192,192,107903,1,0,0:0:0:0:
320,192,107999,1,0,0:0:0:0:
192,192,108096,1,0,0:0:0:0:
320,192,108193,1,0,0:0:0:0:
192,192,108290,1,0,0:0:0:0:
64,192,108290,1,0,0:0:0:0:
320,192,108387,1,0,0:0:0:0:
448,192,108483,1,0,0:0:0:0:
320,192,108580,1,0,0:0:0:0:
64,192,108677,1,0,0:0:0:0:
448,192,108677,1,0,0:0:0:0:
192,192,108677,128,0,109451:0:0:0:0:
320,192,108774,1,0,0:0:0:0:
64,192,108870,1,0,0:0:0:0:
448,192,108967,1,0,0:0:0:0:
320,192,109064,1,0,0:0:0:0:
64,192,109064,1,0,0:0:0:0:
448,192,109161,1,0,0:0:0:0:
320,192,109258,1,0,0:0:0:0:
64,192,109354,1,0,0:0:0:0:
320,192,109451,1,0,0:0:0:0:
448,192,109451,1,0,0:0:0:0:
64,192,109645,1,0,0:0:0:0:
192,192,109645,1,0,0:0:0:0:
320,192,109838,1,0,0:0:0:0:
448,192,109838,1,0,0:0:0:0:
64,192,109999,1,0,0:0:0:0:
192,192,110064,1,0,0:0:0:0:
448,192,110129,1,0,0:0:0:0:
320,192,110193,1,0,0:0:0:0:
192,192,110258,1,0,0:0:0:0:
64,192,110258,1,0,0:0:0:0:
448,192,110258,128,0,110612:0:0:0:0:
192,192,110419,1,0,0:0:0:0:
192,192,110612,1,0,0:0:0:0:
320,192,110612,1,0,0:0:0:0:
64,192,110709,1,0,0:0:0:0:
192,192,110806,1,0,0:0:0:0:
320,192,110903,1,0,0:0:0:0:
448,192,110999,1,0,0:0:0:0:
64,192,110999,128,0,111387:0:0:0:0:
192,192,110999,1,0,0:0:0:0:
320,192,111096,1,0,0:0:0:0:
192,192,111193,1,0,0:0:0:0:
448,192,111290,1,0,0:0:0:0:
320,192,111387,1,0,0:0:0:0:
192,192,111387,1,0,0:0:0:0:
448,192,111483,1,0,0:0:0:0:
320,192,111580,1,0,0:0:0:0:
192,192,111677,1,0,0:0:0:0:
64,192,111774,1,0,0:0:0:0:
448,192,111774,128,0,112161:0:0:0:0:
320,192,111774,1,0,0:0:0:0:
192,192,111870,1,0,0:0:0:0:
320,192,111967,1,0,0:0:0:0:
192,192,112064,1,0,0:0:0:0:
64,192,112161,1,0,0:0:0:0:
320,192,112161,1,0,0:0:0:0:
192,192,112258,1,0,0:0:0:0:
320,192,112354,1,0,0:0:0:0:
192,192,112451,1,0,0:0:0:0:
64,192,112548,1,0,0:0:0:0:
448,192,112548,1,0,0:0:0:0:
192,192,112645,1,0,0:0:0:0:
320,192,112741,1,0,0:0:0:0:
448,192,112838,1,0,0:0:0:0:
320,192,112935,1,0,0:0:0:0:
192,192,112935,1,0,0:0:0:0:
64,192,113032,1,0,0:0:0:0:
192,192,113129,1,0,0:0:0:0:
320,192,113225,1,0,0:0:0:0:
448,192,113322,1,0,0:0:0:0:
64,192,113322,1,0,0:0:0:0:
192,192,113322,128,0,113709:0:0:0:0:
320,192,113419,1,0,0:0:0:0:
64,192,113516,1,0,0:0:0:0:
448,192,113612,1,0,0:0:0:0:
320,192,113709,1,0,0:0:0:0:
64,192,113709,1,0,0:0:0:0:
448,192,113806,1,0,0:0:0:0:
320,192,113903,1,0,0:0:0:0:
192,192,113999,1,0,0:0:0:0:
448,192,114096,1,0,0:0:0:0:
64,192,114096,1,0,0:0:0:0:
320,192,114096,128,0,114483:0:0:0:0:
192,192,114193,1,0,0:0:0:0:
64,192,114290,1,0,0:0:0:0:
448,192,114387,1,0,0:0:0:0:
192,192,114483,1,0,0:0:0:0:
64,192,114483,1,0,0:0:0:0:
448,192,114580,1,0,0:0:0:0:
320,192,114677,1,0,0:0:0:0:
192,192,114774,1,0,0:0:0:0:
320,192,114870,1,0,0:0:0:0:
64,192,114870,128,0,115258:0:0:0:0:
448,192,114870,1,0,0:0:0:0:
192,192,114967,1,0,0:0:0:0:
320,192,115064,1,0,0:0:0:0:
448,192,115161,1,0,0:0:0:0:
320,192,115258,1,0,0:0:0:0:
192,192,115258,1,0,0:0:0:0:
64,192,115354,1,0,0:0:0:0:
448,192,115451,1,0,0:0:0:0:
64,192,115548,1,0,0:0:0:0:
192,192,115645,1,0,0:0:0:0:
320,192,115645,1,0,0:0:0:0:
448,192,115741,1,0,0:0:0:0:
64,192,115838,1,0,0:0:0:0:
448,192,115935,1,0,0:0:0:0:
320,192,116032,1,0,0:0:0:0:
192,192,116032,1,0,0:0:0:0:
64,192,116129,1,0,0:0:0:0:
192,192,116225,1,0,0:0:0:0:
320,192,116322,1,0,0:0:0:0:
448,192,116419,1,0,0:0:0:0:
192,192,116419,1,0,0:0:0:0:
64,192,116419,128,0,116806:0:0:0:0:
320,192,116516,1,0,0:0:0:0:
192,192,116612,1,0,0:0:0:0:
320,192,116709,1,0,0:0:0:0:
448,192,116806,1,0,0:0:0:0:
192,192,116806,1,0,0:0:0:0:
320,192,116903,1,0,0:0:0:0:
192,192,116999,1,0,0:0:0:0:
64,192,117096,1,0,0:0:0:0:
448,192,117191,1,0,0:0:0:0:
192,192,117193,1,0,0:0:0:0:
320,192,117193,1,0,0:0:0:0:
448,192,117193,128,0,117580:0:0:0:0:
64,192,117290,1,0,0:0:0:0:
320,192,117387,1,0,0:0:0:0:
192,192,117483,1,0,0:0:0:0:
64,192,117580,1,0,0:0:0:0:
320,192,117580,1,0,0:0:0:0:
192,192,117677,1,0,0:0:0:0:
448,192,117774,1,0,0:0:0:0:
320,192,117870,1,0,0:0:0:0:
192,192,117967,1,0,0:0:0:0:
448,192,117967,1,0,0:0:0:0:
64,192,117967,128,0,118354:0:0:0:0:
320,192,118064,1,0,0:0:0:0:
448,192,118161,1,0,0:0:0:0:
192,192,118258,1,0,0:0:0:0:
320,192,118354,1,0,0:0:0:0:
448,192,118354,1,0,0:0:0:0:
192,192,118451,1,0,0:0:0:0:
64,192,118548,1,0,0:0:0:0:
192,192,118645,1,0,0:0:0:0:
448,192,118741,1,0,0:0:0:0:
320,192,118741,1,0,0:0:0:0:
192,192,118838,1,0,0:0:0:0:
320,192,118935,1,0,0:0:0:0:
192,192,119032,1,0,0:0:0:0:
64,192,119129,1,0,0:0:0:0:
448,192,119129,1,0,0:0:0:0:
192,192,119225,1,0,0:0:0:0:
320,192,119322,1,0,0:0:0:0:
448,192,119322,1,0,0:0:0:0:
64,192,119419,1,0,0:0:0:0:
192,192,119419,1,0,0:0:0:0:
448,192,119516,1,0,0:0:0:0:
320,192,119516,1,0,0:0:0:0:
192,192,119612,1,0,0:0:0:0:
320,192,119709,1,0,0:0:0:0:
64,192,119709,1,0,0:0:0:0:
448,192,119903,1,0,0:0:0:0:
192,192,119903,1,0,0:0:0:0:
320,192,120096,1,0,0:0:0:0:
64,192,120096,1,0,0:0:0:0:
192,192,120290,1,0,0:0:0:0:
320,192,120290,1,0,0:0:0:0:
448,192,120290,1,0,0:0:0:0:
320,192,120483,1,0,0:0:0:0:
192,192,120483,1,0,0:0:0:0:
64,192,120677,1,0,0:0:0:0:
192,192,120677,1,0,0:0:0:0:
320,192,120774,1,0,0:0:0:0:
448,192,120774,1,0,0:0:0:0:
64,192,120870,1,0,0:0:0:0:
192,192,120870,1,0,0:0:0:0:
320,192,120967,1,0,0:0:0:0:
448,192,120967,1,0,0:0:0:0:
192,192,121064,1,0,0:0:0:0:
64,192,121064,1,0,0:0:0:0:
448,192,121064,1,0,0:0:0:0:
320,192,122225,1,0,0:0:0:0:
192,192,122225,1,0,0:0:0:0:
64,192,122612,1,0,0:0:0:0:
192,192,122612,1,0,0:0:0:0:
320,192,122612,1,0,0:0:0:0:
448,192,122612,1,0,0:0:0:0:
448,192,126096,132,0,128806:0:0:0:0:
64,192,127838,128,0,128806:0:0:0:0:
192,192,128806,1,0,0:0:0:0:
320,192,128806,1,0,0:0:0:0:
448,192,128999,1,0,0:0:0:0:
192,192,129096,1,0,0:0:0:0:
320,192,129193,1,0,0:0:0:0:
64,192,129290,1,0,0:0:0:0:
320,192,129387,1,0,0:0:0:0:
192,192,129483,1,0,0:0:0:0:
448,192,129580,1,0,0:0:0:0:
192,192,129677,1,0,0:0:0:0:
320,192,129774,1,0,0:0:0:0:
64,192,129870,1,0,0:0:0:0:
320,192,129967,1,0,0:0:0:0:
192,192,130064,1,0,0:0:0:0:
448,192,130161,1,0,0:0:0:0:
192,192,130258,1,0,0:0:0:0:
320,192,130354,1,0,0:0:0:0:
64,192,130451,1,0,0:0:0:0:
320,192,130548,1,0,0:0:0:0:
192,192,130645,1,0,0:0:0:0:
448,192,130741,1,0,0:0:0:0:
192,192,130838,1,0,0:0:0:0:
320,192,130935,1,0,0:0:0:0:
64,192,131032,1,0,0:0:0:0:
192,192,131129,1,0,0:0:0:0:
320,192,131225,1,0,0:0:0:0:
448,192,131322,1,0,0:0:0:0:
192,192,131419,1,0,0:0:0:0:
64,192,131516,128,0,131709:0:0:0:0:
320,192,131709,1,0,0:0:0:0:
192,192,131806,128,0,132290:0:0:0:0:
448,192,132290,1,0,0:0:0:0:
320,192,132387,1,0,0:0:0:0:
64,192,132483,1,0,0:0:0:0:
192,192,132580,1,0,0:0:0:0:
448,192,132677,1,0,0:0:0:0:
320,192,132774,1,0,0:0:0:0:
64,192,132870,1,0,0:0:0:0:
192,192,132967,1,0,0:0:0:0:
448,192,133064,1,0,0:0:0:0:
320,192,133161,1,0,0:0:0:0:
192,192,133258,1,0,0:0:0:0:
64,192,133354,1,0,0:0:0:0:
320,192,133451,1,0,0:0:0:0:
448,192,133548,1,0,0:0:0:0:
192,192,133645,1,0,0:0:0:0:
64,192,133741,1,0,0:0:0:0:
320,192,133838,1,0,0:0:0:0:
448,192,133935,1,0,0:0:0:0:
192,192,134032,1,0,0:0:0:0:
64,192,134129,1,0,0:0:0:0:
448,192,134225,1,0,0:0:0:0:
320,192,134322,1,0,0:0:0:0:
192,192,134419,1,0,0:0:0:0:
64,192,134516,1,0,0:0:0:0:
320,192,134612,1,0,0:0:0:0:
448,192,134612,1,0,0:0:0:0:
192,192,134612,1,0,0:0:0:0:
192,192,134999,1,0,0:0:0:0:
64,192,134999,1,0,0:0:0:0:
448,192,134999,1,0,0:0:0:0:
320,192,135387,1,0,0:0:0:0:
448,192,135387,1,0,0:0:0:0:
320,192,135774,1,0,0:0:0:0:
448,192,135774,1,0,0:0:0:0:
320,192,136161,1,0,0:0:0:0:
448,192,136161,1,0,0:0:0:0:
320,192,136548,1,0,0:0:0:0:
448,192,136548,1,0,0:0:0:0:
192,192,136741,1,0,0:0:0:0:
64,192,136935,1,0,0:0:0:0:
320,192,136935,1,0,0:0:0:0:
192,192,137129,1,0,0:0:0:0:
320,192,137322,1,0,0:0:0:0:
64,192,137322,1,0,0:0:0:0:
448,192,137516,1,0,0:0:0:0:
320,192,137709,1,0,0:0:0:0:
192,192,137709,128,0,137903:0:0:0:0:
192,192,138096,1,0,0:0:0:0:
320,192,138096,128,0,138290:0:0:0:0:
64,192,138483,1,0,0:0:0:0:
448,192,138483,1,0,0:0:0:0:
192,192,138580,1,0,0:0:0:0:
320,192,138870,1,0,0:0:0:0:
448,192,138870,1,0,0:0:0:0:
192,192,139258,1,0,0:0:0:0:
64,192,139258,1,0,0:0:0:0:
320,192,139645,1,0,0:0:0:0:
448,192,139645,1,0,0:0:0:0:
192,192,139838,1,0,0:0:0:0:
64,192,140032,1,0,0:0:0:0:
320,192,140032,1,0,0:0:0:0:
448,192,140225,1,0,0:0:0:0:
320,192,140419,1,0,0:0:0:0:
192,192,140419,128,0,140612:0:0:0:0:
64,192,140612,128,0,140806:0:0:0:0:
448,192,140612,1,0,0:0:0:0:
448,192,140806,1,0,0:0:0:0:
320,192,140806,128,0,140999:0:0:0:0:
192,192,140999,128,0,141193:0:0:0:0:
64,192,140999,1,0,0:0:0:0:
64,192,141193,1,0,0:0:0:0:
448,192,141193,128,0,141387:0:0:0:0:
448,192,141580,1,0,0:0:0:0:
320,192,141580,1,0,0:0:0:0:
192,192,141967,1,0,0:0:0:0:
320,192,141967,1,0,0:0:0:0:
64,192,142354,1,0,0:0:0:0:
448,192,142354,1,0,0:0:0:0:
192,192,142741,1,0,0:0:0:0:
320,192,142741,1,0,0:0:0:0:
448,192,142935,1,0,0:0:0:0:
192,192,143129,1,0,0:0:0:0:
64,192,143129,1,0,0:0:0:0:
320,192,143322,1,0,0:0:0:0:
448,192,143516,1,0,0:0:0:0:
192,192,143516,1,0,0:0:0:0:
64,192,143709,1,0,0:0:0:0:
320,192,143903,1,0,0:0:0:0:
192,192,143903,128,0,144096:0:0:0:0:
192,192,144290,1,0,0:0:0:0:
320,192,144290,128,0,144483:0:0:0:0:
64,192,144677,1,0,0:0:0:0:
448,192,144677,1,0,0:0:0:0:
320,192,145064,1,0,0:0:0:0:
448,192,145064,1,0,0:0:0:0:
192,192,145451,1,0,0:0:0:0:
64,192,145451,1,0,0:0:0:0:
320,192,145838,1,0,0:0:0:0:
448,192,145838,1,0,0:0:0:0:
320,192,146225,1,0,0:0:0:0:
448,192,146225,1,0,0:0:0:0:
448,192,146612,1,0,0:0:0:0:
320,192,146612,1,0,0:0:0:0:
320,192,146999,1,0,0:0:0:0:
448,192,146999,128,0,147387:0:0:0:0:
320,192,147387,1,0,0:0:0:0:
192,192,147387,1,0,0:0:0:0:
64,192,147387,1,0,0:0:0:0:
192,192,147580,1,0,0:0:0:0:
64,192,147774,1,0,0:0:0:0:
320,192,147774,1,0,0:0:0:0:
448,192,147774,1,0,0:0:0:0:
192,192,147967,1,0,0:0:0:0:
320,192,148161,1,0,0:0:0:0:
448,192,148161,1,0,0:0:0:0:
192,192,148354,1,0,0:0:0:0:
64,192,148548,1,0,0:0:0:0:
192,192,148548,1,0,0:0:0:0:
320,192,148548,1,0,0:0:0:0:
448,192,148741,1,0,0:0:0:0:
192,192,148935,1,0,0:0:0:0:
64,192,148935,128,0,149322:0:0:0:0:
320,192,148935,1,0,0:0:0:0:
320,192,149129,1,0,0:0:0:0:
448,192,149322,1,0,0:0:0:0:
320,192,149322,1,0,0:0:0:0:
192,192,149322,128,0,149709:0:0:0:0:
64,192,149516,1,0,0:0:0:0:
320,192,149709,128,0,150096:0:0:0:0:
64,192,149709,1,0,0:0:0:0:
448,192,149709,1,0,0:0:0:0:
192,192,149903,1,0,0:0:0:0:
448,192,150096,128,0,150483:0:0:0:0:
64,192,150096,1,0,0:0:0:0:
192,192,150096,1,0,0:0:0:0:
320,192,150290,1,0,0:0:0:0:
64,192,150483,128,0,150870:0:0:0:0:
192,192,150483,1,0,0:0:0:0:
320,192,150483,1,0,0:0:0:0:
448,192,150677,1,0,0:0:0:0:
320,192,150870,1,0,0:0:0:0:
192,192,150870,1,0,0:0:0:0:
448,192,151064,1,0,0:0:0:0:
192,192,151258,1,0,0:0:0:0:
64,192,151258,1,0,0:0:0:0:
320,192,151258,128,0,151645:0:0:0:0:
448,192,151451,1,0,0:0:0:0:
64,192,151645,1,0,0:0:0:0:
192,192,151645,1,0,0:0:0:0:
320,192,151838,1,0,0:0:0:0:
64,192,152032,1,0,0:0:0:0:
448,192,152032,128,0,152419:0:0:0:0:
192,192,152032,1,0,0:0:0:0:
192,192,152225,1,0,0:0:0:0:
64,192,152419,1,0,0:0:0:0:
320,192,152419,1,0,0:0:0:0:
192,192,152419,128,0,152806:0:0:0:0:
448,192,152612,1,0,0:0:0:0:
64,192,152806,128,0,153193:0:0:0:0:
320,192,152806,1,0,0:0:0:0:
448,192,152806,1,0,0:0:0:0:
192,192,152999,1,0,0:0:0:0:
320,192,153193,1,0,0:0:0:0:
192,192,153193,1,0,0:0:0:0:
448,192,153193,128,0,153580:0:0:0:0:
192,192,153387,1,0,0:0:0:0:
64,192,153580,1,0,0:0:0:0:
192,192,153580,1,0,0:0:0:0:
320,192,153580,128,0,153967:0:0:0:0:
192,192,153774,1,0,0:0:0:0:
64,192,153967,1,0,0:0:0:0:
448,192,153967,1,0,0:0:0:0:
192,192,153967,1,0,0:0:0:0:
192,192,154161,1,0,0:0:0:0:
320,192,154354,128,0,154741:0:0:0:0:
64,192,154354,1,0,0:0:0:0:
448,192,154354,1,0,0:0:0:0:
192,192,154548,1,0,0:0:0:0:
64,192,154741,1,0,0:0:0:0:
448,192,154741,1,0,0:0:0:0:
64,192,155129,1,0,0:0:0:0:
192,192,155129,1,0,0:0:0:0:
448,192,155129,128,0,155516:0:0:0:0:
320,192,155322,1,0,0:0:0:0:
320,192,155516,1,0,0:0:0:0:
64,192,155516,1,0,0:0:0:0:
192,192,155516,128,0,155903:0:0:0:0:
320,192,155709,1,0,0:0:0:0:
320,192,155903,128,0,156290:0:0:0:0:
448,192,155903,1,0,0:0:0:0:
64,192,155903,1,0,0:0:0:0:
192,192,156096,1,0,0:0:0:0:
64,192,156290,128,0,156677:0:0:0:0:
192,192,156290,1,0,0:0:0:0:
448,192,156290,1,0,0:0:0:0:
320,192,156483,1,0,0:0:0:0:
192,192,156677,1,0,0:0:0:0:
448,192,156677,1,0,0:0:0:0:
320,192,156870,1,0,0:0:0:0:
192,192,157064,1,0,0:0:0:0:
64,192,157064,1,0,0:0:0:0:
448,192,157064,1,0,0:0:0:0:
192,192,157258,1,0,0:0:0:0:
64,192,157451,1,0,0:0:0:0:
448,192,157451,1,0,0:0:0:0:
320,192,157451,128,0,158225:0:0:0:0:
192,192,157645,1,0,0:0:0:0:
64,192,157838,1,0,0:0:0:0:
448,192,157838,1,0,0:0:0:0:
448,192,158032,1,0,0:0:0:0:
64,192,158225,1,0,0:0:0:0:
448,192,158225,1,0,0:0:0:0:
192,192,158225,128,0,158999:0:0:0:0:
320,192,158419,1,0,0:0:0:0:
64,192,158612,1,0,0:0:0:0:
448,192,158612,1,0,0:0:0:0:
64,192,158806,1,0,0:0:0:0:
64,192,158999,128,0,159774:0:0:0:0:
320,192,158999,1,0,0:0:0:0:
448,192,158999,1,0,0:0:0:0:
192,192,159193,1,0,0:0:0:0:
192,192,159387,1,0,0:0:0:0:
448,192,159387,1,0,0:0:0:0:
320,192,159580,1,0,0:0:0:0:
192,192,159774,1,0,0:0:0:0:
448,192,159774,1,0,0:0:0:0:
448,192,159967,1,0,0:0:0:0:
320,192,159967,1,0,0:0:0:0:
192,192,160161,1,0,0:0:0:0:
64,192,160161,1,0,0:0:0:0:
448,192,160354,1,0,0:0:0:0:
320,192,160354,1,0,0:0:0:0:
192,192,160548,1,0,0:0:0:0:
64,192,160548,1,0,0:0:0:0:
320,192,160741,1,0,0:0:0:0:
448,192,160741,1,0,0:0:0:0:
64,192,160838,1,0,0:0:0:0:
192,192,160903,1,0,0:0:0:0:
320,192,160967,1,0,0:0:0:0:
448,192,161032,1,0,0:0:0:0:
64,192,161096,1,0,0:0:0:0:
192,192,161161,1,0,0:0:0:0:
320,192,161225,1,0,0:0:0:0:
448,192,161290,1,0,0:0:0:0:
64,192,161290,1,0,0:0:0:0:
320,192,161903,128,0,162483:0:0:0:0:
64,192,162483,1,0,0:0:0:0:
448,192,162483,1,0,0:0:0:0:
64,192,162870,1,0,0:0:0:0:
192,192,162870,1,0,0:0:0:0:
320,192,162870,1,0,0:0:0:0:
448,192,162870,1,0,0:0:0:0:
320,192,163064,1,0,0:0:0:0:
64,192,163258,1,0,0:0:0:0:
448,192,163258,1,0,0:0:0:0:
192,192,163354,1,0,0:0:0:0:
320,192,163451,1,0,0:0:0:0:
448,192,163548,1,0,0:0:0:0:
320,192,163645,1,0,0:0:0:0:
64,192,163645,128,0,164032:0:0:0:0:
192,192,163645,1,0,0:0:0:0:
448,192,163741,1,0,0:0:0:0:
320,192,163838,1,0,0:0:0:0:
192,192,163935,1,0,0:0:0:0:
320,192,164032,1,0,0:0:0:0:
448,192,164032,1,0,0:0:0:0:
64,192,164129,1,0,0:0:0:0:
192,192,164225,1,0,0:0:0:0:
320,192,164322,1,0,0:0:0:0:
448,192,164419,1,0,0:0:0:0:
64,192,164419,1,0,0:0:0:0:
320,192,164516,1,0,0:0:0:0:
192,192,164612,1,0,0:0:0:0:
64,192,164709,1,0,0:0:0:0:
192,192,164806,1,0,0:0:0:0:
448,192,164806,1,0,0:0:0:0:
320,192,164903,1,0,0:0:0:0:
192,192,164999,1,0,0:0:0:0:
64,192,165096,1,0,0:0:0:0:
192,192,165193,1,0,0:0:0:0:
320,192,165193,1,0,0:0:0:0:
448,192,165290,1,0,0:0:0:0:
320,192,165387,1,0,0:0:0:0:
192,192,165483,1,0,0:0:0:0:
64,192,165580,1,0,0:0:0:0:
448,192,165580,1,0,0:0:0:0:
192,192,165677,1,0,0:0:0:0:
320,192,165774,1,0,0:0:0:0:
448,192,165870,1,0,0:0:0:0:
320,192,165967,1,0,0:0:0:0:
64,192,165967,1,0,0:0:0:0:
192,192,165967,128,0,166354:0:0:0:0:
448,192,166064,1,0,0:0:0:0:
320,192,166161,1,0,0:0:0:0:
64,192,166258,1,0,0:0:0:0:
320,192,166354,1,0,0:0:0:0:
448,192,166354,1,0,0:0:0:0:
64,192,166451,1,0,0:0:0:0:
192,192,166548,1,0,0:0:0:0:
320,192,166645,1,0,0:0:0:0:
448,192,166741,1,0,0:0:0:0:
64,192,166741,1,0,0:0:0:0:
192,192,166741,128,0,167129:0:0:0:0:
320,192,166838,1,0,0:0:0:0:
448,192,166935,1,0,0:0:0:0:
320,192,167032,1,0,0:0:0:0:
64,192,167129,1,0,0:0:0:0:
448,192,167129,1,0,0:0:0:0:
320,192,167225,1,0,0:0:0:0:
192,192,167322,1,0,0:0:0:0:
64,192,167419,1,0,0:0:0:0:
320,192,167516,1,0,0:0:0:0:
448,192,167516,1,0,0:0:0:0:
192,192,167612,1,0,0:0:0:0:
320,192,167709,1,0,0:0:0:0:
192,192,167806,1,0,0:0:0:0:
64,192,167903,1,0,0:0:0:0:
448,192,167903,1,0,0:0:0:0:
192,192,167999,1,0,0:0:0:0:
320,192,168096,1,0,0:0:0:0:
448,192,168193,1,0,0:0:0:0:
320,192,168290,1,0,0:0:0:0:
192,192,168290,1,0,0:0:0:0:
64,192,168387,1,0,0:0:0:0:
192,192,168483,1,0,0:0:0:0:
320,192,168580,1,0,0:0:0:0:
448,192,168677,1,0,0:0:0:0:
64,192,168677,1,0,0:0:0:0:
320,192,168774,1,0,0:0:0:0:
192,192,168870,1,0,0:0:0:0:
64,192,168967,1,0,0:0:0:0:
192,192,169064,1,0,0:0:0:0:
320,192,169064,1,0,0:0:0:0:
448,192,169064,128,0,169451:0:0:0:0:
64,192,169161,1,0,0:0:0:0:
192,192,169258,1,0,0:0:0:0:
320,192,169354,1,0,0:0:0:0:
192,192,169451,1,0,0:0:0:0:
64,192,169451,1,0,0:0:0:0:
320,192,169548,1,0,0:0:0:0:
448,192,169645,1,0,0:0:0:0:
320,192,169741,1,0,0:0:0:0:
192,192,169838,1,0,0:0:0:0:
448,192,169838,1,0,0:0:0:0:
64,192,169838,128,0,170225:0:0:0:0:
320,192,169935,1,0,0:0:0:0:
192,192,170032,1,0,0:0:0:0:
320,192,170129,1,0,0:0:0:0:
448,192,170225,1,0,0:0:0:0:
192,192,170225,1,0,0:0:0:0:
320,192,170322,1,0,0:0:0:0:
192,192,170419,1,0,0:0:0:0:
64,192,170516,1,0,0:0:0:0:
192,192,170612,1,0,0:0:0:0:
320,192,170612,1,0,0:0:0:0:
448,192,170612,128,0,170999:0:0:0:0:
64,192,170709,1,0,0:0:0:0:
192,192,170806,1,0,0:0:0:0:
320,192,170903,1,0,0:0:0:0:
192,192,170999,1,0,0:0:0:0:
64,192,170999,1,0,0:0:0:0:
320,192,171096,1,0,0:0:0:0:
448,192,171193,1,0,0:0:0:0:
320,192,171290,1,0,0:0:0:0:
192,192,171387,1,0,0:0:0:0:
64,192,171387,1,0,0:0:0:0:
320,192,171483,1,0,0:0:0:0:
192,192,171580,1,0,0:0:0:0:
320,192,171677,1,0,0:0:0:0:
448,192,171774,1,0,0:0:0:0:
64,192,171774,1,0,0:0:0:0:
192,192,171774,1,0,0:0:0:0:
320,192,171870,1,0,0:0:0:0:
192,192,171967,1,0,0:0:0:0:
64,192,172064,1,0,0:0:0:0:
192,192,172161,1,0,0:0:0:0:
448,192,172161,1,0,0:0:0:0:
320,192,172161,128,0,172548:0:0:0:0:
64,192,172258,1,0,0:0:0:0:
192,192,172354,1,0,0:0:0:0:
448,192,172451,1,0,0:0:0:0:
192,192,172548,1,0,0:0:0:0:
64,192,172548,1,0,0:0:0:0:
448,192,172645,1,0,0:0:0:0:
320,192,172741,1,0,0:0:0:0:
64,192,172838,1,0,0:0:0:0:
192,192,172935,128,0,173322:0:0:0:0:
320,192,172935,1,0,0:0:0:0:
448,192,172935,1,0,0:0:0:0:
64,192,173032,1,0,0:0:0:0:
320,192,173129,1,0,0:0:0:0:
448,192,173225,1,0,0:0:0:0:
320,192,173322,1,0,0:0:0:0:
64,192,173322,1,0,0:0:0:0:
448,192,173419,1,0,0:0:0:0:
320,192,173516,1,0,0:0:0:0:
192,192,173612,1,0,0:0:0:0:
64,192,173709,1,0,0:0:0:0:
448,192,173709,1,0,0:0:0:0:
320,192,173709,128,0,174483:0:0:0:0:
192,192,173806,1,0,0:0:0:0:
448,192,173903,1,0,0:0:0:0:
192,192,173999,1,0,0:0:0:0:
64,192,174096,1,0,0:0:0:0:
448,192,174096,1,0,0:0:0:0:
192,192,174193,1,0,0:0:0:0:
64,192,174290,1,0,0:0:0:0:
192,192,174387,1,0,0:0:0:0:
448,192,174483,1,0,0:0:0:0:
64,192,174483,1,0,0:0:0:0:
64,192,174677,1,0,0:0:0:0:
192,192,174677,1,0,0:0:0:0:
320,192,174870,1,0,0:0:0:0:
448,192,174870,1,0,0:0:0:0:
64,192,175032,1,0,0:0:0:0:
192,192,175096,1,0,0:0:0:0:
448,192,175161,1,0,0:0:0:0:
320,192,175225,1,0,0:0:0:0:
64,192,175290,1,0,0:0:0:0:
192,192,175290,1,0,0:0:0:0:
448,192,175290,1,0,0:0:0:0:
320,192,175451,1,0,0:0:0:0:
64,192,175645,1,0,0:0:0:0:
192,192,175645,1,0,0:0:0:0:
448,192,175741,1,0,0:0:0:0:
320,192,175838,1,0,0:0:0:0:
192,192,175935,1,0,0:0:0:0:
64,192,176032,1,0,0:0:0:0:
448,192,176032,128,0,176419:0:0:0:0:
320,192,176032,1,0,0:0:0:0:
192,192,176129,1,0,0:0:0:0:
320,192,176225,1,0,0:0:0:0:
64,192,176322,1,0,0:0:0:0:
192,192,176419,1,0,0:0:0:0:
320,192,176419,1,0,0:0:0:0:
64,192,176516,1,0,0:0:0:0:
192,192,176612,1,0,0:0:0:0:
320,192,176709,1,0,0:0:0:0:
448,192,176806,1,0,0:0:0:0:
64,192,176806,128,0,177193:0:0:0:0:
192,192,176806,1,0,0:0:0:0:
320,192,176903,1,0,0:0:0:0:
192,192,176999,1,0,0:0:0:0:
448,192,177096,1,0,0:0:0:0:
320,192,177193,1,0,0:0:0:0:
192,192,177193,1,0,0:0:0:0:
448,192,177290,1,0,0:0:0:0:
320,192,177387,1,0,0:0:0:0:
192,192,177483,1,0,0:0:0:0:
64,192,177580,1,0,0:0:0:0:
448,192,177580,1,0,0:0:0:0:
192,192,177677,1,0,0:0:0:0:
320,192,177774,1,0,0:0:0:0:
448,192,177870,1,0,0:0:0:0:
320,192,177967,1,0,0:0:0:0:
192,192,177967,1,0,0:0:0:0:
64,192,178064,1,0,0:0:0:0:
192,192,178161,1,0,0:0:0:0:
320,192,178258,1,0,0:0:0:0:
448,192,178354,1,0,0:0:0:0:
64,192,178354,1,0,0:0:0:0:
192,192,178354,128,0,178741:0:0:0:0:
320,192,178451,1,0,0:0:0:0:
64,192,178548,1,0,0:0:0:0:
448,192,178645,1,0,0:0:0:0:
320,192,178741,1,0,0:0:0:0:
64,192,178741,1,0,0:0:0:0:
448,192,178838,1,0,0:0:0:0:
320,192,178935,1,0,0:0:0:0:
192,192,179032,1,0,0:0:0:0:
64,192,179129,1,0,0:0:0:0:
448,192,179129,1,0,0:0:0:0:
320,192,179129,128,0,179516:0:0:0:0:
192,192,179225,1,0,0:0:0:0:
448,192,179322,1,0,0:0:0:0:
64,192,179419,1,0,0:0:0:0:
192,192,179516,1,0,0:0:0:0:
448,192,179516,1,0,0:0:0:0:
64,192,179612,1,0,0:0:0:0:
192,192,179709,1,0,0:0:0:0:
320,192,179806,1,0,0:0:0:0:
448,192,179903,1,0,0:0:0:0:
64,192,179903,1,0,0:0:0:0:
192,192,179903,128,0,180290:0:0:0:0:
320,192,179999,1,0,0:0:0:0:
64,192,180096,1,0,0:0:0:0:
448,192,180193,1,0,0:0:0:0:
320,192,180290,1,0,0:0:0:0:
64,192,180290,1,0,0:0:0:0:
448,192,180387,1,0,0:0:0:0:
320,192,180483,1,0,0:0:0:0:
192,192,180580,1,0,0:0:0:0:
64,192,180677,1,0,0:0:0:0:
320,192,180677,1,0,0:0:0:0:
192,192,180774,1,0,0:0:0:0:
320,192,180870,1,0,0:0:0:0:
448,192,180967,1,0,0:0:0:0:
320,192,181064,1,0,0:0:0:0:
192,192,181064,1,0,0:0:0:0:
64,192,181161,1,0,0:0:0:0:
320,192,181258,1,0,0:0:0:0:
192,192,181354,1,0,0:0:0:0:
64,192,181451,1,0,0:0:0:0:
320,192,181451,1,0,0:0:0:0:
448,192,181451,1,0,0:0:0:0:
192,192,181548,1,0,0:0:0:0:
320,192,181645,1,0,0:0:0:0:
448,192,181741,1,0,0:0:0:0:
320,192,181838,1,0,0:0:0:0:
64,192,181838,1,0,0:0:0:0:
192,192,181935,1,0,0:0:0:0:
320,192,182032,1,0,0:0:0:0:
192,192,182129,1,0,0:0:0:0:
64,192,182225,1,0,0:0:0:0:
448,192,182225,128,0,182612:0:0:0:0:
320,192,182225,1,0,0:0:0:0:
192,192,182322,1,0,0:0:0:0:
320,192,182419,1,0,0:0:0:0:
64,192,182516,1,0,0:0:0:0:
192,192,182612,1,0,0:0:0:0:
320,192,182612,1,0,0:0:0:0:
64,192,182709,1,0,0:0:0:0:
192,192,182806,1,0,0:0:0:0:
448,192,182903,1,0,0:0:0:0:
320,192,182999,1,0,0:0:0:0:
64,192,182999,128,0,183387:0:0:0:0:
192,192,182999,1,0,0:0:0:0:
448,192,183096,1,0,0:0:0:0:
320,192,183193,1,0,0:0:0:0:
192,192,183290,1,0,0:0:0:0:
320,192,183387,1,0,0:0:0:0:
448,192,183387,1,0,0:0:0:0:
192,192,183483,1,0,0:0:0:0:
64,192,183580,1,0,0:0:0:0:
192,192,183677,1,0,0:0:0:0:
320,192,183774,1,0,0:0:0:0:
448,192,183774,1,0,0:0:0:0:
192,192,183870,1,0,0:0:0:0:
320,192,183967,1,0,0:0:0:0:
192,192,184064,1,0,0:0:0:0:
64,192,184161,1,0,0:0:0:0:
448,192,184161,1,0,0:0:0:0:
320,192,184161,1,0,0:0:0:0:
192,192,184354,1,0,0:0:0:0:
320,192,184354,1,0,0:0:0:0:
64,192,184451,1,0,0:0:0:0:
448,192,184451,1,0,0:0:0:0:
320,192,184548,1,0,0:0:0:0:
192,192,184548,1,0,0:0:0:0:
448,192,184548,1,0,0:0:0:0:
192,192,184741,1,0,0:0:0:0:
64,192,184741,1,0,0:0:0:0:
320,192,184935,1,0,0:0:0:0:
448,192,184935,1,0,0:0:0:0:
192,192,185129,1,0,0:0:0:0:
64,192,185129,1,0,0:0:0:0:
320,192,185322,1,0,0:0:0:0:
448,192,185322,1,0,0:0:0:0:
64,192,185322,1,0,0:0:0:0:
192,192,185516,1,0,0:0:0:0:
64,192,185516,1,0,0:0:0:0:
192,192,185709,1,0,0:0:0:0:
320,192,185709,1,0,0:0:0:0:
448,192,185806,1,0,0:0:0:0:
64,192,185806,1,0,0:0:0:0:
192,192,185903,1,0,0:0:0:0:
320,192,185903,1,0,0:0:0:0:
448,192,185999,1,0,0:0:0:0:
64,192,185999,1,0,0:0:0:0:
320,192,186096,1,0,0:0:0:0:
192,192,186096,1,0,0:0:0:0:
64,192,186096,1,0,0:0:0:0:
320,192,187258,1,0,0:0:0:0:
192,192,187258,1,0,0:0:0:0:
192,192,187645,1,0,0:0:0:0:
64,192,187645,1,0,0:0:0:0:
320,192,187645,1,0,0:0:0:0:
448,192,187645,1,0,0:0:0:0:
192,192,188032,128,0,188516:0:0:0:0:
320,192,188516,128,0,189387:0:0:0:0:
64,192,189387,128,0,190838:0:0:0:0:
448,192,190838,128,0,191516:0:0:0:0:
320,192,191516,128,0,192290:0:0:0:0:
192,192,192290,128,0,193935:0:0:0:0:
320,192,193935,128,0,194709:0:0:0:0:
448,192,194709,128,0,195483:0:0:0:0:
320,192,195483,128,0,197032:0:0:0:0:
192,192,197032,128,0,197806:0:0:0:0:
64,192,197806,128,0,198580:0:0:0:0:
192,192,198580,128,0,200032:0:0:0:0:
320,192,199064,128,0,200806:0:0:0:0:
448,192,200032,1,0,0:0:0:0:
64,192,200806,128,0,201677:0:0:0:0:
192,192,201677,128,0,203225:0:0:0:0:
448,192,203225,128,0,203999:0:0:0:0:
64,192,203999,128,0,204774:0:0:0:0:
320,192,204774,128,0,206225:0:0:0:0:
192,192,206225,128,0,207096:0:0:0:0:
448,192,207096,128,0,207870:0:0:0:0:
320,192,207870,128,0,209419:0:0:0:0:
64,192,209419,128,0,210193:0:0:0:0:
448,192,210193,128,0,210967:0:0:0:0:
192,192,210967,128,0,212419:0:0:0:0:
320,192,211451,128,0,212419:0:0:0:0:
64,192,212419,1,0,0:0:0:0:
448,192,212806,1,0,0:0:0:0:
320,192,212999,1,0,0:0:0:0:
192,192,212999,1,0,0:0:0:0:
192,192,213193,1,0,0:0:0:0:
64,192,213193,1,0,0:0:0:0:
448,192,213193,1,0,0:0:0:0:
320,192,213387,1,0,0:0:0:0:
192,192,213580,1,0,0:0:0:0:
448,192,213580,1,0,0:0:0:0:
64,192,213774,1,0,0:0:0:0:
192,192,213967,1,0,0:0:0:0:
320,192,213967,1,0,0:0:0:0:
448,192,214161,1,0,0:0:0:0:
320,192,214354,1,0,0:0:0:0:
192,192,214548,1,0,0:0:0:0:
64,192,214548,1,0,0:0:0:0:
64,192,214741,1,0,0:0:0:0:
320,192,214741,1,0,0:0:0:0:
448,192,214741,1,0,0:0:0:0:
192,192,214935,1,0,0:0:0:0:
320,192,215129,1,0,0:0:0:0:
448,192,215322,1,0,0:0:0:0:
320,192,215516,1,0,0:0:0:0:
64,192,215516,1,0,0:0:0:0:
192,192,215709,1,0,0:0:0:0:
320,192,215903,1,0,0:0:0:0:
448,192,216096,1,0,0:0:0:0:
64,192,216096,1,0,0:0:0:0:
192,192,216290,1,0,0:0:0:0:
320,192,216290,1,0,0:0:0:0:
448,192,216290,1,0,0:0:0:0:
64,192,216483,1,0,0:0:0:0:
192,192,216677,1,0,0:0:0:0:
320,192,216677,1,0,0:0:0:0:
448,192,216870,1,0,0:0:0:0:
320,192,217064,1,0,0:0:0:0:
64,192,217064,1,0,0:0:0:0:
192,192,217258,1,0,0:0:0:0:
320,192,217451,1,0,0:0:0:0:
448,192,217645,1,0,0:0:0:0:
64,192,217645,1,0,0:0:0:0:
320,192,217838,1,0,0:0:0:0:
192,192,217838,1,0,0:0:0:0:
64,192,217838,1,0,0:0:0:0:
320,192,218032,1,0,0:0:0:0:
448,192,218032,1,0,0:0:0:0:
192,192,218225,128,0,218612:0:0:0:0:
64,192,218612,1,0,0:0:0:0:
448,192,218612,1,0,0:0:0:0:
320,192,218999,1,0,0:0:0:0:
64,192,219193,1,0,0:0:0:0:
192,192,219193,1,0,0:0:0:0:
64,192,219387,1,0,0:0:0:0:
320,192,219387,1,0,0:0:0:0:
448,192,219387,1,0,0:0:0:0:
192,192,219580,1,0,0:0:0:0:
320,192,219774,1,0,0:0:0:0:
64,192,219774,1,0,0:0:0:0:
192,192,219967,1,0,0:0:0:0:
320,192,220161,1,0,0:0:0:0:
448,192,220161,1,0,0:0:0:0:
192,192,220354,1,0,0:0:0:0:
64,192,220548,1,0,0:0:0:0:
192,192,220741,1,0,0:0:0:0:
320,192,220741,1,0,0:0:0:0:
448,192,220935,1,0,0:0:0:0:
192,192,220935,1,0,0:0:0:0:
64,192,220935,1,0,0:0:0:0:
320,192,221129,1,0,0:0:0:0:
192,192,221322,1,0,0:0:0:0:
64,192,221516,1,0,0:0:0:0:
192,192,221709,1,0,0:0:0:0:
448,192,221709,1,0,0:0:0:0:
320,192,221903,1,0,0:0:0:0:
192,192,222096,1,0,0:0:0:0:
64,192,222290,1,0,0:0:0:0:
448,192,222290,1,0,0:0:0:0:
192,192,222483,1,0,0:0:0:0:
320,192,222483,1,0,0:0:0:0:
448,192,222483,1,0,0:0:0:0:
64,192,222677,1,0,0:0:0:0:
192,192,222870,1,0,0:0:0:0:
320,192,222870,1,0,0:0:0:0:
448,192,223064,1,0,0:0:0:0:
320,192,223258,1,0,0:0:0:0:
192,192,223258,1,0,0:0:0:0:
64,192,223451,1,0,0:0:0:0:
192,192,223645,1,0,0:0:0:0:
320,192,223838,1,0,0:0:0:0:
448,192,223838,1,0,0:0:0:0:
448,192,224032,1,0,0:0:0:0:
192,192,224032,1,0,0:0:0:0:
64,192,224032,1,0,0:0:0:0:
320,192,224225,1,0,0:0:0:0:
448,192,224225,1,0,0:0:0:0:
192,192,224419,128,0,224806:0:0:0:0:
64,192,224806,1,0,0:0:0:0:
448,192,224806,1,0,0:0:0:0:
192,192,225193,1,0,0:0:0:0:
320,192,225387,1,0,0:0:0:0:
448,192,225387,1,0,0:0:0:0:
448,192,225580,1,0,0:0:0:0:
192,192,225580,1,0,0:0:0:0:
64,192,225580,1,0,0:0:0:0:
320,192,225774,1,0,0:0:0:0:
192,192,225967,1,0,0:0:0:0:
448,192,225967,1,0,0:0:0:0:
320,192,226161,1,0,0:0:0:0:
192,192,226354,1,0,0:0:0:0:
448,192,226354,1,0,0:0:0:0:
320,192,226548,1,0,0:0:0:0:
192,192,226741,1,0,0:0:0:0:
64,192,226935,1,0,0:0:0:0:
448,192,226935,1,0,0:0:0:0:
320,192,227129,1,0,0:0:0:0:
192,192,227129,1,0,0:0:0:0:
64,192,227129,1,0,0:0:0:0:
448,192,227322,1,0,0:0:0:0:
320,192,227516,1,0,0:0:0:0:
192,192,227709,1,0,0:0:0:0:
64,192,227903,1,0,0:0:0:0:
448,192,227903,1,0,0:0:0:0:
192,192,228096,1,0,0:0:0:0:
320,192,228290,1,0,0:0:0:0:
448,192,228483,1,0,0:0:0:0:
64,192,228483,1,0,0:0:0:0:
192,192,228677,1,0,0:0:0:0:
320,192,228677,1,0,0:0:0:0:
448,192,228677,1,0,0:0:0:0:
64,192,228870,1,0,0:0:0:0:
192,192,229064,1,0,0:0:0:0:
448,192,229064,1,0,0:0:0:0:
320,192,229258,1,0,0:0:0:0:
448,192,229451,1,0,0:0:0:0:
64,192,229451,1,0,0:0:0:0:
320,192,229645,1,0,0:0:0:0:
192,192,229838,1,0,0:0:0:0:
64,192,230032,1,0,0:0:0:0:
448,192,230032,1,0,0:0:0:0:
320,192,230225,1,0,0:0:0:0:
192,192,230225,1,0,0:0:0:0:
64,192,230225,1,0,0:0:0:0:
320,192,230419,1,0,0:0:0:0:
448,192,230419,1,0,0:0:0:0:
192,192,230612,128,0,230999:0:0:0:0:
64,192,230999,1,0,0:0:0:0:
448,192,230999,1,0,0:0:0:0:
320,192,231387,1,0,0:0:0:0:
64,192,231580,1,0,0:0:0:0:
192,192,231580,1,0,0:0:0:0:
64,192,231774,1,0,0:0:0:0:
320,192,231774,1,0,0:0:0:0:
448,192,231774,1,0,0:0:0:0:
192,192,231967,1,0,0:0:0:0:
320,192,232161,1,0,0:0:0:0:
64,192,232161,1,0,0:0:0:0:
192,192,232354,1,0,0:0:0:0:
64,192,232548,1,0,0:0:0:0:
448,192,232548,1,0,0:0:0:0:
192,192,232741,1,0,0:0:0:0:
320,192,232935,1,0,0:0:0:0:
448,192,233129,1,0,0:0:0:0:
64,192,233129,1,0,0:0:0:0:
192,192,233322,1,0,0:0:0:0:
320,192,233322,1,0,0:0:0:0:
448,192,233322,1,0,0:0:0:0:
64,192,233516,1,0,0:0:0:0:
192,192,233709,1,0,0:0:0:0:
320,192,233903,1,0,0:0:0:0:
448,192,234096,1,0,0:0:0:0:
64,192,234096,1,0,0:0:0:0:
320,192,234290,1,0,0:0:0:0:
192,192,234483,1,0,0:0:0:0:
64,192,234677,1,0,0:0:0:0:
448,192,234677,1,0,0:0:0:0:
320,192,234870,1,0,0:0:0:0:
192,192,234870,1,0,0:0:0:0:
64,192,234870,1,0,0:0:0:0:
448,192,235064,1,0,0:0:0:0:
320,192,235258,1,0,0:0:0:0:
192,192,235258,1,0,0:0:0:0:
64,192,235451,1,0,0:0:0:0:
448,192,235645,128,0,237193:0:0:0:0:
192,192,235645,1,0,0:0:0:0:
320,192,235645,1,0,0:0:0:0:
64,192,235838,1,0,0:0:0:0:
192,192,236032,1,0,0:0:0:0:
320,192,236225,1,0,0:0:0:0:
64,192,236225,1,0,0:0:0:0:
192,192,236419,1,0,0:0:0:0:
320,192,236419,1,0,0:0:0:0:
64,192,236612,1,0,0:0:0:0:
192,192,236806,1,0,0:0:0:0:
320,192,236999,1,0,0:0:0:0:
320,192,237193,1,0,0:0:0:0:
192,192,237193,1,0,0:0:0:0:
64,192,237193,1,0,0:0:0:0:
192,192,237483,1,0,0:0:0:0:
192,192,237580,1,0,0:0:0:0:
320,192,237870,1,0,0:0:0:0:
320,192,237967,128,0,238161:0:0:0:0:
64,192,238258,1,0,0:0:0:0:
64,192,238354,128,0,238548:0:0:0:0:
192,192,238548,128,0,238741:0:0:0:0:
64,192,238741,128,0,239032:0:0:0:0:
320,192,239032,1,0,0:0:0:0:
320,192,239129,1,0,0:0:0:0:
448,192,239419,1,0,0:0:0:0:
448,192,239516,128,0,239709:0:0:0:0:
64,192,239806,1,0,0:0:0:0:
64,192,239903,128,0,240096:0:0:0:0:
192,192,240096,128,0,240290:0:0:0:0:
64,192,240290,128,0,240580:0:0:0:0:
448,192,240580,1,0,0:0:0:0:
448,192,240677,1,0,0:0:0:0:
320,192,240967,1,0,0:0:0:0:
320,192,241064,128,0,241258:0:0:0:0:
192,192,241354,1,0,0:0:0:0:
192,192,241451,128,0,241645:0:0:0:0:
64,192,241645,128,0,241838:0:0:0:0:
192,192,241838,128,0,242129:0:0:0:0:
448,192,242129,1,0,0:0:0:0:
448,192,242225,1,0,0:0:0:0:
64,192,242516,1,0,0:0:0:0:
64,192,242612,128,0,242806:0:0:0:0:
320,192,242903,1,0,0:0:0:0:
320,192,242999,128,0,243193:0:0:0:0:
192,192,243193,128,0,243387:0:0:0:0:
320,192,243387,128,0,243677:0:0:0:0:
64,192,243677,1,0,0:0:0:0:
64,192,243774,1,0,0:0:0:0:
320,192,244064,1,0,0:0:0:0:
320,192,244161,128,0,244354:0:0:0:0:
448,192,244451,1,0,0:0:0:0:
448,192,244548,128,0,244741:0:0:0:0:
320,192,244741,128,0,244935:0:0:0:0:
448,192,244935,128,0,245225:0:0:0:0:
64,192,245225,1,0,0:0:0:0:
64,192,245322,1,0,0:0:0:0:
192,192,245612,1,0,0:0:0:0:
192,192,245709,128,0,245903:0:0:0:0:
320,192,245999,1,0,0:0:0:0:
320,192,246096,128,0,246290:0:0:0:0:
448,192,246290,128,0,246483:0:0:0:0:
320,192,246483,128,0,246774:0:0:0:0:
64,192,246774,1,0,0:0:0:0:
64,192,246870,1,0,0:0:0:0:
448,192,247161,1,0,0:0:0:0:
448,192,247258,128,0,247451:0:0:0:0:
192,192,247548,1,0,0:0:0:0:
192,192,247645,128,0,247838:0:0:0:0:
64,192,247838,128,0,248032:0:0:0:0:
192,192,248032,128,0,248322:0:0:0:0:
320,192,248322,1,0,0:0:0:0:
320,192,248419,1,0,0:0:0:0:
192,192,248709,1,0,0:0:0:0:
192,192,248806,128,0,248999:0:0:0:0:
320,192,249096,1,0,0:0:0:0:
64,192,249193,1,0,0:0:0:0:
448,192,249193,1,0,0:0:0:0:
320,192,249193,128,0,249387:0:0:0:0:
192,192,249387,128,0,249580:0:0:0:0:
64,192,249580,1,0,0:0:0:0:
448,192,249580,1,0,0:0:0:0:
320,192,249580,128,0,249870:0:0:0:0:
192,192,249870,1,0,0:0:0:0:
192,192,249967,1,0,0:0:0:0:
448,192,250258,1,0,0:0:0:0:
448,192,250354,128,0,250548:0:0:0:0:
64,192,250645,1,0,0:0:0:0:
64,192,250741,128,0,250935:0:0:0:0:
192,192,250935,128,0,251129:0:0:0:0:
64,192,251129,128,0,251419:0:0:0:0:
448,192,251419,1,0,0:0:0:0:
448,192,251516,1,0,0:0:0:0:
192,192,251806,1,0,0:0:0:0:
192,192,251903,128,0,252096:0:0:0:0:
448,192,252290,1,0,0:0:0:0:
64,192,252290,128,0,252483:0:0:0:0:
192,192,252290,1,0,0:0:0:0:
320,192,252483,128,0,252677:0:0:0:0:
192,192,252677,1,0,0:0:0:0:
448,192,252677,1,0,0:0:0:0:
64,192,252967,1,0,0:0:0:0:
64,192,253064,1,0,0:0:0:0:
320,192,253354,1,0,0:0:0:0:
320,192,253451,128,0,253645:0:0:0:0:
64,192,253741,1,0,0:0:0:0:
64,192,253838,128,0,254032:0:0:0:0:
192,192,254032,128,0,254225:0:0:0:0:
320,192,254225,128,0,254516:0:0:0:0:
448,192,254225,1,0,0:0:0:0:
192,192,254516,1,0,0:0:0:0:
192,192,254612,1,0,0:0:0:0:
64,192,254999,1,0,0:0:0:0:
192,192,255048,1,0,0:0:0:0:
320,192,255096,1,0,0:0:0:0:
448,192,255145,1,0,0:0:0:0:
64,192,255193,1,0,0:0:0:0:
192,192,255241,1,0,0:0:0:0:
320,192,255290,1,0,0:0:0:0:
448,192,255338,1,0,0:0:0:0:
64,192,255387,1,0,0:0:0:0:
192,192,255387,1,0,0:0:0:0:
320,192,255774,1,0,0:0:0:0:
64,192,255774,1,0,0:0:0:0:
448,192,255774,1,0,0:0:0:0:
192,192,255967,1,0,0:0:0:0:
64,192,255967,1,0,0:0:0:0:
320,192,256161,1,0,0:0:0:0:
448,192,256161,1,0,0:0:0:0:
192,192,256354,1,0,0:0:0:0:
64,192,256354,1,0,0:0:0:0:
320,192,256548,1,0,0:0:0:0:
448,192,256548,1,0,0:0:0:0:
64,192,256548,1,0,0:0:0:0:
192,192,256741,1,0,0:0:0:0:
64,192,256741,1,0,0:0:0:0:
320,192,256935,1,0,0:0:0:0:
448,192,256935,1,0,0:0:0:0:
192,192,257129,1,0,0:0:0:0:
64,192,257129,1,0,0:0:0:0:
320,192,257322,1,0,0:0:0:0:
448,192,257322,1,0,0:0:0:0:
64,192,257322,1,0,0:0:0:0:
192,192,257516,1,0,0:0:0:0:
64,192,257516,1,0,0:0:0:0:
320,192,257709,1,0,0:0:0:0:
448,192,257709,1,0,0:0:0:0:
192,192,257903,1,0,0:0:0:0:
64,192,257903,1,0,0:0:0:0:
320,192,258096,1,0,0:0:0:0:
448,192,258096,1,0,0:0:0:0:
64,192,258096,1,0,0:0:0:0:
192,192,258290,1,0,0:0:0:0:
64,192,258290,1,0,0:0:0:0:
320,192,258483,1,0,0:0:0:0:
448,192,258483,1,0,0:0:0:0:
192,192,258677,1,0,0:0:0:0:
64,192,258677,1,0,0:0:0:0:
320,192,258870,1,0,0:0:0:0:
448,192,258870,1,0,0:0:0:0:
64,192,258870,1,0,0:0:0:0:
192,192,259064,1,0,0:0:0:0:
320,192,259064,1,0,0:0:0:0:
64,192,259258,1,0,0:0:0:0:
448,192,259258,1,0,0:0:0:0:
320,192,259451,1,0,0:0:0:0:
192,192,259451,1,0,0:0:0:0:
64,192,259645,1,0,0:0:0:0:
448,192,259645,1,0,0:0:0:0:
192,192,259645,1,0,0:0:0:0:
192,192,259838,1,0,0:0:0:0:
320,192,259838,1,0,0:0:0:0:
64,192,260032,1,0,0:0:0:0:
448,192,260032,1,0,0:0:0:0:
192,192,260225,1,0,0:0:0:0:
320,192,260225,1,0,0:0:0:0:
64,192,260419,1,0,0:0:0:0:
320,192,260419,1,0,0:0:0:0:
448,192,260419,1,0,0:0:0:0:
192,192,260612,1,0,0:0:0:0:
320,192,260612,1,0,0:0:0:0:
64,192,260806,1,0,0:0:0:0:
448,192,260806,1,0,0:0:0:0:
192,192,260999,1,0,0:0:0:0:
320,192,260999,1,0,0:0:0:0:
448,192,261193,1,0,0:0:0:0:
192,192,261193,1,0,0:0:0:0:
64,192,261193,1,0,0:0:0:0:
192,192,261387,1,0,0:0:0:0:
320,192,261387,1,0,0:0:0:0:
448,192,261580,1,0,0:0:0:0:
64,192,261580,1,0,0:0:0:0:
192,192,261774,1,0,0:0:0:0:
320,192,261774,1,0,0:0:0:0:
448,192,261967,1,0,0:0:0:0:
64,192,261967,1,0,0:0:0:0:
320,192,261967,1,0,0:0:0:0:
192,192,262064,1,0,0:0:0:0:
64,192,262064,1,0,0:0:0:0:
320,192,262161,1,0,0:0:0:0:
448,192,262161,1,0,0:0:0:0:
192,192,262258,1,0,0:0:0:0:
64,192,262258,1,0,0:0:0:0:
320,192,262354,1,0,0:0:0:0:
448,192,262354,1,0,0:0:0:0:
192,192,262451,1,0,0:0:0:0:
64,192,262451,1,0,0:0:0:0:
320,192,262548,1,0,0:0:0:0:
448,192,262548,1,0,0:0:0:0:
192,192,262645,1,0,0:0:0:0:
64,192,262645,1,0,0:0:0:0:
320,192,262741,1,0,0:0:0:0:
448,192,262741,1,0,0:0:0:0:
192,192,262838,1,0,0:0:0:0:
64,192,262838,1,0,0:0:0:0:
320,192,262935,1,0,0:0:0:0:
448,192,262935,1,0,0:0:0:0:
192,192,263032,1,0,0:0:0:0:
64,192,263032,1,0,0:0:0:0:
320,192,263129,1,0,0:0:0:0:
448,192,263129,1,0,0:0:0:0:
192,192,263225,1,0,0:0:0:0:
64,192,263225,1,0,0:0:0:0:
320,192,263322,1,0,0:0:0:0:
448,192,263322,1,0,0:0:0:0:
192,192,263419,1,0,0:0:0:0:
64,192,263419,1,0,0:0:0:0:
320,192,263516,1,0,0:0:0:0:
448,192,263516,1,0,0:0:0:0:
192,192,263612,1,0,0:0:0:0:
64,192,263612,1,0,0:0:0:0:
320,192,263709,1,0,0:0:0:0:
448,192,263709,1,0,0:0:0:0:
192,192,263806,1,0,0:0:0:0:
64,192,263806,1,0,0:0:0:0:
320,192,263903,1,0,0:0:0:0:
448,192,263903,1,0,0:0:0:0:
192,192,263999,1,0,0:0:0:0:
64,192,263999,1,0,0:0:0:0:
448,192,264096,1,0,0:0:0:0:
320,192,264096,1,0,0:0:0:0:
192,192,264193,1,0,0:0:0:0:
64,192,264193,1,0,0:0:0:0:
320,192,264290,1,0,0:0:0:0:
448,192,264290,1,0,0:0:0:0:
192,192,264387,1,0,0:0:0:0:
64,192,264387,1,0,0:0:0:0:
320,192,264483,1,0,0:0:0:0:
448,192,264483,1,0,0:0:0:0:
192,192,264580,1,0,0:0:0:0:
64,192,264580,1,0,0:0:0:0:
320,192,264677,1,0,0:0:0:0:
448,192,264677,1,0,0:0:0:0:
192,192,264774,1,0,0:0:0:0:
64,192,264774,1,0,0:0:0:0:
320,192,264870,1,0,0:0:0:0:
448,192,264870,1,0,0:0:0:0:
192,192,264967,1,0,0:0:0:0:
64,192,264967,1,0,0:0:0:0:
448,192,265096,1,0,0:0:0:0:
320,192,265161,1,0,0:0:0:0:
192,192,265225,1,0,0:0:0:0:
64,192,265290,1,0,0:0:0:0:
320,192,265354,1,0,0:0:0:0:
448,192,265419,1,0,0:0:0:0:
64,192,265483,1,0,0:0:0:0:
192,192,265548,1,0,0:0:0:0:
320,192,265612,1,0,0:0:0:0:
448,192,265677,1,0,0:0:0:0:
192,192,265741,1,0,0:0:0:0:
64,192,265806,1,0,0:0:0:0:
448,192,265870,1,0,0:0:0:0:
320,192,265935,1,0,0:0:0:0:
192,192,265999,1,0,0:0:0:0:
64,192,266064,1,0,0:0:0:0:
320,192,266129,1,0,0:0:0:0:
448,192,266193,1,0,0:0:0:0:
64,192,266258,1,0,0:0:0:0:
192,192,266322,1,0,0:0:0:0:
320,192,266387,1,0,0:0:0:0:
448,192,266451,1,0,0:0:0:0:
192,192,266516,1,0,0:0:0:0:
64,192,266580,1,0,0:0:0:0:
448,192,266661,1,0,0:0:0:0:
320,192,266709,1,0,0:0:0:0:
192,192,266758,1,0,0:0:0:0:
64,192,266806,1,0,0:0:0:0:
448,192,266854,1,0,0:0:0:0:
320,192,266903,1,0,0:0:0:0:
192,192,266951,1,0,0:0:0:0:
64,192,266999,1,0,0:0:0:0:
448,192,267048,1,0,0:0:0:0:
320,192,267096,1,0,0:0:0:0:
192,192,267145,1,0,0:0:0:0:
64,192,267193,1,0,0:0:0:0:
448,192,267241,1,0,0:0:0:0:
320,192,267290,1,0,0:0:0:0:
192,192,267338,1,0,0:0:0:0:
64,192,267387,128,0,267774:0:0:0:0:
448,192,267483,1,0,0:0:0:0:
320,192,267580,1,0,0:0:0:0:
192,192,267677,1,0,0:0:0:0:
320,192,267774,1,0,0:0:0:0:
448,192,267774,128,0,268161:0:0:0:0:
64,192,267870,1,0,0:0:0:0:
192,192,267967,1,0,0:0:0:0:
320,192,268064,1,0,0:0:0:0:
64,192,268161,1,0,0:0:0:0:
192,192,268161,1,0,0:0:0:0:
320,192,268451,1,0,0:0:0:0:
320,192,268548,1,0,0:0:0:0:
64,192,268838,1,0,0:0:0:0:
64,192,268935,128,0,269129:0:0:0:0:
192,192,269225,1,0,0:0:0:0:
192,192,269322,128,0,269516:0:0:0:0:
320,192,269516,128,0,269709:0:0:0:0:
192,192,269709,128,0,269999:0:0:0:0:
448,192,269999,1,0,0:0:0:0:
448,192,270096,1,0,0:0:0:0:
64,192,270387,1,0,0:0:0:0:
64,192,270483,1,0,0:0:0:0:
64,192,271258,1,0,0:0:0:0:
192,192,271258,1,0,0:0:0:0:
448,192,271258,1,0,0:0:0:0:
320,192,271451,1,0,0:0:0:0:
64,192,271645,1,0,0:0:0:0:
448,192,271645,1,0,0:0:0:0:
192,192,271741,1,0,0:0:0:0:
320,192,271838,1,0,0:0:0:0:
448,192,271935,1,0,0:0:0:0:
320,192,272032,1,0,0:0:0:0:
192,192,272032,1,0,0:0:0:0:
64,192,272032,128,0,272419:0:0:0:0:
448,192,272129,1,0,0:0:0:0:
320,192,272225,1,0,0:0:0:0:
192,192,272322,1,0,0:0:0:0:
320,192,272419,1,0,0:0:0:0:
448,192,272419,1,0,0:0:0:0:
192,192,272516,1,0,0:0:0:0:
64,192,272612,1,0,0:0:0:0:
448,192,272709,1,0,0:0:0:0:
320,192,272806,1,0,0:0:0:0:
64,192,272806,1,0,0:0:0:0:
192,192,272806,128,0,273193:0:0:0:0:
448,192,272903,1,0,0:0:0:0:
320,192,272999,1,0,0:0:0:0:
64,192,273096,1,0,0:0:0:0:
320,192,273193,1,0,0:0:0:0:
448,192,273193,1,0,0:0:0:0:
64,192,273290,1,0,0:0:0:0:
192,192,273387,1,0,0:0:0:0:
320,192,273483,1,0,0:0:0:0:
448,192,273580,1,0,0:0:0:0:
64,192,273580,1,0,0:0:0:0:
320,192,273677,1,0,0:0:0:0:
192,192,273774,1,0,0:0:0:0:
64,192,273870,1,0,0:0:0:0:
192,192,273967,1,0,0:0:0:0:
448,192,273967,1,0,0:0:0:0:
320,192,274064,1,0,0:0:0:0:
192,192,274161,1,0,0:0:0:0:
64,192,274258,1,0,0:0:0:0:
192,192,274354,1,0,0:0:0:0:
320,192,274354,1,0,0:0:0:0:
448,192,274354,128,0,274741:0:0:0:0:
64,192,274451,1,0,0:0:0:0:
320,192,274548,1,0,0:0:0:0:
192,192,274645,1,0,0:0:0:0:
64,192,274741,1,0,0:0:0:0:
320,192,274741,1,0,0:0:0:0:
192,192,274838,1,0,0:0:0:0:
320,192,274935,1,0,0:0:0:0:
448,192,275032,1,0,0:0:0:0:
320,192,275129,1,0,0:0:0:0:
192,192,275129,1,0,0:0:0:0:
64,192,275129,128,0,275516:0:0:0:0:
448,192,275225,1,0,0:0:0:0:
192,192,275322,1,0,0:0:0:0:
320,192,275419,1,0,0:0:0:0:
448,192,275516,1,0,0:0:0:0:
192,192,275516,1,0,0:0:0:0:
320,192,275612,1,0,0:0:0:0:
192,192,275709,1,0,0:0:0:0:
64,192,275806,1,0,0:0:0:0:
192,192,275903,1,0,0:0:0:0:
320,192,275903,1,0,0:0:0:0:
448,192,275903,128,0,276290:0:0:0:0:
64,192,275999,1,0,0:0:0:0:
320,192,276096,1,0,0:0:0:0:
192,192,276193,1,0,0:0:0:0:
64,192,276290,1,0,0:0:0:0:
320,192,276290,1,0,0:0:0:0:
192,192,276387,1,0,0:0:0:0:
320,192,276483,1,0,0:0:0:0:
448,192,276580,1,0,0:0:0:0:
320,192,276677,1,0,0:0:0:0:
64,192,276677,1,0,0:0:0:0:
192,192,276774,1,0,0:0:0:0:
320,192,276870,1,0,0:0:0:0:
448,192,276967,1,0,0:0:0:0:
320,192,277064,1,0,0:0:0:0:
192,192,277064,1,0,0:0:0:0:
64,192,277161,1,0,0:0:0:0:
192,192,277258,1,0,0:0:0:0:
320,192,277354,1,0,0:0:0:0:
448,192,277451,1,0,0:0:0:0:
64,192,277451,1,0,0:0:0:0:
192,192,277451,128,0,277838:0:0:0:0:
320,192,277548,1,0,0:0:0:0:
448,192,277645,1,0,0:0:0:0:
320,192,277741,1,0,0:0:0:0:
448,192,277838,1,0,0:0:0:0:
64,192,277838,1,0,0:0:0:0:
320,192,277935,1,0,0:0:0:0:
192,192,278032,1,0,0:0:0:0:
64,192,278129,1,0,0:0:0:0:
448,192,278225,1,0,0:0:0:0:
192,192,278225,1,0,0:0:0:0:
320,192,278225,128,0,278612:0:0:0:0:
64,192,278322,1,0,0:0:0:0:
448,192,278419,1,0,0:0:0:0:
192,192,278516,1,0,0:0:0:0:
64,192,278612,1,0,0:0:0:0:
448,192,278612,1,0,0:0:0:0:
192,192,278709,1,0,0:0:0:0:
320,192,278806,1,0,0:0:0:0:
448,192,278903,1,0,0:0:0:0:
320,192,278999,1,0,0:0:0:0:
64,192,278999,1,0,0:0:0:0:
192,192,278999,128,0,279387:0:0:0:0:
448,192,279096,1,0,0:0:0:0:
320,192,279193,1,0,0:0:0:0:
448,192,279290,1,0,0:0:0:0:
320,192,279387,1,0,0:0:0:0:
64,192,279387,1,0,0:0:0:0:
448,192,279483,1,0,0:0:0:0:
320,192,279580,1,0,0:0:0:0:
192,192,279677,1,0,0:0:0:0:
64,192,279774,1,0,0:0:0:0:
448,192,279774,1,0,0:0:0:0:
192,192,279870,1,0,0:0:0:0:
320,192,279967,1,0,0:0:0:0:
448,192,280064,1,0,0:0:0:0:
320,192,280161,1,0,0:0:0:0:
192,192,280161,1,0,0:0:0:0:
64,192,280258,1,0,0:0:0:0:
192,192,280354,1,0,0:0:0:0:
320,192,280451,1,0,0:0:0:0:
448,192,280548,1,0,0:0:0:0:
64,192,280548,128,0,280935:0:0:0:0:
192,192,280548,1,0,0:0:0:0:
320,192,280645,1,0,0:0:0:0:
448,192,280741,1,0,0:0:0:0:
320,192,280838,1,0,0:0:0:0:
192,192,280935,1,0,0:0:0:0:
448,192,280935,1,0,0:0:0:0:
320,192,281032,1,0,0:0:0:0:
192,192,281129,1,0,0:0:0:0:
64,192,281225,1,0,0:0:0:0:
192,192,281322,1,0,0:0:0:0:
320,192,281322,1,0,0:0:0:0:
448,192,281322,128,0,281709:0:0:0:0:
64,192,281419,1,0,0:0:0:0:
192,192,281516,1,0,0:0:0:0:
64,192,281612,1,0,0:0:0:0:
192,192,281709,1,0,0:0:0:0:
320,192,281709,1,0,0:0:0:0:
64,192,281806,1,0,0:0:0:0:
192,192,281903,1,0,0:0:0:0:
320,192,281999,1,0,0:0:0:0:
448,192,282096,1,0,0:0:0:0:
64,192,282096,128,0,282870:0:0:0:0:
192,192,282096,1,0,0:0:0:0:
320,192,282193,1,0,0:0:0:0:
192,192,282290,1,0,0:0:0:0:
320,192,282387,1,0,0:0:0:0:
448,192,282483,1,0,0:0:0:0:
192,192,282483,1,0,0:0:0:0:
320,192,282580,1,0,0:0:0:0:
448,192,282677,1,0,0:0:0:0:
320,192,282774,1,0,0:0:0:0:
192,192,282870,1,0,0:0:0:0:
448,192,282870,1,0,0:0:0:0:
320,192,283064,1,0,0:0:0:0:
64,192,283064,1,0,0:0:0:0:
192,192,283258,1,0,0:0:0:0:
448,192,283258,1,0,0:0:0:0:
64,192,283419,1,0,0:0:0:0:
192,192,283483,1,0,0:0:0:0:
320,192,283548,1,0,0:0:0:0:
448,192,283612,1,0,0:0:0:0:
64,192,283677,1,0,0:0:0:0:
192,192,283677,1,0,0:0:0:0:
320,192,283677,1,0,0:0:0:0:
448,192,283838,1,0,0:0:0:0:
320,192,283935,1,0,0:0:0:0:
192,192,284032,1,0,0:0:0:0:
64,192,284032,1,0,0:0:0:0:
320,192,284129,1,0,0:0:0:0:
192,192,284225,1,0,0:0:0:0:
320,192,284322,1,0,0:0:0:0:
64,192,284419,1,0,0:0:0:0:
192,192,284419,1,0,0:0:0:0:
448,192,284419,128,0,284806:0:0:0:0:
320,192,284516,1,0,0:0:0:0:
192,192,284612,1,0,0:0:0:0:
320,192,284709,1,0,0:0:0:0:
192,192,284806,1,0,0:0:0:0:
64,192,284806,1,0,0:0:0:0:
320,192,284903,1,0,0:0:0:0:
192,192,284999,1,0,0:0:0:0:
320,192,285096,1,0,0:0:0:0:
448,192,285193,1,0,0:0:0:0:
192,192,285193,1,0,0:0:0:0:
64,192,285193,128,0,285580:0:0:0:0:
320,192,285290,1,0,0:0:0:0:
192,192,285387,1,0,0:0:0:0:
320,192,285483,1,0,0:0:0:0:
448,192,285580,1,0,0:0:0:0:
192,192,285580,1,0,0:0:0:0:
320,192,285677,1,0,0:0:0:0:
192,192,285774,1,0,0:0:0:0:
64,192,285870,1,0,0:0:0:0:
192,192,285967,1,0,0:0:0:0:
448,192,285967,1,0,0:0:0:0:
320,192,286064,1,0,0:0:0:0:
192,192,286161,1,0,0:0:0:0:
64,192,286258,1,0,0:0:0:0:
192,192,286354,1,0,0:0:0:0:
320,192,286354,1,0,0:0:0:0:
448,192,286451,1,0,0:0:0:0:
320,192,286548,1,0,0:0:0:0:
192,192,286645,1,0,0:0:0:0:
64,192,286741,1,0,0:0:0:0:
448,192,286741,128,0,287129:0:0:0:0:
320,192,286741,1,0,0:0:0:0:
192,192,286838,1,0,0:0:0:0:
320,192,286935,1,0,0:0:0:0:
192,192,287032,1,0,0:0:0:0:
64,192,287129,1,0,0:0:0:0:
320,192,287129,1,0,0:0:0:0:
192,192,287225,1,0,0:0:0:0:
320,192,287322,1,0,0:0:0:0:
448,192,287419,1,0,0:0:0:0:
320,192,287516,1,0,0:0:0:0:
64,192,287516,128,0,287903:0:0:0:0:
192,192,287516,1,0,0:0:0:0:
448,192,287612,1,0,0:0:0:0:
320,192,287709,1,0,0:0:0:0:
192,192,287806,1,0,0:0:0:0:
320,192,287903,1,0,0:0:0:0:
448,192,287903,1,0,0:0:0:0:
192,192,287999,1,0,0:0:0:0:
64,192,288096,1,0,0:0:0:0:
448,192,288193,1,0,0:0:0:0:
320,192,288290,1,0,0:0:0:0:
192,192,288290,1,0,0:0:0:0:
64,192,288387,1,0,0:0:0:0:
192,192,288483,1,0,0:0:0:0:
320,192,288580,1,0,0:0:0:0:
64,192,288677,1,0,0:0:0:0:
448,192,288677,1,0,0:0:0:0:
320,192,288774,1,0,0:0:0:0:
192,192,288870,1,0,0:0:0:0:
64,192,288967,1,0,0:0:0:0:
192,192,289064,1,0,0:0:0:0:
448,192,289064,1,0,0:0:0:0:
320,192,289161,1,0,0:0:0:0:
448,192,289258,1,0,0:0:0:0:
320,192,289354,1,0,0:0:0:0:
192,192,289451,1,0,0:0:0:0:
64,192,289451,1,0,0:0:0:0:
320,192,289548,1,0,0:0:0:0:
448,192,289645,1,0,0:0:0:0:
64,192,289741,1,0,0:0:0:0:
192,192,289838,1,0,0:0:0:0:
320,192,289838,1,0,0:0:0:0:
448,192,289838,1,0,0:0:0:0:
64,192,289935,1,0,0:0:0:0:
192,192,290032,1,0,0:0:0:0:
320,192,290129,1,0,0:0:0:0:
192,192,290225,1,0,0:0:0:0:
448,192,290225,1,0,0:0:0:0:
320,192,290322,1,0,0:0:0:0:
192,192,290419,1,0,0:0:0:0:
64,192,290516,1,0,0:0:0:0:
192,192,290612,1,0,0:0:0:0:
448,192,290612,1,0,0:0:0:0:
320,192,290612,128,0,290999:0:0:0:0:
64,192,290709,1,0,0:0:0:0:
192,192,290806,1,0,0:0:0:0:
448,192,290903,1,0,0:0:0:0:
192,192,290999,1,0,0:0:0:0:
64,192,290999,1,0,0:0:0:0:
448,192,291096,1,0,0:0:0:0:
320,192,291193,1,0,0:0:0:0:
192,192,291290,1,0,0:0:0:0:
64,192,291387,1,0,0:0:0:0:
320,192,291387,1,0,0:0:0:0:
448,192,291387,1,0,0:0:0:0:
192,192,291483,1,0,0:0:0:0:
320,192,291580,1,0,0:0:0:0:
448,192,291677,1,0,0:0:0:0:
320,192,291774,1,0,0:0:0:0:
192,192,291774,1,0,0:0:0:0:
64,192,291870,1,0,0:0:0:0:
192,192,291967,1,0,0:0:0:0:
320,192,292064,1,0,0:0:0:0:
448,192,292161,1,0,0:0:0:0:
64,192,292161,1,0,0:0:0:0:
320,192,292258,1,0,0:0:0:0:
192,192,292354,1,0,0:0:0:0:
64,192,292451,1,0,0:0:0:0:
192,192,292548,1,0,0:0:0:0:
448,192,292548,1,0,0:0:0:0:
320,192,292645,1,0,0:0:0:0:
64,192,292645,1,0,0:0:0:0:
192,192,292741,1,0,0:0:0:0:
448,192,292741,1,0,0:0:0:0:
320,192,292838,1,0,0:0:0:0:
64,192,292838,1,0,0:0:0:0:
192,192,292935,1,0,0:0:0:0:
448,192,292935,1,0,0:0:0:0:
192,192,293129,1,0,0:0:0:0:
320,192,293129,1,0,0:0:0:0:
64,192,293322,1,0,0:0:0:0:
448,192,293322,1,0,0:0:0:0:
192,192,293516,1,0,0:0:0:0:
320,192,293516,1,0,0:0:0:0:
448,192,293709,1,0,0:0:0:0:
64,192,293709,1,0,0:0:0:0:
320,192,293709,1,0,0:0:0:0:
192,192,293903,1,0,0:0:0:0:
320,192,293903,1,0,0:0:0:0:
64,192,294096,1,0,0:0:0:0:
192,192,294096,1,0,0:0:0:0:
320,192,294193,1,0,0:0:0:0:
448,192,294193,1,0,0:0:0:0:
192,192,294290,1,0,0:0:0:0:
64,192,294290,1,0,0:0:0:0:
320,192,294387,1,0,0:0:0:0:
448,192,294387,1,0,0:0:0:0:
192,192,294483,1,0,0:0:0:0:
64,192,294483,1,0,0:0:0:0:
448,192,294483,1,0,0:0:0:0:
320,192,295645,1,0,0:0:0:0:
448,192,295645,1,0,0:0:0:0:
448,192,296032,1,0,0:0:0:0:
64,192,296032,1,0,0:0:0:0:
192,192,296032,1,0,0:0:0:0:
320,192,296129,1,0,0:0:0:0:
192,192,296225,1,0,0:0:0:0:
64,192,296322,1,0,0:0:0:0:
192,192,296419,1,0,0:0:0:0:
320,192,296419,1,0,0:0:0:0:
448,192,296419,1,0,0:0:0:0:
64,192,296516,1,0,0:0:0:0:
192,192,296612,1,0,0:0:0:0:
320,192,296709,1,0,0:0:0:0:
448,192,296806,1,0,0:0:0:0:
64,192,296806,1,0,0:0:0:0:
320,192,296903,1,0,0:0:0:0:
192,192,296999,1,0,0:0:0:0:
320,192,297096,1,0,0:0:0:0:
192,192,297193,1,0,0:0:0:0:
448,192,297193,1,0,0:0:0:0:
64,192,297193,1,0,0:0:0:0:
320,192,297290,1,0,0:0:0:0:
192,192,297387,1,0,0:0:0:0:
64,192,297483,1,0,0:0:0:0:
448,192,297580,1,0,0:0:0:0:
192,192,297580,1,0,0:0:0:0:
320,192,297677,1,0,0:0:0:0:
192,192,297774,1,0,0:0:0:0:
320,192,297870,1,0,0:0:0:0:
448,192,297967,1,0,0:0:0:0:
64,192,297967,1,0,0:0:0:0:
192,192,297967,1,0,0:0:0:0:
320,192,298064,1,0,0:0:0:0:
192,192,298161,1,0,0:0:0:0:
320,192,298258,1,0,0:0:0:0:
64,192,298354,1,0,0:0:0:0:
448,192,298354,1,0,0:0:0:0:
192,192,298451,1,0,0:0:0:0:
320,192,298548,1,0,0:0:0:0:
192,192,298645,1,0,0:0:0:0:
64,192,298741,1,0,0:0:0:0:
320,192,298741,1,0,0:0:0:0:
448,192,298741,1,0,0:0:0:0:
192,192,298838,1,0,0:0:0:0:
320,192,298935,1,0,0:0:0:0:
448,192,299032,1,0,0:0:0:0:
320,192,299129,1,0,0:0:0:0:
64,192,299129,1,0,0:0:0:0:
192,192,299225,1,0,0:0:0:0:
320,192,299322,1,0,0:0:0:0:
448,192,299419,1,0,0:0:0:0:
320,192,299516,1,0,0:0:0:0:
192,192,299516,1,0,0:0:0:0:
64,192,299516,1,0,0:0:0:0:
448,192,299612,1,0,0:0:0:0:
320,192,299709,1,0,0:0:0:0:
192,192,299806,1,0,0:0:0:0:
64,192,299903,1,0,0:0:0:0:
448,192,299903,1,0,0:0:0:0:
192,192,299999,1,0,0:0:0:0:
320,192,300096,1,0,0:0:0:0:
448,192,300193,1,0,0:0:0:0:
320,192,300290,1,0,0:0:0:0:
64,192,300290,1,0,0:0:0:0:
192,192,300290,1,0,0:0:0:0:
448,192,300387,1,0,0:0:0:0:
320,192,300483,1,0,0:0:0:0:
192,192,300580,1,0,0:0:0:0:
64,192,300677,1,0,0:0:0:0:
448,192,300677,1,0,0:0:0:0:
192,192,300774,1,0,0:0:0:0:
320,192,300870,1,0,0:0:0:0:
192,192,300967,1,0,0:0:0:0:
64,192,301064,1,0,0:0:0:0:
320,192,301064,1,0,0:0:0:0:
448,192,301064,1,0,0:0:0:0:
192,192,301161,1,0,0:0:0:0:
320,192,301258,1,0,0:0:0:0:
448,192,301354,1,0,0:0:0:0:
320,192,301451,1,0,0:0:0:0:
192,192,301451,1,0,0:0:0:0:
64,192,301548,1,0,0:0:0:0:
192,192,301645,1,0,0:0:0:0:
320,192,301741,1,0,0:0:0:0:
448,192,301838,1,0,0:0:0:0:
64,192,301838,1,0,0:0:0:0:
192,192,301838,1,0,0:0:0:0:
320,192,301935,1,0,0:0:0:0:
192,192,302032,1,0,0:0:0:0:
320,192,302129,1,0,0:0:0:0:
448,192,302225,1,0,0:0:0:0:
64,192,302225,1,0,0:0:0:0:
320,192,302322,1,0,0:0:0:0:
192,192,302419,1,0,0:0:0:0:
64,192,302516,1,0,0:0:0:0:
192,192,302612,1,0,0:0:0:0:
320,192,302612,1,0,0:0:0:0:
448,192,302612,1,0,0:0:0:0:
64,192,302709,1,0,0:0:0:0:
192,192,302806,1,0,0:0:0:0:
320,192,302903,1,0,0:0:0:0:
192,192,302999,1,0,0:0:0:0:
64,192,302999,1,0,0:0:0:0:
448,192,303096,1,0,0:0:0:0:
320,192,303193,1,0,0:0:0:0:
192,192,303290,1,0,0:0:0:0:
64,192,303387,1,0,0:0:0:0:
320,192,303387,1,0,0:0:0:0:
448,192,303387,1,0,0:0:0:0:
192,192,303483,1,0,0:0:0:0:
320,192,303580,1,0,0:0:0:0:
192,192,303677,1,0,0:0:0:0:
64,192,303774,1,0,0:0:0:0:
448,192,303774,1,0,0:0:0:0:
192,192,303870,1,0,0:0:0:0:
320,192,303967,1,0,0:0:0:0:
192,192,304064,1,0,0:0:0:0:
64,192,304161,1,0,0:0:0:0:
320,192,304161,1,0,0:0:0:0:
448,192,304161,1,0,0:0:0:0:
192,192,304258,1,0,0:0:0:0:
320,192,304354,1,0,0:0:0:0:
448,192,304451,1,0,0:0:0:0:
320,192,304548,1,0,0:0:0:0:
192,192,304548,1,0,0:0:0:0:
64,192,304645,1,0,0:0:0:0:
192,192,304741,1,0,0:0:0:0:
320,192,304838,1,0,0:0:0:0:
448,192,304935,1,0,0:0:0:0:
192,192,304935,1,0,0:0:0:0:
64,192,304935,1,0,0:0:0:0:
320,192,305032,1,0,0:0:0:0:
192,192,305129,1,0,0:0:0:0:
64,192,305225,1,0,0:0:0:0:
192,192,305322,1,0,0:0:0:0:
320,192,305322,1,0,0:0:0:0:
448,192,305419,1,0,0:0:0:0:
320,192,305516,1,0,0:0:0:0:
448,192,305612,1,0,0:0:0:0:
320,192,305709,1,0,0:0:0:0:
192,192,305709,1,0,0:0:0:0:
64,192,305709,1,0,0:0:0:0:
448,192,305806,1,0,0:0:0:0:
320,192,305903,1,0,0:0:0:0:
448,192,305999,1,0,0:0:0:0:
320,192,306096,1,0,0:0:0:0:
64,192,306096,1,0,0:0:0:0:
192,192,306193,1,0,0:0:0:0:
64,192,306290,1,0,0:0:0:0:
192,192,306387,1,0,0:0:0:0:
448,192,306483,1,0,0:0:0:0:
320,192,306483,1,0,0:0:0:0:
64,192,306483,1,0,0:0:0:0:
192,192,306580,1,0,0:0:0:0:
64,192,306677,1,0,0:0:0:0:
192,192,306774,1,0,0:0:0:0:
320,192,306870,1,0,0:0:0:0:
448,192,306870,1,0,0:0:0:0:
192,192,306967,1,0,0:0:0:0:
64,192,307064,1,0,0:0:0:0:
192,192,307161,1,0,0:0:0:0:
64,192,307258,1,0,0:0:0:0:
448,192,307258,1,0,0:0:0:0:
320,192,307354,1,0,0:0:0:0:
192,192,307451,1,0,0:0:0:0:
64,192,307548,1,0,0:0:0:0:
192,192,307645,1,0,0:0:0:0:
448,192,307645,1,0,0:0:0:0:
320,192,307838,1,0,0:0:0:0:
64,192,307838,1,0,0:0:0:0:
448,192,307999,1,0,0:0:0:0:
320,192,308064,1,0,0:0:0:0:
64,192,308129,1,0,0:0:0:0:
192,192,308193,1,0,0:0:0:0:
448,192,308258,1,0,0:0:0:0:
320,192,308258,1,0,0:0:0:0:
192,192,308322,1,0,0:0:0:0:
64,192,308322,1,0,0:0:0:0:
320,192,308387,1,0,0:0:0:0:
448,192,308387,1,0,0:0:0:0:
192,192,308516,1,0,0:0:0:0:
64,192,308612,1,0,0:0:0:0:
192,192,308709,1,0,0:0:0:0:
320,192,308806,1,0,0:0:0:0:
448,192,308806,1,0,0:0:0:0:
192,192,308903,1,0,0:0:0:0:
64,192,308999,1,0,0:0:0:0:
192,192,309096,1,0,0:0:0:0:
320,192,309193,1,0,0:0:0:0:
64,192,309193,1,0,0:0:0:0:
448,192,309290,1,0,0:0:0:0:
320,192,309387,1,0,0:0:0:0:
192,192,309483,1,0,0:0:0:0:
64,192,309580,1,0,0:0:0:0:
448,192,309580,1,0,0:0:0:0:
320,192,309580,1,0,0:0:0:0:
192,192,309677,1,0,0:0:0:0:
320,192,309774,1,0,0:0:0:0:
448,192,309870,1,0,0:0:0:0:
320,192,309967,1,0,0:0:0:0:
192,192,309967,1,0,0:0:0:0:
64,192,310064,1,0,0:0:0:0:
192,192,310161,1,0,0:0:0:0:
320,192,310258,1,0,0:0:0:0:
448,192,310354,1,0,0:0:0:0:
64,192,310354,1,0,0:0:0:0:
192,192,310354,1,0,0:0:0:0:
320,192,310451,1,0,0:0:0:0:
192,192,310548,1,0,0:0:0:0:
64,192,310645,1,0,0:0:0:0:
192,192,310741,1,0,0:0:0:0:
448,192,310741,1,0,0:0:0:0:
320,192,310838,1,0,0:0:0:0:
192,192,310935,1,0,0:0:0:0:
64,192,311032,1,0,0:0:0:0:
192,192,311129,1,0,0:0:0:0:
320,192,311129,1,0,0:0:0:0:
448,192,311225,1,0,0:0:0:0:
320,192,311322,1,0,0:0:0:0:
192,192,311419,1,0,0:0:0:0:
64,192,311516,1,0,0:0:0:0:
448,192,311516,1,0,0:0:0:0:
320,192,311612,1,0,0:0:0:0:
192,192,311709,1,0,0:0:0:0:
320,192,311806,1,0,0:0:0:0:
192,192,311903,1,0,0:0:0:0:
448,192,311903,1,0,0:0:0:0:
64,192,311903,1,0,0:0:0:0:
320,192,311999,1,0,0:0:0:0:
192,192,312096,1,0,0:0:0:0:
64,192,312193,1,0,0:0:0:0:
192,192,312290,1,0,0:0:0:0:
320,192,312290,1,0,0:0:0:0:
448,192,312387,1,0,0:0:0:0:
64,192,312483,1,0,0:0:0:0:
448,192,312580,1,0,0:0:0:0:
320,192,312677,1,0,0:0:0:0:
192,192,312677,1,0,0:0:0:0:
64,192,312677,1,0,0:0:0:0:
448,192,312774,1,0,0:0:0:0:
320,192,312870,1,0,0:0:0:0:
192,192,312967,1,0,0:0:0:0:
64,192,313064,1,0,0:0:0:0:
320,192,313064,1,0,0:0:0:0:
448,192,313161,1,0,0:0:0:0:
64,192,313258,1,0,0:0:0:0:
448,192,313354,1,0,0:0:0:0:
320,192,313451,1,0,0:0:0:0:
192,192,313451,1,0,0:0:0:0:
64,192,313548,1,0,0:0:0:0:
448,192,313645,1,0,0:0:0:0:
64,192,313741,1,0,0:0:0:0:
320,192,313838,1,0,0:0:0:0:
448,192,313838,1,0,0:0:0:0:
192,192,313935,1,0,0:0:0:0:
320,192,314032,1,0,0:0:0:0:
192,192,314129,1,0,0:0:0:0:
64,192,314225,1,0,0:0:0:0:
448,192,314225,1,0,0:0:0:0:
320,192,314225,1,0,0:0:0:0:
192,192,314322,1,0,0:0:0:0:
320,192,314419,1,0,0:0:0:0:
64,192,314419,1,0,0:0:0:0:
192,192,314516,1,0,0:0:0:0:
64,192,314612,1,0,0:0:0:0:
448,192,314612,1,0,0:0:0:0:
320,192,314612,1,0,0:0:0:0:
192,192,314709,1,0,0:0:0:0:
320,192,314806,1,0,0:0:0:0:
448,192,314903,1,0,0:0:0:0:
320,192,314999,1,0,0:0:0:0:
192,192,314999,1,0,0:0:0:0:
64,192,315096,1,0,0:0:0:0:
192,192,315193,1,0,0:0:0:0:
320,192,315290,1,0,0:0:0:0:
448,192,315387,1,0,0:0:0:0:
64,192,315387,1,0,0:0:0:0:
320,192,315483,1,0,0:0:0:0:
192,192,315580,1,0,0:0:0:0:
64,192,315677,1,0,0:0:0:0:
192,192,315774,1,0,0:0:0:0:
320,192,315774,1,0,0:0:0:0:
448,192,315774,1,0,0:0:0:0:
64,192,315870,1,0,0:0:0:0:
192,192,315967,1,0,0:0:0:0:
320,192,315967,1,0,0:0:0:0:
448,192,316064,1,0,0:0:0:0:
320,192,316161,1,0,0:0:0:0:
192,192,316161,1,0,0:0:0:0:
448,192,316258,1,0,0:0:0:0:
320,192,316354,1,0,0:0:0:0:
192,192,316451,1,0,0:0:0:0:
64,192,316548,1,0,0:0:0:0:
448,192,316548,1,0,0:0:0:0:
192,192,316645,1,0,0:0:0:0:
320,192,316741,1,0,0:0:0:0:
448,192,316838,1,0,0:0:0:0:
320,192,316935,1,0,0:0:0:0:
192,192,316935,1,0,0:0:0:0:
64,192,317032,1,0,0:0:0:0:
192,192,317129,1,0,0:0:0:0:
320,192,317225,1,0,0:0:0:0:
448,192,317322,1,0,0:0:0:0:
192,192,317322,1,0,0:0:0:0:
64,192,317322,1,0,0:0:0:0:
320,192,317516,1,0,0:0:0:0:
448,192,317516,1,0,0:0:0:0:
192,192,317612,1,0,0:0:0:0:
64,192,317612,1,0,0:0:0:0:
320,192,317709,1,0,0:0:0:0:
448,192,317709,1,0,0:0:0:0:
64,192,317806,1,0,0:0:0:0:
192,192,317870,1,0,0:0:0:0:
320,192,317935,1,0,0:0:0:0:
448,192,317999,1,0,0:0:0:0:
192,192,318064,1,0,0:0:0:0:
64,192,318129,1,0,0:0:0:0:
448,192,318193,1,0,0:0:0:0:
320,192,318258,1,0,0:0:0:0:
192,192,318322,1,0,0:0:0:0:
64,192,318387,1,0,0:0:0:0:
320,192,318451,1,0,0:0:0:0:
448,192,318516,1,0,0:0:0:0:
64,192,318580,1,0,0:0:0:0:
192,192,318645,1,0,0:0:0:0:
320,192,318709,1,0,0:0:0:0:
448,192,318774,1,0,0:0:0:0:
192,192,318838,1,0,0:0:0:0:
64,192,318903,1,0,0:0:0:0:
448,192,318967,1,0,0:0:0:0:
320,192,319032,1,0,0:0:0:0:
192,192,319096,1,0,0:0:0:0:
64,192,319161,1,0,0:0:0:0:
320,192,319225,1,0,0:0:0:0:
448,192,319225,1,0,0:0:0:0:
64,192,319354,1,0,0:0:0:0:
192,192,319451,1,0,0:0:0:0:
320,192,319548,1,0,0:0:0:0:
192,192,319645,1,0,0:0:0:0:
320,192,319741,1,0,0:0:0:0:
448,192,319838,1,0,0:0:0:0:
320,192,319935,1,0,0:0:0:0:
192,192,320032,1,0,0:0:0:0:
320,192,320129,1,0,0:0:0:0:
192,192,320225,1,0,0:0:0:0:
64,192,320322,1,0,0:0:0:0:
192,192,320419,1,0,0:0:0:0:
320,192,320516,1,0,0:0:0:0:
448,192,320612,1,0,0:0:0:0:
320,192,320709,1,0,0:0:0:0:
