osu file format v14

[General]
AudioFilename: audio.mp3
AudioLeadIn: 0
PreviewTime: 72567
Countdown: 0
SampleSet: Soft
StackLeniency: 0.7
Mode: 0
LetterboxInBreaks: 0
WidescreenStoryboard: 0

[Editor]
Bookmarks: 14456,28789,42900,57233,73122,105233,119678,133567,147789,162011,178011,192233,206456,238456,254456,268789,282900
DistanceSpacing: 0.8
BeatDivisor: 4
GridSize: 4
TimelineZoom: 2

[Metadata]
Title:Cornelia
TitleUnicode:Cornelia
Artist:Halozy
ArtistUnicode:Halozy
Creator:CelsiusLK
Version:Lunatic
Source:東方紺珠伝 ~ Legacy of Lunatic Kingdom.
Tags:clownpiece touhou grandslam Nagao Chiemi 長尾ちえみ crouka Comiket 91 The Pierrot of the Star-Spangled Banner 星条旗のピエロ
BeatmapID:1405739
BeatmapSetID:664196

[Difficulty]
HPDrainRate:6
CircleSize:4.5
OverallDifficulty:7.5
ApproachRate:9
SliderMultiplier:1.8
SliderTickRate:2

[Events]
//Background and Video events
0,0,"flip.jpg",0,0
//Break Periods
//Storyboard Layer 0 (Background)
//Storyboard Layer 1 (Fail)
//Storyboard Layer 2 (Pass)
//Storyboard Layer 3 (Foreground)
//Storyboard Sound Samples

[TimingPoints]
234,444.444444444444,4,2,1,50,1,0
234,-100,4,2,1,50,0,0
6900,-66.6666666666667,4,2,1,50,0,0
7345,-100,4,2,1,50,0,0
12678,-100,4,2,1,70,0,0
14456,-100,4,2,1,80,0,0
30122,-100,4,2,1,40,0,0
30456,-100,4,2,1,80,0,0
31900,-100,4,2,1,40,0,0
32233,-100,4,2,1,80,0,0
34122,-100,4,2,1,40,0,0
34456,-100,4,2,1,80,0,0
35456,-100,4,2,1,40,0,0
35789,-100,4,2,1,80,0,0
37678,-100,4,2,1,40,0,0
38011,-100,4,2,1,80,0,0
73122,-100,4,2,1,90,0,1
87233,-100,4,2,1,90,0,0
87345,-83.3333333333333,4,2,1,60,0,1
89789,-100,4,2,1,60,0,1
90456,-83.3333333333333,4,2,1,60,0,1
94456,-100,4,2,1,90,0,1
101567,-100,4,2,1,70,0,0
105122,-100,4,2,1,80,0,0
119345,-133.333333333333,4,2,1,60,0,0
133567,-100,4,2,1,80,0,0
162122,-100,4,2,1,40,0,0
174456,-100,4,2,1,50,0,0
178011,-166.666666666667,4,2,1,40,0,0
192233,-166.666666666667,4,2,1,50,0,0
202456,-166.666666666667,4,2,1,40,0,0
204678,-166.666666666667,4,2,1,50,0,0
206456,-166.666666666667,4,2,1,60,0,1
206567,-166.666666666667,4,2,1,60,0,0
220678,-166.666666666667,4,2,1,60,0,1
220789,-166.666666666667,4,2,1,60,0,0
239789,-166.666666666667,4,2,1,80,0,0
240233,-100,4,2,1,90,0,1
254345,-100,4,2,1,60,0,0
254456,-83.3333333333333,4,2,1,60,0,1
256900,-100,4,2,1,60,0,1
257567,-83.3333333333333,4,2,1,60,0,1
261567,-100,4,2,1,90,0,1
268678,-100,4,2,1,80,0,0
271789,-66.6666666666667,4,2,1,80,0,0
272233,-100,4,2,1,80,0,0
278900,-66.6666666666667,4,2,1,80,0,0
279345,-100,4,2,1,80,0,0
297122,-100,4,2,1,50,0,0
300233,-166.666666666667,4,2,1,50,0,0
300900,-166.666666666667,4,2,1,20,0,0

[Colours]
Combo1 : 255,98,176
Combo2 : 255,128,128
Combo3 : 35,179,180
Combo4 : 255,255,168

[HitObjects]
196,144,234,6,0,L|212:55,1,90,4|0,0:0|0:0,0:0:0:0:
340,188,678,2,0,L|356:296,1,90,2|0,0:0|0:0,0:0:0:0:
142,239,1122,2,0,L|232:252,1,90,2|0,0:0|0:0,0:0:0:0:
392,92,1567,2,0,L|303:105,1,90,2|0,0:0|0:0,0:0:0:0:
160,160,2011,6,0,L|70:148,1,90,2|0,0:0|0:0,0:0:0:0:
300,236,2456,2,0,L|389:229,1,90,2|0,0:0|0:0,0:0:0:0:
188,264,2900,2,0,L|168:368,1,90,2|0,0:0|0:0,0:0:0:0:
0,231,3345,2,0,P|43:227|88:236,1,90,2|0,0:0|0:0,0:0:0:0:
264,356,3789,6,0,P|316:352|368:320,1,90,4|0,0:0|0:0,0:0:0:0:
324,168,4233,2,0,P|313:211|325:256,1,90,2|0,0:0|0:0,0:0:0:0:
512,224,4678,2,0,P|467:222|426:239,1,90,2|0,0:0|0:0,0:0:0:0:
232,304,5122,2,0,L|118:282,1,90,2|0,0:0|0:0,0:0:0:0:
52,176,5567,5,2,0:0:0:0:
8,320,5789,1,0,0:0:0:0:
148,232,6011,1,2,0:0:0:0:
152,352,6233,1,0,0:0:0:0:
52,176,6456,2,0,L|36:56,1,90,2|0,0:0|0:0,0:0:0:0:
60,72,6789,1,0,0:0:0:0:
60,72,6900,6,0,P|146:122|241:98,1,202.500007724762,4|0,1:0|0:0,0:0:0:0:
231,72,7345,6,0,P|228:116|239:159,1,90,4|0,0:0|0:0,0:0:0:0:
376,272,7789,2,0,P|356:232|320:204,1,90,2|0,0:0|0:0,0:0:0:0:
156,248,8233,2,0,P|208:252|256:240,1,90,2|0,0:0|0:0,0:0:0:0:
415,119,8678,2,0,P|371:114|328:125,1,90,2|0,0:0|0:0,0:0:0:0:
156,248,9122,6,0,L|140:348,1,90,2|0,0:0|0:0,0:0:0:0:
244,156,9567,2,0,L|232:40,1,90,2|0,0:0|0:0,0:0:0:0:
56,144,10011,2,0,L|160:160,1,90,2|0,0:0|0:0,0:0:0:0:
288,256,10456,2,0,P|332:252|372:228,1,90,2|0,0:0|0:0,0:0:0:0:
356,68,10900,5,2,0:0:0:0:
396,208,11122,1,0,0:0:0:0:
240,84,11345,1,2,0:0:0:0:
184,184,11567,1,0,0:0:0:0:
356,68,11789,2,0,L|460:56,1,90,2|0,0:0|0:0,0:0:0:0:
273,194,12233,2,0,L|169:182,1,90,2|0,0:0|0:0,0:0:0:0:
32,172,12678,6,0,P|175:122|161:273,1,360,0|0,1:0|0:0,0:0:0:0:
72,272,13789,1,2,0:0:0:0:
72,272,13900,1,2,0:0:0:0:
84,296,14011,2,0,L|220:312,1,135,4|0,1:0|0:0,0:0:0:0:
244,340,14456,6,0,L|237:237,1,90,4|2,0:0|0:0,0:0:0:0:
236,212,14789,1,2,0:0:0:0:
416,240,14900,2,0,B|372:252|372:252|312:240,1,90,0|0,1:0|0:0,0:0:0:0:
308,160,15233,2,0,L|300:96,1,45,2|0,0:0|0:0,0:0:0:0:
144,180,15456,2,0,L|132:284,1,90,2|0,0:0|0:0,0:0:0:0:
60,332,15789,2,0,L|0:324,1,45,0|0,1:0|0:0,0:0:0:0:
200,360,16011,2,0,L|256:356,1,45,2|0,0:0|0:0,0:0:0:0:
416,276,16233,6,0,P|388:260|320:264,1,90,4|2,0:0|0:0,0:0:0:0:
300,280,16567,1,2,0:0:0:0:
356,160,16678,2,0,L|264:164,1,90,0|0,1:0|0:0,0:0:0:0:
128,224,17011,2,0,L|196:216,1,45,2|0,0:0|0:0,0:0:0:0:
232,80,17233,2,0,L|132:72,1,90,2|0,0:0|0:0,0:0:0:0:
24,136,17567,2,0,L|72:144,1,45,0|0,1:0|0:0,0:0:0:0:
248,200,17789,2,0,L|192:192,1,45,2|0,0:0|0:0,0:0:0:0:
56,288,18011,6,0,P|94:312|139:313,1,90,4|2,0:0|0:0,0:0:0:0:
168,292,18345,1,2,0:0:0:0:
264,376,18456,2,0,L|284:272,1,90,0|0,1:0|0:0,0:0:0:0:
356,188,18789,2,0,L|360:236,1,45,2|0,0:0|0:0,0:0:0:0:
224,208,19011,2,0,L|244:104,1,90,2|0,0:0|0:0,0:0:0:0:
320,32,19345,2,0,L|328:76,1,45,0|0,1:0|0:0,0:0:0:0:
420,182,19567,2,0,L|368:174,1,45,2|0,0:0|0:0,0:0:0:0:
216,96,19789,6,0,B|184:88|184:88|120:100,1,90,4|2,0:0|0:0,0:0:0:0:
96,116,20122,1,2,0:0:0:0:
32,224,20233,2,0,L|140:212,1,90,0|0,1:0|0:0,0:0:0:0:
248,284,20567,2,0,L|192:272,1,45,0|8,0:0|0:3,0:0:0:0:
296,192,20789,1,8,0:3:0:0:
340,188,20900,1,8,0:3:0:0:
384,184,21011,1,8,0:3:0:0:
428,184,21122,2,0,L|444:132,1,45,0|0,1:0|0:0,0:0:0:0:
328,52,21345,2,0,L|333:96,1,45,8|0,1:3|0:0,0:0:0:0:
432,360,21567,6,0,P|433:315|410:274,1,90,4|2,0:0|0:0,0:0:0:0:
376,268,21900,1,2,0:0:0:0:
260,348,22011,2,0,L|170:351,1,90,0|0,1:0|0:0,0:0:0:0:
88,284,22345,2,0,L|132:276,1,45,2|0,0:0|0:0,0:0:0:0:
305,206,22567,2,0,L|216:196,1,90,2|0,0:0|0:0,0:0:0:0:
92,120,22900,2,0,L|144:121,1,45,0|0,1:0|0:0,0:0:0:0:
44,201,23122,2,0,L|0:208,1,45,2|0,0:0|0:0,0:0:0:0:
208,52,23345,6,0,P|244:52|300:84,1,90,4|2,0:0|0:0,0:0:0:0:
308,108,23678,1,2,0:0:0:0:
416,12,23789,2,0,L|404:124,1,90,0|0,1:0|0:0,0:0:0:0:
344,232,24122,2,0,L|356:184,1,45,2|0,0:0|0:0,0:0:0:0:
468,260,24345,2,0,L|452:348,1,90,2|0,0:0|0:0,0:0:0:0:
320,364,24678,2,0,L|276:353,1,45,0|0,1:0|0:0,0:0:0:0:
184,292,24900,2,0,L|176:228,1,45,2|0,0:0|0:0,0:0:0:0:
272,100,25122,6,0,B|284:144|284:144|272:204,1,90,4|2,0:0|0:0,0:0:0:0:
264,224,25456,1,2,0:0:0:0:
120,164,25567,2,0,L|20:152,1,90,0|0,1:0|0:0,0:0:0:0:
140,76,25900,2,0,L|188:72,1,45,2|0,0:0|0:0,0:0:0:0:
264,224,26122,2,0,L|164:228,1,90,2|0,0:0|0:0,0:0:0:0:
288,124,26456,2,0,L|348:116,1,45,0|0,1:0|0:0,0:0:0:0:
448,204,26678,2,0,L|384:200,1,45,2|0,0:0|0:0,0:0:0:0:
312,36,26900,6,0,L|344:32,5,30,0|0|0|0|0|0,1:0|1:0|1:0|1:0|1:0|0:0,0:0:0:0:
224,60,27345,2,0,L|180:52,4,30,0|0|0|0|0,1:0|1:0|1:0|1:0|1:0,0:0:0:0:
360,192,27789,1,4,1:0:0:0:
224,60,28011,1,0,1:0:0:0:
120,296,28233,1,2,0:3:0:0:
120,296,28678,6,0,P|76:320|20:320,1,90,2|0,0:3|0:0,0:0:0:0:
176,204,29122,2,0,P|220:208|268:236,1,90,2|0,2:3|0:0,0:0:0:0:
384,340,29567,2,0,P|364:300|369:255,1,90,2|0,0:3|0:0,0:0:0:0:
488,144,30011,2,0,L|353:159,1,135,2|0,0:3|0:0,0:0:0:0:
328,184,30456,6,0,L|339:94,1,90,4|0,0:0|0:0,0:0:0:0:
168,232,30900,2,0,L|264:244,1,90,2|0,0:3|0:0,0:0:0:0:
104,144,31345,2,0,P|65:121|21:125,1,90,2|0,0:3|0:0,0:0:0:0:
0,320,31789,2,0,L|152:308,1,135,2|0,0:3|0:0,0:0:0:0:
164,332,32233,6,0,L|172:232,1,90,4|0,0:0|0:0,0:0:0:0:
260,80,32678,2,0,L|268:192,1,90,2|0,0:3|0:0,0:0:0:0:
344,352,33122,2,0,L|352:240,1,90,2|0,0:3|0:0,0:0:0:0:
448,156,33567,2,0,L|340:172,1,90,2|0,0:3|0:0,0:0:0:0:
180,244,34011,6,0,P|143:269|47:265,1,135,4|0,0:0|0:0,0:0:0:0:
36,236,34456,2,0,P|84:235|116:259,1,90,2|0,0:3|0:0,0:0:0:0:
180,372,34900,1,2,0:3:0:0:
236,152,35122,1,0,0:0:0:0:
328,352,35345,2,0,B|320:304|320:304|348:200,1,135,2|0,1:3|0:0,0:0:0:0:
368,196,35789,6,0,L|476:180,1,90,4|0,0:0|0:0,0:0:0:0:
232,252,36233,2,0,L|140:236,1,90,2|0,0:3|0:0,0:0:0:0:
328,352,36678,2,0,L|428:336,1,90,2|0,0:3|0:0,0:0:0:0:
344,152,37122,2,0,L|333:241,1,90,2|0,0:3|0:0,0:0:0:0:
408,72,37567,6,0,P|347:45|286:68,1,135,4|0,0:0|0:0,0:0:0:0:
260,92,38011,2,0,L|244:180,1,90,2|0,0:3|0:0,0:0:0:0:
176,308,38456,2,0,B|224:288|224:288|312:304,1,135,2|0,0:3|0:0,0:0:0:0:
384,320,38900,1,2,0:3:0:0:
384,320,39345,6,0,L|294:323,1,90,4|0,0:0|0:0,0:0:0:0:
128,376,39789,2,0,L|144:272,1,90,2|0,0:3|0:0,0:0:0:0:
224,160,40233,2,0,L|232:252,1,90,2|0,0:3|0:0,0:0:0:0:
32,200,40678,2,0,L|137:193,1,90,2|0,0:3|0:0,0:0:0:0:
296,72,41122,6,0,P|252:54|208:56,1,90,8|0,0:3|0:0,0:0:0:0:
180,76,41456,2,0,P|171:119|185:162,1,90,8|0,0:3|0:0,0:0:0:0:
216,176,41789,1,2,0:3:0:0:
424,136,42011,2,0,B|387:167|387:167|291:155,1,135,2|0,0:3|0:0,0:0:0:0:
216,176,42456,1,0,1:0:0:0:
215,176,42900,6,0,P|199:217|205:261,1,90,4|0,0:0|0:0,0:0:0:0:
236,240,43233,2,0,P|248:284|292:316,1,90,2|0,0:0|0:0,0:0:0:0:
312,280,43567,2,0,P|352:296|409:297,1,90,2|0,0:0|0:0,0:0:0:0:
428,252,43900,2,0,P|460:252|516:212,1,90,2|0,0:0|0:0,0:0:0:0:
484,160,44233,6,0,P|440:151|397:165,1,90,0|0,1:0|0:0,0:0:0:0:
403,128,44567,2,0,P|360:139|325:166,1,90,2|0,0:0|0:0,0:0:0:0:
316,120,44900,2,0,P|277:140|247:174,1,90,2|0,0:0|0:0,0:0:0:0:
208,136,45233,2,0,P|189:177|190:222,1,90,2|0,0:0|0:0,0:0:0:0:
260,272,45567,5,2,0:0:0:0:
96,284,45900,1,2,0:0:0:0:
208,136,46233,1,2,0:0:0:0:
288,356,46456,6,0,P|241:355|204:332,1,90,4|0,0:0|0:0,0:0:0:0:
176,356,46789,2,0,P|176:320|204:264,1,90,2|0,0:0|0:0,0:0:0:0:
156,256,47122,2,0,P|194:231|238:228,1,90,2|0,0:0|0:0,0:0:0:0:
248,176,47456,2,0,P|292:184|325:214,1,90,2|0,0:0|0:0,0:0:0:0:
344,292,47789,1,0,1:0:0:0:
312,64,48011,1,2,0:0:0:0:
156,256,48233,6,0,L|44:240,1,90,4|0,0:0|0:0,0:0:0:0:
240,376,48678,2,0,L|348:368,1,90,0|0,1:0|0:0,0:0:0:0:
488,280,49122,2,0,L|392:268,1,90,0|0,1:0|0:0,0:0:0:0:
268,180,49567,2,0,L|280:116,1,45,0|0,1:0|0:0,0:0:0:0:
352,96,49789,2,0,L|344:32,1,45,0|0,1:0|0:0,0:0:0:0:
164,72,50011,6,0,P|138:108|140:156,1,90,4|0,0:0|0:0,0:0:0:0:
104,160,50345,2,0,P|124:200|168:220,1,90,2|0,0:0|0:0,0:0:0:0:
136,256,50678,2,0,P|176:272|228:264,1,90,2|0,0:0|0:0,0:0:0:0:
268,296,51011,2,0,P|296:268|316:216,1,90,2|0,0:0|0:0,0:0:0:0:
292,148,51345,6,0,P|328:148|388:180,1,90,0|0,1:0|0:0,0:0:0:0:
392,135,51678,2,0,P|412:176|420:220,1,90,2|0,0:0|0:0,0:0:0:0:
460,204,52011,2,0,P|454:253|434:297,1,90,2|0,0:0|0:0,0:0:0:0:
484,320,52345,2,0,P|451:349|408:363,1,90,2|0,0:0|0:0,0:0:0:0:
332,336,52678,5,2,0:0:0:0:
268,148,53011,1,2,0:0:0:0:
176,344,53345,1,2,0:0:0:0:
311,71,53567,6,0,P|268:63|225:74,1,90,4|0,0:0|0:0,0:0:0:0:
215,40,53900,2,0,P|178:63|149:98,1,90,2|0,0:0|0:0,0:0:0:0:
120,64,54233,2,0,P|99:103|97:147,1,90,2|0,0:0|0:0,0:0:0:0:
43,144,54567,2,0,P|54:187|85:219,1,90,2|0,0:0|0:0,0:0:0:0:
164,240,54900,1,0,1:0:0:0:
215,40,55122,1,2,0:0:0:0:
356,216,55345,6,0,L|445:203,1,90,4|0,0:0|0:0,0:0:0:0:
220,144,55789,2,0,L|124:136,1,90,0|0,1:0|0:0,0:0:0:0:
236,336,56233,2,0,L|264:220,1,90,0|0,1:0|0:0,0:0:0:0:
396,92,56678,2,0,L|388:32,1,45,2|0,0:3|0:0,0:0:0:0:
284,56,56900,2,0,L|292:4,1,45,2|0,0:3|0:0,0:0:0:0:
184,96,57122,6,0,B|152:140|152:140|169:218,1,135,4|0,0:0|0:0,0:0:0:0:
192,248,57567,2,0,L|288:236,1,90,0|0,1:0|0:0,0:0:0:0:
448,316,58011,2,0,L|352:300,1,90,2|0,0:3|0:0,0:0:0:0:
280,144,58456,1,0,1:0:0:0:
448,208,58678,1,0,0:0:0:0:
448,208,58789,1,0,0:0:0:0:
448,208,58900,6,0,L|424:100,1,90,4|0,0:0|0:0,0:0:0:0:
320,16,59345,1,0,1:0:0:0:
184,180,59567,2,0,P|256:236|344:228,1,180,4|0,0:0|0:0,0:0:0:0:
356,196,60122,1,0,0:0:0:0:
356,196,60233,2,0,L|343:285,1,90,0|0,1:0|0:0,0:0:0:0:
167,374,60678,6,0,L|159:282,1,90,4|0,0:0|0:0,0:0:0:0:
136,128,61122,1,0,1:0:0:0:
0,272,61345,2,0,P|77:313|172:272,1,180,4|0,0:0|0:0,0:0:0:0:
232,132,62011,1,0,1:0:0:0:
88,220,62233,1,0,0:0:0:0:
88,220,62345,1,0,0:0:0:0:
88,220,62456,6,0,L|100:124,1,90,4|0,0:0|0:0,0:0:0:0:
80,100,62789,2,0,L|168:118,1,90,4|0,0:0|0:0,0:0:0:0:
192,144,63122,2,0,P|266:97|353:110,1,180,4|0,0:0|0:0,0:0:0:0:
444,224,63789,1,0,1:0:0:0:
484,52,64011,1,0,1:0:0:0:
484,52,64122,1,0,1:0:0:0:
484,52,64233,6,0,L|496:156,1,90,4|0,0:0|0:0,0:0:0:0:
324,296,64678,2,0,L|336:192,1,90,0|0,1:0|0:0,0:0:0:0:
460,272,65122,2,0,L|465:361,1,90,2|0,0:3|0:0,0:0:0:0:
336,176,65567,1,0,1:0:0:0:
224,328,65789,1,0,0:0:0:0:
224,328,65900,1,0,0:0:0:0:
224,328,66011,6,0,L|120:320,1,90,4|0,0:0|0:0,0:0:0:0:
0,240,66456,1,0,1:0:0:0:
216,160,66678,2,0,P|246:233|220:332,1,180,4|0,0:0|0:0,0:0:0:0:
196,304,67233,1,0,0:0:0:0:
195,304,67345,2,0,P|239:292|282:299,1,90,0|0,1:0|0:0,0:0:0:0:
440,368,67789,6,0,L|426:266,1,90,4|0,0:0|0:0,0:0:0:0:
460,260,68122,2,0,L|348:240,1,90,4|0,0:0|0:0,0:0:0:0:
348,216,68456,2,0,P|292:188|188:228,1,180,4|0,0:0|0:0,0:0:0:0:
300,320,69122,1,0,1:0:0:0:
140,328,69345,1,0,1:0:0:0:
140,328,69456,1,0,1:0:0:0:
140,328,69567,6,0,L|28:312,1,90,4|0,0:0|0:0,0:0:0:0:
228,216,70011,1,0,1:0:0:0:
264,352,70233,1,2,0:3:0:0:
140,188,70456,2,0,L|135:144,3,45,2|2|2|2,0:3|0:3|0:3|0:3,0:0:0:0:
200,80,70900,5,2,0:3:0:0:
240,64,71011,1,2,0:3:0:0:
284,60,71122,1,2,0:3:0:0:
328,72,71233,1,2,0:3:0:0:
360,104,71345,1,4,0:0:0:0:
360,128,72233,6,0,L|284:116,3,45,4|0|0|0,1:0|1:0|1:0|1:0,0:0:0:0:
224,136,72678,2,0,L|172:140,1,45,0|0,1:0|0:0,0:0:0:0:
96,40,72900,2,0,L|89:84,1,45,0|0,1:0|0:0,0:0:0:0:
48,216,73122,6,0,L|141:207,1,90,4|0,0:0|0:0,0:0:0:0:
300,200,73567,1,0,1:0:0:0:
156,304,73789,2,0,B|200:328|200:328|344:304,1,180,2|0,0:0|0:0,0:0:0:0:
472,344,74456,2,0,L|456:236,1,90,0|0,1:0|0:0,0:0:0:0:
500,104,74900,6,0,L|410:115,1,90,4|0,0:0|0:0,0:0:0:0:
260,168,75345,1,0,1:0:0:0:
415,35,75567,2,0,P|333:8|260:55,1,180,2|0,0:0|0:0,0:0:0:0:
235,250,76233,2,0,P|258:210|250:142,1,90,0|0,1:0|0:0,0:0:0:0:
104,268,76678,6,0,L|120:372,1,90,4|0,0:0|0:0,0:0:0:0:
235,250,77122,1,0,1:0:0:0:
60,144,77345,2,0,B|16:192|16:192|12:320,1,180,2|0,0:0|0:0,0:0:0:0:
172,192,78011,2,0,L|184:136,1,45,0|0,1:0|0:0,0:0:0:0:
276,108,78233,2,0,L|288:44,1,45,2|0,0:3|0:0,0:0:0:0:
348,184,78456,6,0,L|352:252,3,45,2|0|0|0,0:0|0:0|0:0|0:0,0:0:0:0:
360,304,78900,1,0,1:0:0:0:
320,328,79011,1,0,0:0:0:0:
276,340,79122,1,0,0:0:0:0:
232,328,79233,1,0,0:0:0:0:
204,292,79345,2,0,L|210:247,1,45,0|0,1:0|0:0,0:0:0:0:
264,136,79567,2,0,L|272:196,1,45,0|0,1:0|0:0,0:0:0:0:
120,228,79789,2,0,L|112:156,1,45,0|0,1:0|0:0,0:0:0:0:
180,44,80011,2,0,L|172:112,1,45,0|0,1:0|0:0,0:0:0:0:
111,317,80233,6,0,P|68:306|36:276,1,90,4|0,0:0|0:0,0:0:0:0:
112,152,80678,1,0,1:0:0:0:
268,295,80900,2,0,P|182:314|110:264,1,180,2|0,0:0|0:0,0:0:0:0:
272,184,81567,2,0,L|368:176,1,90,0|0,1:0|0:0,0:0:0:0:
492,312,82011,6,0,L|388:300,1,90,4|0,0:0|0:0,0:0:0:0:
244,284,82456,1,0,1:0:0:0:
404,192,82678,2,0,B|336:172|336:172|216:196,1,180,2|0,0:0|0:0,0:0:0:0:
104,324,83345,2,0,L|128:212,1,90,0|0,1:0|0:0,0:0:0:0:
152,12,83789,6,0,L|168:168,1,135,4|0,0:0|0:0,0:0:0:0:
184,176,84233,2,0,P|136:152|80:156,1,90,0|0,1:0|1:0,0:0:0:0:
68,168,84567,1,0,1:0:0:0:
68,168,84678,1,0,1:0:0:0:
256,124,84900,1,2,0:0:0:0:
140,252,85122,1,0,1:0:0:0:
188,48,85345,1,2,0:3:0:0:
188,48,85456,1,2,0:3:0:0:
188,48,85567,6,0,B|236:28|236:28|328:44,1,135,4|0,0:0|0:0,0:0:0:0:
383,99,86011,2,0,P|428:97|464:71,1,90,0|2,1:0|0:3,0:0:0:0:
480,40,86345,1,2,0:3:0:0:
480,40,86456,2,0,L|484:88,1,45,8|0,0:3|0:0,0:0:0:0:
440,172,86678,2,0,L|433:217,1,45,8|0,0:3|0:0,0:0:0:0:
324,276,86900,2,0,B|272:280|272:280|240:272|240:272|190:277,1,135,4|0,1:0|0:0,0:0:0:0:
65,325,87345,6,0,P|118:328|160:296,1,107.999996704102,6|0,1:0|0:0,0:0:0:0:
228,192,87678,2,0,P|186:159|133:162,1,107.999996704102,2|0,1:0|0:0,0:0:0:0:
36,248,88011,2,0,L|108:240,1,53.9999983520508,2|0,1:0|0:0,0:0:0:0:
348,248,88233,2,0,P|306:281|253:280,1,107.999996704102,2|0,1:1|0:0,0:0:0:0:
403,167,88567,2,0,P|456:168|504:212,1,107.999996704102,2|0,1:0|0:0,0:0:0:0:
312,164,88900,2,0,L|308:92,1,53.9999983520508,2|0,1:0|0:0,0:0:0:0:
244,36,89122,6,0,P|276:6|304:96,1,161.999995056153,6|0,1:0|0:0,0:0:0:0:
224,116,89567,2,0,L|168:120,1,53.9999983520508,2|0,1:0|0:0,0:0:0:0:
84,240,89789,6,2,B|92:184|92:184|84:128|84:128|98:62,1,180,2|2,1:0|0:0,0:1:0:0:
76,36,90345,1,2,0:0:0:0:
76,36,90456,6,0,L|192:28,1,107.999996704102,0|2,1:0|0:1,0:0:0:0:
224,28,90789,1,2,0:0:0:0:
344,112,90900,6,0,P|298:139|246:129,1,107.999996704102,6|0,1:0|0:0,0:0:0:0:
416,60,91233,2,0,P|444:102|436:166,1,107.999996704102,2|0,1:0|0:0,0:0:0:0:
348,272,91567,2,0,L|360:212,1,53.9999983520508,2|0,1:0|0:0,0:0:0:0:
264,340,91789,2,0,P|216:363|163:359,1,107.999996704102,2|0,1:0|0:0,0:0:0:0:
91,240,92122,2,0,P|143:227|191:250,1,107.999996704102,2|0,1:0|0:0,0:0:0:0:
64,344,92456,2,0,P|28:340|4:332,1,53.9999983520508,2|0,1:0|0:0,0:0:0:0:
156,140,92678,6,0,L|272:128,1,107.999996704102,2|0,1:0|0:0,0:0:0:0:
452,112,93122,1,2,1:0:0:0:
412,280,93345,2,0,L|292:256,1,107.999996704102,2|0,1:0|0:0,0:0:0:0:
104,328,93789,2,0,L|228:308,1,107.999996704102,2|0,1:0|0:0,0:0:0:0:
316,168,94233,1,0,1:0:0:0:
316,168,94345,1,0,1:0:0:0:
316,167,94456,6,0,P|335:127|332:83,1,90,4|0,0:0|0:0,0:0:0:0:
192,144,94900,1,0,1:0:0:0:
312,284,95122,2,0,L|496:292,1,180,2|0,0:0|0:0,0:0:0:0:
232,228,95789,2,0,L|140:232,1,90,0|0,1:0|0:0,0:0:0:0:
400,144,96233,5,2,1:0:0:0:
232,228,96567,1,2,1:1:0:0:
444,316,96900,1,2,1:0:0:0:
444,316,97345,1,2,1:0:0:0:
420,296,97789,1,0,1:0:0:0:
252,348,98011,6,0,B|204:360|204:360|32:340,1,180,4|0,0:0|1:0,0:0:0:0:
12,215,98678,2,0,P|91:183|159:236,1,180,2|0,0:0|0:0,0:0:0:0:
252,348,99345,2,0,L|264:228,1,90,0|0,1:0|0:0,0:0:0:0:
352,128,99789,6,0,L|256:140,1,90,4|0,0:0|0:0,0:0:0:0:
120,96,100233,1,0,1:0:0:0:
84,264,100456,2,0,L|280:244,1,180,2|2,0:0|0:0,0:0:0:0:
296,264,101011,1,2,0:0:0:0:
296,264,101122,2,0,L|292:312,1,45,2|0,0:0|0:0,0:0:0:0:
224,168,101345,2,0,L|232:100,1,45,2|0,0:0|0:0,0:0:0:0:
292,48,101567,5,4,0:0:0:0:
431,140,101789,2,0,P|391:158|347:155,1,90,2|0,0:0|0:0,0:0:0:0:
292,48,102233,1,2,0:0:0:0:
292,48,102345,1,0,0:0:0:0:
280,28,102456,5,4,0:0:0:0:
200,196,102678,2,0,L|192:288,1,90,2|0,0:0|0:0,0:0:0:0:
100,120,103122,1,2,0:0:0:0:
100,120,103233,1,2,0:0:0:0:
116,100,103345,5,4,0:0:0:0:
304,160,103567,2,0,L|397:159,1,90,2|0,0:0|0:0,0:0:0:0:
216,88,104011,1,2,0:0:0:0:
216,88,104122,1,2,0:0:0:0:
208,112,104233,5,4,0:0:0:0:
288,260,104456,1,2,0:0:0:0:
76,320,104678,1,0,1:0:0:0:
76,320,105122,6,0,L|66:230,1,90,4|2,0:0|0:0,0:0:0:0:
64,196,105456,1,2,0:0:0:0:
176,272,105567,2,0,L|181:182,1,90,0|0,1:0|0:0,0:0:0:0:
116,59,105900,2,0,L|112:104,1,45,2|0,0:0|0:0,0:0:0:0:
272,184,106122,2,0,L|288:72,1,90,2|0,0:0|0:0,0:0:0:0:
200,0,106456,2,0,L|208:68,1,45,0|0,1:0|0:0,0:0:0:0:
376,100,106678,2,0,L|392:36,1,45,2|0,0:0|0:0,0:0:0:0:
196,232,106900,6,0,P|232:257|276:266,1,90,4|2,0:0|0:0,0:0:0:0:
312,256,107233,1,2,0:0:0:0:
392,352,107345,2,0,L|408:240,1,90,0|0,1:0|0:0,0:0:0:0:
356,128,107678,2,0,L|364:188,1,45,2|0,0:0|0:0,0:0:0:0:
460,120,107900,2,0,L|472:24,1,90,2|0,0:0|0:0,0:0:0:0:
360,40,108233,2,0,L|315:34,1,45,0|0,1:0|0:0,0:0:0:0:
184,96,108456,2,0,L|228:90,1,45,2|0,0:0|0:0,0:0:0:0:
103,40,108678,6,0,P|68:68|36:116,1,90,4|2,0:0|0:0,0:0:0:0:
32,136,109011,1,2,0:0:0:0:
108,240,109122,2,0,L|121:150,1,90,0|0,1:0|0:0,0:0:0:0:
16,248,109456,2,0,L|28:296,1,45,2|0,0:0|0:0,0:0:0:0:
180,332,109678,2,0,L|200:240,1,90,2|0,0:0|0:0,0:0:0:0:
252,128,110011,2,0,L|261:172,1,45,0|0,1:0|0:0,0:0:0:0:
108,240,110233,2,0,L|116:196,1,45,2|0,0:0|0:0,0:0:0:0:
220,40,110456,6,0,P|264:34|307:45,1,90,4|2,0:0|0:0,0:0:0:0:
332,72,110789,1,2,0:0:0:0:
440,8,110900,2,0,L|424:112,1,90,0|0,1:0|0:0,0:0:0:0:
492,184,111233,2,0,L|447:190,1,45,0|8,0:0|0:3,0:0:0:0:
268,240,111456,1,8,0:3:0:0:
224,232,111567,1,8,0:3:0:0:
180,224,111678,1,8,0:3:0:0:
136,216,111789,2,0,L|120:148,1,45,0|0,1:0|0:0,0:0:0:0:
256,100,112011,2,0,L|247:144,1,45,8|0,1:3|0:0,0:0:0:0:
188,351,112233,6,0,P|227:331|272:323,1,90,4|2,0:0|0:0,0:0:0:0:
304,340,112567,1,2,0:0:0:0:
224,232,112678,2,0,L|336:224,1,90,0|0,1:0|0:0,0:0:0:0:
424,292,113011,2,0,L|380:288,1,45,2|0,0:0|0:0,0:0:0:0:
308,140,113233,2,0,L|420:128,1,90,2|0,0:0|0:0,0:0:0:0:
504,216,113567,2,0,L|440:204,1,45,0|0,1:0|0:0,0:0:0:0:
416,40,113789,2,0,L|496:48,1,45,2|0,0:0|0:0,0:0:0:0:
308,140,114011,6,0,P|264:148|204:132,1,90,4|2,0:0|0:0,0:0:0:0:
196,112,114345,1,2,0:0:0:0:
116,216,114456,2,0,L|100:100,1,90,0|0,1:0|0:0,0:0:0:0:
144,4,114789,2,0,L|140:52,1,45,2|0,0:0|0:0,0:0:0:0:
24,172,115011,2,0,L|40:268,1,90,2|0,0:0|0:0,0:0:0:0:
136,296,115345,2,0,L|204:284,1,45,0|0,1:0|0:0,0:0:0:0:
52,356,115567,2,0,L|-12:348,1,45,2|0,0:0|0:0,0:0:0:0:
191,203,115789,6,0,P|233:219|262:253,1,90,4|2,0:0|0:0,0:0:0:0:
272,288,116122,1,2,0:0:0:0:
344,184,116233,2,0,L|448:176,1,90,0|0,1:0|0:0,0:0:0:0:
280,104,116567,2,0,L|216:96,1,45,2|0,0:0|0:0,0:0:0:0:
368,40,116789,2,0,L|476:32,1,90,2|0,0:0|0:0,0:0:0:0:
284,4,117122,2,0,L|212:8,1,45,0|0,1:0|0:0,0:0:0:0:
80,56,117345,2,0,L|140:60,1,45,2|0,0:0|0:0,0:0:0:0:
264,128,117567,6,0,L|293:123,5,30,0|0|0|0|0|0,1:0|1:0|1:0|1:0|1:0|0:0,0:0:0:0:
184,168,118011,2,0,L|148:160,4,30,0|0|0|0|0,1:0|1:0|1:0|1:0|0:0,0:0:0:0:
336,116,118456,1,4,1:0:0:0:
296,300,118678,1,0,1:0:0:0:
192,28,118900,1,2,3:0:0:0:
192,28,119345,6,0,L|326:35,1,135.000005149842,0|0,1:0|0:0,0:0:0:0:
132,64,120233,2,0,L|266:57,1,135.000005149842,2|0,0:0|0:0,0:0:0:0:
468,36,121122,6,0,P|496:98|460:170,2,135.000005149842,2|2|2,0:0|0:0|0:0,0:0:0:0:
312,168,122456,1,0,0:0:0:0:
312,168,122900,6,0,L|156:152,1,135.000005149842,2|0,0:0|0:0,0:0:0:0:
376,132,123789,2,0,L|241:142,1,135.000005149842,2|0,0:0|0:0,0:0:0:0:
60,224,124678,6,0,P|30:165|52:103,2,135.000005149842,2|2|2,0:0|0:0|0:0,0:0:0:0:
248,144,126011,1,2,0:0:0:0:
247,143,126456,6,0,L|384:136,1,135.000005149842,2|0,0:0|0:0,0:0:0:0:
188,180,127345,2,0,L|332:164,1,135.000005149842,2|0,0:0|0:0,0:0:0:0:
504,80,128233,6,0,P|524:155|504:215,2,135.000005149842,2|2|2,0:0|0:0|0:0,0:0:0:0:
336,192,129567,1,2,0:0:0:0:
336,192,130011,6,0,L|200:200,1,135.000005149842,2|0,0:0|0:0,0:0:0:0:
392,152,130900,2,0,L|256:168,1,135.000005149842,2|0,0:0|0:0,0:0:0:0:
224,172,131567,1,2,1:3:0:0:
56,220,131789,5,2,1:3:0:0:
228,332,132233,1,0,0:0:0:0:
164,140,132678,1,0,0:0:0:0:
96,328,133122,1,0,0:0:0:0:
252,216,133345,2,0,L|280:212,2,16.8750006437302
223,232,133567,6,0,P|179:234|138:217,1,90,4|0,0:0|0:0,0:0:0:0:
132,252,133900,2,0,P|84:228|56:196,1,90,2|0,0:0|0:0,0:0:0:0:
20,220,134233,2,0,P|20:175|37:134,1,90,2|0,0:0|0:0,0:0:0:0:
0,96,134567,2,0,P|44:68|100:60,1,90,2|0,0:0|0:0,0:0:0:0:
136,20,134900,6,0,P|171:46|196:83,1,90,0|0,1:0|0:0,0:0:0:0:
216,52,135233,2,0,P|232:92|236:144,1,90,2|0,0:0|0:0,0:0:0:0:
280,124,135567,2,0,P|276:168|256:208,1,90,2|0,0:0|0:0,0:0:0:0:
300,240,135900,2,0,P|267:270|226:286,1,90,2|0,0:0|0:0,0:0:0:0:
148,300,136233,5,2,0:0:0:0:
312,360,136567,1,2,0:0:0:0:
368,184,136900,1,2,0:0:0:0:
231,76,137122,6,0,P|216:117|226:160,1,90,4|0,0:0|0:0,0:0:0:0:
192,152,137456,2,0,P|209:192|245:220,1,90,2|0,0:0|0:0,0:0:0:0:
220,256,137789,2,0,P|261:271|306:266,1,90,2|0,0:0|0:0,0:0:0:0:
344,304,138122,2,0,P|392:292|428:260,1,90,2|0,0:0|0:0,0:0:0:0:
432,188,138456,1,0,1:0:0:0:
220,256,138678,1,2,0:0:0:0:
416,76,138900,6,0,L|300:64,1,90,4|0,0:0|0:0,0:0:0:0:
152,144,139345,2,0,L|260:136,1,90,0|0,1:0|0:0,0:0:0:0:
100,32,139789,2,0,L|-8:28,1,90,0|0,1:0|0:0,0:0:0:0:
107,151,140233,2,0,L|183:139,1,45,0|0,1:0|0:0,0:0:0:0:
252,96,140456,2,0,L|260:32,1,45,0|0,1:0|0:0,0:0:0:0:
224,224,140678,6,0,P|267:235|311:233,1,90,4|0,0:0|0:0,0:0:0:0:
292,264,141011,2,0,P|332:255|372:228,1,90,2|0,0:0|0:0,0:0:0:0:
392,268,141345,2,0,P|420:232|433:189,1,90,2|0,0:0|0:0,0:0:0:0:
484,208,141678,2,0,P|488:160|472:120,1,90,2|0,0:0|0:0,0:0:0:0:
419,79,142011,6,0,P|376:72|333:85,1,90,0|0,1:0|0:0,0:0:0:0:
340,48,142345,2,0,P|296:63|264:95,1,90,2|0,0:0|0:0,0:0:0:0:
228,72,142678,2,0,P|216:118|228:160,1,90,2|0,0:0|0:0,0:0:0:0:
184,188,143011,2,0,P|216:224|264:240,1,90,2|0,0:0|0:0,0:0:0:0:
324,224,143345,5,2,0:0:0:0:
212,344,143678,1,2,0:0:0:0:
264,144,144011,1,2,0:0:0:0:
388,300,144233,6,0,P|348:316|280:308,1,90,4|0,0:0|0:0,0:0:0:0:
324,344,144567,2,0,P|283:337|240:308,1,90,2|0,0:0|0:0,0:0:0:0:
212,344,144900,2,0,P|196:288|208:236,1,90,2|0,0:0|0:0,0:0:0:0:
147,260,145233,2,0,P|157:216|179:177,1,90,2|0,0:0|0:0,0:0:0:0:
240,136,145567,1,0,1:0:0:0:
384,276,145789,1,2,0:0:0:0:
147,260,146011,6,0,L|31:252,1,90,4|0,0:0|0:0,0:0:0:0:
268,176,146456,2,0,L|368:172,1,90,0|0,1:0|0:0,0:0:0:0:
256,356,146900,2,0,L|244:244,1,90,0|0,1:0|0:0,0:0:0:0:
176,136,147345,2,0,L|184:72,1,45,0|0,1:0|0:0,0:0:0:0:
272,44,147567,2,0,L|276:-20,1,45,2|0,0:3|0:0,0:0:0:0:
372,88,147789,6,0,B|392:136|392:136|372:248,1,135,4|0,0:0|0:0,0:0:0:0:
395,247,148233,2,0,P|353:238|313:258,1,90,0|0,1:0|0:0,0:0:0:0:
224,368,148678,1,2,0:3:0:0:
192,188,148900,1,0,0:0:0:0:
192,188,149011,1,0,0:0:0:0:
192,188,149122,2,0,L|72:176,1,90,0|0,1:0|0:0,0:0:0:0:
0,320,149567,6,0,L|104:308,1,90,4|0,0:0|0:0,0:0:0:0:
276,292,150011,1,0,1:0:0:0:
94,158,150233,2,0,P|50:234|90:310,1,180,4|0,0:0|0:0,0:0:0:0:
124,324,150789,1,0,0:0:0:0:
124,324,150900,2,0,P|172:328|212:336,1,90,0|0,1:0|0:0,0:0:0:0:
372,272,151345,6,0,L|368:168,1,90,4|0,0:0|0:0,0:0:0:0:
356,16,151789,1,0,1:0:0:0:
504,128,152011,2,0,P|424:176|336:148,1,180,4|0,0:0|0:0,0:0:0:0:
224,28,152678,1,0,1:0:0:0:
164,168,152900,1,0,0:0:0:0:
164,168,153011,1,0,0:0:0:0:
164,168,153122,6,0,L|44:148,1,90,4|0,0:0|0:0,0:0:0:0:
48,128,153456,2,0,L|62:242,1,90,4|0,0:0|0:0,0:0:0:0:
44,252,153789,2,0,P|130:246|177:318,1,180,4|0,0:0|0:0,0:0:0:0:
224,164,154456,1,0,1:0:0:0:
296,328,154678,1,0,1:0:0:0:
296,328,154789,1,0,1:0:0:0:
296,328,154900,6,0,L|396:320,1,90,4|0,0:0|0:0,0:0:0:0:
204,260,155345,2,0,L|104:248,1,90,0|0,1:0|0:0,0:0:0:0:
288,184,155789,1,2,0:3:0:0:
380,320,156011,1,0,0:0:0:0:
380,320,156122,1,0,0:0:0:0:
380,320,156233,2,0,L|396:212,1,90,0|0,1:0|0:0,0:0:0:0:
468,80,156678,6,0,P|434:102|380:112,1,90,4|0,0:0|0:0,0:0:0:0:
252,24,157122,1,0,1:0:0:0:
368,203,157345,2,0,P|279:204|214:145,1,180,4|0,0:0|0:0,0:0:0:0:
216,108,157900,1,0,0:0:0:0:
216,108,158011,2,0,P|256:100|312:108,1,90,0|0,1:0|0:0,0:0:0:0:
464,184,158456,6,0,L|452:296,1,90,4|0,0:0|0:0,0:0:0:0:
476,304,158789,2,0,L|386:311,1,90,4|0,0:0|0:0,0:0:0:0:
364,340,159122,2,0,P|292:308|184:324,1,180,4|0,0:0|0:0,0:0:0:0:
64,376,159789,1,0,1:0:0:0:
112,224,160011,1,0,1:0:0:0:
112,224,160122,1,0,1:0:0:0:
112,224,160233,6,0,L|128:124,1,90,4|0,0:0|0:0,0:0:0:0:
220,0,160678,1,0,1:0:0:0:
292,184,160900,1,2,0:3:0:0:
128,44,161122,2,0,L|83:35,3,45,2|2|2|0,0:3|0:3|0:3|0:3,0:0:0:0:
24,88,161567,5,2,0:3:0:0:
4,128,161678,1,2,0:3:0:0:
12,172,161789,1,2,0:3:0:0:
36,208,161900,1,2,0:3:0:0:
76,224,162011,1,0,1:0:0:0:
256,192,162122,12,0,163345,0:0:0:0:
256,192,163789,5,0,1:0:0:0:
276,104,164011,1,0,0:0:0:0:
324,252,164233,1,0,0:0:0:0:
168,208,164456,1,2,0:0:0:0:
168,208,164567,1,2,0:0:0:0:
168,208,164678,1,2,0:0:0:0:
276,104,164900,1,0,0:0:0:0:
324,252,165122,1,0,0:0:0:0:
168,208,165345,1,2,0:0:0:0:
168,208,165456,1,2,0:0:0:0:
168,208,165567,5,2,0:0:0:0:
180,116,165789,1,0,0:0:0:0:
232,272,166011,1,0,0:0:0:0:
84,244,166233,1,2,0:0:0:0:
84,244,166345,1,2,0:0:0:0:
84,244,166456,1,0,0:0:0:0:
180,116,166678,1,0,0:0:0:0:
232,272,166900,1,0,0:0:0:0:
84,152,167122,1,0,0:0:0:0:
272,180,167345,5,2,0:0:0:0:
232,272,167567,1,2,0:0:0:0:
232,272,167678,1,2,0:0:0:0:
232,272,167789,1,0,0:0:0:0:
192,192,168011,1,0,0:0:0:0:
328,272,168233,1,2,0:0:0:0:
328,272,168345,1,2,0:0:0:0:
328,272,168456,1,2,0:0:0:0:
168,336,168678,1,0,0:0:0:0:
192,192,168900,1,2,0:0:0:0:
192,192,169011,1,2,0:0:0:0:
192,192,169122,5,2,0:0:0:0:
328,272,169345,2,0,L|417:281,1,90,2|0,0:0|0:0,0:0:0:0:
436,312,169678,2,0,L|448:216,1,90,2|0,0:0|0:0,0:0:0:0:
468,192,170011,2,0,L|364:196,1,90,2|0,0:0|0:0,0:0:0:0:
356,168,170345,2,0,L|264:176,1,90,2|0,0:0|0:0,0:0:0:0:
232,160,170678,2,0,L|176:168,1,45,2|0,0:0|0:0,0:0:0:0:
80,192,170900,5,2,0:0:0:0:
104,108,171122,1,0,0:0:0:0:
136,256,171345,1,0,0:0:0:0:
0,224,171567,1,2,0:0:0:0:
0,224,171678,1,2,0:0:0:0:
0,224,171789,1,2,0:0:0:0:
104,108,172011,1,0,0:0:0:0:
136,256,172233,1,0,0:0:0:0:
0,224,172456,1,2,0:0:0:0:
0,224,172567,1,2,0:0:0:0:
0,224,172678,5,2,0:0:0:0:
168,168,172900,1,0,0:0:0:0:
224,236,173122,1,0,0:0:0:0:
136,256,173345,1,0,0:0:0:0:
256,152,173567,1,2,0:0:0:0:
312,224,173789,1,0,0:0:0:0:
136,256,174011,1,0,0:0:0:0:
284,328,174233,1,2,0:0:0:0:
284,328,174345,1,2,0:0:0:0:
284,328,174456,5,2,0:0:0:0:
224,236,174678,1,0,0:0:0:0:
196,380,174900,1,0,0:0:0:0:
384,320,175122,1,2,0:0:0:0:
384,320,175233,1,2,0:0:0:0:
384,320,175345,1,2,0:0:0:0:
224,236,175567,1,0,0:0:0:0:
304,376,175789,1,0,0:0:0:0:
344,200,176011,1,2,0:0:0:0:
344,200,176122,1,2,0:0:0:0:
344,200,176233,5,2,0:0:0:0:
212,340,176456,2,0,L|108:328,1,90,2|0,0:0|0:0,0:0:0:0:
44,348,176789,2,0,L|60:232,1,90,2|0,0:0|0:0,0:0:0:0:
24,184,177122,2,0,L|113:194,1,90,2|0,0:0|0:0,0:0:0:0:
176,244,177456,2,0,L|288:228,1,90,2|0,0:0|0:0,0:0:0:0:
324,176,177789,2,0,L|368:184,1,45,2|0,0:0|0:0,0:0:0:0:
472,236,178011,5,2,0:0:0:0:
472,236,178456,1,2,0:0:0:0:
384,96,178900,1,2,0:0:0:0:
384,96,179345,1,2,0:0:0:0:
296,272,179789,5,2,0:0:0:0:
344,204,180011,1,2,0:0:0:0:
268,176,180233,1,2,0:0:0:0:
268,176,180678,1,2,0:0:0:0:
120,236,181122,1,2,0:0:0:0:
140,76,181567,5,2,0:0:0:0:
208,228,182011,1,2,0:0:0:0:
68,144,182456,1,2,0:0:0:0:
228,132,182900,1,2,0:0:0:0:
104,240,183345,5,2,0:0:0:0:
260,280,183789,1,2,0:0:0:0:
400,200,184233,2,0,L|507:207,1,107.999996704102,2|0,0:0|0:0,0:0:0:0:
372,120,185122,6,0,L|264:128,1,107.999996704102,2|0,0:0|0:0,0:0:0:0:
116,188,186011,2,0,L|8:172,1,107.999996704102,2|0,0:0|0:0,0:0:0:0:
152,96,186900,6,0,L|268:80,1,107.999996704102,2|0,0:0|0:0,0:0:0:0:
420,68,187789,1,2,0:0:0:0:
320,196,188233,1,2,0:0:0:0:
400,184,188456,1,2,0:0:0:0:
256,132,188678,5,2,0:0:0:0:
336,116,188900,1,2,0:0:0:0:
288,272,189122,1,2,0:0:0:0:
288,272,189567,1,2,0:0:0:0:
176,156,190011,1,2,0:0:0:0:
152,316,190456,5,2,0:0:0:0:
260,196,190900,1,2,0:0:0:0:
100,228,191345,2,0,P|52:220|0:188,1,107.999996704102,2|0,0:0|0:0,0:0:0:0:
112,72,192233,6,0,B|208:40|208:40|320:76,1,215.999993408203,2|2,0:0|0:0,0:0:0:0:
408,132,193567,1,0,0:0:0:0:
464,232,194011,2,0,B|416:248|416:248|372:216|372:216|262:235,1,215.999993408203,2|2,0:0|0:0,0:0:0:0:
184,312,195345,1,0,0:0:0:0:
76,340,195789,5,2,0:0:0:0:
92,232,196233,1,2,0:0:0:0:
180,296,196678,2,0,L|288:304,1,107.999996704102,2|2,0:0|0:0,0:0:0:0:
376,368,197567,2,0,B|392:264|392:264|368:140,1,215.999993408203,2|2,0:0|0:0,0:0:0:0:
184,48,199345,6,0,L|168:264,1,215.999993408203,2|2,0:0|0:0,0:0:0:0:
368,344,201122,2,0,L|352:128,1,215.999993408203,2|2,0:0|0:0,0:0:0:0:
264,64,202456,1,2,0:0:0:0:
232,140,202678,1,2,0:0:0:0:
352,48,202900,5,2,0:0:0:0:
320,124,203122,1,2,0:0:0:0:
184,68,203345,1,2,0:0:0:0:
148,228,203789,2,0,P|208:280|344:256,1,215.999993408203,2|2,0:0|0:0,0:0:0:0:
396,56,205567,5,2,0:0:0:0:
424,132,205789,1,2,0:0:0:0:
316,76,206011,1,2,0:0:0:0:
316,76,206456,6,0,L|188:64,1,107.999996704102,4|0,0:0|0:0,0:0:0:0:
128,48,207122,1,0,0:0:0:0:
128,48,207345,2,0,B|92:84|92:84|100:140,1,107.999996704102,0|0,1:0|0:0,0:0:0:0:
120,220,208011,1,2,0:3:0:0:
192,184,208233,6,0,L|256:176,2,53.9999983520508,2|0|2,0:3|0:3|0:3,0:0:0:0:
56,272,209122,2,0,L|164:284,1,107.999996704102,0|0,0:3|0:0,0:0:0:0:
244,268,209789,1,2,0:3:0:0:
300,328,210011,6,0,P|348:336|396:280,1,107.999996704102,4|0,0:0|0:0,0:0:0:0:
400,220,210678,1,0,0:0:0:0:
476,320,210900,2,0,P|500:284|492:204,1,107.999996704102,0|0,1:0|0:0,0:0:0:0:
456,152,211567,1,2,0:3:0:0:
316,248,211789,5,0,0:0:0:0:
252,200,212011,2,0,L|176:184,2,53.9999983520508,2|2|2,0:3|0:3|0:3,0:0:0:0:
400,220,212678,1,2,0:3:0:0:
400,220,213122,1,2,0:3:0:0:
348,160,213345,1,2,0:3:0:0:
240,292,213567,6,0,B|208:308|208:308|120:296,1,107.999996704102,4|0,0:0|0:0,0:0:0:0:
32,172,214456,2,0,B|103:162|103:162|135:178,1,107.999996704102,2|0,0:3|0:0,0:0:0:0:
196,232,215122,1,2,0:3:0:0:
208,312,215345,6,0,L|220:240,1,53.9999983520508,0|2,0:3|0:3,0:0:0:0:
288,112,216011,1,0,0:0:0:0:
288,112,216233,2,0,L|296:232,1,107.999996704102,0|0,1:0|0:0,0:0:0:0:
344,284,216900,1,2,0:3:0:0:
343,284,217122,6,0,P|303:318|250:325,1,107.999996704102,0|0,0:3|0:0,0:0:0:0:
180,368,217789,2,0,P|159:350|143:328,1,53.9999983520508,2|0,0:0|0:0,0:0:0:0:
72,292,218233,2,0,P|88:264|128:244,1,53.9999983520508,2|0,0:0|0:0,0:0:0:0:
264,240,218678,6,0,P|236:232|204:204,1,53.9999983520508,2|0,0:0|0:0,0:0:0:0:
152,168,219122,1,2,0:0:0:0:
272,328,219345,2,0,L|336:324,1,53.9999983520508,2|0,0:0|0:0,0:0:0:0:
460,264,219789,1,0,1:0:0:0:
416,332,220011,1,2,0:3:0:0:
396,212,220233,1,2,0:3:0:0:
460,264,220456,1,2,0:3:0:0:
312,244,220678,6,0,L|184:256,1,107.999996704102,4|0,0:0|0:0,0:0:0:0:
136,300,221345,1,0,0:0:0:0:
136,300,221567,2,0,P|156:248|144:180,1,107.999996704102,0|0,1:0|0:0,0:0:0:0:
100,136,222233,1,2,0:3:0:0:
160,84,222456,6,0,L|214:80,1,53.9999983520508,0|2,0:0|0:3,0:0:0:0:
352,160,223122,1,0,0:0:0:0:
352,160,223345,2,0,L|228:156,1,107.999996704102,0|0,1:0|0:0,0:0:0:0:
176,116,224011,1,2,0:3:0:0:
116,168,224233,6,0,P|84:216|80:276,1,107.999996704102,4|0,0:0|0:0,0:0:0:0:
136,324,224900,1,0,0:0:0:0:
208,284,225122,2,0,L|324:280,1,107.999996704102,0|0,1:0|0:0,0:0:0:0:
388,316,225789,1,2,0:3:0:0:
400,236,226011,6,0,L|384:168,1,53.9999983520508,2|0,0:0|0:0,0:0:0:0:
368,104,226456,1,2,0:3:0:0:
280,208,226678,2,0,L|292:88,1,107.999996704102,2|2,0:0|0:0,0:0:0:0:
332,32,227345,1,2,0:3:0:0:
368,104,227567,1,0,0:3:0:0:
204,136,227789,6,0,P|158:148|90:140,1,107.999996704102,4|0,0:0|0:0,0:0:0:0:
227,45,228678,2,0,P|275:29|339:33,1,107.999996704102,2|0,0:3|0:0,0:0:0:0:
376,104,229345,1,2,0:3:0:0:
284,124,229567,5,0,0:0:0:0:
444,172,229789,1,2,0:3:0:0:
331,31,230011,1,0,0:0:0:0:
331,31,230456,2,0,P|382:14|436:27,1,107.999996704102,0|0,1:0|0:0,0:0:0:0:
464,104,231122,1,2,0:3:0:0:
464,104,231345,6,0,B|472:172|472:172|416:240|456:324,1,215.999993408203,2|0,0:3|1:0,0:0:0:0:
324,212,232678,1,2,0:3:0:0:
252,248,232900,1,2,0:3:0:0:
228,324,233122,5,2,0:3:0:0:
324,212,233345,2,0,P|292:180|216:176,1,107.999996704102,2|0,0:3|0:0,0:0:0:0:
196,188,233900,1,0,0:0:0:0:
196,188,234011,1,0,1:0:0:0:
276,80,234233,1,0,1:0:0:0:
252,248,234456,1,0,1:0:0:0:
176,92,234678,1,2,0:3:0:0:
176,92,234789,1,2,0:3:0:0:
176,92,234900,1,0,1:0:0:0:
256,192,235011,12,2,236678,0:0:0:0:
128,196,238456,6,0,L|110:193,5,17.9999994506836,0|0|0|0|0|0,1:0|1:0|1:0|1:0|1:0|0:0,0:0:0:0:
240,144,238900,2,0,L|260:140,5,17.9999994506836,0|0|0|0|0|0,1:0|1:0|1:0|1:0|1:0|0:0,0:0:0:0:
156,108,239345,5,4,0:0:0:0:
164,80,239493,1,4,0:0:0:0:
172,52,239641,1,4,0:0:0:0:
280,136,239789,5,0,1:0:0:0:
48,224,240011,1,0,1:0:0:0:
280,136,240233,6,0,L|372:152,1,90,4|0,0:0|0:0,0:0:0:0:
156,108,240678,1,0,1:0:0:0:
216,280,240900,2,0,B|268:292|268:292|396:264,1,180,2|0,0:0|0:0,0:0:0:0:
488,364,241567,2,0,L|512:252,1,90,0|0,1:0|0:0,0:0:0:0:
512,100,242011,6,0,L|408:128,1,90,4|0,0:0|0:0,0:0:0:0:
272,180,242456,1,0,1:0:0:0:
400,32,242678,2,0,P|319:-2|236:27,1,180,2|0,0:0|0:0,0:0:0:0:
104,128,243345,2,0,P|146:139|188:125,1,90,0|0,1:0|0:0,0:0:0:0:
24,212,243789,6,0,P|16:256|44:304,1,90,4|0,0:0|0:0,0:0:0:0:
180,220,244233,1,0,1:0:0:0:
16,324,244456,2,0,P|88:356|200:308,1,180,2|0,0:0|0:0,0:0:0:0:
292,208,245122,2,0,L|300:164,1,45,0|0,1:0|0:0,0:0:0:0:
364,100,245345,2,0,L|372:56,1,45,2|0,0:3|0:0,0:0:0:0:
444,152,245567,6,0,L|448:197,3,45,2|0|0|0,0:0|0:0|0:3|0:0,0:0:0:0:
452,276,246011,1,0,1:0:0:0:
416,300,246122,1,0,0:0:0:0:
372,308,246233,1,0,0:0:0:0:
328,292,246345,1,0,0:0:0:0:
296,260,246456,2,0,L|304:204,1,45,0|0,1:0|0:0,0:0:0:0:
352,88,246678,2,0,L|357:132,1,45,0|0,1:0|0:0,0:0:0:0:
216,176,246900,2,0,L|208:127,1,45,0|0,1:0|0:0,0:0:0:0:
272,8,247122,2,0,L|269:52,1,45,0|0,1:0|0:0,0:0:0:0:
208,272,247345,6,0,P|168:260|128:224,1,90,4|0,0:0|0:0,0:0:0:0:
180,60,247789,1,0,1:0:0:0:
336,200,248011,2,0,P|289:233|165:213,1,180,2|0,0:0|0:0,0:0:0:0:
292,96,248678,2,0,L|385:99,1,90,0|0,1:0|0:0,0:0:0:0:
480,268,249122,6,0,L|384:276,1,90,4|0,0:0|0:0,0:0:0:0:
236,328,249567,1,0,1:0:0:0:
364,176,249789,2,0,B|308:144|308:144|192:172,1,180,2|0,0:0|0:0,0:0:0:0:
92,328,250456,2,0,L|108:236,1,90,0|0,1:0|0:0,0:0:0:0:
7,87,250900,6,0,P|63:123|129:118,1,135,4|0,0:0|0:0,0:0:0:0:
135,80,251345,2,0,P|102:108|93:151,1,90,0|0,1:0|1:0,0:0:0:0:
108,184,251678,1,0,1:0:0:0:
108,184,251789,1,0,1:0:0:0:
248,120,252011,1,2,0:0:0:0:
24,76,252233,1,0,1:0:0:0:
48,268,252456,1,2,0:3:0:0:
48,268,252567,1,2,0:3:0:0:
48,268,252678,6,0,L|182:282,1,135,4|0,0:0|0:0,0:0:0:0:
256,316,253122,2,0,P|300:316|352:280,1,90,0|2,1:0|0:3,0:0:0:0:
368,312,253456,1,2,0:3:0:0:
368,312,253567,2,0,L|370:267,1,45,8|0,0:3|0:0,0:0:0:0:
284,196,253789,2,0,L|296:128,1,45,8|0,0:3|0:0,0:0:0:0:
400,28,254011,2,0,B|416:84|416:84|400:184,1,135,4|0,1:0|0:0,0:0:0:0:
372,144,254456,6,0,P|424:140|463:175,1,107.999996704102,6|0,1:0|0:0,0:0:0:0:
400,332,254789,2,0,P|347:335|308:300,1,107.999996704102,2|0,1:0|0:0,0:0:0:0:
456,252,255122,2,0,L|402:256,1,53.9999983520508,2|0,1:0|0:0,0:0:0:0:
128,264,255345,2,0,P|164:296|224:304,1,107.999996704102,2|0,1:0|0:0,0:0:0:0:
103,175,255678,2,0,P|50:170|0:189,1,107.999996704102,2|0,1:0|0:0,0:0:0:0:
188,188,256011,2,0,L|204:116,1,53.9999983520508,2|0,1:0|0:0,0:0:0:0:
284,72,256233,6,0,P|221:93|224:16,1,161.999995056153,6|0,1:0|0:0,0:0:0:0:
376,40,256678,2,0,L|364:128,1,53.9999983520508,2|0,1:0|0:0,0:0:0:0:
332,304,256900,6,2,B|344:240|344:240|332:196|332:196|344:124,1,180,2|2,1:0|0:0,0:1:0:0:
368,93,257456,1,2,0:0:0:0:
367,93,257567,6,0,P|321:121|268:124,1,107.999996704102,0|2,1:0|0:1,0:0:0:0:
232,104,257900,1,2,0:0:0:0:
152,192,258011,6,0,P|140:240|168:304,1,107.999996704102,6|0,1:0|0:0,0:0:0:0:
344,320,258345,2,0,P|292:288|232:296,1,107.999996704102,2|0,1:0|0:0,0:0:0:0:
148,384,258678,2,0,P|176:380|208:360,1,53.9999983520508,2|0,1:0|0:0,0:0:0:0:
332,164,258900,2,0,P|288:168|240:216,1,107.999996704102,2|0,1:0|0:0,0:0:0:0:
404,232,259233,2,0,P|432:204|448:136,1,107.999996704102,2|0,1:0|0:0,0:0:0:0:
360,32,259567,2,0,L|372:92,1,53.9999983520508,2|0,1:0|0:0,0:0:0:0:
367,312,259789,6,0,P|420:319|468:296,1,107.999996704102,2|0,1:0|0:0,0:0:0:0:
332,168,260233,1,2,1:0:0:0:
252,336,260456,2,0,L|112:320,1,107.999996704102,2|0,1:0|0:0,0:0:0:0:
0,236,260900,2,0,L|120:224,1,107.999996704102,2|0,1:0|0:0,0:0:0:0:
248,136,261345,1,0,1:0:0:0:
248,136,261456,1,0,1:0:0:0:
248,136,261567,6,0,P|264:188|256:232,1,90,4|0,0:0|0:0,0:0:0:0:
144,120,262011,1,0,1:0:0:0:
300,48,262233,2,0,L|488:32,1,180,2|0,0:0|0:0,0:0:0:0:
216,100,262900,2,0,L|92:88,1,90,0|0,1:0|0:0,0:0:0:0:
380,156,263345,5,2,1:0:0:0:
216,100,263678,1,2,1:0:0:0:
168,324,264011,1,2,1:0:0:0:
168,324,264456,1,2,1:0:0:0:
160,296,264900,1,0,1:0:0:0:
300,344,265122,6,0,B|380:364|380:364|480:328,1,180,4|0,0:0|1:0,0:0:0:0:
512,168,265789,2,0,P|426:156|367:220,1,180,2|0,0:0|0:0,0:0:0:0:
300,344,266456,2,0,L|284:248,1,90,0|0,1:0|0:0,0:0:0:0:
192,152,266900,6,0,L|284:168,1,90,4|0,0:0|0:0,0:0:0:0:
452,232,267345,1,0,1:0:0:0:
480,56,267567,2,0,L|284:72,1,180,2|2,0:0|0:0,0:0:0:0:
268,88,268122,1,2,0:0:0:0:
268,88,268233,2,0,L|216:80,1,45,2|0,0:0|0:0,0:0:0:0:
116,52,268456,2,0,L|124:97,1,45,2|0,0:0|0:0,0:0:0:0:
168,192,268678,5,4,0:0:0:0:
64,172,268900,1,2,0:0:0:0:
236,120,269122,1,0,1:0:0:0:
184,284,269345,1,2,0:0:0:0:
184,284,269456,1,2,0:0:0:0:
184,284,269567,5,4,0:0:0:0:
256,204,269789,1,2,0:0:0:0:
196,376,270011,1,0,1:0:0:0:
96,228,270233,1,2,0:0:0:0:
96,228,270345,1,2,0:0:0:0:
96,228,270456,5,4,0:0:0:0:
168,160,270678,1,2,0:0:0:0:
88,320,270900,1,0,1:0:0:0:
24,148,271122,1,2,0:0:0:0:
24,148,271233,1,2,0:0:0:0:
24,148,271345,5,4,0:0:0:0:
168,160,271567,1,2,0:0:0:0:
8,300,271789,6,0,L|220:268,1,202.500007724762,4|0,0:0|0:0,0:0:0:0:
284,256,272233,5,4,0:0:0:0:
308,160,272456,1,2,0:0:0:0:
352,328,272678,1,0,1:0:0:0:
192,296,272900,1,2,0:0:0:0:
192,296,273011,1,2,0:0:0:0:
192,296,273122,5,4,0:0:0:0:
212,196,273345,1,2,0:0:0:0:
272,360,273567,1,0,1:0:0:0:
100,328,273789,1,2,0:0:0:0:
100,328,273900,1,2,0:0:0:0:
100,328,274011,5,4,0:0:0:0:
104,228,274233,1,2,0:0:0:0:
188,348,274456,1,0,1:0:0:0:
24,376,274678,1,2,0:0:0:0:
24,376,274789,1,2,0:0:0:0:
24,376,274900,5,4,0:0:0:0:
176,264,275122,1,0,1:0:0:0:
176,264,275233,1,0,1:0:0:0:
176,264,275345,2,0,L|252:256,1,45,0|0,1:0|0:0,0:0:0:0:
264,176,275567,2,0,L|308:180,1,45,2|0,0:0|0:0,0:0:0:0:
400,200,275789,5,4,0:0:0:0:
424,104,276011,1,2,0:0:0:0:
480,260,276233,1,0,1:0:0:0:
308,220,276456,1,2,0:0:0:0:
308,220,276567,1,2,0:0:0:0:
308,220,276678,5,4,0:0:0:0:
336,124,276900,1,2,0:0:0:0:
384,292,277122,1,0,1:0:0:0:
208,240,277345,1,2,0:0:0:0:
208,240,277456,1,2,0:0:0:0:
208,240,277567,5,4,0:0:0:0:
232,144,277789,1,2,0:0:0:0:
284,308,278011,1,0,1:0:0:0:
112,264,278233,1,2,0:0:0:0:
112,264,278345,1,2,0:0:0:0:
112,264,278456,5,4,0:0:0:0:
140,160,278678,1,2,0:0:0:0:
36,328,278900,6,0,P|123:364|204:296,1,202.500007724762,4|0,0:0|0:0,0:0:0:0:
200,224,279345,5,4,0:0:0:0:
176,128,279567,1,0,0:0:0:0:
120,280,279789,1,0,1:0:0:0:
288,244,280011,1,2,0:0:0:0:
288,244,280122,1,2,0:0:0:0:
288,244,280233,5,4,0:0:0:0:
264,148,280456,1,2,0:0:0:0:
220,308,280678,1,0,1:0:0:0:
380,268,280900,1,2,0:0:0:0:
380,268,281011,1,2,0:0:0:0:
380,268,281122,5,4,0:0:0:0:
360,172,281345,1,2,0:0:0:0:
308,328,281567,1,0,1:0:0:0:
472,292,281789,1,2,0:0:0:0:
472,292,281900,1,2,0:0:0:0:
472,292,282011,5,0,1:0:0:0:
308,328,282233,1,0,1:0:0:0:
308,328,282345,1,0,1:0:0:0:
308,328,282456,2,0,L|252:316,1,45,0|0,1:0|0:0,0:0:0:0:
192,256,282678,2,0,L|132:264,1,45,2|0,0:0|0:0,0:0:0:0:
48,304,282900,6,0,L|63:215,1,90,4|2,0:0|0:0,0:0:0:0:
72,180,283233,1,2,0:0:0:0:
140,92,283345,2,0,B|100:84|100:84|53:98,1,90,0|0,1:0|0:0,0:0:0:0:
224,136,283678,2,0,L|284:128,1,45,2|0,0:0|0:0,0:0:0:0:
424,64,283900,2,0,L|316:56,1,90,2|0,0:0|0:0,0:0:0:0:
468,152,284233,2,0,L|520:140,1,45,0|0,1:0|0:0,0:0:0:0:
376,212,284456,2,0,L|320:200,1,45,2|0,0:0|0:0,0:0:0:0:
480,260,284678,6,0,L|468:356,1,90,4|2,0:0|0:0,0:0:0:0:
436,368,285011,1,2,0:0:0:0:
336,308,285122,2,0,P|300:296|228:308,1,90,0|0,1:0|0:0,0:0:0:0:
112,352,285456,2,0,L|180:344,1,45,2|0,0:0|0:0,0:0:0:0:
232,220,285678,2,0,L|132:236,1,90,2|0,0:0|0:0,0:0:0:0:
48,268,286011,2,0,L|60:200,1,45,0|0,1:0|0:0,0:0:0:0:
120,108,286233,2,0,L|127:152,1,45,2|0,0:0|0:0,0:0:0:0:
64,20,286456,6,0,B|112:8|112:8|151:16,1,90,4|2,0:0|0:0,0:0:0:0:
180,36,286789,1,2,0:0:0:0:
300,0,286900,2,0,L|276:102,1,90,0|0,1:0|0:0,0:0:0:0:
204,204,287233,2,0,L|220:152,1,45,2|0,0:0|0:0,0:0:0:0:
356,128,287456,2,0,L|364:240,1,90,2|0,0:0|0:0,0:0:0:0:
268,296,287789,2,0,L|284:236,1,45,0|0,1:0|0:0,0:0:0:0:
416,284,288011,2,0,L|424:333,1,45,2|0,0:0|0:0,0:0:0:0:
272,376,288233,6,0,P|236:372|187:341,1,90,4|2,0:0|0:0,0:0:0:0:
176,312,288567,1,2,0:0:0:0:
56,372,288678,2,0,L|73:283,1,90,0|0,1:0|0:0,0:0:0:0:
16,156,289011,2,0,L|28:216,1,45,2|8,0:0|0:3,0:0:0:0:
156,260,289233,1,8,0:3:0:0:
200,256,289345,1,8,0:3:0:0:
244,252,289456,1,8,0:3:0:0:
288,252,289567,2,0,L|296:196,1,45,0|0,1:0|0:0,0:0:0:0:
208,336,289789,2,0,L|213:380,1,45,8|0,1:3|0:0,0:0:0:0:
360,152,290011,6,0,P|321:128|277:123,1,90,4|2,0:0|0:0,0:0:0:0:
248,144,290345,1,2,0:0:0:0:
152,72,290456,2,0,L|142:161,1,90,0|0,1:0|0:0,0:0:0:0:
64,272,290789,2,0,L|72:228,1,45,2|0,0:0|0:0,0:0:0:0:
212,224,291011,2,0,L|223:321,1,90,2|0,0:0|0:0,0:0:0:0:
120,384,291345,2,0,L|128:336,1,45,0|0,1:0|0:0,0:0:0:0:
296,372,291567,2,0,L|360:359,1,45,2|0,0:0|0:0,0:0:0:0:
480,280,291789,6,0,L|376:268,1,90,4|2,0:0|0:0,0:0:0:0:
356,280,292122,1,2,0:0:0:0:
288,160,292233,2,0,P|248:140|204:136,1,90,0|0,1:0|0:0,0:0:0:0:
91,216,292567,2,0,L|136:212,1,45,2|0,0:0|0:0,0:0:0:0:
273,277,292789,2,0,L|184:288,1,90,2|0,0:0|0:0,0:0:0:0:
356,232,293122,2,0,L|400:234,1,45,0|0,1:0|0:0,0:0:0:0:
500,304,293345,2,0,L|455:309,1,45,2|0,0:0|0:0,0:0:0:0:
287,159,293567,6,0,P|271:118|283:76,1,90,4|2,0:0|0:0,0:0:0:0:
312,52,293900,1,2,0:0:0:0:
412,144,294011,2,0,L|400:240,1,90,0|0,1:0|0:0,0:0:0:0:
300,300,294345,2,0,L|316:244,1,45,2|0,0:0|0:0,0:0:0:0:
488,272,294567,2,0,L|470:364,1,90,2|0,0:0|0:0,0:0:0:0:
344,306,294900,2,0,L|292:298,1,45,0|0,1:0|0:0,0:0:0:0:
164,360,295122,2,0,L|240:348,1,45,2|0,0:0|0:0,0:0:0:0:
308,200,295345,6,0,L|304:160,5,30,0|0|0|0|0|0,1:0|1:0|1:0|1:0|1:0|0:0,0:0:0:0:
264,88,295789,2,0,L|268:52,4,30,0|0|0|0|0,1:0|1:0|1:0|1:0|0:0,0:0:0:0:
228,248,296233,5,4,1:0:0:0:
368,108,296456,1,0,1:0:0:0:
104,168,296678,1,2,0:3:0:0:
104,168,297122,5,2,0:0:0:0:
228,248,297345,2,0,L|352:244,1,90,2|0,0:0|0:0,0:0:0:0:
432,168,297789,2,0,P|440:156|448:108,2,45,2|0|2,0:0|0:0|0:0,0:0:0:0:
368,108,298233,1,2,0:0:0:0:
284,128,298678,6,0,P|280:100|284:64,2,45,2|0|2,0:0|0:0|0:0,0:0:0:0:
344,192,299122,1,2,0:0:0:0:
340,272,299567,6,0,P|362:270|384:265,2,45,2|0|2,0:0|0:0|0:0,0:0:0:0:
264,224,300011,1,2,0:0:0:0:
188,332,300233,6,0,B|196:284|196:284|180:232|180:232|200:160,1,161.999995056153,2|2,0:0|0:0,0:0:0:0:
