osu file format v14

[General]
AudioFilename: audio.mp3
AudioLeadIn: 0
PreviewTime: 83274
Countdown: 0
SampleSet: Soft
StackLeniency: 0.7
Mode: 2
LetterboxInBreaks: 0
WidescreenStoryboard: 1

[Editor]
Bookmarks: 21717,42701,63684,84668,105652,126635,147619,168602,189586,210570,231553,247291,263029,284012,304996,325979,336471
DistanceSpacing: 1
BeatDivisor: 4
GridSize: 4
TimelineZoom: 1.9

[Metadata]
Title:Aqua Trytone / Kanshou no Matenrou
TitleUnicode:Aqua Trytone / 感傷の摩天楼
Artist:Halozy
ArtistUnicode:Halozy
Creator:celerih
Version:Rain
Source:東方星蓮船 ~ Undefined Fantastic Object.
Tags:Touhou 東方Project Hotaru ほたる Sumijun すみじゅん c80 Hijiri Byakuren 聖 白蓮 sentimental emotional skyscraper 感情の摩天楼 Cosmic Mind Lasse
BeatmapID:1633813
BeatmapSetID:777789

[Difficulty]
HPDrainRate:5
CircleSize:3.8
OverallDifficulty:9
ApproachRate:9
SliderMultiplier:1.8
SliderTickRate:2

[Events]
//Background and Video events
0,0,"Kanshou BG.jpg",0,0
//Break Periods
2,105852,114724
//Storyboard Layer 0 (Background)
//Storyboard Layer 1 (Fail)
//Storyboard Layer 2 (Pass)
//Storyboard Layer 3 (Foreground)
//Storyboard Sound Samples

[TimingPoints]
734,327.868852459016,4,2,20,40,1,0
21553,-100,4,2,99,10,0,0
21717,-100,4,2,1,55,0,0
21799,-100,4,2,20,40,0,0
26963,-100,4,2,21,50,0,0
27045,-100,4,2,20,45,0,0
32209,-100,4,2,20,60,0,0
32373,-100,4,2,20,45,0,0
34832,-100,4,2,1,45,0,0
36143,-100,4,2,1,50,0,0
37455,-100,4,2,1,52,0,0
38766,-100,4,2,1,55,0,0
40078,-100,4,2,1,60,0,0
40733,-100,4,2,1,50,0,0
41389,-100,4,2,1,40,0,0
42045,-100,4,2,1,45,0,0
42373,-100,4,2,1,50,0,0
42701,-100,4,2,1,60,0,0
42865,-100,4,2,1,40,0,0
47947,-100,4,2,1,45,0,0
49258,-100,4,2,1,50,0,0
50570,-100,4,2,1,55,0,0
51881,-100,4,2,1,60,0,0
53193,-100,4,2,1,80,0,0
58438,-100,4,2,1,70,0,0
60406,-100,4,2,1,70,0,0
61061,-100,4,3,1,75,0,0
63193,-100,4,3,1,56,0,0
63356,-100,4,3,1,70,0,0
63520,-100,4,3,1,65,0,0
63684,-100,4,1,1,80,0,0
63848,-100,4,1,1,70,0,0
68766,-100,4,1,1,70,0,0
68930,-100,4,1,1,70,0,0
69094,-100,4,1,1,70,0,0
73029,-100,4,1,1,70,0,0
73684,-100,4,1,1,70,0,0
74176,-100,4,2,1,80,0,0
74340,-100,4,2,1,70,0,0
79422,-100,4,2,1,80,0,0
79504,-100,4,2,1,70,0,0
79586,-100,4,2,1,75,0,0
79668,-100,4,2,1,70,0,0
81717,-100,4,2,1,70,0,0
82045,-100,4,2,1,70,0,0
82373,-100,4,2,1,70,0,0
82701,-100,4,2,1,70,0,0
83029,-100,4,2,1,70,0,0
83356,-100,4,2,42,70,0,0
84012,-100,4,2,43,70,0,0
84094,-100,4,2,43,30,0,0
84668,-100,4,2,44,85,0,1
84832,-100,4,1,3,75,0,1
84996,-100,4,1,3,75,0,1
86307,-100,4,1,3,75,0,1
87618,-100,4,1,3,75,0,1
88602,-100,4,1,3,30,0,1
88766,-100,4,1,3,75,0,1
90242,-100,4,1,3,75,0,1
92373,-100,4,1,3,80,0,1
92701,-100,4,1,3,75,0,1
94996,-100,4,1,3,75,0,1
95160,-100,4,1,3,80,0,1
95488,-100,4,1,3,75,0,1
96799,-100,4,1,3,75,0,1
97783,-100,4,1,3,80,0,1
97947,-100,4,1,3,75,0,1
98930,-100,4,1,3,80,0,1
99258,-100,4,1,3,75,0,1
100242,-100,4,1,3,80,0,1
100570,-100,4,1,3,75,0,1
101717,-100,4,1,3,80,0,1
102045,-100,4,1,3,75,0,1
103029,-100,4,1,3,60,0,0
103111,-100,4,2,20,60,0,0
103520,-100,4,1,3,60,0,0
103684,-100,4,1,3,60,0,0
104340,-100,4,1,3,60,0,0
104504,-100,4,1,3,60,0,0
105324,-100,4,2,1,60,0,0
105652,-100,4,2,60,50,0,0
115324,-100,4,2,20,20,0,0
115488,-100,4,2,20,30,0,0
115652,-100,4,2,20,40,0,0
115815,-100,4,2,20,50,0,0
115979,-100,4,2,20,60,0,0
116143,-100,4,2,60,60,0,0
116799,-100,4,2,1,45,0,0
118766,-100,4,2,60,45,0,0
119094,-100,4,2,1,45,0,0
121389,-100,4,2,60,45,0,0
121717,-100,4,2,1,45,0,0
124012,-100,4,2,60,45,0,0
124340,-100,4,2,1,45,0,0
126635,-100,4,2,1,60,0,0
126799,-100,4,2,1,50,0,0
129258,-100,4,2,51,50,0,0
129422,-100,4,2,1,50,0,0
134504,-100,4,2,51,50,0,0
134668,-100,4,2,1,50,0,0
136799,-100,4,2,1,15,0,0
136963,-100,4,2,1,50,0,0
137126,-100,4,2,1,65,0,0
137291,-100,4,2,1,60,0,0
142373,-100,4,2,1,68,0,0
142537,-100,4,2,1,63,0,0
144996,-100,4,2,1,70,0,0
145161,-100,4,2,1,65,0,0
146143,-100,4,2,1,70,0,0
146308,-100,4,2,1,65,0,0
146963,-100,4,2,1,65,0,0
147045,-100,4,2,1,40,0,0
147127,-100,4,2,1,65,0,0
147209,-100,4,2,1,40,0,0
147291,-100,4,2,1,65,0,0
147373,-100,4,2,1,40,0,0
147455,-100,4,2,1,65,0,0
147537,-100,4,2,1,40,0,0
147619,-100,4,3,44,75,0,1
147947,-100,4,1,3,70,0,1
148111,-100,4,1,3,45,0,1
148274,-100,4,1,3,70,0,1
149258,-100,4,1,3,70,0,1
150078,-100,4,1,3,45,0,1
150242,-100,4,1,3,70,0,1
150406,-100,4,1,3,45,0,1
150570,-100,4,1,3,70,0,1
151389,-100,4,1,3,45,0,1
151553,-100,4,1,3,70,0,1
151717,-100,4,1,3,45,0,1
151881,-100,4,1,3,70,0,1
153193,-100,4,1,3,70,0,1
153356,-100,4,1,3,45,0,1
153520,-100,4,1,3,70,0,1
154504,-100,4,1,3,70,0,1
155324,-100,4,1,3,45,0,1
155488,-100,4,1,3,70,0,1
155652,-100,4,1,3,45,0,1
155815,-100,4,1,3,70,0,1
156471,-100,4,1,3,70,0,1
156799,-100,4,1,3,70,0,1
157127,-100,4,1,3,70,0,1
157783,-100,4,1,3,70,0,0
158111,-100,4,2,1,75,0,0
159422,-100,4,1,3,70,0,0
159750,-100,4,1,2,70,0,0
162045,-100,4,1,3,70,0,0
162372,-100,4,1,2,70,0,0
163356,-100,4,3,2,75,0,0
163520,-100,4,3,2,70,0,0
163848,-100,4,3,2,75,0,0
164012,-100,4,3,2,70,0,0
164340,-100,4,3,2,75,0,0
164504,-100,4,3,2,70,0,0
164832,-100,4,3,2,75,0,0
164996,-100,4,3,2,70,0,0
165324,-100,4,3,2,75,0,0
165488,-100,4,3,2,70,0,0
165652,-100,4,3,2,75,0,0
165815,-100,4,3,2,70,0,0
165979,-100,4,3,2,75,0,0
166143,-100,4,3,2,70,0,0
166471,-100,4,3,2,75,0,0
166635,-100,4,3,2,70,0,0
166963,-100,4,3,2,75,0,0
167127,-100,4,3,2,70,0,0
167455,-100,4,3,2,75,0,0
167619,-100,4,3,2,70,0,0
167947,-100,4,3,2,75,0,0
168274,-100,4,3,2,70,0,0
168602,-100,4,1,3,75,0,0
168766,-100,4,1,3,70,0,0
171389,-100,4,1,3,55,0,0
171553,-100,4,1,3,70,0,0
176635,-100,4,1,3,70,0,0
179094,-100,4,1,3,75,0,0
179422,-100,4,1,3,65,0,0
179996,-100,4,1,3,5,0,0
180078,-100,4,1,3,65,0,0
183111,-100,4,2,20,5,0,0
183193,-100,4,1,3,65,0,0
184504,-100,4,1,3,65,0,0
187291,-100,4,1,3,60,0,0
187783,-100,4,1,3,60,0,0
187947,-100,4,2,21,60,0,0
188274,-100,4,1,3,65,0,0
188438,-100,4,1,3,70,0,0
188602,-100,4,1,3,75,0,0
188766,-100,4,1,3,80,0,0
189586,-100,4,2,44,85,0,1
189750,-100,4,1,3,75,0,1
189914,-100,4,1,3,75,0,1
191225,-100,4,1,3,75,0,1
192537,-100,4,1,3,75,0,1
193520,-100,4,1,3,30,0,1
193684,-100,4,1,3,75,0,1
195160,-100,4,1,3,75,0,1
197619,-100,4,1,3,75,0,1
199914,-100,4,1,3,75,0,1
200078,-100,4,1,3,80,0,1
200406,-100,4,1,3,75,0,1
201717,-100,4,1,3,75,0,1
202701,-100,4,1,3,80,0,1
202865,-100,4,1,3,75,0,1
203848,-100,4,1,3,80,0,1
204176,-100,4,1,3,75,0,1
205160,-100,4,1,3,80,0,1
205488,-100,4,1,3,75,0,1
206635,-100,4,1,3,80,0,1
206963,-100,4,1,3,75,0,1
207947,-100,4,1,3,60,0,0
208029,-100,4,2,20,60,0,0
208438,-100,4,1,3,60,0,0
208602,-100,4,1,3,60,0,0
209258,-100,4,2,1,60,0,0
209422,-100,4,2,1,60,0,0
210570,-100,4,2,1,60,0,0
213193,-100,4,2,51,50,0,0
213356,-100,4,2,1,50,0,0
218438,-100,4,2,51,50,0,0
218602,-100,4,2,1,50,0,0
221061,-100,4,2,1,65,0,0
221225,-100,4,2,1,60,0,0
226307,-100,4,2,1,68,0,0
226471,-100,4,2,1,63,0,0
228930,-100,4,2,1,70,0,0
229094,-100,4,2,1,65,0,0
230078,-100,4,2,1,70,0,0
230242,-100,4,2,1,65,0,0
230897,-100,4,2,1,65,0,0
230979,-100,4,2,1,40,0,0
231061,-100,4,2,1,65,0,0
231143,-100,4,2,1,40,0,0
231225,-100,4,2,1,65,0,0
231307,-100,4,2,1,40,0,0
231389,-100,4,2,1,65,0,0
231471,-100,4,2,1,40,0,0
231553,-100,4,3,44,75,0,1
231881,-100,4,1,3,70,0,1
232045,-100,4,1,3,45,0,1
232209,-100,4,1,3,70,0,1
233193,-100,4,1,3,70,0,1
234012,-100,4,1,3,45,0,1
234176,-100,4,1,3,70,0,1
234340,-100,4,1,3,45,0,1
234504,-100,4,1,3,70,0,1
235324,-100,4,1,3,45,0,1
235488,-100,4,1,3,70,0,1
235652,-100,4,1,3,45,0,1
235815,-100,4,1,3,70,0,1
237127,-100,4,1,3,70,0,1
237291,-100,4,1,3,45,0,1
237455,-100,4,1,3,70,0,1
238438,-100,4,1,3,70,0,1
239258,-100,4,1,3,45,0,1
239422,-100,4,1,3,70,0,1
239586,-100,4,1,3,45,0,1
239750,-100,4,1,3,70,0,1
240406,-100,4,1,3,70,0,1
240733,-100,4,1,3,70,0,1
241061,-100,4,1,3,70,0,1
241717,-100,4,1,3,70,0,0
242045,-100,4,2,1,75,0,0
243356,-100,4,1,3,70,0,0
243684,-100,4,1,2,70,0,0
245979,-100,4,1,3,70,0,0
246307,-100,4,1,2,70,0,0
246799,-100,4,1,2,70,0,0
247291,-100,4,3,2,75,0,0
247455,-100,4,3,2,70,0,0
247783,-100,4,3,2,75,0,0
247947,-100,4,3,2,70,0,0
248274,-100,4,3,2,75,0,0
248438,-100,4,3,2,70,0,0
248766,-100,4,3,2,75,0,0
248930,-100,4,3,2,70,0,0
249258,-100,4,3,2,75,0,0
249422,-100,4,3,2,70,0,0
249586,-100,4,3,2,75,0,0
249750,-100,4,3,2,70,0,0
249914,-100,4,3,2,75,0,0
250078,-100,4,3,2,70,0,0
250406,-100,4,3,2,75,0,0
250570,-100,4,3,2,70,0,0
250897,-100,4,3,2,75,0,0
251061,-100,4,3,2,70,0,0
251389,-100,4,3,2,75,0,0
251553,-100,4,3,2,70,0,0
251881,-100,4,3,2,75,0,0
252209,-100,4,3,2,70,0,0
252537,-100,4,3,1,75,0,0
252865,-100,4,2,51,75,0,0
257783,-100,4,2,51,75,0,0
259094,-100,4,2,1,75,0,0
260078,-100,4,2,1,75,0,0
260406,-100,4,2,1,75,0,0
260733,-100,4,2,1,75,0,0
261061,-100,4,2,1,75,0,0
261389,-100,4,2,1,75,0,0
261717,-100,4,2,42,35,0,0
262701,-100,4,2,21,35,0,0
263029,-100,4,2,44,39,0,0
263111,-100,4,2,1,39,0,0
264340,-100,4,2,1,43,0,0
265651,-100,4,2,1,47,0,0
266963,-100,4,2,1,51,0,0
268274,-100,4,2,1,55,0,0
269586,-100,4,2,1,59,0,0
270897,-100,4,2,1,63,0,0
272209,-100,4,2,1,67,0,0
273520,-100,4,1,3,75,0,0
273684,-100,4,1,3,65,0,0
273848,-100,4,1,3,65,0,0
275160,-100,4,1,3,65,0,0
276143,-100,4,1,3,75,0,0
276307,-100,4,1,3,65,0,0
277291,-100,4,1,3,75,0,0
277619,-100,4,1,3,65,0,0
278602,-100,4,1,3,75,0,0
278930,-100,4,1,3,65,0,0
280078,-100,4,1,3,75,0,0
280406,-100,4,1,3,65,0,0
281389,-100,4,2,1,75,0,0
281553,-100,4,2,1,65,0,0
282045,-100,4,2,21,65,0,0
282373,-100,4,2,21,65,0,0
282701,-100,4,2,42,70,0,0
282742,-100,4,2,1,65,0,0
282783,-100,4,2,1,65,0,0
282865,-100,4,2,1,66,0,0
282947,-100,4,2,1,67,0,0
283029,-100,4,2,1,68,0,0
283111,-100,4,2,1,69,0,0
283193,-100,4,2,1,70,0,0
283274,-100,4,2,1,71,0,0
283356,-100,4,2,43,75,0,0
283397,-100,4,2,1,71,0,0
283438,-100,4,2,1,72,0,0
283520,-100,4,2,1,73,0,0
283602,-100,4,2,1,74,0,0
283684,-100,4,2,21,80,0,0
283766,-100,4,2,21,81,0,0
283848,-100,4,2,21,82,0,0
283930,-100,4,2,21,83,0,0
284012,-100,4,2,44,85,0,1
284176,-100,4,1,3,75,0,1
284340,-100,4,1,3,75,0,1
285652,-100,4,1,3,75,0,1
286963,-100,4,1,3,75,0,1
287947,-100,4,1,3,30,0,1
288111,-100,4,1,3,75,0,1
289586,-100,4,1,3,75,0,1
291717,-100,4,1,3,80,0,1
292045,-100,4,1,3,75,0,1
294340,-100,4,1,3,75,0,1
294504,-100,4,1,3,80,0,1
294832,-100,4,1,3,75,0,1
296143,-100,4,1,3,75,0,1
297127,-100,4,1,3,80,0,1
297291,-100,4,1,3,75,0,1
298274,-100,4,1,3,80,0,1
298602,-100,4,1,3,75,0,1
299586,-100,4,1,3,80,0,1
299914,-100,4,1,3,75,0,1
301061,-100,4,1,3,80,0,1
301389,-100,4,1,3,75,0,1
302373,-100,4,1,3,60,0,0
302455,-100,4,2,20,60,0,0
302865,-100,4,1,3,60,0,0
303029,-100,4,1,3,60,0,0
303684,-100,4,2,1,60,0,0
303848,-100,4,2,1,60,0,0
304504,-100,4,2,1,56,0,0
304667,-100,4,2,1,70,0,0
304996,-100,4,1,1,80,0,0
305160,-100,4,1,1,70,0,0
310078,-100,4,1,1,70,0,0
310242,-100,4,1,1,70,0,0
310406,-100,4,1,1,70,0,0
314340,-100,4,1,1,70,0,0
314996,-100,4,1,1,70,0,0
315488,-100,4,1,1,85,0,0
315652,-100,4,1,1,75,0,0
320570,-100,4,1,1,75,0,0
320733,-100,4,1,1,75,0,0
320897,-100,4,1,1,75,0,0
324504,-100,4,1,1,75,0,0
324750,-100,4,2,20,20,0,0
324832,-100,4,1,1,75,0,0
325160,-100,4,1,1,75,0,0
325487,-100,4,1,1,75,0,0
325979,-100,4,2,1,80,0,0
326061,-100,4,2,70,75,0,0
326307,-100,4,2,71,70,0,0
326635,-100,4,2,70,65,0,0
327291,-100,4,2,71,60,0,0
327947,-100,4,2,70,55,0,0
328602,-100,4,2,71,50,0,0
329258,-100,4,2,70,45,0,0
329914,-100,4,2,71,40,0,0
330570,-100,4,2,70,35,0,0
331225,-100,4,2,20,30,0,0
331307,-100,4,2,20,30,0,0
336471,-100,4,2,99,25,0,0

[Colours]
Combo1 : 194,126,150
Combo2 : 232,167,67
Combo3 : 88,90,89

[HitObjects]
256,192,20406,12,0,21553,0:0:0:0:
264,204,21717,6,0,P|288:168|256:120,1,90,2|0,0:3|0:0,0:0:0:0:
196,248,22045,2,0,P|172:212|204:164,1,90,0|0,0:0|0:0,0:0:0:0:
280,220,22373,2,0,L|332:132,2,90,0|0|0,0:0|0:0|0:0,0:0:0:0:
128,300,22865,6,0,P|64:292|56:184,1,180,2|0,0:1|0:0,0:0:0:0:
200,196,23356,2,0,L|300:180,1,90,0|0,0:0|0:0,0:0:0:0:
368,240,23684,2,0,L|396:140,1,90,0|0,0:0|0:0,0:0:0:0:
312,284,24012,2,0,L|284:184,1,90,0|0,0:0|0:0,0:0:0:0:
444,172,24340,6,0,L|464:72,1,90,2|0,0:0|0:0,0:0:0:0:
376,208,24668,2,0,L|356:108,1,90,0|0,0:0|0:0,0:0:0:0:
280,228,24996,2,0,L|352:156,2,90,0|0|0,0:0|0:0|0:0,0:0:0:0:
432,312,25488,6,0,P|440:256|328:200,1,180,2|0,0:1|0:0,0:0:0:0:
204,224,25979,2,0,L|156:136,1,90,0|0,0:0|0:0,0:0:0:0:
240,224,26307,2,0,L|192:136,1,90,0|0,0:0|0:0,0:0:0:0:
276,232,26635,2,0,L|182:209,1,90,0|0,0:0|0:0,0:0:0:0:
40,284,26963,6,0,L|16:192,1,90,2|0,0:3|0:0,0:0:0:0:
100,208,27291,2,0,L|124:116,1,90,0|0,0:0|0:0,0:0:0:0:
36,104,27619,2,0,L|104:32,2,90,0|0|0,0:0|0:0|0:0,0:0:0:0:
180,196,28111,6,0,P|264:192|316:80,1,180,2|0,0:1|0:0,0:0:0:0:
176,96,28602,2,0,L|156:0,1,90,0|0,0:0|0:0,0:0:0:0:
240,120,28930,2,0,L|260:24,1,90,0|0,0:0|0:0,0:0:0:0:
172,152,29258,2,0,L|108:80,1,90,0|0,0:0|0:0,0:0:0:0:
264,120,29586,6,0,L|304:36,1,90,2|0,0:0|0:0,0:0:0:0:
216,168,29914,2,0,L|176:84,1,90,0|0,0:0|0:0,0:0:0:0:
256,180,30242,2,0,L|320:116,2,90,0|0|0,0:0|0:0|0:0,0:0:0:0:
104,272,30733,6,0,L|284:232,1,180,2|0,0:1|0:0,0:0:0:0:
432,308,31225,2,0,L|368:212,1,90,0|0,0:0|0:0,0:0:0:0:
296,328,31553,2,0,L|360:232,1,90,0|0,0:0|0:0,0:0:0:0:
260,240,31881,2,0,L|160:216,1,90,0|0,0:0|0:0,0:0:0:0:
400,112,32209,5,6,0:0:0:0:
256,192,32373,12,0,37291,0:0:0:0:
328,272,37455,6,0,L|345:167,1,90,2|0,0:0|0:0,0:0:0:0:
196,176,37783,2,0,L|179:71,1,90,0|0,0:0|0:0,0:0:0:0:
328,44,38111,1,0,0:0:0:0:
408,108,38274,1,0,0:0:0:0:
448,104,38356,1,0,0:0:0:0:
488,100,38438,1,0,0:0:0:0:
252,156,38602,6,0,P|188:200|264:264,1,180,2|0,0:1|0:0,0:0:0:0:
280,268,39012,1,0,0:0:0:0:
320,268,39094,1,0,0:0:0:0:
400,308,39258,1,0,0:0:0:0:
412,268,39340,1,0,0:0:0:0:
420,228,39422,1,0,0:0:0:0:
264,288,39586,1,0,0:0:0:0:
188,240,39750,2,0,L|168:128,1,90,0|0,0:3|0:3,0:0:0:0:
408,200,40078,5,2,0:3:0:0:
456,176,40160,1,0,0:0:0:0:
456,120,40242,1,0,0:0:0:0:
408,84,40324,1,0,0:0:0:0:
312,256,40406,1,0,0:0:0:0:
264,232,40488,1,0,0:0:0:0:
264,176,40570,1,0,0:0:0:0:
312,140,40652,1,0,0:0:0:0:
364,144,40733,2,0,L|480:128,1,90,0|0,0:0|0:0,0:0:0:0:
360,176,41061,5,0,0:0:0:0:
256,192,41225,12,0,42537,0:0:0:0:
180,272,42701,6,0,L|156:160,1,90,6|0,0:3|0:0,0:0:0:0:
236,192,43029,2,0,L|260:80,1,90,8|0,0:3|0:0,0:0:0:0:
180,72,43356,1,0,0:0:0:0:
260,92,43520,2,0,L|360:100,2,90,0|8|0,0:0|0:3|0:1,0:0:0:0:
104,256,44012,6,0,L|84:136,1,90,0|0,0:3|0:0,0:0:0:0:
160,168,44340,2,0,L|68:148,1,90,8|0,0:3|0:3,0:0:0:0:
224,224,44668,1,0,0:0:0:0:
312,212,44832,1,0,0:0:0:0:
212,212,44996,2,0,L|196:108,1,90,8|0,0:3|0:0,0:0:0:0:
384,284,45324,6,0,L|392:184,1,90,0|0,0:3|0:0,0:0:0:0:
320,172,45652,2,0,L|420:160,1,90,8|0,0:3|0:0,0:0:0:0:
260,88,45979,2,0,L|208:48,2,45,0|0|0,0:0|0:0|0:0,0:0:0:0:
188,128,46307,2,0,L|172:28,1,90,8|0,0:3|0:0,0:0:0:0:
320,164,46635,6,0,L|436:148,1,90,0|0,0:3|0:0,0:0:0:0:
332,132,46963,1,8,0:3:0:0:
252,168,47127,1,0,0:0:0:0:
208,144,47209,1,0,0:0:0:0:
188,96,47291,1,0,0:0:0:0:
208,144,47373,1,0,0:0:0:0:
252,168,47455,1,0,0:0:0:0:
356,212,47619,2,0,L|464:196,1,90,8|0,0:3|0:0,0:0:0:0:
400,192,47865,1,0,0:0:0:0:
308,148,47947,6,0,L|197:134,1,90,4|0,0:3|0:0,0:0:0:0:
304,128,48274,2,0,L|328:28,1,90,8|0,0:3|0:0,0:0:0:0:
180,56,48602,2,0,L|136:16,2,45,0|0|0,0:0|0:0|0:0,0:0:0:0:
264,100,48930,2,0,L|356:92,1,90,8|0,0:3|0:0,0:0:0:0:
396,108,49176,1,0,0:0:0:0:
308,232,49258,6,0,L|208:220,1,90,0|0,0:3|0:0,0:0:0:0:
144,268,49586,1,8,0:3:0:0:
296,348,49750,1,0,0:0:0:0:
344,332,49832,1,0,0:0:0:0:
364,288,49914,1,0,0:0:0:0:
344,332,49996,1,0,0:0:0:0:
296,348,50078,1,0,0:0:0:0:
216,296,50242,2,0,L|188:192,1,90,8|0,0:3|0:0,0:0:0:0:
344,148,50570,6,0,L|243:137,1,90,0|0,0:3|0:0,0:0:0:0:
348,72,50897,2,0,L|361:168,1,90,8|0,0:3|0:0,0:0:0:0:
212,200,51225,1,0,0:0:0:0:
172,196,51307,1,0,0:0:0:0:
132,188,51389,1,0,0:0:0:0:
264,276,51553,2,0,L|358:296,1,90,8|0,0:3|0:0,0:0:0:0:
392,291,51799,1,0,0:0:0:0:
432,287,51881,5,0,0:3:0:0:
336,259,52045,1,0,0:0:0:0:
187,343,52209,2,0,L|87:327,1,90,8|0,0:3|0:0,0:0:0:0:
63,307,52455,1,0,0:0:0:0:
51,267,52537,1,0,0:0:0:0:
63,307,52619,1,0,0:0:0:0:
98,328,52701,1,0,0:0:0:0:
264,274,52865,2,0,L|376:262,1,90,8|0,0:3|0:0,0:0:0:0:
393,273,53111,1,0,0:0:0:0:
233,175,53193,6,0,L|213:77,1,90,6|0,0:3|0:0,0:0:0:0:
303,104,53520,1,8,0:3:0:0:
216,172,53684,1,0,0:0:0:0:
176,152,53766,1,0,0:0:0:0:
164,112,53848,1,0,0:0:0:0:
176,152,53930,1,0,0:0:0:0:
216,172,54012,1,0,0:0:0:0:
368,112,54176,1,8,0:3:0:0:
464,152,54340,1,0,0:0:0:0:
500,156,54422,1,0,0:0:0:0:
400,84,54504,6,0,L|300:92,1,90,0|0,0:3|0:3,0:0:0:0:
228,268,54832,2,0,L|260:172,1,90,8|0,0:3|0:0,0:0:0:0:
408,216,55160,1,0,0:0:0:0:
369,221,55242,1,0,0:0:0:0:
336,224,55324,1,0,0:0:0:0:
184,316,55488,2,0,L|160:220,1,90,8|0,0:3|0:0,0:0:0:0:
204,228,55733,1,0,0:0:0:0:
312,152,55815,6,0,L|416:168,1,90,0|0,0:3|0:0,0:0:0:0:
248,128,56143,2,0,L|236:28,1,90,8|0,0:3|0:3,0:0:0:0:
320,40,56471,1,0,0:0:0:0:
288,32,56553,1,0,0:0:0:0:
256,24,56635,1,0,0:3:0:0:
408,152,56799,2,0,L|425:59,1,90,8|0,0:3|0:0,0:0:0:0:
384,60,57045,1,0,0:0:0:0:
240,140,57127,5,0,0:3:0:0:
160,128,57291,1,0,0:0:0:0:
304,308,57455,2,0,L|320:212,1,90,8|0,0:3|0:0,0:0:0:0:
228,252,57783,1,0,0:0:0:0:
188,220,57865,1,0,0:0:0:0:
188,172,57947,1,0,0:0:0:0:
228,144,58029,1,0,0:0:0:0:
340,144,58111,2,0,L|356:32,1,90,8|0,0:3|0:0,0:0:0:0:
308,60,58356,1,0,0:0:0:0:
156,148,58438,6,0,L|64:132,1,90,4|0,0:3|0:0,0:0:0:0:
28,136,58684,1,0,0:0:0:0:
180,40,58766,1,8,0:3:0:0:
223,48,58847,1,0,0:0:0:0:
251,82,58929,1,0,0:0:0:0:
252,126,59011,1,0,0:0:0:0:
225,161,59093,1,0,0:0:0:0:
182,171,59175,1,0,2:0:0:0:
80,136,59258,5,0,0:0:0:0:
64,88,59340,1,0,0:0:0:0:
168,40,59422,1,8,0:3:0:0:
200,36,59504,1,0,0:0:0:0:
232,32,59586,1,0,0:0:0:0:
264,32,59668,1,0,0:0:0:0:
160,144,59750,5,0,0:3:0:0:
116,136,59831,1,0,0:0:0:0:
85,104,59913,1,0,0:0:0:0:
77,61,59995,1,0,0:0:0:0:
184,192,60078,1,8,0:3:0:0:
227,184,60159,1,0,0:0:0:0:
258,152,60241,1,0,0:0:0:0:
266,109,60323,1,0,0:0:0:0:
112,280,60406,5,0,0:0:0:0:
91,277,60447,1,0,0:0:0:0:
72,269,60488,1,0,0:0:0:0:
55,257,60529,1,0,0:0:0:0:
41,240,60570,1,0,0:0:0:0:
33,221,60611,1,0,0:0:0:0:
30,200,60652,1,0,0:0:0:0:
32,179,60693,1,0,0:0:0:0:
40,159,60733,1,0,0:3:0:0:
53,142,60774,1,0,0:0:0:0:
69,129,60815,1,0,0:0:0:0:
89,121,60856,1,0,0:0:0:0:
110,118,60897,1,0,0:0:0:0:
131,121,60938,1,0,0:0:0:0:
150,129,60979,1,0,0:0:0:0:
296,188,61061,6,0,L|400:180,2,90,4|0|0,0:0|0:0|0:0,0:0:0:0:
52,96,61553,1,0,0:0:0:0:
252,296,63193,1,4,0:0:0:0:
400,268,63356,2,0,L|422:156,1,90,0|0,0:0|0:0,0:0:0:0:
184,168,63684,6,0,L|84:152,1,90,6|0,0:3|2:0,0:0:0:0:
220,128,64012,2,0,L|132:76,1,90,0|0,0:3|2:0,0:0:0:0:
372,208,64340,2,0,L|488:196,2,90,0|0|0,0:3|2:0|0:3,0:0:0:0:
144,300,64832,6,0,P|84:248|164:204,1,180,2|0,2:1|2:0,0:0:0:0:
296,224,65324,1,0,0:3:0:0:
380,216,65488,2,0,L|396:120,1,90,0|0,2:0|0:3,0:0:0:0:
248,88,65815,1,0,2:0:0:0:
208,92,65897,1,0,2:0:0:0:
100,116,65979,2,0,L|80:20,1,90,0|0,0:3|2:0,0:0:0:0:
312,152,66307,6,0,L|332:56,1,90,4|0,0:3|2:0,0:0:0:0:
184,172,66635,1,0,0:3:0:0:
96,156,66799,1,0,2:0:0:0:
236,260,66963,2,0,L|332:248,2,90,0|0|0,0:3|2:0|0:3,0:0:0:0:
476,232,67455,6,0,L|268:220,1,180,2|0,2:1|2:0,0:0:0:0:
152,296,67947,2,0,L|128:188,1,90,0|0,0:0|2:0,0:0:0:0:
360,96,68274,2,0,L|480:104,1,90,4|0,0:2|2:0,0:0:0:0:
488,92,68520,1,0,2:0:0:0:
388,184,68602,2,0,L|296:168,1,90,4|2,0:2|2:0,0:0:0:0:
60,264,68930,6,0,L|156:248,1,90,6|0,0:3|2:0,0:0:0:0:
280,332,69258,2,0,L|304:236,1,90,0|0,0:3|2:0,0:0:0:0:
160,284,69586,2,0,L|264:292,2,90,0|0|0,0:3|2:0|0:3,0:0:0:0:
388,208,70078,6,0,P|432:132|350:86,1,180,2|0,2:1|2:0,0:0:0:0:
228,176,70570,2,0,L|134:166,2,90,0|0|0,0:3|2:0|0:3,0:0:0:0:
316,196,71061,1,0,2:0:0:0:
356,192,71143,1,0,2:0:0:0:
244,319,71225,2,0,L|224:219,1,90,0|0,0:3|2:0,0:0:0:0:
454,196,71553,6,0,L|498:92,1,90,4|0,0:3|2:0,0:0:0:0:
332,128,71881,1,0,0:3:0:0:
240,120,72045,1,0,2:0:0:0:
388,240,72209,2,0,L|280:216,2,90,0|0|0,0:3|2:0|0:3,0:0:0:0:
164,312,72701,6,0,L|352:280,1,180,2|0,2:1|2:0,0:0:0:0:
424,288,73193,1,0,0:3:0:0:
184,192,73356,2,0,P|120:132|188:80,1,180,2|0,2:0|2:0,0:0:0:0:
232,88,73766,1,0,2:0:0:0:
124,164,73848,2,0,L|112:52,1,90,2|2,0:1|2:0,0:0:0:0:
368,184,74176,6,0,L|488:164,1,90,4|0,1:3|0:0,0:0:0:0:
308,132,74504,1,8,0:0:0:0:
228,168,74668,1,0,0:0:0:0:
184,152,74750,1,0,0:0:0:0:
168,108,74832,1,0,0:0:0:0:
184,152,74914,1,0,0:0:0:0:
228,168,74996,1,0,0:0:0:0:
368,192,75160,2,0,L|388:292,1,90,8|0,0:0|0:0,0:0:0:0:
296,152,75488,6,0,L|396:140,1,90,0|0,1:3|0:0,0:0:0:0:
228,332,75815,2,0,L|204:228,1,90,8|0,0:0|0:0,0:0:0:0:
252,236,76061,1,0,0:0:0:0:
280,200,76143,1,0,0:0:0:0:
272,156,76225,1,0,0:0:0:0:
236,132,76307,1,0,0:0:0:0:
88,208,76471,2,0,L|72:104,1,90,8|0,0:0|0:0,0:0:0:0:
120,116,76717,1,0,0:0:0:0:
224,152,76799,6,0,L|404:128,1,180,0|8,1:3|0:0,0:0:0:0:
252,272,77291,1,0,0:0:0:0:
300,276,77373,1,0,0:0:0:0:
348,280,77455,2,0,L|360:156,1,90,0|0,0:0|0:0,0:0:0:0:
272,160,77783,2,0,L|176:168,1,90,8|0,0:0|0:0,0:0:0:0:
272,224,78111,6,0,L|280:120,1,90,0|0,1:3|0:0,0:0:0:0:
128,96,78438,1,8,0:0:0:0:
204,128,78602,1,0,0:0:0:0:
252,120,78684,1,0,0:0:0:0:
300,112,78766,2,0,L|204:92,1,90,0|0,0:0|0:0,0:0:0:0:
356,216,79094,2,0,L|364:124,1,90,8|0,0:0|0:0,0:0:0:0:
124,364,79422,5,4,3:1:0:0:
80,348,79504,1,0,0:0:0:0:
56,308,79586,1,0,3:0:0:0:
68,264,79668,1,0,0:0:0:0:
172,248,79750,5,8,0:0:0:0:
216,232,79832,1,0,0:0:0:0:
240,192,79914,1,0,0:0:0:0:
240,192,79996,1,0,0:0:0:0:
216,232,80078,1,0,0:0:0:0:
172,248,80160,1,0,0:0:0:0:
128,248,80242,1,0,0:0:0:0:
80,240,80324,1,0,0:0:0:0:
192,336,80406,1,8,0:0:0:0:
236,332,80488,1,0,0:0:0:0:
280,328,80570,1,0,0:0:0:0:
324,324,80652,1,0,0:0:0:0:
176,288,80733,5,4,1:3:0:0:
136,264,80815,1,0,0:0:0:0:
132,216,80897,1,0,0:0:0:0:
176,184,80979,1,0,0:0:0:0:
284,204,81061,1,8,0:3:0:0:
326,196,81143,1,0,0:0:0:0:
368,189,81225,1,0,0:0:0:0:
411,182,81307,1,0,0:0:0:0:
372,168,81389,1,0,0:0:0:0:
329,158,81471,1,0,0:0:0:0:
291,147,81553,1,0,0:0:0:0:
252,136,81635,1,0,0:0:0:0:
360,304,81717,1,8,0:0:0:0:
376,264,81799,1,0,0:0:0:0:
364,220,81881,1,0,0:0:0:0:
320,204,81963,1,0,0:0:0:0:
160,304,82045,5,2,1:1:0:0:
136,132,82086,1,0,0:0:0:0:
112,343,82127,1,0,0:0:0:0:
86,215,82168,1,0,0:0:0:0:
68,52,82209,1,0,0:0:0:0:
55,270,82250,1,0,0:0:0:0:
47,150,82291,1,0,0:0:0:0:
44,313,82332,1,0,0:0:0:0:
49,150,82373,1,8,0:0:0:0:
60,370,82414,1,0,0:0:0:0:
74,0,82455,1,0,0:0:0:0:
93,288,82496,1,0,0:0:0:0:
118,244,82537,1,0,0:0:0:0:
144,72,82578,1,0,0:0:0:0:
168,228,82619,1,0,0:0:0:0:
192,232,82660,1,0,0:0:0:0:
220,304,82701,5,0,0:0:0:0:
244,132,82742,1,0,0:0:0:0:
268,343,82783,1,0,0:0:0:0:
294,215,82824,1,0,0:0:0:0:
312,52,82865,1,0,0:0:0:0:
325,270,82906,1,0,0:0:0:0:
333,150,82947,1,0,0:0:0:0:
336,313,82988,1,0,0:0:0:0:
331,150,83029,1,8,0:0:0:0:
320,370,83070,1,0,0:0:0:0:
306,0,83111,1,0,0:0:0:0:
287,288,83152,1,0,0:0:0:0:
262,244,83193,1,0,0:0:0:0:
236,72,83233,1,0,0:0:0:0:
212,228,83274,1,0,0:0:0:0:
188,349,83315,1,0,0:0:0:0:
160,132,83356,5,0,0:3:0:0:
332,112,83684,1,0,0:0:0:0:
172,316,84012,2,0,P|76:232|172:168,1,270,0|0,2:3|0:0,0:0:0:0:
408,252,84668,6,0,L|216:224,1,180,4|8,2:0|0:0,0:0:0:0:
152,252,85160,1,0,0:0:0:0:
308,208,85324,2,0,L|320:100,1,90,0|0,0:0|0:0,0:0:0:0:
88,152,85652,1,8,0:0:0:0:
184,144,85815,1,0,0:0:0:0:
420,268,85979,6,0,P|472:240|400:156,1,180,2|8,3:2|0:0,0:0:0:0:
344,152,86471,1,0,0:0:0:0:
192,236,86635,2,0,L|92:224,2,90,0|0|8,0:0|0:0|0:0,0:0:0:0:
336,204,87127,1,0,0:0:0:0:
108,288,87291,6,0,P|48:232|132:196,1,180,2|8,3:1|0:0,0:0:0:0:
188,192,87783,1,0,0:0:0:0:
416,280,87947,2,0,L|196:260,1,180,0|8,0:0|0:0,0:0:0:0:
464,248,88438,6,0,P|480:164|384:128,1,180,2|0,0:2|0:0,0:0:0:0:
264,212,88930,2,0,L|360:200,1,90,8|2,0:0|0:2,0:0:0:0:
120,320,89258,2,0,L|8:312,1,90,0|0,0:0|0:0,0:0:0:0:
176,216,89586,2,0,L|72:228,1,90,8|0,0:0|0:0,0:0:0:0:
324,288,89914,6,0,L|508:248,1,180,2|8,3:1|0:0,0:0:0:0:
356,184,90406,2,0,L|252:176,2,90,0|0|0,0:0|0:0|0:0,0:0:0:0:
204,300,90897,2,0,L|96:284,1,90,8|0,0:0|0:0,0:0:0:0:
344,200,91225,6,0,L|440:184,1,90,0|0,3:0|0:0,0:0:0:0:
288,260,91553,1,8,0:0:0:0:
376,232,91717,1,0,0:0:0:0:
132,304,91881,1,2,0:2:0:0:
40,288,92045,2,0,L|24:196,1,90,0|8,0:0|0:0,0:0:0:0:
252,216,92373,6,0,P|308:176|236:104,1,180,6|0,3:1|0:0,0:0:0:0:
404,232,92865,2,0,L|508:220,1,90,8|0,0:0|0:0,0:0:0:0:
344,300,93193,2,0,L|248:288,2,90,2|0|8,0:1|0:0|0:0,0:0:0:0:
108,260,93684,6,0,P|100:208|224:148,1,180,2|2,0:2|0:2,0:0:0:0:
340,184,94176,2,0,L|444:176,1,90,8|0,0:0|0:0,0:0:0:0:
188,252,94504,1,0,0:0:0:0:
160,168,94668,1,0,0:0:0:0:
327,248,94832,2,0,L|371:220,1,45,8|8,2:3|2:3,0:0:0:0:
364,223,94996,2,0,L|327:248,1,45,8|8,2:3|2:3,0:0:0:0:
156,320,95160,6,0,P|88:248|136:184,1,180,6|8,3:1|0:0,0:0:0:0:
216,192,95652,1,0,0:0:0:0:
60,272,95815,2,0,L|44:164,1,90,0|0,0:0|0:0,0:0:0:0:
280,176,96143,2,0,L|188:160,1,90,8|0,0:0|0:0,0:0:0:0:
420,276,96471,6,0,P|481:202|413:138,1,180,2|8,3:2|0:0,0:0:0:0:
292,180,96963,2,0,L|492:156,1,180,0|0,0:0|0:0,0:0:0:0:
328,272,97455,1,8,0:0:0:0:
240,256,97619,1,0,0:0:0:0:
468,300,97783,6,0,L|400:224,1,90,4|0,2:1|0:0,0:0:0:0:
176,208,98111,2,0,L|164:100,1,90,2|0,2:1|0:0,0:0:0:0:
400,108,98438,1,2,2:2:0:0:
260,116,98602,1,2,2:2:0:0:
106,279,98930,6,0,P|64:243|135:151,1,180,4|0,3:1|0:0,0:0:0:0:
280,180,99422,2,0,L|292:84,1,90,2|0,0:1|0:0,0:0:0:0:
60,64,99750,1,2,2:2:0:0:
208,92,99914,1,2,2:2:0:0:
347,258,100242,6,0,P|427:249|467:153,1,180,4|0,3:1|0:0,0:0:0:0:
352,204,100733,2,0,L|256:196,2,90,8|0|0,0:0|0:0|0:0,0:0:0:0:
436,168,101225,1,0,0:0:0:0:
296,144,101389,2,0,L|392:132,1,90,8|0,1:1|1:0,0:0:0:0:
160,272,101717,6,0,P|164:208|284:172,1,180,4|8,3:1|0:0,0:0:0:0:
336,184,102209,1,2,0:2:0:0:
184,224,102373,2,0,L|80:212,1,90,0|0,0:0|0:0,0:0:0:0:
320,300,102701,1,10,2:3:0:0:
360,280,102783,1,8,2:3:0:0:
360,236,102865,1,8,2:3:0:0:
320,216,102947,1,8,2:3:0:0:
168,240,103029,6,0,P|108:184|180:136,1,180,4|0,3:0|0:0,0:0:0:0:
256,176,103520,2,0,L|156:188,2,90,2|0|0,0:2|0:2|0:2,0:0:0:0:
404,280,104012,2,0,L|416:176,1,90,4|0,0:2|0:0,0:0:0:0:
180,320,104340,6,0,L|164:220,1,90,10|0,0:0|0:0,0:0:0:0:
212,224,104586,1,0,0:0:0:0:
324,256,104668,2,0,L|432:248,1,90,0|8,3:0|0:0,0:0:0:0:
176,148,104996,2,0,L|164:104,1,45,0|0,0:0|0:0,0:0:0:0:
265,115,105160,2,0,L|277:71,1,45,0|0,3:0|0:0,0:0:0:0:
132,304,105324,1,0,2:0:0:0:
112,294,105365,1,0,0:0:0:0:
95,278,105406,1,0,2:0:0:0:
86,256,105447,1,0,0:0:0:0:
85,231,105488,1,0,2:0:0:0:
94,210,105529,1,0,2:0:0:0:
110,192,105570,1,0,2:0:0:0:
272,192,105652,5,2,3:2:0:0:
256,192,115324,12,0,115979,0:0:0:0:
328,152,116143,5,10,3:2:0:0:
140,184,116799,1,0,0:0:0:0:
424,216,117783,1,0,0:0:0:0:
264,312,118111,2,0,L|484:272,1,180,8|0,0:3|0:0,0:0:0:0:
280,208,118766,6,0,P|216:148|292:88,1,180,8|0,1:3|0:0,0:0:0:0:
408,132,119422,1,8,0:3:0:0:
260,220,119750,1,0,0:0:0:0:
188,192,119914,6,0,L|176:100,1,90,8|0,0:3|0:0,0:0:0:0:
260,100,120242,1,0,0:0:0:0:
96,76,120406,1,0,0:0:0:0:
224,208,120733,2,0,L|20:224,1,180,8|0,0:3|0:0,0:0:0:0:
216,280,121389,6,0,P|280:224|204:204,1,180,8|0,3:3|0:0,0:0:0:0:
36,208,122045,1,8,0:3:0:0:
212,276,122373,1,0,0:0:0:0:
296,248,122537,6,0,L|188:252,1,90,8|0,0:3|0:0,0:0:0:0:
332,184,123029,1,0,0:0:0:0:
164,276,123356,2,0,P|120:252|188:148,1,180,8|0,0:3|0:0,0:0:0:0:
368,180,124012,5,10,1:2:0:0:
256,192,124176,12,2,126471,0:1:0:0:
132,180,126635,5,6,0:3:0:0:
360,224,127291,2,0,L|380:116,1,90,8|0,0:3|0:0,0:0:0:0:
212,260,127783,1,8,0:3:0:0:
448,204,128274,1,0,0:0:0:0:
192,192,128603,2,0,L|374:224,1,180,8|0,0:3|0:0,0:0:0:0:
136,188,129258,6,0,L|336:164,1,180,2|0,0:1|0:3,0:0:0:0:
144,100,129914,1,8,0:3:0:0:
320,140,130242,1,0,0:0:0:0:
176,248,130406,6,0,L|152:132,1,90,8|0,0:3|0:0,0:0:0:0:
240,140,130733,1,0,0:0:0:0:
88,252,130897,2,0,L|284:228,2,180,0|8|0,0:0|0:3|0:3,0:0:0:0:
264,324,131881,6,0,P|328:268|240:240,1,180,2|0,0:0|0:0,0:0:0:0:
104,224,132537,2,0,L|80:120,1,90,8|0,0:3|0:0,0:0:0:0:
268,216,133029,6,0,P|356:196|368:104,1,180,8|0,0:3|0:0,0:0:0:0:
288,96,133520,1,0,0:0:0:0:
116,76,133848,1,8,0:3:0:0:
236,232,134176,2,0,L|254:118,1,90,0|0,0:0|0:0,0:0:0:0:
104,264,134504,6,0,L|304:235,1,180,2|0,0:1|0:0,0:0:0:0:
116,160,135160,1,8,0:3:0:0:
296,192,135488,1,0,0:0:0:0:
216,168,135652,2,0,L|208:76,1,90,8|0,0:3|0:0,0:0:0:0:
356,196,135979,2,0,L|468:186,2,90,0|0|0,0:0|0:0|0:0,0:0:0:0:
208,280,136471,2,0,L|456:164,1,270,8|0,0:3|0:0,0:0:0:0:
228,148,137127,6,0,L|140:108,2,90,6|0|0,0:3|0:0|0:0,0:0:0:0:
152,96,137619,1,0,0:0:0:0:
296,112,137783,2,0,L|184:128,1,90,8|0,0:3|0:0,0:0:0:0:
368,60,138274,6,0,P|424:80|356:156,1,180,8|0,0:3|0:0,0:0:0:0:
304,212,138766,2,0,L|400:220,1,90,0|0,0:0|0:0,0:0:0:0:
240,144,139094,2,0,L|220:52,1,90,8|0,0:3|0:0,0:0:0:0:
308,32,139422,2,0,L|216:52,1,90
364,192,139750,6,0,B|412:160|448:172|448:172|424:120|452:56,1,180,2|0,0:1|0:0,0:0:0:0:
264,280,140406,2,0,L|240:168,1,90,8|0,0:3|0:0,0:0:0:0:
328,188,140733,1,0,0:0:0:0:
184,252,140897,6,0,L|388:236,1,180,8|0,0:3|0:0,0:0:0:0:
271,195,141389,2,0,L|151:203,1,90,0|0,0:3|0:0,0:0:0:0:
420,56,141717,2,0,P|505:133|395:173,1,270,8|0,0:3|0:0,0:0:0:0:
87,333,142373,6,0,L|63:222,1,90,6|0,0:3|0:0,0:0:0:0:
157,256,142701,1,0,0:0:0:0:
324,140,142865,1,0,0:0:0:0:
282,132,142947,1,0,0:0:0:0:
238,124,143029,1,8,0:3:0:0:
142,151,143193,2,0,L|239:111,1,90,0|0,0:0|0:0,0:0:0:0:
455,189,143520,6,0,L|267:173,1,180,12|0,0:3|0:0,0:0:0:0:
408,304,144012,2,0,L|424:200,1,90,0|0,0:0|0:0,0:0:0:0:
380,212,144258,1,0,0:0:0:0:
276,248,144340,2,0,L|168:236,1,90,8|0,0:3|0:0,0:0:0:0:
280,148,144668,2,0,L|312:116,2,45
44,204,144996,5,6,0:1:0:0:
31,162,145078,1,0,0:0:0:0:
51,127,145160,1,0,0:0:0:0:
90,119,145242,1,0,0:0:0:0:
184,136,145324,1,0,0:0:0:0:
204,100,145406,1,0,0:0:0:0:
192,60,145488,1,0,0:0:0:0:
156,44,145570,1,0,0:0:0:0:
312,240,145652,5,8,0:3:0:0:
353,225,145733,1,0,0:0:0:0:
380,190,145815,1,0,0:0:0:0:
380,145,145897,1,0,0:0:0:0:
354,109,145979,1,0,0:0:0:0:
312,95,146061,1,0,0:0:0:0:
152,304,146143,5,14,0:3:0:0:
128,132,146184,1,0,0:0:0:0:
104,343,146225,1,0,0:0:0:0:
78,215,146266,1,0,0:0:0:0:
60,52,146307,1,0,0:0:0:0:
47,270,146348,1,0,0:0:0:0:
39,150,146389,1,0,0:0:0:0:
36,313,146430,1,0,0:0:0:0:
41,150,146471,1,0,0:0:0:0:
52,370,146512,1,0,0:0:0:0:
66,0,146553,1,0,0:0:0:0:
85,288,146594,1,0,0:0:0:0:
110,244,146635,1,8,0:1:0:0:
136,72,146676,1,0,0:0:0:0:
160,228,146717,1,0,0:0:0:0:
358,262,146799,5,0,0:0:0:0:
447,239,146963,2,0,L|464:132,1,90,8|0,0:0|0:0,0:0:0:0:
163,164,147291,2,0,L|64:148,1,90
354,317,147619,6,0,P|427:293|446:196,1,180,12|10,3:2|0:0,0:0:0:0:
360,208,148111,1,0,0:0:0:0:
220,208,148274,2,0,L|204:96,1,90,0|0,0:0|0:0,0:0:0:0:
432,176,148602,1,8,0:0:0:0:
344,160,148766,1,2,0:2:0:0:
112,296,148930,6,0,P|52:244|124:192,1,180,2|8,3:2|0:0,0:0:0:0:
260,280,149422,2,0,L|76:260,1,180,0|0,0:0|0:0,0:0:0:0:
316,204,149914,1,8,0:0:0:0:
404,196,150078,1,0,0:0:0:0:
168,200,150242,6,0,L|141:109,1,90,2|0,3:1|0:0,0:0:0:0:
288,160,150570,2,0,L|197:133,1,90,8|0,0:0|0:0,0:0:0:0:
424,180,150897,1,2,0:2:0:0:
440,92,151061,1,0,0:0:0:0:
296,220,151225,2,0,L|200:208,1,90,8|0,0:0|0:0,0:0:0:0:
432,272,151553,6,0,L|240:288,1,180,2|8,3:1|0:0,0:0:0:0:
100,300,152045,2,0,P|36:244|112:196,1,180,0|0,0:0|0:0,0:0:0:0:
320,196,152537,1,8,0:0:0:0:
240,180,152701,1,2,0:2:0:0:
478,301,152865,6,0,L|291:330,1,180,6|8,3:2|0:0,0:0:0:0:
394,221,153356,2,0,L|304:209,2,90
120,272,153848,1,8,0:0:0:0:
40,256,154012,1,2,0:2:0:0:
272,316,154176,6,0,P|276:244|180:196,1,180,2|8,3:1|0:0,0:0:0:0:
332,236,154668,2,0,L|140:212,1,180,0|0,3:1|0:0,0:0:0:0:
300,208,155160,2,0,L|320:92,1,90,8|0,0:0|0:0,0:0:0:0:
80,136,155488,6,0,L|180:128,2,90,2|2|10,3:2|0:2|0:0,0:0:0:0:
232,248,155979,2,0,L|336:256,2,90,2|0|0,0:2|0:0|0:0,0:0:0:0:
464,292,156471,2,0,L|492:188,1,90,10|0,0:0|0:0,0:0:0:0:
252,284,156799,6,0,L|68:256,1,180,6|2,3:1|3:1,0:0:0:0:
160,240,157291,1,0,0:0:0:0:
384,264,157455,1,0,0:0:0:0:
408,254,157496,1,0,0:0:0:0:
425,239,157537,1,0,0:0:0:0:
436,219,157578,1,0,0:0:0:0:
438,195,157619,1,0,0:0:0:0:
430,173,157660,1,0,0:0:0:0:
414,155,157701,1,0,0:0:0:0:
300,160,157783,5,8,0:0:0:0:
276,150,157824,1,0,0:0:0:0:
259,135,157865,1,0,0:0:0:0:
248,115,157906,1,0,0:0:0:0:
246,91,157947,1,0,0:0:0:0:
254,69,157988,1,0,0:0:0:0:
270,51,158029,1,0,0:0:0:0:
428,48,158111,5,4,0:0:0:0:
208,272,159422,2,0,L|188:156,1,90,0|0,0:0|0:0,0:0:0:0:
344,216,159750,1,8,0:1:0:0:
428,204,159914,1,8,0:1:0:0:
284,124,160242,1,8,0:2:0:0:
48,124,160406,1,10,0:2:0:0:
336,264,162045,6,0,L|356:148,1,90,0|0,0:0|0:0,0:0:0:0:
200,208,162373,1,8,0:1:0:0:
116,196,162537,1,8,0:1:0:0:
260,116,162865,1,8,0:2:0:0:
496,116,163029,1,10,0:2:0:0:
320,244,163356,6,0,L|416:228,2,90,2|0|0,2:3|0:0|0:0,0:0:0:0:
184,316,163848,2,0,L|84:296,2,90,8|0|0,0:0|0:0|0:0,0:0:0:0:
412,280,164340,2,0,L|300:264,2,90,4|0|0,2:3|0:0|0:0,0:0:0:0:
256,216,164832,2,0,L|368:200,2,90,2|0|0,0:0|0:0|0:0,0:0:0:0:
424,180,165324,2,0,L|443:61,1,90,8|0,2:3|0:0,0:0:0:0:
384,96,165570,1,0,0:0:0:0:
236,144,165652,2,0,L|336:132,1,90,0|0,0:0|0:3,0:0:0:0:
88,236,165979,6,0,L|172:192,2,90,2|0|0,2:3|0:0|0:0,0:0:0:0:
244,272,166471,2,0,L|160:228,2,90,8|0|0,2:3|0:0|0:0,0:0:0:0:
400,240,166963,2,0,L|512:220,2,90,4|0|0,2:3|0:0|0:0,0:0:0:0:
260,316,167455,2,0,L|179:279,2,90,2|0|0,0:0|0:0|0:0,0:0:0:0:
416,236,167947,2,0,L|452:124,1,90,10|0,2:3|0:0,0:0:0:0:
296,160,168274,1,0,0:0:0:0:
132,201,168602,5,6,3:3:0:0:
104,112,168766,1,0,0:0:0:0:
332,260,168930,2,0,L|348:140,1,90,8|0,0:0|0:0,0:0:0:0:
196,240,169258,2,0,L|316:224,1,90,0|0,0:0|0:2,0:0:0:0:
360,292,169586,6,0,L|252:272,2,90,8|0|0,0:0|0:0|3:3,0:0:0:0:
220,328,170078,1,0,0:0:0:0:
448,228,170242,2,0,L|460:128,1,90,8|0,0:0|0:0,0:0:0:0:
312,200,170570,2,0,L|216:184,1,90,0|0,0:0|0:0,0:0:0:0:
328,184,170897,1,8,0:0:0:0:
96,288,171061,6,0,P|36:228|120:172,1,180,2|0,0:2|0:0,0:0:0:0:
320,168,171553,1,8,0:0:0:0:
400,156,171717,1,2,0:2:0:0:
256,248,171881,2,0,L|158:235,2,90,0|0|8,0:0|0:0|0:0,0:0:0:0:
412,240,172373,6,0,L|200:268,1,180,0|0,0:0|0:0,0:0:0:0:
464,188,172865,2,0,L|472:296,1,90,8|0,0:0|0:0,0:0:0:0:
232,80,173193,2,0,P|184:132|264:172,1,180,2|8,0:0|0:0,0:0:0:0:
336,168,173684,1,2,0:2:0:0:
192,296,173848,6,0,L|80:280,1,90,0|2,3:3|0:2,0:0:0:0:
256,236,174176,1,8,0:0:0:0:
336,280,174340,2,0,L|456:280,2,90,0|0|0,0:0|0:0|0:0,0:0:0:0:
200,208,174832,2,0,L|184:96,1,90,8|0,0:0|0:0,0:0:0:0:
428,196,175160,6,0,P|484:136|420:72,1,180,2|8,3:2|0:0,0:0:0:0:
348,76,175652,1,0,0:0:0:0:
120,104,175815,1,2,0:2:0:0:
208,128,175979,2,0,L|104:116,1,90,0|8,0:2|0:0,0:0:0:0:
352,252,176307,6,0,P|408:192|340:132,1,180,6|0,0:1|0:0,0:0:0:0:
268,152,176799,2,0,L|164:144,1,90,8|0,0:0|0:0,0:0:0:0:
324,308,177127,2,0,L|420:296,2,90,0|0|8,0:0|0:0|0:0,0:0:0:0:
88,224,177619,6,0,L|268:240,1,180,2|2,0:2|0:2,0:0:0:0:
36,160,178111,2,0,L|16:44,1,90,8|0,0:0|0:0,0:0:0:0:
160,136,178438,2,0,L|44:156,1,90,0|0,0:0|0:0,0:0:0:0:
296,256,178766,2,0,L|352:224,1,45,8|0,0:0|0:0,0:0:0:0:
335,233,178930,2,0,L|296:256,1,45,8|0,0:0|0:0,0:0:0:0:
132,296,179094,6,0,P|72:244|148:192,1,180,6|8,3:1|0:0,0:0:0:0:
208,196,179586,1,0,0:0:0:0:
452,264,179750,2,0,L|244:276,1,180,0|8,0:0|0:0,0:0:0:0:
120,164,180242,6,0,L|136:264,1,90,0|0,0:0|3:1,0:0:0:0:
288,136,180570,2,0,L|404:156,1,90,0|8,0:0|0:0,0:0:0:0:
228,236,180897,2,0,P|180:196|252:120,1,180,0|0,0:0|0:0,0:0:0:0:
316,156,181389,2,0,L|212:164,1,90,8|0,0:0|0:0,0:0:0:0:
456,172,181717,6,0,L|470:80,1,90,4|0,3:1|0:0,0:0:0:0:
316,204,182045,2,0,L|416:224,1,90,8|8,0:0|0:3,0:0:0:0:
176,264,182373,1,8,3:0:0:0:
92,232,182537,2,0,L|68:140,1,90,8|0,3:0|0:0,0:0:0:0:
316,80,182865,6,0,L|496:36,1,180,6|0,0:0|0:0,0:0:0:0:
344,172,183356,2,0,L|440:188,1,90,8|0,0:0|0:0,0:0:0:0:
200,272,183684,1,4,0:0:0:0:
112,248,183848,2,0,L|96:144,1,90,4|8,0:2|0:0,0:0:0:0:
336,176,184176,6,0,L|144:156,1,180,6|2,0:2|0:0,0:0:0:0:
248,236,184668,2,0,L|364:212,1,90,8|0,0:0|0:0,0:0:0:0:
480,296,184996,2,0,L|372:280,2,90,0|0|0,0:0|0:0|0:0,0:0:0:0:
372,296,185488,1,2,0:2:0:0:
140,248,185652,6,0,L|328:236,1,180,6|8,0:0|0:0,0:0:0:0:
396,264,186143,1,0,0:0:0:0:
244,156,186307,2,0,L|128:148,1,90,8|0,0:0|0:0,0:0:0:0:
300,240,186635,1,8,0:0:0:0:
336,212,186717,1,0,0:0:0:0:
336,168,186799,1,0,0:0:0:0:
300,136,186881,1,0,0:0:0:0:
140,152,186963,6,0,L|336:128,1,180,6|8,0:3|0:1,0:0:0:0:
172,292,187455,2,0,L|80:284,2,90,8|0|10,0:2|0:0|0:2,0:0:0:0:
216,288,187865,1,0,0:0:0:0:
320,228,187947,2,0,L|328:168,1,45,0|0,0:0|0:0,0:0:0:0:
226,165,188111,2,0,L|218:105,1,45,0|0,0:0|0:0,0:0:0:0:
368,72,188274,5,14,1:3:0:0:
384,36,188438,1,8,1:3:0:0:
148,224,188602,1,8,1:3:0:0:
132,188,188766,1,8,1:3:0:0:
272,284,189586,6,0,P|328:228|264:176,1,180,4|8,0:2|0:0,0:0:0:0:
184,184,190078,1,0,0:0:0:0:
336,220,190242,2,0,L|348:112,1,90,0|0,0:0|0:0,0:0:0:0:
200,100,190570,1,8,0:0:0:0:
296,92,190733,1,0,0:0:0:0:
64,264,190897,6,0,L|248:256,1,180,2|8,3:2|0:0,0:0:0:0:
312,284,191389,1,0,0:0:0:0:
460,344,191553,2,0,L|360:332,2,90,0|0|8,0:0|0:0|0:0,0:0:0:0:
368,316,192045,1,0,0:0:0:0:
144,312,192209,6,0,P|72:296|52:192,1,180,2|8,3:1|0:0,0:0:0:0:
120,184,192701,1,0,0:0:0:0:
348,248,192865,2,0,P|400:200|328:140,1,180,0|8,0:0|0:0,0:0:0:0:
184,216,193356,6,0,L|364:232,1,180,2|0,0:2|0:0,0:0:0:0:
216,272,193848,2,0,L|200:148,1,90,8|2,0:0|0:2,0:0:0:0:
444,292,194176,2,0,L|456:196,1,90,0|0,0:0|0:0,0:0:0:0:
312,176,194504,2,0,L|416:156,1,90,8|0,0:0|0:0,0:0:0:0:
156,280,194832,6,0,P|64:272|36:176,1,180,2|8,3:1|0:0,0:0:0:0:
116,172,195324,2,0,L|220:164,2,90,0|0|0,0:0|0:0|0:0,0:0:0:0:
256,272,195815,2,0,L|148:256,1,90,8|0,0:0|0:0,0:0:0:0:
392,212,196143,6,0,L|412:108,1,90,0|0,3:0|0:0,0:0:0:0:
256,212,196471,1,8,0:0:0:0:
168,200,196635,1,0,0:0:0:0:
396,304,196799,1,2,0:2:0:0:
488,292,196963,2,0,L|503:203,1,90,0|8,0:0|0:0,0:0:0:0:
276,152,197291,6,0,L|92:168,1,180,6|0,3:1|0:0,0:0:0:0:
240,228,197783,2,0,L|348:232,1,90,8|0,0:0|0:0,0:0:0:0:
184,312,198111,2,0,L|95:289,2,90,2|0|8,0:1|0:0|0:0,0:0:0:0:
412,224,198602,6,0,P|472:168|404:116,1,180,2|2,0:2|0:2,0:0:0:0:
276,112,199094,2,0,L|236:16,1,90,8|0,0:0|0:0,0:0:0:0:
472,152,199422,1,0,0:0:0:0:
384,160,199586,1,0,0:0:0:0:
152,248,199750,2,0,L|108:220,1,45,8|8,2:3|2:3,0:0:0:0:
115,223,199914,2,0,L|152:248,1,45,8|8,2:3|2:3,0:0:0:0:
320,276,200078,6,0,P|376:220|312:172,1,180,6|8,3:1|0:0,0:0:0:0:
220,180,200570,1,0,0:0:0:0:
76,288,200733,2,0,L|184:272,1,90,0|0,0:0|0:0,0:0:0:0:
392,216,201061,2,0,L|408:120,1,90,8|0,0:0|0:0,0:0:0:0:
176,272,201389,6,0,L|-8:256,1,180,2|8,3:2|0:0,0:0:0:0:
228,164,201881,2,0,L|428:140,1,180,0|0,0:0|0:0,0:0:0:0:
260,256,202373,1,8,0:0:0:0:
344,264,202537,1,0,0:0:0:0:
116,252,202701,6,0,L|104:144,1,90,4|0,2:1|0:0,0:0:0:0:
332,208,203029,2,0,L|344:100,1,90,2|0,2:1|0:0,0:0:0:0:
112,80,203356,1,2,2:2:0:0:
252,88,203520,1,2,2:2:0:0:
380,240,203848,6,0,L|184:224,1,180,4|0,3:1|0:0,0:0:0:0:
48,300,204340,2,0,L|148:288,1,90,2|0,0:1|0:0,0:0:0:0:
376,268,204668,1,2,2:2:0:0:
228,240,204832,1,2,2:2:0:0:
55,292,205160,6,0,P|54:218|154:186,1,180,4|0,3:1|0:0,0:0:0:0:
317,247,205651,2,0,L|221:239,2,90,8|0|0,0:0|0:0|0:0,0:0:0:0:
400,240,206143,1,0,0:0:0:0:
256,200,206307,2,0,L|232:104,1,90,8|0,1:1|1:0,0:0:0:0:
464,152,206635,6,0,L|268:116,1,180,4|8,3:1|0:0,0:0:0:0:
200,152,207127,1,2,0:2:0:0:
344,120,207291,2,0,L|356:16,1,90,0|0,0:0|0:0,0:0:0:0:
124,260,207619,1,10,2:3:0:0:
84,240,207701,1,8,2:3:0:0:
84,196,207783,1,8,2:3:0:0:
124,176,207865,1,8,2:3:0:0:
292,240,207947,6,0,L|480:220,1,180,4|0,3:0|0:0,0:0:0:0:
380,156,208438,2,0,L|276:148,2,90,2|0|0,0:2|0:2|0:2,0:0:0:0:
228,272,208930,2,0,L|116:248,1,90,4|0,0:2|0:0,0:0:0:0:
376,240,209258,6,0,L|392:140,1,90,8|0,0:0|0:0,0:0:0:0:
344,156,209504,1,0,0:0:0:0:
228,188,209586,2,0,L|120:180,1,90,0|8,3:0|0:0,0:0:0:0:
368,132,209914,2,0,L|380:88,1,45,0|0,3:0|3:0,0:0:0:0:
278,96,210078,2,0,L|266:52,1,45,8|0,3:0|3:0,0:0:0:0:
412,288,210242,1,0,1:0:0:0:
432,278,210283,1,0,0:0:0:0:
449,262,210324,1,0,1:0:0:0:
458,240,210365,1,0,0:0:0:0:
459,215,210406,1,0,1:0:0:0:
450,194,210447,1,0,0:0:0:0:
434,176,210488,1,0,1:0:0:0:
276,156,210570,5,6,0:3:0:0:
439,245,211225,6,0,P|455:163|383:111,1,180,8|0,0:3|0:0,0:0:0:0:
296,132,211717,1,8,0:3:0:0:
80,168,212209,1,0,0:0:0:0:
248,240,212537,2,0,P|312:192|248:140,1,180,8|0,0:3|0:0,0:0:0:0:
180,168,213193,6,0,L|392:144,1,180,2|0,0:1|0:3,0:0:0:0:
184,96,213848,1,8,0:3:0:0:
320,204,214176,1,0,0:0:0:0:
248,256,214340,6,0,L|240:144,1,90,8|0,0:3|0:0,0:0:0:0:
320,168,214668,1,0,0:0:0:0:
168,140,214832,1,0,0:0:0:0:
328,256,215160,2,0,P|408:240|432:144,1,180,8|0,0:3|0:3,0:0:0:0:
260,200,215815,6,0,L|52:176,1,180,2|0,0:2|0:0,0:0:0:0:
272,120,216471,1,8,0:3:0:0:
128,224,216799,1,0,0:0:0:0:
200,268,216963,6,0,P|264:212|196:164,1,180,8|0,0:3|0:0,0:0:0:0:
64,192,217455,2,0,L|248:180,1,180,0|8,0:0|0:3,0:0:0:0:
88,136,218111,1,0,0:0:0:0:
264,240,218438,6,0,P|364:216|380:132,1,180,2|0,0:1|0:0,0:0:0:0:
208,108,219094,1,8,0:3:0:0:
404,84,219422,1,0,0:0:0:0:
472,128,219586,2,0,L|364:80,1,90,8|0,0:3|0:0,0:0:0:0:
472,60,219914,1,0,0:0:0:0:
320,36,220078,1,0,0:0:0:0:
164,232,220406,2,0,P|72:160|168:96,1,270,8|0,0:3|0:0,0:0:0:0:
400,144,221061,6,0,L|500:124,2,90,6|0|0,0:3|0:0|0:0,0:0:0:0:
316,105,221553,1,0,0:0:0:0:
177,248,221717,2,0,L|213:156,1,90,8|0,0:3|0:0,0:0:0:0:
384,244,222209,6,0,L|196:212,1,180,8|0,0:3|0:0,0:0:0:0:
352,180,222701,2,0,L|376:72,1,90,0|0,0:0|0:0,0:0:0:0:
288,112,223029,2,0,L|264:4,1,90,8|0,0:3|0:0,0:0:0:0:
184,56,223356,2,0,L|296:40,1,90,0|0,0:0|0:0,0:0:0:0:
124,220,223684,6,0,P|60:164|136:120,1,180,2|0,0:1|0:0,0:0:0:0:
268,136,224340,2,0,L|232:48,1,90,8|0,0:3|0:0,0:0:0:0:
312,48,224668,1,0,0:0:0:0:
168,160,224832,6,0,L|360:136,1,180,8|0,0:3|0:0,0:0:0:0:
276,232,225324,2,0,L|392:244,1,90,0|0,0:3|0:0,0:0:0:0:
212,312,225652,2,0,P|112:256|224:208,1,270,8|0,0:3|0:3,0:0:0:0:
432,200,226307,6,0,L|448:84,1,90,6|0,0:3|0:0,0:0:0:0:
356,88,226635,1,0,0:0:0:0:
192,184,226799,1,0,0:0:0:0:
172,104,226963,1,8,0:3:0:0:
256,232,227127,2,0,L|144:240,1,90,0|0,0:0|0:0,0:0:0:0:
316,100,227455,6,0,L|124:72,1,180,12|0,0:3|0:0,0:0:0:0:
224,36,227947,2,0,L|336:24,1,90,0|0,0:0|0:0,0:0:0:0:
172,208,228274,1,8,0:3:0:0:
128,196,228356,1,0,0:0:0:0:
80,184,228438,1,0,0:0:0:0:
228,112,228602,1,0,0:0:0:0:
184,124,228684,1,0,0:0:0:0:
136,136,228766,1,0,0:0:0:0:
364,244,228930,5,6,0:1:0:0:
408,237,229011,1,0,0:0:0:0:
444,211,229093,1,0,0:0:0:0:
463,171,229175,1,0,0:0:0:0:
461,126,229257,1,0,0:0:0:0:
438,88,229339,1,0,0:0:0:0:
400,65,229421,1,0,0:0:0:0:
356,63,229503,1,0,0:0:0:0:
244,192,229586,5,8,0:3:0:0:
208,164,229668,1,0,0:0:0:0:
208,116,229750,1,0,0:0:0:0:
248,88,229832,1,0,0:0:0:0:
356,104,229914,2,0,L|416:92,1,45,0|0,0:0|0:0,0:0:0:0:
236,304,230078,5,14,0:3:0:0:
212,132,230119,1,0,0:0:0:0:
188,343,230160,1,0,0:0:0:0:
162,215,230201,1,0,0:0:0:0:
144,52,230242,1,0,0:0:0:0:
131,270,230283,1,0,0:0:0:0:
123,150,230324,1,0,0:0:0:0:
120,313,230365,1,0,0:0:0:0:
125,150,230406,1,0,0:0:0:0:
136,370,230447,1,0,0:0:0:0:
150,0,230488,1,0,0:0:0:0:
169,288,230529,1,0,0:0:0:0:
194,244,230570,1,8,0:1:0:0:
220,72,230611,1,0,0:0:0:0:
244,228,230652,1,0,0:0:0:0:
401,292,230734,5,0,0:0:0:0:
487,293,230897,2,0,L|386:315,1,90,8|0,0:0|0:0,0:0:0:0:
73,152,231225,2,0,L|61:61,1,90
374,257,231554,6,0,P|446:249|478:149,1,180,12|8,3:2|0:0,0:0:0:0:
396,140,232046,1,0,0:0:0:0:
248,208,232209,2,0,L|352:216,1,90,0|0,0:0|0:0,0:0:0:0:
104,308,232537,1,8,0:0:0:0:
16,292,232701,1,2,0:2:0:0:
240,272,232865,6,0,P|308:252|320:152,1,180,2|8,3:2|0:0,0:0:0:0:
176,216,233356,2,0,P|108:196|96:96,1,180,0|0,0:0|0:0,0:0:0:0:
304,172,233848,2,0,L|320:72,1,90,8|0,0:0|0:0,0:0:0:0:
92,244,234177,6,0,L|-8:224,1,90,2|0,3:1|0:0,0:0:0:0:
148,188,234505,2,0,L|40:196,1,90,8|0,0:0|0:0,0:0:0:0:
288,248,234832,1,2,0:2:0:0:
376,228,234996,1,0,0:0:0:0:
228,200,235160,2,0,L|208:112,1,90,8|0,0:0|0:0,0:0:0:0:
440,180,235488,6,0,P|484:264|424:296,1,180,2|8,3:1|0:0,0:0:0:0:
276,236,235980,2,0,L|488:252,1,180,0|0,0:0|0:0,0:0:0:0:
220,280,236472,1,8,0:0:0:0:
192,192,236636,1,2,0:2:0:0:
424,280,236800,6,0,L|216:264,1,180,6|8,3:2|0:0,0:0:0:0:
328,200,237291,2,0,L|424:196,2,90,0|0|0,0:1|0:0|0:0,0:0:0:0:
96,332,237783,1,8,0:0:0:0:
184,320,237947,1,2,0:2:0:0:
416,336,238111,6,0,P|420:264|324:216,1,180,2|8,3:1|0:0,0:0:0:0:
188,264,238603,2,0,L|380:240,1,180,0|0,3:1|0:0,0:0:0:0:
220,208,239095,2,0,L|164:108,1,90,8|0,0:0|0:0,0:0:0:0:
404,276,239423,6,0,L|508:288,2,90,2|2|10,3:2|0:2|0:0,0:0:0:0:
256,332,239914,2,0,L|360:316,2,90,2|0|0,0:2|0:0|0:0,0:0:0:0:
24,288,240406,2,0,L|128:280,1,90,10|0,0:0|0:0,0:0:0:0:
356,324,240734,6,0,P|440:312|468:216,1,180,6|2,3:1|3:1,0:0:0:0:
384,224,241226,1,0,0:0:0:0:
152,340,241390,1,0,0:0:0:0:
128,330,241431,1,0,0:0:0:0:
111,315,241472,1,0,0:0:0:0:
100,295,241513,1,0,0:0:0:0:
98,271,241554,1,0,0:0:0:0:
106,249,241595,1,0,0:0:0:0:
122,231,241636,1,0,0:0:0:0:
236,236,241718,5,8,0:0:0:0:
260,226,241759,1,0,0:0:0:0:
277,211,241800,1,0,0:0:0:0:
288,191,241841,1,0,0:0:0:0:
290,167,241882,1,0,0:0:0:0:
282,145,241923,1,0,0:0:0:0:
266,127,241964,1,0,0:0:0:0:
108,124,242046,5,4,0:0:0:0:
300,272,243357,2,0,L|320:156,1,90,0|0,0:0|0:0,0:0:0:0:
164,216,243685,1,8,0:1:0:0:
80,204,243849,1,8,0:1:0:0:
224,124,244177,1,8,0:2:0:0:
460,124,244341,1,10,0:2:0:0:
176,264,245980,6,0,L|156:148,1,90,0|0,0:0|0:0,0:0:0:0:
312,208,246308,1,8,0:1:0:0:
396,196,246472,1,8,0:1:0:0:
252,116,246800,1,10,0:2:0:0:
16,116,246964,1,10,0:2:0:0:
192,244,247291,6,0,L|96:228,2,90,2|0|0,2:3|0:0|0:0,0:0:0:0:
328,316,247783,2,0,L|428:296,2,90,8|0|0,0:0|0:0|0:0,0:0:0:0:
100,280,248275,2,0,L|212:264,2,90,4|0|0,2:3|0:0|0:0,0:0:0:0:
256,216,248767,2,0,L|144:200,2,90,2|0|0,0:0|0:0|0:0,0:0:0:0:
88,180,249259,2,0,L|69:61,1,90,8|0,2:3|0:0,0:0:0:0:
128,96,249505,1,0,0:0:0:0:
276,144,249587,2,0,L|176:132,1,90,0|0,0:0|0:3,0:0:0:0:
424,236,249914,6,0,L|340:192,2,90,2|0|0,2:3|0:0|0:0,0:0:0:0:
268,272,250406,2,0,L|352:228,2,90,8|0|0,2:3|0:0|0:0,0:0:0:0:
112,240,250898,2,0,L|0:220,2,90,4|0|0,2:3|0:0|0:0,0:0:0:0:
252,316,251390,2,0,L|333:279,2,90,2|0|0,0:0|0:0|0:0,0:0:0:0:
96,236,251882,2,0,L|60:124,1,90,10|0,2:3|0:0,0:0:0:0:
216,160,252209,1,0,0:0:0:0:
336,176,252537,5,6,3:3:0:0:
264,216,252701,2,0,L|144:200,2,90,0|8|0,0:0|0:0|0:0,0:0:0:0:
408,204,253193,2,0,L|424:100,1,90,0|0,0:0|0:0,0:0:0:0:
184,244,254012,6,0,L|304:232,2,90,0|8|0,0:0|0:0|0:0,0:0:0:0:
104,200,254504,2,0,L|88:96,1,90,0|0,0:0|0:0,0:0:0:0:
184,96,254832,1,8,0:0:0:0:
28,220,254996,6,0,L|224:208,1,180,0|0,0:1|0:0,0:0:0:0:
280,244,255488,1,8,0:0:0:0:
128,108,255652,2,0,P|72:148|140:220,1,180,0|0,0:0|0:0,0:0:0:0:
208,228,256143,2,0,L|112:236,1,90,8|0,0:0|0:0,0:0:0:0:
264,176,256471,5,0,0:0:0:0:
288,84,256635,1,0,0:0:0:0:
140,92,256799,1,8,0:0:0:0:
212,152,256963,1,0,0:0:0:0:
252,156,257045,1,0,0:0:0:0:
292,156,257127,2,0,L|400:164,1,90,0|0,0:0|0:0,0:0:0:0:
240,224,257455,1,8,0:0:0:0:
156,204,257619,1,0,0:0:0:0:
392,176,257783,6,0,L|408:52,1,90,4|0,0:0|0:0,0:0:0:0:
316,136,258111,2,0,L|196:128,1,90,8|0,0:0|0:0,0:0:0:0:
188,140,258356,1,0,0:0:0:0:
164,180,258438,1,8,0:0:0:0:
188,140,258520,1,0,0:0:0:0:
226,130,258602,1,0,0:0:0:0:
376,220,258766,2,0,L|388:104,1,90,8|0,0:0|0:0,0:0:0:0:
156,68,259094,5,4,0:3:0:0:
116,100,259176,1,0,0:0:0:0:
116,148,259258,1,0,0:0:0:0:
156,180,259340,1,0,0:0:0:0:
260,204,259422,1,8,0:3:0:0:
284,160,259504,1,0,0:3:0:0:
268,112,259586,1,0,0:3:0:0:
224,92,259668,1,0,0:3:0:0:
116,176,259750,1,0,0:0:0:0:
92,132,259832,1,0,0:0:0:0:
108,84,259914,1,0,0:0:0:0:
152,64,259996,1,0,0:0:0:0:
260,72,260078,1,8,0:3:0:0:
220,64,260160,1,0,0:0:0:0:
176,56,260242,1,0,0:0:0:0:
132,48,260324,1,0,0:0:0:0:
296,304,260406,5,2,0:1:0:0:
320,132,260447,1,0,0:0:0:0:
344,343,260488,1,0,0:0:0:0:
370,215,260529,1,0,0:0:0:0:
388,52,260570,1,0,0:0:0:0:
401,270,260611,1,0,0:0:0:0:
409,150,260652,1,0,0:0:0:0:
412,313,260693,1,0,0:0:0:0:
407,150,260734,1,8,0:3:0:0:
396,370,260775,1,0,0:0:0:0:
382,0,260816,1,0,0:0:0:0:
363,288,260857,1,0,0:0:0:0:
338,244,260898,1,0,0:0:0:0:
312,72,260939,1,0,0:0:0:0:
288,228,260980,1,0,0:0:0:0:
264,232,261021,1,0,0:0:0:0:
236,304,261062,5,0,0:0:0:0:
212,132,261103,1,0,0:0:0:0:
188,343,261144,1,0,0:0:0:0:
162,215,261185,1,0,0:0:0:0:
144,52,261226,1,0,0:0:0:0:
131,270,261267,1,0,0:0:0:0:
123,150,261308,1,0,0:0:0:0:
120,313,261349,1,0,0:0:0:0:
125,150,261390,1,8,0:3:0:0:
136,370,261431,1,0,0:0:0:0:
150,0,261472,1,0,0:0:0:0:
169,288,261513,1,0,0:0:0:0:
194,244,261554,1,0,0:0:0:0:
220,72,261594,1,0,0:0:0:0:
244,228,261635,1,0,0:0:0:0:
268,349,261676,1,0,0:0:0:0:
296,132,261717,5,0,0:0:0:0:
376,220,262701,1,2,0:0:0:0:
412,196,262783,1,0,0:0:0:0:
412,152,262865,1,0,0:0:0:0:
376,124,262947,1,0,0:0:0:0:
268,168,263029,6,0,P|212:112|276:64,1,180,2|8,0:1|0:0,0:0:0:0:
352,80,263520,2,0,L|232:88,1,90,0|0,0:0|0:0,0:0:0:0:
112,148,263848,2,0,L|216:160,2,90,0|8|0,0:0|0:0|0:0,0:0:0:0:
260,280,264340,2,0,L|280:172,1,90,0|0,0:2|0:0,0:0:0:0:
204,172,264668,1,8,0:0:0:0:
352,192,264832,1,0,0:0:0:0:
388,188,264914,1,0,0:0:0:0:
424,184,264996,1,0,0:0:0:0:
344,180,265160,1,0,0:0:0:0:
200,264,265324,2,0,L|184:152,1,90,8|0,0:0|0:0,0:0:0:0:
336,128,265652,6,0,L|352:36,1,90,0|0,0:2|0:0,0:0:0:0:
268,176,265979,2,0,L|172:164,1,90,8|0,0:0|0:0,0:0:0:0:
144,164,266225,1,0,0:0:0:0:
108,164,266307,1,0,0:0:0:0:
252,92,266471,1,0,0:0:0:0:
328,120,266635,2,0,L|344:12,1,90,8|0,0:0|0:0,0:0:0:0:
204,252,266963,6,0,L|104:244,1,90,0|0,0:2|0:0,0:0:0:0:
256,328,267291,2,0,L|272:232,1,90,8|0,0:0|0:0,0:0:0:0:
236,232,267537,1,0,0:0:0:0:
200,228,267619,1,0,0:0:0:0:
164,224,267701,1,0,0:0:0:0:
128,220,267783,1,0,0:0:0:0:
280,164,267947,2,0,L|296:68,1,90,8|0,0:0|0:0,0:0:0:0:
256,68,268193,1,0,0:0:0:0:
152,156,268274,6,0,L|48:148,1,90,0|0,0:2|0:0,0:0:0:0:
208,232,268602,1,8,0:0:0:0:
296,248,268766,1,0,0:0:0:0:
336,228,268848,1,0,0:0:0:0:
348,188,268930,1,0,0:0:0:0:
336,228,269012,1,0,0:0:0:0:
296,248,269094,1,0,0:0:0:0:
152,124,269258,1,8,0:0:0:0:
232,168,269422,1,0,0:0:0:0:
272,168,269504,1,0,0:0:0:0:
312,164,269586,6,0,L|340:60,1,90,0|0,0:2|0:0,0:0:0:0:
188,296,269914,2,0,L|164:192,1,90,8|0,0:0|0:0,0:0:0:0:
204,200,270160,1,0,0:0:0:0:
248,192,270242,1,0,0:0:0:0:
292,184,270324,1,0,0:0:0:0:
336,176,270406,1,0,0:0:0:0:
196,128,270570,2,0,L|148:36,1,90,8|0,0:0|0:0,0:0:0:0:
200,48,270815,1,0,0:0:0:0:
244,48,270897,6,0,L|344:32,1,90,0|0,0:2|0:0,0:0:0:0:
184,152,271225,1,8,0:0:0:0:
100,120,271389,1,0,0:0:0:0:
60,140,271471,1,0,0:0:0:0:
48,180,271553,1,0,0:0:0:0:
60,140,271635,1,0,0:0:0:0:
100,120,271717,1,0,0:0:0:0:
248,160,271881,2,0,L|356:148,1,90,8|0,0:0|0:0,0:0:0:0:
380,156,272127,1,0,0:0:0:0:
420,160,272209,6,0,L|432:44,1,90,0|0,0:2|0:0,0:0:0:0:
284,304,272537,2,0,L|184:288,1,90,8|0,0:0|0:0,0:0:0:0:
156,304,272783,1,0,0:0:0:0:
320,264,272865,5,0,0:0:0:0:
344,260,272906,1,0,0:0:0:0:
361,244,272947,1,0,0:0:0:0:
369,222,272988,1,0,0:0:0:0:
364,199,273029,1,0,0:0:0:0:
348,182,273070,1,0,0:0:0:0:
325,176,273111,1,0,0:0:0:0:
164,172,273193,5,8,0:0:0:0:
141,168,273233,1,0,0:0:0:0:
124,152,273274,1,0,0:0:0:0:
116,130,273315,1,0,0:0:0:0:
121,107,273356,1,0,0:0:0:0:
137,90,273397,1,0,0:0:0:0:
160,84,273438,1,0,0:0:0:0:
324,112,273520,6,0,L|504:96,1,180,6|8,3:1|0:0,0:0:0:0:
332,84,274176,2,0,L|444:92,2,90,0|0|8,0:0|0:0|0:0,0:0:0:0:
156,240,274832,2,0,L|356:216,1,180,2|8,3:2|0:0,0:0:0:0:
164,160,275488,2,0,L|64:152,2,90,0|0|8,0:0|0:0|0:0,0:0:0:0:
340,256,276143,6,0,L|364:148,1,90,4|0,2:1|0:0,0:0:0:0:
132,332,276471,2,0,L|108:224,1,90,2|0,2:1|0:0,0:0:0:0:
392,132,276799,1,2,2:2:0:0:
252,136,276963,1,2,2:2:0:0:
376,252,277291,6,0,P|440:204|368:152,1,180,4|0,3:1|0:0,0:0:0:0:
236,200,277783,2,0,L|340:208,1,90,2|0,0:1|0:0,0:0:0:0:
96,116,278111,1,2,2:2:0:0:
240,128,278274,1,2,2:2:0:0:
352,224,278602,6,0,P|424:168|360:128,1,180,4|0,3:1|0:0,0:0:0:0:
224,160,279094,2,0,L|132:168,2,90,8|0|0,0:0|0:0|0:0,0:0:0:0:
296,196,279586,1,0,0:0:0:0:
144,216,279750,1,8,1:1:0:0:
124,136,279914,1,0,1:0:0:0:
352,240,280078,6,0,L|152:216,1,180,4|8,3:1|0:0,0:0:0:0:
324,176,280570,2,0,L|432:164,2,90,2|0|0,0:2|0:0|0:0,0:0:0:0:
96,172,281061,2,0,L|85:128,1,45,2|0,0:2|0:0,0:0:0:0:
196,104,281225,2,0,L|206:60,1,45,2|0,0:2|0:0,0:0:0:0:
52,284,281389,6,0,L|32:188,1,90,4|0,1:3|1:1,0:0:0:0:
76,196,281635,1,0,0:0:0:0:
184,232,281717,2,0,L|273:226,1,90,8|8,1:1|1:1,0:0:0:0:
120,140,282045,2,0,L|200:124,1,45,8|0,0:0|0:0,0:0:0:0:
265,182,282209,2,0,L|345:166,1,45,8|0,0:2|0:0,0:0:0:0:
212,252,282373,2,0,L|196:172,1,45,0|0,0:2|0:0,0:0:0:0:
301,156,282537,2,0,L|317:76,1,45,0|0,0:0|0:0,0:0:0:0:
160,304,282701,5,8,0:3:0:0:
146,295,282742,1,0,0:0:0:0:
133,285,282783,1,0,0:0:0:0:
121,273,282824,1,0,0:0:0:0:
112,260,282865,1,0,0:0:0:0:
104,245,282906,1,0,0:0:0:0:
99,229,282947,1,0,0:0:0:0:
96,213,282988,1,0,0:0:0:0:
95,196,283029,1,0,0:0:0:0:
97,180,283070,1,0,0:0:0:0:
104,162,283111,1,0,0:0:0:0:
108,149,283152,1,0,0:0:0:0:
117,135,283193,1,0,0:0:0:0:
128,122,283233,1,0,0:0:0:0:
140,111,283274,1,0,0:0:0:0:
154,102,283315,1,0,0:0:0:0:
184,104,283356,5,8,0:3:0:0:
206,102,283397,1,0,0:0:0:0:
227,100,283438,1,0,0:0:0:0:
248,99,283479,1,0,0:0:0:0:
270,97,283520,1,0,0:0:0:0:
291,96,283561,1,0,0:0:0:0:
312,94,283602,1,0,0:0:0:0:
344,92,283684,2,0,L|356:32,1,45,2|0,0:2|0:0,0:0:0:0:
256,203,283848,2,0,L|196:195,1,45
368,280,284012,6,0,P|436:272|472:176,1,180,4|8,0:0|0:0,0:0:0:0:
384,172,284504,1,0,0:0:0:0:
244,228,284668,2,0,L|224:124,1,90,0|0,0:0|0:0,0:0:0:0:
456,208,284996,1,8,0:0:0:0:
360,216,285159,1,0,0:0:0:0:
128,256,285324,6,0,L|312:280,1,180,2|8,3:2|0:0,0:0:0:0:
392,256,285815,1,0,0:0:0:0:
252,208,285979,2,0,L|352:196,2,90,0|0|8,0:0|0:0|0:0,0:0:0:0:
352,208,286471,1,0,0:0:0:0:
120,300,286635,6,0,P|140:208|224:184,1,180,2|8,3:1|0:0,0:0:0:0:
288,200,287127,1,0,0:0:0:0:
144,312,287291,2,0,L|112:104,1,180,0|8,0:0|0:0,0:0:0:0:
348,276,287783,6,0,P|408:224|344:176,1,180,2|0,0:2|0:0,0:0:0:0:
200,212,288274,2,0,L|104:200,1,90,8|2,0:0|0:2,0:0:0:0:
348,156,288602,2,0,L|364:48,1,90,0|0,0:0|0:0,0:0:0:0:
220,184,288930,2,0,L|328:172,1,90,8|0,0:0|0:0,0:0:0:0:
80,308,289258,6,0,P|20:268|96:212,1,180,2|8,3:1|0:0,0:0:0:0:
168,224,289750,2,0,L|272:216,2,90,0|0|0,0:0|0:0|0:0,0:0:0:0:
316,320,290242,2,0,L|332:224,1,90,8|0,0:0|0:0,0:0:0:0:
100,216,290570,6,0,L|80:116,1,90,0|0,3:0|0:0,0:0:0:0:
232,236,290897,1,8,0:0:0:0:
144,220,291061,1,0,0:0:0:0:
376,328,291225,1,2,0:2:0:0:
468,316,291389,2,0,L|484:224,1,90,0|8,0:0|0:0,0:0:0:0:
248,224,291717,6,0,L|64:212,1,180,6|0,3:1|0:0,0:0:0:0:
208,136,292209,2,0,L|108:128,1,90,8|0,0:0|0:0,0:0:0:0:
260,292,292537,2,0,L|168:300,2,90,2|0|8,0:1|0:0|0:0,0:0:0:0:
484,208,293028,6,0,L|288:176,1,180,2|2,0:2|0:2,0:0:0:0:
456,136,293520,2,0,L|472:44,1,90,8|0,0:0|0:0,0:0:0:0:
236,204,293848,1,0,0:0:0:0:
320,244,294012,1,0,0:0:0:0:
88,240,294176,2,0,L|44:212,1,45,10|8,2:1|2:3,0:0:0:0:
51,215,294340,2,0,L|88:240,1,45,8|8,2:3|2:3,0:0:0:0:
248,284,294504,6,0,L|428:272,1,180,6|8,3:1|0:0,0:0:0:0:
344,236,294996,1,0,0:0:0:0:
204,312,295160,2,0,L|108:300,1,90,0|0,0:0|0:0,0:0:0:0:
344,200,295488,2,0,L|360:100,1,90,8|0,0:0|0:0,0:0:0:0:
128,284,295815,6,0,P|72:228|152:180,1,180,2|8,3:2|0:0,0:0:0:0:
296,236,296307,2,0,P|388:212|424:136,1,180,0|0,0:0|0:0,0:0:0:0:
196,320,296799,1,8,0:0:0:0:
284,312,296963,1,0,0:0:0:0:
56,288,297127,6,0,L|40:184,1,90,4|0,2:1|0:0,0:0:0:0:
276,200,297455,2,0,L|292:96,1,90,2|0,2:1|0:0,0:0:0:0:
64,76,297782,1,2,2:2:0:0:
204,84,297946,1,2,2:2:0:0:
380,256,298274,6,0,P|396:188|300:148,1,180,4|0,3:1|0:0,0:0:0:0:
160,232,298766,2,0,L|36:220,1,90,2|0,2:1|0:0,0:0:0:0:
304,72,299094,1,2,2:2:0:0:
156,100,299258,1,2,2:2:0:0:
292,220,299586,6,0,L|488:196,1,180,4|0,3:1|0:0,0:0:0:0:
320,268,300078,2,0,L|428:256,2,90,8|0|0,0:0|0:0|0:0,0:0:0:0:
236,256,300569,1,0,0:0:0:0:
384,172,300733,2,0,L|408:80,1,90,8|0,0:1|0:0,0:0:0:0:
164,224,301061,6,0,P|100:184|168:140,1,180,4|8,3:1|0:0,0:0:0:0:
244,152,301553,1,2,0:2:0:0:
392,248,301717,2,0,L|496:236,1,90,0|0,0:0|0:0,0:0:0:0:
252,332,302045,1,10,2:3:0:0:
212,312,302127,1,8,2:3:0:0:
212,268,302209,1,8,2:3:0:0:
252,248,302291,1,8,2:3:0:0:
416,252,302373,6,0,P|476:192|412:120,1,180,6|0,3:0|0:0,0:0:0:0:
352,140,302865,2,0,L|248:148,2,90,2|0|0,0:2|0:2|0:2,0:0:0:0:
200,264,303356,2,0,L|108:244,1,90,4|0,0:2|0:0,0:0:0:0:
348,224,303684,6,0,L|364:124,1,90,8|0,0:0|0:0,0:0:0:0:
316,128,303930,1,0,0:0:0:0:
208,200,304012,2,0,L|100:192,1,90,0|0,3:0|0:0,0:0:0:0:
348,144,304340,2,0,L|360:100,1,45,0|0,0:0|0:0,0:0:0:0:
261,104,304504,2,0,L|249:60,1,45,0|0,0:0|0:0,0:0:0:0:
404,104,304668,1,0,0:0:0:0:
296,224,304996,6,0,L|196:212,1,90,6|0,0:3|2:0,0:0:0:0:
360,180,305324,2,0,L|268:188,1,90,0|0,0:3|2:0,0:0:0:0:
496,280,305652,2,0,L|380:268,2,90,0|0|0,0:3|2:0|0:3,0:0:0:0:
252,296,306144,6,0,L|68:304,1,180,2|0,2:1|2:0,0:0:0:0:
220,224,306636,1,0,0:3:0:0:
304,216,306800,2,0,L|320:120,1,90,0|0,2:0|0:3,0:0:0:0:
172,96,307127,1,0,2:0:0:0:
212,100,307209,1,0,2:0:0:0:
312,108,307291,2,0,L|328:12,1,90,0|0,0:3|2:0,0:0:0:0:
100,288,307619,6,0,L|81:199,1,90,4|0,0:3|2:0,0:0:0:0:
244,228,307947,1,0,0:3:0:0:
332,212,308111,1,0,2:0:0:0:
184,304,308275,2,0,L|88:292,2,90,0|0|0,0:3|2:0|0:3,0:0:0:0:
408,308,308767,6,0,P|472:260|404:220,1,180,2|0,2:1|2:0,0:0:0:0:
272,248,309259,2,0,L|368:260,1,90,0|0,0:0|2:0,0:0:0:0:
132,200,309586,2,0,L|120:100,1,90,4|0,0:2|2:0,0:0:0:0:
168,112,309832,1,0,2:0:0:0:
276,160,309914,2,0,L|376:152,1,90,4|2,0:2|2:0,0:0:0:0:
132,296,310242,6,0,L|120:200,1,90,6|0,0:3|2:0,0:0:0:0:
264,204,310570,2,0,L|164:192,1,90,0|0,0:3|2:0,0:0:0:0:
336,284,310898,2,0,L|440:276,2,90,0|0|0,0:3|2:0|0:3,0:0:0:0:
104,336,311390,6,0,P|52:284|128:244,1,180,2|0,2:1|2:0,0:0:0:0:
268,252,311882,2,0,L|362:242,2,90,0|0|0,0:3|2:0|0:3,0:0:0:0:
184,224,312373,1,0,2:0:0:0:
144,220,312455,1,0,2:0:0:0:
240,156,312537,2,0,L|332:164,1,90,0|0,0:3|2:0,0:0:0:0:
104,272,312865,6,0,L|12:264,1,90,4|0,0:3|2:0,0:0:0:0:
164,176,313193,1,0,0:3:0:0:
72,184,313357,1,0,2:0:0:0:
236,264,313521,2,0,L|136:248,2,90,0|0|0,0:3|2:0|0:3,0:0:0:0:
472,256,314013,6,0,P|471:170|393:135,1,180,2|0,2:1|2:0,0:0:0:0:
292,152,314505,1,0,0:3:0:0:
64,280,314668,2,0,L|264:256,1,180,2|0,2:0|2:0,0:0:0:0:
288,264,315078,1,0,2:0:0:0:
180,188,315160,2,0,L|171:98,1,90,2|2,0:1|2:0,0:0:0:0:
404,248,315488,6,0,L|304:232,1,90,6|0,0:1|2:0,0:0:0:0:
460,224,315815,2,0,L|368:184,1,90,0|0,0:3|2:0,0:0:0:0:
224,268,316144,2,0,L|116:260,2,90,0|0|0,0:3|2:0|0:3,0:0:0:0:
452,320,316636,6,0,P|464:248|372:200,1,180,2|0,2:1|2:0,0:0:0:0:
236,272,317128,1,0,0:3:0:0:
320,264,317292,2,0,L|335:175,1,90,0|0,2:0|0:3,0:0:0:0:
184,144,317619,1,0,2:0:0:0:
144,148,317701,1,0,2:0:0:0:
245,219,317783,2,0,L|265:123,1,90,0|0,0:3|2:0,0:0:0:0:
40,140,318111,6,0,L|152:132,1,90,6|0,0:1|2:0,0:0:0:0:
272,256,318439,1,0,0:3:0:0:
300,172,318603,1,0,2:0:0:0:
152,296,318767,2,0,L|248:284,2,90,0|0|0,0:3|2:0|0:3,0:0:0:0:
388,308,319259,6,0,P|372:212|276:196,1,180,2|0,2:1|2:0,0:0:0:0:
156,224,319751,2,0,L|132:116,1,90,0|0,0:0|2:0,0:0:0:0:
368,228,320078,6,0,L|480:212,1,90,4|0,0:2|2:0,0:0:0:0:
416,204,320324,1,0,2:0:0:0:
304,200,320406,2,0,L|200:212,1,90,4|2,0:2|2:0,0:0:0:0:
452,332,320734,6,0,L|468:240,1,90,6|0,0:1|2:0,0:0:0:0:
328,320,321062,2,0,L|420:308,1,90,0|0,0:3|2:0,0:0:0:0:
264,260,321390,2,0,L|168:248,2,90,0|0|0,0:3|2:0|0:3,0:0:0:0:
504,172,321882,6,0,L|304:140,1,180,2|0,2:1|2:0,0:0:0:0:
180,204,322374,2,0,L|86:194,2,90,0|0|0,0:3|2:0|0:3,0:0:0:0:
264,176,322865,1,0,2:0:0:0:
304,172,322947,1,0,2:0:0:0:
208,308,323029,2,0,L|188:208,1,90,0|0,0:3|2:0,0:0:0:0:
420,200,323357,6,0,L|512:188,1,90,6|0,0:1|2:0,0:0:0:0:
368,132,323685,1,0,0:3:0:0:
448,144,323849,1,0,2:0:0:0:
308,224,324013,2,0,L|208:240,2,90,0|0|0,0:3|2:0|0:3,0:0:0:0:
72,200,324505,6,0,P|56:152|152:80,1,180,2|0,2:1|2:0,0:0:0:0:
228,84,324997,1,0,0:3:0:0:
460,228,325160,2,0,L|248:256,1,180,2|0,2:0|2:0,0:0:0:0:
240,248,325570,1,0,2:0:0:0:
336,156,325652,2,0,L|432:128,1,90,2|2,0:1|2:0,0:0:0:0:
84,62,325979,5,14,3:3:0:0:
256,192,326143,12,0,331061,0:0:0:0:
220,192,331225,6,0,P|196:156|228:108,1,90,2|0,0:0|0:0,0:0:0:0:
288,236,331553,2,0,P|312:200|280:152,1,90,0|0,0:0|0:0,0:0:0:0:
204,208,331881,2,0,L|152:120,2,90,0|0|0,0:0|0:0|0:0,0:0:0:0:
352,296,332373,6,0,P|416:288|424:180,1,180,2|0,0:1|0:0,0:0:0:0:
280,160,332865,2,0,L|380:144,1,90,0|0,0:0|0:0,0:0:0:0:
292,140,333192,2,0,L|264:40,1,90,0|0,0:0|0:0,0:0:0:0:
348,184,333520,2,0,L|376:84,1,90,0|0,0:0|0:0,0:0:0:0:
220,240,333848,6,0,L|116:224,1,90,2|0,0:0|0:0,0:0:0:0:
216,208,334176,2,0,L|188:108,1,90,0|0,0:0|0:0,0:0:0:0:
280,228,334504,2,0,L|352:160,2,90,0|0|0,0:0|0:0|0:0,0:0:0:0:
128,320,334996,6,0,P|64:280|136:240,1,180,2|0,0:1|0:0,0:0:0:0:
272,240,335488,2,0,L|340:176,1,90,0|0,0:0|0:0,0:0:0:0:
256,200,335815,2,0,L|236:100,1,90,0|0,0:0|0:0,0:0:0:0:
320,172,336143,2,0,L|414:149,1,90,0|0,0:0|0:0,0:0:0:0:
248,76,336471,1,4,0:1:0:0:
