osu file format v14

[General]
AudioFilename: audio.mp3
AudioLeadIn: 0
PreviewTime: 29740
Countdown: 0
SampleSet: Drum
StackLeniency: 0.3
Mode: 2
LetterboxInBreaks: 0
WidescreenStoryboard: 0

[Editor]
Bookmarks: 15678,36303,41928
DistanceSpacing: 1
BeatDivisor: 4
GridSize: 8
TimelineZoom: 1.2

[Metadata]
Title:864 melody
TitleUnicode:864 melody
Artist:Halozy
ArtistUnicode:Halozy
Creator:MBomb
Version:Salad
Source:
Tags:HLZY-0022 sumijun すみじゅん Reitaisai 12 Magic Bomb Arylette english electronic Lasse JBHyperion
BeatmapID:1972076
BeatmapSetID:943873

[Difficulty]
HPDrainRate:4
CircleSize:2.9
OverallDifficulty:7
ApproachRate:7
SliderMultiplier:1.8
SliderTickRate:1

[Events]
//Background and Video events
0,0,"bg.jpg",0,0
//Break Periods
//Storyboard Layer 0 (Background)
//Storyboard Layer 1 (Fail)
//Storyboard Layer 2 (Pass)
//Storyboard Layer 3 (Foreground)
//Storyboard Layer 4 (Overlay)
//Storyboard Sound Samples

[TimingPoints]
678,468.75,4,3,1,40,1,0
15560,-100,4,3,1,10,0,0
15678,-100,4,3,1,60,0,0
30678,-100,4,3,1,60,0,1
45678,-100,4,3,1,70,0,1
45736,-100,4,3,1,60,0,0
46146,-100,4,3,1,50,0,0
47084,-100,4,3,1,30,0,0
48490,-100,4,3,1,15,0,0
49428,-100,4,2,1,5,0,0

[Colours]
Combo1 : 254,253,205
Combo2 : 246,224,237
Combo3 : 212,224,212
Combo4 : 111,169,215

[HitObjects]
192,192,678,6,0,L|376:192,1,180,4|0,0:0|0:0,0:0:0:0:
176,192,1615,2,0,L|72:192,2,90,0|0|8,0:0|0:0|0:0,0:0:0:0:
392,192,2553,6,0,L|200:192,1,180,4|0,0:0|0:0,0:0:0:0:
416,192,3490,1,0,0:0:0:0:
320,192,3724,1,0,0:0:0:0:
224,192,3959,1,8,0:0:0:0:
440,192,4428,6,0,P|496:160|432:96,1,180,4|0,0:0|0:0,0:0:0:0:
224,192,5365,1,0,0:0:0:0:
320,192,5599,1,0,0:0:0:0:
416,192,5834,1,8,0:0:0:0:
192,192,6303,6,0,P|103:183|56:96,1,180,4|0,0:0|0:0,0:0:0:0:
248,192,7240,2,0,L|344:192,2,90,0|0|8,0:0|0:0|0:0,0:0:0:0:
456,192,8178,6,0,L|272:192,1,180,4|8,0:0|0:0,0:0:0:0:
376,192,8881,1,0,0:0:0:0:
488,192,9115,2,0,L|288:192,1,180,2|8,0:0|0:0,0:0:0:0:
96,192,10053,6,0,L|200:192,2,90,4|0|8,0:0|0:0|0:0,0:0:0:0:
16,192,10756,1,0,0:0:0:0:
128,192,10990,2,0,P|256:168|304:128,1,180,0|8,0:0|0:0,0:0:0:0:
80,192,11928,5,4,0:0:0:0:
16,192,12162,1,0,0:0:0:0:
16,192,12396,1,8,0:0:0:0:
80,192,12630,1,0,0:0:0:0:
192,192,12865,2,0,L|296:192,1,90,8|0,0:0|0:0,0:0:0:0:
170,192,13334,2,0,L|66:192,1,90,8|8,0:0|0:0,0:0:0:0:
282,192,13803,6,0,L|346:192,2,45,12|0|8,1:3|1:3|1:3,0:0:0:0:
408,192,14271,2,0,L|464:192,2,45,10|8|8,1:3|1:3|1:3,0:0:0:0:
208,192,14740,1,12,1:3:0:0:
408,192,15209,1,8,1:3:0:0:
56,192,15678,6,0,L|240:192,1,180,4|0,0:0|0:0,0:0:0:0:
352,192,16381,2,0,L|352:136,1,45,0|0,0:0|0:0,0:0:0:0:
248,192,16732,1,0,0:0:0:0:
352,192,16967,2,0,L|352:144,1,45,0|0,0:0|0:0,0:0:0:0:
224,192,17318,1,0,0:0:0:0:
424,192,17553,6,0,P|488:160|424:112,1,180,8|0,0:3|0:0,0:0:0:0:
312,192,18256,2,0,L|248:192,1,45,0|0,0:0|0:0,0:0:0:0:
376,192,18607,1,0,0:0:0:0:
480,192,18842,2,0,L|424:192,1,45,0|0,0:0|0:0,0:0:0:0:
304,192,19193,1,0,0:0:0:0:
104,192,19428,6,0,P|40:160|104:112,1,180,4|0,0:0|0:0,0:0:0:0:
216,192,20131,2,0,L|216:136,1,45,0|0,0:0|0:0,0:0:0:0:
112,192,20482,1,0,0:0:0:0:
16,192,20717,2,0,L|88:192,1,45,0|0,0:0|0:0,0:0:0:0:
184,192,21068,1,0,0:0:0:0:
384,192,21303,6,0,P|464:160|480:72,1,180,8|0,0:3|0:0,0:0:0:0:
368,192,22006,2,0,L|312:192,1,45,0|0,0:0|0:0,0:0:0:0:
432,192,22357,1,0,0:0:0:0:
323,192,22592,1,0,0:0:0:0:
384,192,22709,1,2,0:0:0:0:
264,192,22943,1,0,0:0:0:0:
464,192,23178,6,0,P|419:134|304:120,1,180,4|0,0:0|0:0,0:0:0:0:
200,192,23881,2,0,L|200:144,1,45,0|0,0:0|0:0,0:0:0:0:
304,192,24232,1,0,0:0:0:0:
408,192,24467,2,0,L|408:128,1,45,0|0,0:0|0:0,0:0:0:0:
288,192,24818,1,0,0:0:0:0:
168,192,25053,6,0,L|360:192,1,180,8|0,0:3|0:0,0:0:0:0:
240,192,25756,2,0,L|184:192,1,45,0|0,0:0|0:0,0:0:0:0:
296,192,26107,1,0,0:0:0:0:
192,192,26342,2,0,L|120:192,1,45,0|0,0:0|0:0,0:0:0:0:
264,192,26693,1,0,0:0:0:0:
152,192,26928,6,0,P|88:152|152:104,1,180,4|0,0:0|0:0,0:0:0:0:
264,192,27631,2,0,L|200:192,1,45,0|0,0:0|0:0,0:0:0:0:
120,192,27982,1,0,0:0:0:0:
219,192,28217,2,0,L|264:192,1,45,0|0,0:0|0:0,0:0:0:0:
136,192,28568,1,0,0:0:0:0:
264,192,28803,6,0,L|328:192,2,45,4|0|8,0:0|0:0|0:0,0:0:0:0:
392,192,29271,2,0,L|392:96,1,90,2|8,0:0|0:0,0:0:0:0:
192,192,29740,1,10,0:0:0:0:
400,192,30209,2,0,L|496:192,1,90,10|0,0:0|0:0,0:0:0:0:
288,192,30678,6,0,P|192:176|160:104,1,180,4|2,0:0|0:0,0:0:0:0:
272,192,31381,2,0,L|336:192,1,45,8|0,0:0|0:0,0:0:0:0:
216,192,31732,1,0,0:0:0:0:
317,192,31967,2,0,L|272:192,1,45,0|2,0:0|0:0,0:0:0:0:
144,192,32318,1,0,0:0:0:0:
344,192,32553,6,0,P|408:152|344:112,1,180,8|2,0:0|0:0,0:0:0:0:
208,192,33256,2,0,L|160:192,1,45,8|0,0:0|0:0,0:0:0:0:
64,192,33607,1,0,0:0:0:0:
163,192,33842,2,0,L|235:192,1,45,0|2,0:0|0:0,0:0:0:0:
88,192,34193,1,0,0:0:0:0:
288,192,34428,6,0,P|384:160|416:80,1,180,4|2,0:0|0:0,0:0:0:0:
304,192,35131,2,0,L|248:192,1,45,8|0,0:0|0:0,0:0:0:0:
360,192,35482,1,0,0:0:0:0:
456,192,35717,2,0,L|504:192,1,45,0|2,0:0|0:0,0:0:0:0:
376,192,36068,1,0,0:0:0:0:
176,192,36303,6,0,P|144:144|240:96,1,180,8|2,0:0|0:0,0:0:0:0:
344,192,37006,2,0,L|344:136,1,45,8|0,0:0|0:0,0:0:0:0:
240,192,37357,1,0,0:0:0:0:
344,192,37592,1,0,0:0:0:0:
283,192,37709,1,10,0:0:0:0:
403,192,37943,1,0,0:0:0:0:
200,192,38178,6,0,P|112:176|72:96,1,180,4|2,0:0|0:0,0:0:0:0:
184,192,38881,2,0,L|256:192,1,45,8|0,0:0|0:0,0:0:0:0:
128,192,39232,1,0,0:0:0:0:
24,192,39467,2,0,L|88:192,1,45,0|10,0:0|0:0,0:0:0:0:
192,192,39818,1,2,0:0:0:0:
392,192,40053,6,0,P|376:136|256:120,1,180,4|2,0:0|0:0,0:0:0:0:
160,192,40756,2,0,L|96:192,1,45,8|0,0:0|0:0,0:0:0:0:
216,192,41107,1,0,0:0:0:0:
312,192,41342,2,0,L|368:192,1,45,0|10,0:0|0:0,0:0:0:0:
224,192,41693,1,2,0:0:0:0:
24,192,41928,5,10,0:0:0:0:
24,192,42045,1,0,0:0:0:0:
72,192,42162,1,2,0:0:0:0:
192,192,42396,2,0,L|256:192,2,45,8|0|8,0:0|0:0|0:0,0:0:0:0:
72,192,42865,6,0,L|16:192,2,45,12|0|10,0:0|0:0|0:0,0:0:0:0:
192,192,43334,1,12,1:3:0:0:
144,192,43451,1,0,0:0:0:0:
96,192,43568,1,10,0:0:0:0:
296,192,43803,6,0,L|352:192,2,45,14|2|10,1:3|1:3|1:3,0:0:0:0:
168,192,44271,1,10,1:3:0:0:
112,192,44388,1,10,1:3:0:0:
80,192,44506,1,10,1:3:0:0:
280,192,44740,1,14,1:3:0:0:
56,192,45209,1,2,1:3:0:0:
416,192,45678,5,4,2:0:0:0:
256,192,46146,12,0,49428,0:0:0:0:
