osu file format v14

[General]
AudioFilename: audio.mp3
AudioLeadIn: 0
PreviewTime: 29740
Countdown: 0
SampleSet: Drum
StackLeniency: 0.3
Mode: 2
LetterboxInBreaks: 0
WidescreenStoryboard: 1

[Editor]
Bookmarks: 15678,36303,41928
DistanceSpacing: 1
BeatDivisor: 4
GridSize: 8
TimelineZoom: 1.2

[Metadata]
Title:864 melody
TitleUnicode:864 melody
Artist:Halozy
ArtistUnicode:Halozy
Creator:MBomb
Version:Rain
Source:
Tags:HLZY-0022 sumijun すみじゅん Reitaisai 12 Magic Bomb Arylette english electronic Lasse JBHyperion
BeatmapID:1971182
BeatmapSetID:943873

[Difficulty]
HPDrainRate:6
CircleSize:4.3
OverallDifficulty:9
ApproachRate:9
SliderMultiplier:2.2
SliderTickRate:1

[Events]
//Background and Video events
0,0,"bg.jpg",0,0
//Break Periods
//Storyboard Layer 0 (Background)
//Storyboard Layer 1 (Fail)
//Storyboard Layer 2 (Pass)
//Storyboard Layer 3 (Foreground)
//Storyboard Layer 4 (Overlay)
//Storyboard Sound Samples

[TimingPoints]
678,468.75,4,3,1,40,1,0
15560,-100,4,3,1,10,0,0
15678,-83.3333333333333,4,3,1,60,0,0
30678,-83.3333333333333,4,3,1,60,0,1
45678,-100,4,3,1,70,0,1
45736,-100,4,3,1,60,0,0
46146,-100,4,3,1,50,0,0
47084,-100,4,3,1,30,0,0
48490,-100,4,3,1,15,0,0
49428,-100,4,2,1,5,0,0

[Colours]
Combo1 : 254,253,205
Combo2 : 246,224,237
Combo3 : 212,224,212
Combo4 : 111,169,215

[HitObjects]
224,192,678,6,0,L|112:192,1,110,4|0,0:0|0:0,0:0:0:0:
320,192,1146,2,0,L|208:192,1,110,0|0,0:0|0:0,0:0:0:0:
16,192,1615,2,0,L|128:192,2,110,0|0|8,0:0|0:0|0:0,0:0:0:0:
464,192,2553,6,0,L|352:192,1,110,4|0,0:0|0:0,0:0:0:0:
144,192,3021,2,0,L|264:192,1,110,0|0,0:0|0:0,0:0:0:0:
464,192,3490,2,0,L|352:192,2,110,0|0|8,0:0|0:0|0:0,0:0:0:0:
32,192,4428,6,0,L|144:192,1,110,4|0,0:0|0:0,0:0:0:0:
360,192,4896,2,0,L|472:192,1,110,0|0,0:0|0:0,0:0:0:0:
256,192,5365,2,0,L|144:192,2,110,0|0|8,0:0|0:0|0:0,0:0:0:0:
8,192,6303,6,0,L|120:192,1,110,4|0,0:0|0:0,0:0:0:0:
336,192,6771,2,0,L|224:192,1,110,0|0,0:0|0:0,0:0:0:0:
8,192,7240,2,0,L|120:192,2,110,0|0|8,0:0|0:0|0:0,0:0:0:0:
408,192,8178,6,0,L|296:192,1,110,4|0,0:0|0:0,0:0:0:0:
496,192,8646,2,0,L|384:192,1,110,8|0,0:0|0:0,0:0:0:0:
160,192,9115,2,0,L|48:192,1,110,2|0,0:0|0:0,0:0:0:0:
224,192,9584,2,0,L|336:192,1,110,8|0,0:0|0:0,0:0:0:0:
112,192,10053,6,0,L|232:192,1,110,4|0,0:0|0:0,0:0:0:0:
152,192,10404,1,0,0:0:0:0:
16,192,10521,2,0,L|136:192,1,110,8|0,0:0|0:0,0:0:0:0:
352,192,10990,2,0,L|240:192,1,110,0|0,0:0|0:0,0:0:0:0:
16,192,11459,2,0,L|128:192,1,110,8|0,0:0|0:0,0:0:0:0:
368,192,11928,5,4,0:0:0:0:
420,182,12045,1,0,0:0:0:0:
444,135,12162,1,0,0:0:0:0:
421,87,12279,1,0,0:0:0:0:
280,192,12396,1,8,0:0:0:0:
225,191,12513,1,0,0:0:0:0:
179,163,12630,1,0,0:0:0:0:
152,115,12747,1,0,0:0:0:0:
296,192,12865,5,8,0:0:0:0:
258,151,12982,1,0,0:0:0:0:
209,128,13099,1,0,0:0:0:0:
154,124,13216,1,0,0:0:0:0:
296,192,13334,1,8,0:0:0:0:
346,179,13451,1,0,0:0:0:0:
357,128,13568,1,8,0:0:0:0:
317,96,13685,1,0,0:0:0:0:
96,192,13803,5,12,1:3:0:0:
13,192,13920,1,0,1:3:0:0:
85,192,14037,1,8,1:3:0:0:
167,192,14154,1,0,1:3:0:0:
416,192,14271,1,10,1:3:0:0:
498,192,14388,1,8,1:3:0:0:
427,192,14505,1,8,1:3:0:0:
344,192,14622,1,8,1:3:0:0:
128,192,14740,5,12,1:3:0:0:
472,192,15209,1,8,1:3:0:0:
88,192,15678,6,0,P|144:104|288:48,1,263.99999194336,4|0,0:0|0:0,0:0:0:0:
384,192,16381,1,0,0:0:0:0:
448,192,16498,1,0,0:0:0:0:
288,192,16615,2,0,L|216:192,1,65.9999979858399,8|0,0:0|0:0,0:0:0:0:
32,192,16967,1,0,0:0:0:0:
112,192,17084,1,0,0:0:0:0:
328,192,17318,1,0,0:0:0:0:
16,192,17553,6,0,P|112:128|256:104,1,263.99999194336,8|0,0:3|0:0,0:0:0:0:
104,192,18256,1,0,0:0:0:0:
56,192,18373,1,0,0:0:0:0:
184,192,18490,2,0,L|104:192,1,65.9999979858399,8|0,0:0|0:0,0:0:0:0:
272,192,18842,1,0,0:0:0:0:
320,192,18959,1,0,0:0:0:0:
504,192,19193,1,0,0:0:0:0:
144,192,19428,6,0,P|64:112|168:56,1,263.99999194336,4|0,0:0|0:0,0:0:0:0:
336,192,20131,2,0,L|264:192,1,65.9999979858399,0|0,0:0|0:0,0:0:0:0:
128,192,20365,2,0,L|200:192,1,65.9999979858399,8|0,0:0|0:0,0:0:0:0:
384,192,20717,2,0,L|296:192,1,65.9999979858399,0|0,0:0|0:0,0:0:0:0:
96,192,21068,1,0,0:0:0:0:
424,192,21303,6,0,P|496:128|392:48,1,263.99999194336,8|0,0:3|0:0,0:0:0:0:
224,192,22006,2,0,L|136:192,1,65.9999979858399,0|0,0:0|0:0,0:0:0:0:
16,192,22240,2,0,L|96:192,1,65.9999979858399,8|0,0:0|0:0,0:0:0:0:
256,192,22592,1,0,0:0:0:0:
48,192,22709,1,2,0:0:0:0:
176,192,22943,1,0,0:0:0:0:
504,192,23178,6,0,L|248:128,1,263.99999194336,4|0,0:0|0:0,0:0:0:0:
392,192,23881,2,0,P|328:192|320:192,1,65.9999979858399,0|0,0:0|0:0,0:0:0:0:
176,192,24115,2,0,P|112:192|104:192,1,65.9999979858399,8|0,0:0|0:0,0:0:0:0:
224,192,24467,1,0,0:0:0:0:
312,192,24584,1,0,0:0:0:0:
112,192,24818,1,0,0:0:0:0:
480,192,25053,6,0,P|424:128|256:88,1,263.99999194336,8|0,0:3|0:0,0:0:0:0:
112,192,25756,2,0,L|184:192,1,65.9999979858399,0|0,0:0|0:0,0:0:0:0:
32,192,25990,2,0,L|112:192,1,65.9999979858399,8|0,0:0|0:0,0:0:0:0:
248,192,26342,2,0,L|188:160,1,65.9999979858399
408,192,26693,1,0,0:0:0:0:
112,192,26928,6,0,P|24:104|112:56,1,263.99999194336,4|0,0:0|0:0,0:0:0:0:
264,192,27631,2,0,L|360:192,1,65.9999979858399,0|0,0:0|0:0,0:0:0:0:
472,192,27865,2,0,L|392:192,1,65.9999979858399,8|0,0:0|0:0,0:0:0:0:
264,192,28217,2,0,L|176:192,1,65.9999979858399,0|0,0:0|0:0,0:0:0:0:
416,192,28568,1,0,0:0:0:0:
96,192,28803,5,4,0:0:0:0:
162,192,28920,1,0,0:0:0:0:
228,192,29037,1,8,0:0:0:0:
294,192,29154,1,0,0:0:0:0:
104,192,29271,1,2,0:0:0:0:
312,192,29506,1,8,0:0:0:0:
8,192,29740,2,0,L|144:192,1,131.99999597168,10|2,0:0|0:0,0:0:0:0:
208,192,30092,1,0,2:0:0:0:
432,192,30209,2,0,P|472:144|440:88,1,131.99999597168,10|0,0:0|0:0,0:0:0:0:
152,192,30678,6,0,P|16:192|16:192,1,131.99999597168,4|0,0:0|0:0,0:0:0:0:
96,192,31029,1,0,0:0:0:0:
240,192,31146,2,0,L|376:192,1,131.99999597168,2|8,0:0|0:0,0:0:0:0:
424,192,31498,1,0,0:0:0:0:
296,192,31615,2,0,L|208:192,1,65.9999979858399,2|0,0:0|0:0,0:0:0:0:
96,192,31967,2,0,L|168:192,1,65.9999979858399,0|2,0:0|0:0,0:0:0:0:
480,192,32318,1,0,0:0:0:0:
96,192,32553,6,0,P|40:120|136:32,1,197.99999395752,8|0,0:0|0:0,0:0:0:0:
240,192,33021,2,0,L|376:192,1,131.99999597168,2|8,0:0|0:0,0:0:0:0:
304,192,33373,1,0,0:0:0:0:
160,192,33490,2,0,L|232:192,1,65.9999979858399,2|0,0:0|0:0,0:0:0:0:
376,192,33842,2,0,L|304:192,1,65.9999979858399,0|2,0:0|0:0,0:0:0:0:
8,192,34193,1,0,0:0:0:0:
416,192,34428,6,0,P|488:192|360:192,1,197.99999395752,4|0,0:0|0:0,0:0:0:0:
224,192,34896,1,2,0:0:0:0:
88,192,35131,2,0,L|160:192,1,65.9999979858399,8|0,0:0|0:0,0:0:0:0:
16,192,35365,2,0,L|88:192,1,65.9999979858399,2|0,0:0|0:0,0:0:0:0:
264,192,35717,2,0,L|192:192,1,65.9999979858399,0|2,0:0|0:0,0:0:0:0:
496,192,36068,1,0,0:0:0:0:
96,192,36303,6,0,P|176:96|248:80,1,197.99999395752,8|0,0:0|0:0,0:0:0:0:
104,192,36771,1,2,0:0:0:0:
248,192,37006,2,0,L|168:192,1,65.9999979858399,8|0,0:0|0:0,0:0:0:0:
320,192,37240,2,0,L|400:192,1,65.9999979858399,2|0,0:0|0:0,0:0:0:0:
280,192,37592,1,0,0:0:0:0:
104,192,37709,1,10,0:0:0:0:
312,192,37943,1,0,0:0:0:0:
16,192,38178,6,0,L|200:120,1,197.99999395752,4|0,0:0|0:0,0:0:0:0:
344,192,38646,1,2,0:0:0:0:
464,192,38881,2,0,L|384:192,1,65.9999979858399,8|0,0:0|0:0,0:0:0:0:
256,192,39115,2,0,L|176:192,1,65.9999979858399,2|0,0:0|0:0,0:0:0:0:
368,192,39467,2,0,L|296:192,1,65.9999979858399,0|10,0:0|0:0,0:0:0:0:
8,192,39818,1,2,0:0:0:0:
384,192,40053,6,0,P|456:144|400:72,1,197.99999395752,4|0,0:0|0:0,0:0:0:0:
264,192,40521,1,2,0:0:0:0:
128,192,40756,2,0,L|56:192,1,65.9999979858399,8|0,0:0|0:0,0:0:0:0:
200,184,40990,2,0,L|272:184,1,65.9999979858399,2|0,0:0|0:0,0:0:0:0:
432,192,41342,2,0,L|344:192,1,65.9999979858399,0|10,0:0|0:0,0:0:0:0:
62,192,41693,1,2,0:0:0:0:
456,192,41928,5,10,0:0:0:0:
413,142,42045,1,0,0:0:0:0:
355,111,42162,1,2,0:0:0:0:
289,103,42279,1,0,0:0:0:0:
96,192,42396,1,8,0:0:0:0:
138,142,42513,1,0,0:0:0:0:
196,111,42630,1,8,0:0:0:0:
262,103,42747,1,8,0:0:0:0:
464,192,42865,5,12,0:0:0:0:
496,137,42982,1,0,0:0:0:0:
469,79,43099,1,10,0:0:0:0:
406,69,43216,1,0,0:0:0:0:
192,192,43334,2,0,L|112:192,1,65.9999979858399,12|0,1:3|0:0,0:0:0:0:
320,192,43568,2,0,L|400:192,1,65.9999979858399,10|0,0:0|0:0,0:0:0:0:
176,192,43803,5,14,1:3:0:0:
88,192,43920,1,2,1:3:0:0:
160,192,44037,1,10,1:3:0:0:
72,192,44154,1,2,1:3:0:0:
336,192,44271,1,10,1:3:0:0:
424,192,44388,1,10,1:3:0:0:
352,192,44505,1,10,1:3:0:0:
440,192,44622,1,10,1:3:0:0:
176,192,44740,6,0,L|104:192,2,65.9999979858399,14|0|0,1:3|0:0|0:0,0:0:0:0:
496,192,45209,1,2,1:3:0:0:
128,192,45678,1,4,2:0:0:0:
256,192,45912,12,0,49428,0:0:0:0:
