osu file format v14

[General]
AudioFilename: audio.mp3
AudioLeadIn: 0
PreviewTime: 181137
Countdown: 0
SampleSet: Soft
StackLeniency: 0.7
Mode: 2
LetterboxInBreaks: 0
EpilepsyWarning: 1
WidescreenStoryboard: 1

[Editor]
Bookmarks: 3494,30922,58351,85780,113208,140637,168065,181780,209208,231494,250351,277780,305208,332637,360065,387494,414922,442351
DistanceSpacing: 1.4
BeatDivisor: 4
GridSize: 4
TimelineZoom: 2.7

[Metadata]
Title:143 (extended mix)
TitleUnicode:143 (extended mix)
Artist:Halozy
ArtistUnicode:Halozy
Creator:JBHyperion
Version:Salad Collab
Source:東方花映塚 ~ Phantasmagoria of Flower View.
Tags:東方Project Touhou Kaeidzuka 魂の花 ~ Another Dream... Flower Soul オリエンタルダークフライト Oriental Dark Flight Marisa Kirisame sumijun nayuta 7uta 864 One Four Three Reitaisai 12 Piku P_i_k_u Sc4 Sc4v4ng3r JBH Sinnoh
BeatmapID:1301853
BeatmapSetID:574232

[Difficulty]
HPDrainRate:4
CircleSize:3
OverallDifficulty:7
ApproachRate:7
SliderMultiplier:1.8
SliderTickRate:1

[Events]
//Background and Video events
0,0,"Marisa4.jpg",0,0
//Break Periods
2,85980,98594
2,168265,180065
2,223122,230594
2,305408,318022
//Storyboard Layer 0 (Background)
//Storyboard Layer 1 (Fail)
//Storyboard Layer 2 (Pass)
//Storyboard Layer 3 (Foreground)
Sprite,Foreground,Centre,"SB\143JBHdark.png",100,320 S,0,3494,,0.25 F,0,3494,4137,0,1 F,0,17208,17851,1,0
Sprite,Foreground,Centre,"SB\143Sinnohdark.png",520,320 S,0,181780,,0.25 F,0,181780,182208,0,1 F,0,188637,189494,1,0 F,0,189494,305208,0 M,0,318922,,100,320 F,0,318922,319565,0,1 F,0,325351,325780,1,0
Sprite,Foreground,Centre,"SB\143JBH.png",520,320 S,0,277780,,0.25 F,0,277780,278208,0,1 F,0,285065,285494,1,0 F,0,360065,360494,0,1 F,0,373780,374208,1,0
//Storyboard Sound Samples

[TimingPoints]
1780,428.571428571429,4,2,0,5,1,0
1994,-100,4,2,0,10,0,0
2208,-100,4,2,0,15,0,0
2422,-100,4,2,0,20,0,0
2637,-100,4,2,0,25,0,0
2851,-100,4,2,0,30,0,0
3065,-100,4,2,0,35,0,0
3280,-100,4,2,0,40,0,0
3494,-100,4,3,1,50,0,0
5851,-100,4,3,2,50,0,0
5958,-100,4,3,1,50,0,0
6280,-100,4,3,3,50,0,0
6387,-100,4,3,1,50,0,0
6708,-100,4,3,3,50,0,0
6815,-100,4,3,1,50,0,0
9280,-100,4,3,2,50,0,0
9387,-100,4,3,1,50,0,0
9708,-100,4,3,3,50,0,0
9815,-100,4,3,1,50,0,0
10137,-100,4,3,3,50,0,0
10244,-100,4,3,1,50,0,0
12708,-100,4,3,2,50,0,0
12815,-100,4,3,1,50,0,0
13137,-100,4,3,3,50,0,0
13244,-100,4,3,1,50,0,0
13566,-100,4,3,3,50,0,0
13673,-100,4,3,1,50,0,0
16137,-100,4,3,2,50,0,0
16244,-100,4,3,1,50,0,0
16780,-100,4,3,3,40,0,0
17208,-100,4,3,1,50,0,0
19565,-100,4,3,2,50,0,0
19672,-100,4,3,1,50,0,0
19994,-100,4,3,3,50,0,0
20101,-100,4,3,1,50,0,0
20423,-100,4,3,3,50,0,0
20530,-100,4,3,1,50,0,0
22994,-100,4,3,2,50,0,0
23101,-100,4,3,1,50,0,0
23422,-100,4,3,3,50,0,0
23529,-100,4,3,1,50,0,0
23851,-100,4,3,3,50,0,0
24065,-100,4,3,1,50,0,0
26422,-100,4,3,2,50,0,0
26530,-100,4,3,1,50,0,0
26851,-100,4,3,3,50,0,0
26958,-100,4,3,1,50,0,0
27280,-100,4,3,3,50,0,0
27387,-100,4,3,1,50,0,0
29208,-100,4,2,1,50,0,0
29637,-100,4,2,1,40,0,0
30065,-100,4,2,1,50,0,0
30494,-100,4,2,1,60,0,0
30922,-100,4,3,4,65,0,0
31137,-100,4,3,4,65,0,0
44637,-100,4,3,1,80,0,0
44744,-100,4,3,4,65,0,0
50422,-80,4,2,1,80,0,0
50637,-80,4,3,1,50,0,0
50851,-100,4,3,4,65,0,0
51494,-100,4,3,1,80,0,0
51708,-100,4,3,4,65,0,0
52351,-100,4,3,1,80,0,0
52565,-100,4,3,4,65,0,0
53208,-100,4,3,1,80,0,0
53422,-100,4,3,4,65,0,0
54065,-100,4,3,1,80,0,0
54279,-100,4,3,4,65,0,0
54922,-100,4,2,0,50,0,0
55351,-100,4,2,0,52,0,0
55780,-100,4,2,0,55,0,0
56208,-100,4,2,0,58,0,0
56637,-100,4,2,1,75,0,0
56744,-100,4,2,2,60,0,0
57494,-100,4,2,2,70,0,0
57922,-100,4,2,2,85,0,0
58351,-100,4,3,4,65,0,0
58994,-100,4,3,4,50,0,0
59208,-100,4,3,4,65,0,0
60065,-80,4,3,4,65,0,0
60494,-100,4,3,4,65,0,0
60708,-100,4,3,4,50,0,0
60922,-100,4,3,4,65,0,0
62422,-100,4,3,4,50,0,0
62636,-100,4,3,4,65,0,0
64137,-100,4,3,4,50,0,0
64351,-100,4,3,4,65,0,0
65851,-100,4,3,4,50,0,0
66065,-100,4,3,4,65,0,0
67565,-100,4,3,4,50,0,0
67779,-100,4,3,4,65,0,0
69280,-100,4,3,4,50,0,0
69494,-100,4,3,4,65,0,0
72065,-100,4,3,4,50,0,0
72387,-100,4,3,4,65,0,0
73780,-100,4,3,4,50,0,0
74102,-100,4,3,4,65,0,0
75494,-100,4,3,4,50,0,0
75816,-100,4,3,4,65,0,0
77208,-100,4,3,4,50,0,0
77530,-100,4,3,4,65,0,0
78922,-100,4,3,4,50,0,0
79244,-100,4,3,4,65,0,0
79780,-100,4,3,4,60,0,0
80102,-100,4,3,4,75,0,0
80637,-100,4,3,4,60,0,0
80959,-100,4,3,4,75,0,0
81494,-100,4,3,4,60,0,0
81816,-100,4,3,4,75,0,0
82351,-100,4,3,4,60,0,0
82673,-100,4,3,4,75,0,0
84065,-100,4,3,4,40,0,0
84494,-100,4,3,4,45,0,0
84922,-100,4,3,4,50,0,0
85351,-100,4,3,1,70,0,0
85780,-80,4,3,2,70,0,0
99494,-100,4,3,5,100,0,0
99708,-100,4,3,2,50,0,0
101208,-100,4,3,4,50,0,0
101530,-100,4,3,2,50,0,0
102922,-100,4,3,4,50,0,0
103244,-100,4,3,2,50,0,0
104208,-100,4,3,2,70,0,0
104637,-100,4,3,4,50,0,0
104959,-100,4,3,2,50,0,0
106351,-100,4,3,4,50,0,0
106673,-100,4,3,2,50,0,0
107208,-100,4,3,4,50,0,0
107530,-100,4,3,2,50,0,0
108065,-100,4,3,4,50,0,0
108387,-100,4,3,2,50,0,0
108922,-100,4,3,4,50,0,0
109244,-100,4,3,2,50,0,0
109780,-100,4,3,4,50,0,0
110422,-100,4,3,2,50,0,0
110637,-100,4,3,4,50,0,0
110851,-100,4,3,2,50,0,0
111065,-100,4,3,4,50,0,0
111279,-100,4,3,2,50,0,0
111494,-100,4,3,4,40,0,0
112780,-100,4,2,2,70,0,0
113208,-100,4,2,2,80,0,1
113315,-100,4,3,4,75,0,1
125851,-80,4,3,4,75,0,1
126280,-100,4,3,4,75,0,1
126494,-100,4,3,2,70,0,1
126601,-100,4,3,2,60,0,1
126708,-100,4,3,2,50,0,1
126922,-100,4,3,4,75,0,1
133780,-100,4,3,4,60,0,1
134101,-100,4,3,4,75,0,1
135494,-100,4,3,4,60,0,1
135815,-100,4,3,4,75,0,1
136351,-100,4,3,4,60,0,1
136672,-100,4,3,4,75,0,1
137208,-100,4,3,4,60,0,1
137529,-100,4,3,4,75,0,1
138922,-100,4,3,4,50,0,1
140637,-66.6666666666667,4,2,1,60,0,0
140851,-100,4,2,1,50,0,0
147279,-100,4,2,1,35,0,0
147494,-100,4,2,1,50,0,0
154030,-100,4,2,1,40,0,0
154137,-100,4,2,1,35,0,0
154352,-100,4,3,5,80,0,0
154565,-100,4,3,2,60,0,0
160780,-100,4,3,2,70,0,0
160887,-100,4,3,2,60,0,0
160994,-100,4,3,2,50,0,0
161209,-100,4,2,1,70,0,0
164208,-100,4,2,1,50,0,0
164637,-100,4,2,1,60,0,0
181780,-100,4,3,1,60,0,0
181887,-100,4,2,1,40,0,0
184351,-80,4,2,1,40,0,0
184672,-100,4,2,1,40,0,0
189708,-100,4,2,1,35,0,0
190565,-100,4,2,1,40,0,0
191422,-100,4,2,1,45,0,0
193565,-100,4,2,1,50,0,0
194637,-100,4,2,1,60,0,0
195494,-100,4,3,5,70,0,0
195601,-100,4,2,3,50,0,0
196351,-100,4,2,1,60,0,0
196780,-100,4,2,3,50,0,0
197208,-100,4,2,1,60,0,0
197637,-100,4,2,3,50,0,0
198065,-100,4,2,1,60,0,0
198494,-100,4,2,3,50,0,0
198922,-100,4,2,1,60,0,0
199351,-100,4,2,3,50,0,0
199780,-100,4,2,1,60,0,0
200209,-100,4,2,3,50,0,0
200637,-100,4,2,1,60,0,0
200744,-100,4,2,1,40,0,0
201066,-100,4,2,3,50,0,0
201494,-100,4,2,1,60,0,0
201601,-100,4,2,1,40,0,0
201923,-100,4,2,3,50,0,0
202349,-100,4,2,1,60,0,0
202458,-100,4,2,1,40,0,0
202778,-100,4,2,3,50,0,0
203208,-100,4,2,1,40,0,0
203422,-100,4,2,3,40,0,0
203637,-100,4,2,3,50,0,0
204172,-100,4,2,1,40,0,0
204494,-100,4,2,3,50,0,0
204601,-100,4,2,1,40,0,0
205137,-100,4,2,1,50,0,0
205351,-100,4,2,3,50,0,0
205565,-100,4,2,1,60,0,0
205994,-100,4,2,1,50,0,0
206208,-100,4,2,3,50,0,0
206315,-100,4,2,1,40,0,0
206637,-100,4,2,1,60,0,0
207066,-100,4,2,3,50,0,0
207280,-100,4,2,1,60,0,0
207708,-100,4,2,1,50,0,0
207922,-100,4,2,3,50,0,0
208030,-100,4,2,1,40,0,0
208351,-100,4,2,1,50,0,0
208780,-100,4,2,3,50,0,0
209208,-100,4,3,5,70,0,0
209315,-100,4,2,3,60,0,0
210494,-100,4,2,3,60,0,0
210708,-100,4,2,3,60,0,0
211994,-100,4,2,3,45,0,0
212208,-100,4,2,3,60,0,0
214030,-100,4,2,3,40,0,0
214351,-100,4,2,3,60,0,0
215744,-100,4,2,3,40,0,0
216065,-100,4,2,3,60,0,0
222922,-100,4,2,1,50,0,0
231494,-100,4,2,1,75,0,0
232780,-100,4,2,1,65,0,0
233209,-100,4,2,2,30,0,0
234494,-100,4,2,2,35,0,0
234922,-100,4,2,2,40,0,0
236208,-100,4,2,2,45,0,0
236637,-100,4,3,4,50,0,0
237065,-100,4,2,2,40,0,0
237922,-100,4,2,1,60,0,0
238351,-100,4,3,4,52,0,0
238779,-100,4,2,2,42,0,0
239636,-100,4,2,1,62,0,0
240065,-100,4,3,4,54,0,0
240493,-100,4,2,2,44,0,0
241350,-100,4,2,1,64,0,0
241780,-100,4,3,4,56,0,0
242208,-100,4,2,2,46,0,0
243065,-100,4,2,1,66,0,0
243494,-100,4,3,4,58,0,0
243922,-100,4,3,4,60,0,0
244351,-100,4,3,4,62,0,0
244779,-100,4,3,4,64,0,0
245208,-100,4,3,4,66,0,0
245637,-100,4,3,4,68,0,0
246065,-100,4,3,4,70,0,0
246494,-100,4,3,4,72,0,0
246922,-100,4,3,4,74,0,0
247351,-100,4,3,4,76,0,0
247780,-100,4,3,4,78,0,0
248208,-100,4,3,4,80,0,0
248637,-100,4,2,1,75,0,0
249922,-50,4,2,2,85,0,0
250351,-100,4,3,6,80,0,1
250458,-100,4,3,4,80,0,1
256780,-100,4,3,4,80,0,1
256994,-100,4,3,1,80,0,1
257315,-100,4,3,4,80,0,1
263637,-100,4,3,4,80,0,1
263851,-100,4,3,4,80,0,1
264494,-100,4,2,2,80,0,1
264601,-100,4,3,4,80,0,1
270494,-100,4,3,4,80,0,1
270708,-100,4,3,4,80,0,1
270922,-100,4,2,2,40,0,1
271137,-100,4,2,2,41,0,1
271351,-100,4,2,2,42,0,1
271565,-100,4,2,2,43,0,1
271780,-100,4,2,2,44,0,1
271994,-100,4,2,2,45,0,1
272208,-100,4,2,2,46,0,1
272422,-100,4,2,2,47,0,1
272637,-100,4,2,2,48,0,1
272851,-100,4,2,2,49,0,1
273065,-100,4,2,2,50,0,1
273280,-100,4,2,2,51,0,1
273494,-100,4,2,2,52,0,1
273708,-100,4,2,2,53,0,1
273923,-100,4,2,2,54,0,1
274137,-100,4,2,2,55,0,1
274351,-100,4,3,4,60,0,1
276065,-100,4,2,1,75,0,0
276922,-100,4,2,2,70,0,0
277350,-100,4,2,2,85,0,0
277780,-100,4,3,6,80,0,1
277994,-100,4,3,4,80,0,1
289565,-80,4,3,4,80,0,1
289994,-100,4,3,4,80,0,1
291494,-100,4,2,2,80,0,1
291708,-100,4,3,4,80,0,1
303494,-100,4,2,1,75,0,0
303922,-100,4,2,1,80,0,0
304351,-100,4,2,1,85,0,0
304780,-100,4,2,1,90,0,0
305208,-100,4,2,1,95,0,0
318922,-100,4,3,4,65,0,0
319244,-100,4,2,3,65,0,0
320208,-100,4,2,1,50,0,0
320637,-100,4,3,4,65,0,0
320959,-100,4,2,3,65,0,0
321922,-100,4,2,1,50,0,0
322351,-100,4,3,4,65,0,0
322673,-100,4,2,3,65,0,0
323208,-100,4,3,4,50,0,0
323637,-100,4,2,1,50,0,0
324065,-100,4,3,4,65,0,0
324387,-100,4,2,3,65,0,0
325030,-100,4,3,4,50,0,0
325351,-100,4,2,1,50,0,0
325780,-100,4,3,4,50,0,0
326208,-100,4,2,1,50,0,0
326637,-100,4,3,4,52,0,0
327065,-100,4,2,1,52,0,0
327494,-100,4,3,4,54,0,0
327922,-100,4,2,1,54,0,0
328351,-100,4,3,4,56,0,0
328780,-100,4,2,1,56,0,0
329208,-100,4,3,4,58,0,0
329637,-100,4,2,2,60,0,0
330065,-100,4,2,2,62,0,0
330494,-100,4,2,1,60,0,0
330922,-80,4,3,4,40,0,0
331351,-80,4,3,4,45,0,0
331780,-80,4,3,4,50,0,0
332208,-100,4,2,2,75,0,0
332530,-80,4,3,1,60,0,0
332637,-80,4,3,1,60,0,1
332851,-100,4,2,3,60,0,1
333494,-100,4,3,4,60,0,1
333922,-100,4,2,3,60,0,1
334351,-100,4,3,4,60,0,1
334780,-100,4,2,3,60,0,1
335208,-100,4,3,4,60,0,1
335637,-100,4,2,3,60,0,1
336065,-100,4,3,4,60,0,1
336494,-100,4,2,3,60,0,1
336922,-100,4,3,4,60,0,1
337351,-100,4,2,3,60,0,1
337780,-100,4,3,4,60,0,1
338208,-100,4,2,3,60,0,1
338315,-100,4,3,4,45,0,1
338637,-100,4,3,4,60,0,1
339065,-100,4,2,3,60,0,1
339172,-100,4,2,1,55,0,1
339280,-100,4,2,1,50,0,1
339387,-100,4,2,1,45,0,1
339494,-100,4,3,4,60,0,1
339922,-100,4,2,3,60,0,1
340351,-100,4,3,4,60,0,1
340780,-100,4,2,3,60,0,1
341208,-100,4,3,4,60,0,1
341637,-100,4,2,3,60,0,1
342065,-100,4,3,4,60,0,1
342494,-100,4,2,3,60,0,1
342922,-100,4,3,4,60,0,1
343351,-100,4,2,3,60,0,1
343780,-100,4,3,4,60,0,1
344208,-100,4,2,3,60,0,1
344637,-100,4,3,4,60,0,1
345065,-100,4,2,3,60,0,1
345172,-100,4,3,4,45,0,1
345494,-100,4,3,4,60,0,1
345922,-100,4,2,1,60,0,1
346030,-100,4,2,1,55,0,1
346137,-100,4,2,1,50,0,1
346351,-100,4,3,4,60,0,1
346780,-100,4,2,3,60,0,1
347209,-100,4,3,4,60,0,1
347637,-100,4,2,3,60,0,1
348065,-100,4,3,4,60,0,1
348494,-100,4,2,3,60,0,1
348923,-100,4,3,4,60,0,1
349351,-100,4,2,3,60,0,1
349780,-100,4,3,4,60,0,1
350209,-100,4,2,3,60,0,1
350638,-100,4,3,4,60,0,1
350744,-100,4,3,4,50,0,1
351066,-100,4,2,3,60,0,1
351494,-100,4,3,4,60,0,1
351601,-100,4,3,4,50,0,1
351923,-100,4,2,3,60,0,1
352137,-100,4,3,4,50,0,1
352352,-100,4,3,4,60,0,1
352565,-100,4,3,4,50,0,1
352780,-100,4,2,3,60,0,1
352887,-100,4,2,3,55,0,1
352994,-100,4,2,3,50,0,1
353101,-100,4,2,3,45,0,1
353208,-100,4,3,4,50,0,1
353637,-100,4,2,2,60,0,1
354065,-100,4,3,4,52,0,1
354494,-100,4,2,2,62,0,1
354922,-100,4,3,4,54,0,1
355351,-100,4,2,2,64,0,1
355780,-100,4,3,4,56,0,1
356209,-100,4,2,2,66,0,1
356637,-100,4,3,4,58,0,1
357066,-100,4,2,2,68,0,1
357280,-100,4,3,4,58,0,1
357494,-100,4,2,2,60,0,1
357708,-100,4,3,4,70,0,1
357922,-100,4,2,2,62,0,1
358351,-100,4,3,4,60,0,1
358458,-100,4,3,4,50,0,1
359208,-100,4,2,2,60,0,1
359637,-100,4,2,2,85,0,1
359958,-100,4,2,2,60,0,1
360065,-100,4,3,1,70,0,0
360172,-100,4,3,4,65,0,0
362744,-100,4,2,3,50,0,0
363065,-100,4,3,4,65,0,0
373030,-100,4,2,3,50,0,0
373351,-100,4,2,2,60,0,0
373565,-100,4,3,4,65,0,0
373780,-100,4,3,1,70,0,0
373887,-100,4,3,4,65,0,0
379887,-100,4,2,3,50,0,0
380208,-100,4,3,4,65,0,0
385780,-100,4,2,1,60,0,0
386208,-100,4,2,1,50,0,0
386637,-100,4,2,1,60,0,0
387065,-100,4,2,1,60,0,0
387494,-100,4,3,1,65,0,0
387708,-100,4,3,4,55,0,0
393601,-100,4,2,4,45,0,0
393922,-100,4,3,4,55,0,0
400780,-66.6666666666667,4,2,2,55,0,0
400994,-100,4,3,4,45,0,0
401208,-100,4,3,1,65,0,0
401422,-100,4,3,4,55,0,0
413208,-100,4,2,1,60,0,0
413636,-100,4,2,1,50,0,0
414065,-100,4,2,1,60,0,0
414493,-100,4,2,1,60,0,0
414922,-100,4,3,1,50,0,0
417279,-100,4,3,2,50,0,0
417386,-100,4,3,1,50,0,0
417708,-100,4,3,3,50,0,0
417815,-100,4,3,1,50,0,0
418136,-100,4,3,3,50,0,0
418243,-100,4,3,1,50,0,0
420708,-100,4,3,2,50,0,0
420815,-100,4,3,1,50,0,0
421137,-100,4,3,3,50,0,0
421244,-100,4,3,1,50,0,0
421565,-100,4,3,3,50,0,0
421672,-100,4,3,1,50,0,0
424136,-100,4,3,2,50,0,0
424243,-100,4,3,1,50,0,0
424565,-100,4,3,3,50,0,0
424672,-100,4,3,1,50,0,0
424993,-100,4,3,3,50,0,0
425100,-100,4,3,1,50,0,0
427565,-100,4,3,2,50,0,0
427672,-100,4,3,1,50,0,0
428208,-100,4,3,3,40,0,0
428637,-100,4,3,1,50,0,0
429708,-100,4,3,1,20,0,0
429922,-100,4,3,1,50,0,0
430994,-100,4,3,2,50,0,0
431423,-100,4,3,3,50,0,0
431637,-100,4,3,1,50,0,0
431851,-100,4,3,3,50,0,0
432065,-100,4,3,1,50,0,0
433137,-100,4,3,1,20,0,0
433351,-100,4,3,1,50,0,0
434422,-100,4,3,2,50,0,0
434851,-100,4,3,3,50,0,0
435065,-100,4,3,3,50,0,0
435493,-100,4,3,1,50,0,0
435494,-100,4,3,1,39,0,0
435922,-100,4,3,1,37,0,0
436780,-100,4,3,1,33,0,0
437208,-100,4,3,1,31,0,0
437637,-100,4,3,1,29,0,0
437851,-100,4,3,2,28,0,0
438065,-100,4,3,1,27,0,0
438494,-100,4,3,1,25,0,0
438922,-100,4,2,0,30,0,0
439351,-100,4,2,0,35,0,0
439780,-100,4,2,0,40,0,0
440208,-100,4,2,0,45,0,0
440637,-100,4,2,0,50,0,0
441065,-100,4,2,0,55,0,0
441494,-100,4,2,0,60,0,0
441922,-100,4,2,0,65,0,0
442351,-100,4,2,4,100,0,0

[Colours]
Combo1 : 65,205,200
Combo2 : 60,210,60
Combo3 : 255,215,79
Combo4 : 220,120,0
Combo5 : 210,70,130
Combo6 : 175,90,215

[HitObjects]
256,192,1780,12,0,3065,0:0:0:0:
184,256,3494,6,0,L|352:192,1,180,4|2,0:0|0:0,0:0:0:0:
224,192,4137,1,8,0:0:0:0:
332,192,4351,2,0,P|372:124|328:40,1,180,2|2,0:0|0:0,0:0:0:0:
112,44,5208,6,0,P|152:144|220:168,1,180,2|2,0:0|0:0,0:0:0:0:
96,168,5851,1,8,0:0:0:0:
204,168,6065,1,2,0:0:0:0:
324,168,6280,2,0,L|444:168,2,90,8|2|8,0:0|0:0|0:0,0:0:0:0:
216,168,6922,6,0,P|220:228|316:292,1,180,2|2,0:0|0:0,0:0:0:0:
440,292,7565,1,8,0:0:0:0:
332,296,7780,2,0,L|144:296,1,180,2|2,0:0|0:0,0:0:0:0:
368,296,8637,6,0,P|340:216|256:176,1,180,2|2,0:0|0:0,0:0:0:0:
384,176,9280,1,8,0:0:0:0:
276,176,9494,2,0,L|180:176,1,90,2|0,0:0|0:0,0:0:0:0:
80,176,9922,1,2,0:0:0:0:
208,176,10137,1,8,0:0:0:0:
100,176,10351,6,0,P|140:92|224:68,1,180,2|2,0:0|0:0,0:0:0:0:
344,68,10994,1,8,0:0:0:0:
452,68,11208,2,0,P|428:152|344:192,1,180,2|2,0:0|0:0,0:0:0:0:
132,192,12065,6,0,L|292:276,1,180,2|2,0:0|0:0,0:0:0:0:
164,276,12708,1,8,0:0:0:0:
272,276,12922,1,2,0:0:0:0:
400,276,13137,2,0,L|484:240,2,90,8|2|8,0:0|0:0|0:0,0:0:0:0:
292,276,13780,6,0,P|224:244|188:148,1,180,2|2,0:0|0:0,0:0:0:0:
312,156,14422,1,8,0:0:0:0:
204,152,14637,2,0,B|112:152|112:152|32:192,1,180,2|2,0:0|0:0,0:0:0:0:
251,299,15494,6,0,P|245:235|147:171,1,180,2|2,0:0|0:0,0:0:0:0:
284,172,16137,1,8,0:0:0:0:
172,172,16351,2,0,L|169:76,1,90,2|0,0:0|0:0,0:0:0:0:
297,84,16780,1,8,0:0:0:0:
169,82,16994,1,8,0:0:0:0:
404,84,17208,6,0,B|492:84|492:84|492:176,1,180,6|2,0:0|0:0,0:0:0:0:
364,176,17851,1,8,0:0:0:0:
260,176,18065,2,0,P|296:256|380:280,1,180,2|2,0:0|0:0,0:0:0:0:
452,176,18708,1,0,0:0:0:0:
344,176,18922,6,0,L|164:192,1,180,2|2,0:0|0:0,0:0:0:0:
292,192,19565,1,8,0:0:0:0:
184,192,19780,1,2,0:0:0:0:
60,192,19994,2,0,L|12:112,2,90,8|2|8,0:0|0:0|0:0,0:0:0:0:
172,303,20637,6,0,P|142:221|60:191,1,180,2|2,0:0|0:0,0:0:0:0:
188,192,21280,1,8,0:0:0:0:
296,192,21494,2,0,L|304:12,1,180,2|2,0:0|0:0,0:0:0:0:
196,12,22137,1,0,0:0:0:0:
88,12,22351,6,0,L|268:12,1,180,2|2,0:0|0:0,0:0:0:0:
152,12,22994,1,8,0:0:0:0:
260,12,23208,1,2,0:0:0:0:
372,8,23422,2,0,L|296:64,2,90,8|2|8,0:0|0:0|0:0,0:0:0:0:
264,60,24065,6,0,P|196:88|152:184,1,180,2|2,0:0|0:0,0:0:0:0:
280,180,24708,1,8,0:0:0:0:
388,180,24922,2,0,P|440:248|388:316,1,180,2|2,0:0|0:0,0:0:0:0:
284,316,25565,1,0,0:0:0:0:
176,316,25780,6,0,B|176:224|176:224|260:192,1,180,2|2,0:0|0:0,0:0:0:0:
132,192,26422,1,8,0:0:0:0:
248,192,26637,2,0,L|264:104,1,90,2|8,0:0|0:0,0:0:0:0:
380,100,27065,2,0,L|364:8,1,90,2|8,0:0|0:0,0:0:0:0:
256,8,27494,6,0,P|284:76|380:100,1,180,2|2,0:0|0:0,0:0:0:0:
508,100,28137,1,8,0:0:0:0:
400,100,28351,2,0,L|244:192,1,180,2|2,0:0|0:0,0:0:0:0:
256,192,29208,12,2,30494,0:0:0:0:
296,192,30922,6,0,L|204:192,1,90,2|0,0:0|0:0,0:0:0:0:
96,280,31351,2,0,L|192:280,1,90,2|0,0:0|0:0,0:0:0:0:
296,276,31780,1,2,0:0:0:0:
340,176,31994,1,0,0:0:0:0:
276,88,32208,1,2,0:0:0:0:
168,88,32422,1,0,0:0:0:0:
296,88,32637,6,0,L|476:88,1,180,2|2,0:0|0:0,0:0:0:0:
368,88,33280,1,0,0:0:0:0:
260,88,33494,2,0,L|184:144,2,90,2|0|2,0:0|0:0|0:0,0:0:0:0:
368,88,34137,1,0,0:0:0:0:
244,88,34351,6,0,P|176:120|132:224,1,180,2|2,0:0|0:0,0:0:0:0:
240,212,34994,1,0,0:0:0:0:
352,284,35208,2,0,L|260:284,1,90,2|0,0:0|0:0,0:0:0:0:
152,328,35637,2,0,L|60:328,1,90,2|0,0:0|0:0,0:0:0:0:
184,328,36065,6,0,L|256:272,1,90,2|0,0:0|0:0,0:0:0:0:
148,212,36494,2,0,L|220:156,1,90,2|0,0:0|0:0,0:0:0:0:
336,156,36922,1,2,0:0:0:0:
408,212,37137,1,0,0:0:0:0:
408,300,37351,1,2,0:0:0:0:
336,356,37565,1,0,0:0:0:0:
208,356,37780,6,0,L|100:356,1,90,2|0,0:0|0:0,0:0:0:0:
224,356,38208,2,0,L|232:264,1,90,2|0,0:0|0:0,0:0:0:0:
124,268,38637,1,2,0:0:0:0:
64,180,38851,1,0,0:0:0:0:
124,92,39065,1,2,0:0:0:0:
232,92,39280,1,0,0:0:0:0:
292,180,39494,6,0,P|240:272|168:288,1,180,2|2,0:0|0:0,0:0:0:0:
72,288,40137,1,0,0:0:0:0:
180,288,40351,2,0,L|264:252,2,90,2|0|2,0:0|0:0|0:0,0:0:0:0:
72,288,40994,1,0,0:0:0:0:
192,288,41208,6,0,L|376:288,1,180,2|2,0:0|0:0,0:0:0:0:
264,288,41851,1,0,0:0:0:0:
152,256,42065,2,0,L|88:192,1,90,2|0,0:0|0:0,0:0:0:0:
208,192,42494,2,0,L|272:128,1,90,2|0,0:0|0:0,0:0:0:0:
388,128,42922,6,0,L|292:128,1,90,2|0,0:0|0:0,0:0:0:0:
188,36,43351,2,0,L|284:36,1,90,2|0,0:0|0:0,0:0:0:0:
152,36,43780,2,0,L|140:128,1,90,2|0,0:0|0:0,0:0:0:0:
268,128,44208,2,0,L|280:224,1,90,2|0,0:0|0:0,0:0:0:0:
52,216,44637,5,4,0:0:0:0:
268,216,45065,1,8,0:0:0:0:
68,216,45494,2,0,L|60:312,1,90,2|0,0:0|0:0,0:0:0:0:
188,304,45922,1,8,0:0:0:0:
368,208,46351,5,2,0:0:0:0:
152,208,46780,2,0,L|144:112,1,90,8|0,0:0|0:0,0:0:0:0:
252,120,47208,2,0,L|152:120,1,90,2|0,0:0|0:0,0:0:0:0:
272,120,47637,1,8,0:0:0:0:
452,120,48065,5,2,0:0:0:0:
236,120,48494,1,8,0:0:0:0:
328,120,48708,1,0,0:0:0:0:
220,120,48922,2,0,L|208:220,1,90,2|0,0:0|0:0,0:0:0:0:
336,208,49351,1,8,0:0:0:0:
136,208,49780,6,0,L|124:304,1,90,2|0,0:0|0:0,0:0:0:0:
240,300,50208,2,0,L|140:300,1,90,8|0,0:0|0:0,0:0:0:0:
284,300,50637,1,2,0:0:0:0:
376,244,50851,1,0,0:0:0:0:
384,136,51065,2,0,L|288:136,1,90,8|0,0:0|0:0,0:0:0:0:
184,136,51494,6,0,L|88:136,1,90,2|0,0:0|0:0,0:0:0:0:
212,136,51922,2,0,L|216:240,1,90,8|0,0:0|0:0,0:0:0:0:
324,228,52351,2,0,L|420:228,1,90,2|0,0:0|0:0,0:0:0:0:
296,228,52780,2,0,L|292:332,1,90,8|0,0:0|0:0,0:0:0:0:
184,320,53208,5,2,0:0:0:0:
108,244,53422,1,0,0:0:0:0:
108,136,53637,1,8,0:0:0:0:
184,60,53851,1,0,0:0:0:0:
308,60,54065,2,0,L|404:60,1,90,2|0,0:0|0:0,0:0:0:0:
280,60,54494,1,8,0:0:0:0:
256,192,54922,12,0,56208,0:0:0:0:
348,232,56637,6,0,P|300:164|348:92,1,180,6|8,0:0|0:0,0:0:0:0:
456,92,57280,1,2,0:0:0:0:
340,92,57494,2,0,L|244:92,1,90,2|2,0:0|0:0,0:0:0:0:
24,92,57922,1,4,0:0:0:0:
366,92,58351,6,0,L|458:92,2,90,2|0|8,0:0|0:0|0:0,0:0:0:0:
250,92,58994,2,0,B|338:92|338:92|394:168,1,180,4|0,0:0|0:0,0:0:0:0:
276,164,59637,1,8,0:0:0:0:
80,164,60065,6,0,L|172:92,2,112.5,2|0|8,0:0|0:0|0:0,0:0:0:0:
196,164,60708,2,0,P|256:184|312:296,1,180,4|2,0:0|0:0,0:0:0:0:
192,284,61351,1,8,0:0:0:0:
436,164,61780,6,0,L|252:164,1,180,2|8,0:0|0:0,0:0:0:0:
364,164,62422,1,4,0:0:0:0:
236,164,62637,2,0,L|156:112,2,90,0|2|8,0:0|0:0|0:0,0:0:0:0:
480,164,63494,6,0,L|384:164,2,90,2|2|8,0:0|0:0|0:0,0:0:0:0:
364,164,64137,1,4,0:0:0:0:
248,164,64351,2,0,L|152:164,1,90,2|2,0:0|0:0,0:0:0:0:
412,72,64780,2,0,L|456:72,2,45,8|0|0,0:0|0:0|0:0,0:0:0:0:
196,76,65208,6,0,L|100:128,2,90,2|0|8,0:0|0:0|0:0,0:0:0:0:
312,72,65851,2,0,P|372:132|316:188,1,180,4|0,0:0|0:0,0:0:0:0:
200,188,66494,2,0,L|300:188,1,90,8|0,0:0|0:0,0:0:0:0:
164,188,66922,6,0,L|56:188,2,90,2|0|8,0:0|0:0|0:0,0:0:0:0:
280,188,67565,1,4,0:0:0:0:
152,188,67780,2,0,L|136:100,1,90,2|2,0:0|0:0,0:0:0:0:
156,60,68101,1,0,0:0:0:0:
180,20,68208,2,0,L|280:20,1,90,8|0,0:0|0:0,0:0:0:0:
396,24,68637,6,0,L|300:72,2,90,2|0|8,0:0|0:0|0:0,0:0:0:0:
280,28,69280,2,0,P|220:52|176:156,1,180,4|0,0:0|0:0,0:0:0:0:
292,156,69922,2,0,L|376:192,1,90,8|0,0:0|0:0,0:0:0:0:
248,288,70351,6,0,L|348:288,1,90,2|2,0:0|0:0,0:0:0:0:
220,288,70780,2,0,L|200:200,1,90,8|0,0:0|0:0,0:0:0:0:
312,200,71208,1,2,0:0:0:0:
68,200,71422,2,0,L|20:200,2,45,2|2|8,0:0|0:0|0:0,0:0:0:0:
120,200,71744,2,0,L|176:200,1,45,0|2,0:0|0:0,0:0:0:0:
380,200,72065,6,0,L|480:200,1,90,2|0,0:0|0:0,0:0:0:0:
352,200,72494,2,0,L|308:116,1,90,8|0,0:0|0:0,0:0:0:0:
198,120,72922,1,2,0:0:0:0:
84,120,73137,1,2,0:0:0:0:
310,120,73351,1,8,0:0:0:0:
128,208,73780,6,0,L|28:208,1,90,2|0,0:0|0:0,0:0:0:0:
156,208,74208,2,0,L|200:292,1,90,8|0,0:0|0:0,0:0:0:0:
316,288,74637,1,2,0:0:0:0:
208,288,74851,1,2,0:0:0:0:
428,288,75065,2,0,L|436:192,1,90,8|0,0:0|0:0,0:0:0:0:
216,192,75494,6,0,L|120:192,1,90,2|0,0:0|0:0,0:0:0:0:
252,192,75922,2,0,L|156:192,1,90,8|0,0:0|0:0,0:0:0:0:
280,100,76351,1,2,0:0:0:0:
380,100,76565,1,2,0:0:0:0:
164,100,76780,1,8,0:0:0:0:
344,192,77208,6,0,L|440:192,1,90,2|0,0:0|0:0,0:0:0:0:
308,192,77637,2,0,L|212:192,1,90,8|0,0:0|0:0,0:0:0:0:
344,288,78065,1,2,0:0:0:0:
244,288,78280,1,2,0:0:0:0:
460,288,78494,1,8,0:0:0:0:
464,236,78601,1,2,0:0:0:0:
468,184,78708,1,2,0:0:0:0:
252,184,78922,6,0,L|68:184,1,180,2|8,0:0|0:0,0:0:0:0:
180,184,79565,1,0,0:0:0:0:
288,184,79780,2,0,L|304:80,1,90,2|2,0:0|0:0,0:0:0:0:
176,96,80208,1,8,0:0:0:0:
400,192,80637,6,0,P|344:132|400:72,1,180,2|8,0:0|0:0,0:0:0:0:
500,72,81280,1,0,0:0:0:0:
388,72,81494,2,0,L|288:72,1,90,2|0,0:0|0:0,0:0:0:0:
236,72,81815,2,0,L|348:72,1,90,4|0,0:0|0:0,0:0:0:0:
388,72,82137,1,0,0:0:0:0:
164,192,82351,6,0,L|160:308,1,90,2|0,0:0|0:0,0:0:0:0:
220,280,82672,1,0,0:0:0:0:
280,280,82780,2,0,L|384:280,1,90,8|0,0:0|0:0,0:0:0:0:
144,192,83208,2,0,L|57:142,1,90,8|0,0:0|0:0,0:0:0:0:
304,192,83637,1,8,0:0:0:0:
256,192,84065,12,2,85780,0:0:0:0:
180,268,99494,6,0,L|80:268,2,90,4|0|0,0:0|0:0|0:0,0:0:0:0:
288,268,100137,1,2,0:0:0:0:
168,168,100351,2,0,L|247:122,2,90,0|2|2,0:0|0:0|0:0,0:0:0:0:
348,120,101208,6,0,L|448:120,1,90,2|0,0:0|0:0,0:0:0:0:
320,120,101637,2,0,L|208:120,1,90,0|0,0:0|0:0,0:0:0:0:
348,120,102065,2,0,L|380:212,1,90,0|0,0:0|0:0,0:0:0:0:
316,208,102387,2,0,L|216:208,1,90,2|0,0:0|0:0,0:0:0:0:
164,208,102708,1,2,0:0:0:0:
388,204,102922,6,0,L|488:204,2,90,2|0|0,0:0|0:0|0:0,0:0:0:0:
280,204,103565,1,2,0:0:0:0:
400,104,103780,2,0,L|321:58,3,90,0|2|2|0,0:0|0:0|0:0|0:0,0:0:0:0:
204,58,104637,6,0,L|104:58,1,90,2|0,0:0|0:0,0:0:0:0:
232,58,105065,2,0,L|344:58,1,90,0|0,0:0|0:0,0:0:0:0:
204,58,105494,2,0,L|172:150,1,90,0|2,0:0|0:0,0:0:0:0:
240,156,105815,1,0,0:0:0:0:
304,156,105922,2,0,L|372:156,2,45,2|0|2,0:0|0:0|0:0,0:0:0:0:
68,144,106351,6,0,P|96:232|172:264,1,180,2|2,0:0|0:0,0:0:0:0:
280,264,106994,1,0,0:0:0:0:
392,192,107208,2,0,L|292:192,1,90,2|0,0:0|0:0,0:0:0:0:
190,264,107637,2,0,L|290:264,1,90,2|0,0:0|0:0,0:0:0:0:
504,192,108065,6,0,P|472:116|376:84,1,180,2|2,0:0|0:0,0:0:0:0:
276,84,108708,1,0,0:0:0:0:
388,176,108922,2,0,L|288:176,1,90,2|0,0:0|0:0,0:0:0:0:
180,176,109351,1,2,0:0:0:0:
128,176,109458,1,0,0:0:0:0:
76,176,109565,1,0,0:0:0:0:
298,176,109780,6,0,L|480:176,1,180,2|0,0:0|0:0,0:0:0:0:
372,176,110422,1,0,0:0:0:0:
264,176,110637,2,0,L|176:232,1,90,8|2,0:0|0:0,0:0:0:0:
304,264,111065,2,0,L|392:320,1,90,8|2,0:0|0:0,0:0:0:0:
244,312,111494,6,0,L|148:312,2,90,2|0|2,0:0|0:0|0:0,0:0:0:0:
467,312,112137,2,0,P|448:240|352:192,1,180,4|0,0:0|0:0,0:0:0:0:
144,192,112780,2,0,L|44:192,1,90,8|0,0:0|0:0,0:0:0:0:
280,192,113208,6,0,P|345:152|280:120,1,180,4|8,0:0|0:0,0:0:0:0:
164,120,113851,1,0,0:0:0:0:
308,120,114065,2,0,L|400:68,2,90,2|0|8,0:0|0:0|0:0,0:0:0:0:
184,120,114708,1,0,0:0:0:0:
60,116,114922,6,0,P|72:188|156:244,1,180,2|8,0:0|0:0,0:0:0:0:
276,244,115565,1,0,0:0:0:0:
140,244,115780,2,0,L|52:192,2,90,2|0|8,0:0|0:0|0:0,0:0:0:0:
484,240,116637,6,0,P|460:164|372:124,1,180,2|8,0:0|0:0,0:0:0:0:
256,124,117280,1,0,0:0:0:0:
392,124,117494,2,0,L|480:64,2,90,2|2|8,0:0|0:0|0:0,0:0:0:0:
276,124,118137,1,0,0:0:0:0:
140,124,118351,6,0,P|100:144|88:192,1,90,2|0,0:0|0:0,0:0:0:0:
196,192,118780,1,8,0:0:0:0:
412,192,118994,2,0,P|472:140|412:88,1,180
284,88,119637,2,0,L|380:88,1,90,8|8,0:0|0:0,0:0:0:0:
160,88,120065,6,0,P|76:124|48:204,2,180,2|8|2,0:0|0:0|0:0,0:0:0:0:
276,88,121137,1,0,0:0:0:0:
392,88,121351,2,0,L|400:184,1,90,8|0,0:0|0:0,0:0:0:0:
284,184,121780,6,0,P|208:212|176:304,1,180,2|8,0:0|0:0,0:0:0:0:
393,296,122422,2,0,P|377:228|281:184,1,180,2|2,0:0|0:0,0:0:0:0:
168,184,123065,1,8,0:0:0:0:
268,184,123280,1,0,0:0:0:0:
152,184,123494,6,0,L|20:132,2,135,2|2|0,0:0|0:0|0:0,0:0:0:0:
264,192,124351,2,0,L|276:96,1,90,2|0,0:0|0:0,0:0:0:0:
148,104,124780,2,0,L|248:104,1,90,8|0,0:0|0:0,0:0:0:0:
436,104,125208,6,0,P|484:176|436:244,1,180,2|0,0:0|0:0,0:0:0:0:
208,192,125851,2,0,P|128:256|204:320,1,225,2|2,0:0|0:0,0:0:0:0:
336,320,126494,2,0,L|388:320,2,45,2|2|2,0:0|0:0|0:0,0:0:0:0:
120,320,126922,6,0,P|40:292|12:208,2,180,2|8|2,0:0|0:0|0:0,0:0:0:0:
236,320,127994,1,0,0:0:0:0:
372,320,128208,2,0,L|264:320,1,90,8|0,0:0|0:0,0:0:0:0:
148,320,128637,6,0,P|184:232|260:204,1,180,2|8,0:0|0:0,0:0:0:0:
476,208,129280,2,0,P|496:144|416:76,1,180,2|2,0:0|0:0,0:0:0:0:
292,76,129922,2,0,L|196:76,1,90,8|0,0:0|0:0,0:0:0:0:
416,156,130351,6,0,L|236:156,1,180,2|8,0:0|0:0,0:0:0:0:
128,156,130994,1,0,0:0:0:0:
264,156,131208,2,0,L|344:208,2,90,2|0|8,0:0|0:0|0:0,0:0:0:0:
148,156,131851,1,0,0:0:0:0:
364,204,132065,6,0,P|340:284|248:324,1,180,2|8,0:0|0:0,0:0:0:0:
52,320,132708,1,2,0:0:0:0:
196,320,133137,2,0,L|92:320,2,90,2|8|2,0:0|0:0|0:0,0:0:0:0:
412,320,133780,6,0,P|432:240|392:156,1,180,2|8,0:0|0:0,0:0:0:0:
276,156,134422,1,0,0:0:0:0:
160,156,134637,2,0,L|152:60,1,90,2|0,0:0|0:0,0:0:0:0:
288,156,135065,2,0,L|296:60,1,90,8|0,0:0|0:0,0:0:0:0:
152,66,135494,6,0,P|229:78|288:156,1,180,2|8,0:0|0:0,0:0:0:0:
172,156,136137,1,0,0:0:0:0:
380,156,136351,1,2,0:0:0:0:
480,256,136565,2,0,L|388:256,2,90,0|8|0,0:0|0:0|0:0,0:0:0:0:
268,256,137208,6,0,L|216:256,2,45,2|2|2,0:0|0:0|0:0,0:0:0:0:
396,256,137637,2,0,L|400:160,1,90,8|2,0:0|0:0,0:0:0:0:
184,168,138065,2,0,L|80:168,1,90,8|2,0:0|0:0,0:0:0:0:
309,166,138494,1,8,0:0:0:0:
256,192,138922,12,2,140637,0:0:0:0:
200,188,141065,6,0,L|204:92,1,90,2|0,0:0|0:0,0:0:0:0:
312,188,141494,2,0,L|208:188,1,90,0|2,0:0|0:0,0:0:0:0:
116,188,141922,2,0,L|116:140,1,45,2|0,0:0|0:0,0:0:0:0:
228,72,142351,6,0,L|344:72,1,90,4|0,0:0|0:0,0:0:0:0:
196,192,142780,2,0,L|156:292,1,90,0|2,0:0|0:0,0:0:0:0:
272,192,143208,2,0,L|384:192,1,90,0|2,0:0|0:0,0:0:0:0:
362,192,143530,2,0,L|250:192,1,90,2|2,0:0|0:0,0:0:0:0:
112,192,144065,5,4,0:0:0:0:
240,192,144280,1,0,0:0:0:0:
348,192,144494,2,0,L|344:96,1,90,2|0,0:0|0:0,0:0:0:0:
236,100,144922,2,0,L|132:100,1,90,0|2,0:0|0:0,0:0:0:0:
272,100,145351,2,0,L|272:52,1,45,2|0,0:0|0:0,0:0:0:0:
96,56,145780,6,0,L|212:56,1,90,4|0,0:0|0:0,0:0:0:0:
312,192,146208,2,0,L|220:192,1,90,0|2,0:0|0:0,0:0:0:0:
112,192,146637,1,0,0:0:0:0:
240,288,146851,1,0,0:0:0:0:
292,288,146958,1,0,0:0:0:0:
344,288,147065,2,0,L|440:288,1,90,2|2,0:0|0:0,0:0:0:0:
208,288,147494,6,0,B|120:288|120:288|88:196,1,180,4|2,0:0|0:0,0:0:0:0:
200,200,148137,1,0,0:0:0:0:
324,200,148351,2,0,L|424:200,2,90,0|2|0,0:0|0:0|0:0,0:0:0:0:
288,200,148887,1,0,0:0:0:0:
180,200,149208,6,0,L|288:200,1,90,4|2,0:0|0:0,0:0:0:0:
396,200,149637,1,2,0:0:0:0:
270,200,149851,1,2,0:0:0:0:
144,200,150065,2,0,L|32:200,1,90,0|2,0:0|0:0,0:0:0:0:
54,200,150387,2,0,L|166:200,1,90,2|2,0:0|0:0,0:0:0:0:
332,200,150922,5,4,0:0:0:0:
204,200,151137,1,0,0:0:0:0:
332,200,151351,2,0,L|432:200,1,90,2|0,0:0|0:0,0:0:0:0:
296,200,151780,2,0,L|288:104,1,90,0|2,0:0|0:0,0:0:0:0:
396,112,152208,2,0,L|416:64,1,45,0|0,0:0|0:0,0:0:0:0:
288,110,152637,6,0,L|172:110,1,90,4|0,0:0|0:0,0:0:0:0:
72,248,153065,2,0,L|168:248,1,90,2|2,0:0|0:0,0:0:0:0:
272,248,153494,1,0,0:0:0:0:
144,336,153708,1,0,0:0:0:0:
110,291,153815,1,0,0:0:0:0:
99,237,153922,1,2,0:0:0:0:
113,183,154030,1,0,0:0:0:0:
150,141,154137,1,2,0:0:0:0:
376,192,154351,6,0,P|432:132|376:72,1,180,4|2,0:0|0:0,0:0:0:0:
268,72,154994,2,0,B|132:72|132:72|132:120,1,180,2|0,0:0|0:0,0:0:0:0:
240,116,155637,2,0,L|288:192,1,90,2|0,0:0|0:0,0:0:0:0:
164,192,156065,6,0,L|68:192,2,90,2|2|0,0:0|0:0|0:0,0:0:0:0:
288,192,156708,2,0,P|360:220|396:312,1,180,2|0,0:0|0:0,0:0:0:0:
352,312,157244,1,0,0:0:0:0:
308,312,157351,2,0,L|212:312,1,90,2|0,0:0|0:0,0:0:0:0:
428,192,157780,6,0,L|504:144,2,90,2|2|0,0:0|0:0|0:0,0:0:0:0:
320,192,158422,2,0,P|268:136|320:64,1,180,2|0,0:0|0:0,0:0:0:0:
448,64,159065,2,0,L|344:64,1,90,2|0,0:0|0:0,0:0:0:0:
232,64,159494,5,2,0:0:0:0:
112,104,159708,1,2,0:0:0:0:
84,228,159922,1,0,0:0:0:0:
212,228,160137,2,0,L|388:192,1,180,2|0,0:0|0:0,0:0:0:0:
180,192,160780,2,0,L|128:192,2,45,2|0|2,0:0|0:0|0:0,0:0:0:0:
400,192,161208,6,0,P|428:264|404:360,1,180,2|0,0:0|0:0,0:0:0:0:
296,360,161851,1,0,0:0:0:0:
172,292,162065,2,0,P|220:244|328:216,1,180,2|0,0:0|0:0,0:0:0:0:
436,216,162708,1,0,0:0:0:0:
312,216,162922,6,0,P|240:196|200:104,1,180,2|0,0:0|0:0,0:0:0:0:
308,108,163565,1,0,0:0:0:0:
180,104,163780,2,0,L|88:104,1,90,2|0,0:0|0:0,0:0:0:0:
200,188,164208,2,0,L|96:188,1,90,2|0,0:0|0:0,0:0:0:0:
344,312,164637,6,0,P|256:116|172:312,1,540,2|0,0:0|0:0,0:0:0:0:
288,312,166137,1,0,0:0:0:0:
64,308,166351,2,0,P|8:228|112:120,1,270,2|0,0:0|0:0,0:0:0:0:
220,120,167208,1,2,0:0:0:0:
344,120,167422,1,2,0:0:0:0:
236,120,167637,1,2,0:0:0:0:
360,120,167851,1,2,0:0:0:0:
124,120,168065,5,4,0:0:0:0:
304,196,181780,6,0,L|460:96,1,180,0|4,0:0|0:0,0:0:0:0:
284,192,182637,2,0,L|108:104,1,180,2|4,0:0|0:0,0:0:0:0:
288,288,183494,2,0,P|368:260|388:164,2,180,2|2|4,0:0|0:0|0:0,0:0:0:0:
56,264,185208,6,0,P|72:184|188:168,1,180,2|4,0:0|0:0,0:0:0:0:
312,200,186065,2,0,P|296:120|180:104,1,180,2|4,0:0|0:0,0:0:0:0:
80,140,186922,6,0,L|208:56,2,135,4|2|0,0:0|0:0|0:0,0:0:0:0:
160,220,187780,1,4,0:0:0:0:
308,228,188208,1,4,0:0:0:0:
464,248,188637,6,0,P|440:160|264:252,1,360,4|0,0:0|0:0,0:0:0:0:
372,248,189708,2,0,L|416:156,2,90,2|2|4,0:0|0:0|0:0,0:0:0:0:
212,264,190565,6,0,L|168:172,2,90,2|2|4,0:0|0:0|0:0,0:0:0:0:
376,264,191422,2,0,L|360:136,1,90,2|2,0:0|0:0,0:0:0:0:
256,188,191851,6,0,P|170:146|108:68,1,180,4|0,0:0|0:0,0:0:0:0:
208,148,192494,2,0,L|224:36,1,90,2|0,0:0|0:0,0:0:0:0:
120,32,192922,1,2,0:0:0:0:
300,156,193351,1,0,0:0:0:0:
412,256,193565,6,0,P|486:221|473:113,1,180,4|0,0:0|0:0,0:0:0:0:
412,132,194208,2,0,L|340:76,1,90,2|0,0:0|0:0,0:0:0:0:
448,228,194637,2,0,P|496:192|416:120,1,180,2|2,0:0|0:0,0:0:0:0:
104,300,195494,6,0,L|92:112,1,180,4|8,0:0|0:0,0:0:0:0:
280,292,196351,2,0,L|292:104,1,180,0|8,0:0|0:0,0:0:0:0:
104,164,197208,2,0,L|264:48,3,180,2|8|2|8,0:0|0:0|0:0|0:0,0:0:0:0:
464,264,198922,6,0,P|456:200|344:156,1,180,2|8,0:0|0:0,0:0:0:0:
200,148,199780,2,0,P|208:84|320:40,1,180,2|8,0:0|0:0,0:0:0:0:
480,132,200637,2,0,L|352:48,2,135,0|2|0,0:0|0:0|0:0,0:0:0:0:
384,200,201494,2,0,L|176:136,1,180,2|8,0:0|0:0,0:0:0:0:
32,160,202351,6,0,L|184:52,1,180,2|8,0:0|0:0,0:0:0:0:
340,172,203208,1,0,0:0:0:0:
224,340,203422,5,2,0:0:0:0:
218,250,203637,1,8,0:0:0:0:
213,160,203851,1,0,0:0:0:0:
392,300,204280,1,2,0:0:0:0:
397,210,204494,1,8,0:0:0:0:
402,120,204708,1,2,0:0:0:0:
216,184,205137,2,0,L|132:128,1,90,2|8,0:0|0:0,0:0:0:0:
252,188,205565,6,0,P|302:165|218:99,1,180,4|0,0:0|0:0,0:0:0:0:
161,184,206208,2,0,L|60:134,2,90,8|0|2,0:0|0:0|0:0,0:0:0:0:
333,229,207065,1,8,0:0:0:0:
221,238,207280,2,0,L|74:103,1,180,4|0,0:0|0:0,0:0:0:0:
202,180,207922,2,0,L|263:106,1,90,8|0,0:0|0:0,0:0:0:0:
167,84,208351,1,2,0:0:0:0:
366,107,208780,1,8,0:0:0:0:
54,302,209208,5,4,0:0:0:0:
28,266,209315,1,0,0:0:0:0:
27,221,209422,1,0,0:0:0:0:
53,185,209530,2,0,L|148:120,1,90,2|0,0:0|0:0,0:0:0:0:
231,299,209958,2,0,L|243:136,1,135,2|0,0:0|0:0,0:0:0:0:
138,165,210494,6,0,L|62:74,1,90,8|0,0:0|0:0,0:0:0:0:
185,261,210922,1,10,0:0:0:0:
228,272,211030,1,0,0:0:0:0:
272,283,211137,1,0,0:0:0:0:
323,84,211244,2,0,L|419:52,2,90,2|0|2,0:0|0:0|0:0,0:0:0:0:
176,85,211994,1,0,0:0:0:0:
134,216,212208,2,0,L|229:201,1,90,8|0,0:0|0:0,0:0:0:0:
333,308,212637,5,10,0:0:0:0:
348,266,212744,1,0,0:0:0:0:
328,220,212851,1,0,0:0:0:0:
280,196,212958,2,0,L|201:145,2,90,2|0|2,0:0|0:0|0:0,0:0:0:0:
436,252,213708,1,0,0:0:0:0:
480,172,213922,2,0,L|436:76,1,90,8|0,0:0|0:0,0:0:0:0:
300,239,214351,5,10,0:0:0:0:
255,234,214458,1,0,0:0:0:0:
210,230,214565,1,0,0:0:0:0:
162,219,214672,2,0,L|146:107,1,90,2|0,0:0|0:0,0:0:0:0:
276,122,215101,2,0,L|280:14,1,90,2|0,0:0|0:0,0:0:0:0:
112,54,215637,1,8,0:0:0:0:
433,266,216065,6,0,P|459:222|358:152,1,180,10|10,0:0|0:0,0:0:0:0:
265,272,216708,2,0,P|200:232|279:69,1,270,2|10,0:0|0:0,0:0:0:0:
339,186,217565,2,0,L|81:80,1,270,2|10,0:0|0:0,0:0:0:0:
202,268,218422,2,0,P|251:232|176:59,1,270,2|10,0:0|0:0,0:0:0:0:
256,192,219494,12,0,222922,0:0:0:0:
335,181,231494,6,0,L|361:119,2,45,2|0|0,0:0|0:0|0:0,0:0:0:0:
284,192,231815,2,0,L|174:150,2,90,0|0|0,0:0|0:0|0:0,0:0:0:0:
395,241,232458,2,0,L|401:176,1,45,0|0,0:0|0:0,0:0:0:0:
286,182,232780,2,0,L|201:129,1,90,2|0,0:0|0:0,0:0:0:0:
126,174,233208,5,2,0:0:0:0:
162,148,233315,1,0,0:0:0:0:
199,122,233422,1,0,0:0:0:0:
246,88,233530,2,0,L|363:39,2,90
151,243,234172,2,0,L|142:178,1,45,0|0,0:0|0:0,0:0:0:0:
241,158,234494,2,0,L|350:106,1,90,2|0,0:0|0:0,0:0:0:0:
436,224,234922,5,2,0:0:0:0:
438,179,235030,1,0,0:0:0:0:
439,134,235137,1,0,0:0:0:0:
440,89,235244,1,0,0:0:0:0:
332,136,235458,2,0,L|224:88,1,90,0|0,0:0|0:0,0:0:0:0:
360,184,235887,2,0,L|404:148,1,45,0|0,0:0|0:0,0:0:0:0:
476,96,236208,1,2,0:0:0:0:
132,272,236637,5,2,0:0:0:0:
65,218,236851,1,0,0:0:0:0:
72,132,237065,1,8,0:0:0:0:
148,89,237280,1,0,0:0:0:0:
356,264,237494,1,8,0:0:0:0:
423,210,237708,1,0,0:0:0:0:
416,124,237922,1,2,0:0:0:0:
340,81,238137,1,0,0:0:0:0:
136,264,238351,5,2,0:0:0:0:
69,210,238565,1,0,0:0:0:0:
76,124,238780,1,8,0:0:0:0:
152,81,238994,1,0,0:0:0:0:
356,264,239208,1,8,0:0:0:0:
423,210,239422,1,0,0:0:0:0:
416,124,239637,1,2,0:0:0:0:
340,81,239851,1,0,0:0:0:0:
128,164,240065,6,0,L|21:164,1,90,2|0,0:0|0:0,0:0:0:0:
146,117,240494,2,0,L|239:115,1,90,8|0,0:0|0:0,0:0:0:0:
49,150,240922,2,0,L|44:53,1,90,8|0,0:0|0:0,0:0:0:0:
164,145,241351,2,0,L|159:48,1,90,2|0,0:0|0:0,0:0:0:0:
376,168,241780,6,0,L|483:168,1,90,2|0,0:0|0:0,0:0:0:0:
358,121,242208,2,0,L|265:119,1,90,8|8,0:0|0:0,0:0:0:0:
456,156,242637,2,0,L|360:156,1,90,8|8,0:0|0:0,0:0:0:0:
248,156,243065,1,2,0:0:0:0:
256,192,243494,12,2,248637,0:0:0:0:
413,175,249922,5,4,0:0:0:0:
111,223,250351,6,0,P|68:164|143:147,1,135,6|0,0:0|0:0,0:0:0:0:
225,172,250887,2,0,L|230:54,1,90,4|0,0:0|0:0,0:0:0:0:
130,60,251315,1,2,0:0:0:0:
285,64,251637,2,0,L|405:46,1,90,8|0,0:0|0:0,0:0:0:0:
269,163,252065,6,0,P|222:136|275:72,1,135,2|0,0:0|0:0,0:0:0:0:
355,62,252601,2,0,L|446:48,2,90,4|2|0,0:0|0:0|0:0,0:0:0:0:
205,199,253351,2,0,L|202:98,1,90,8|0,0:0|0:0,0:0:0:0:
420,152,253780,6,0,P|467:108|396:56,1,135,2|0,0:0|0:0,0:0:0:0:
316,49,254315,2,0,L|213:48,1,90,4|2,0:0|0:0,0:0:0:0:
133,44,254744,1,0,0:0:0:0:
286,251,255065,2,0,L|286:158,1,90,8|2,0:0|0:0,0:0:0:0:
64,184,255494,6,0,P|28:152|84:88,1,135,2|0,0:0|0:0,0:0:0:0:
176,96,256030,2,0,L|284:96,1,90,4|2,0:0|0:0,0:0:0:0:
356,104,256458,1,0,0:0:0:0:
136,144,256780,2,0,L|128:52,1,90,8|2,0:0|0:0,0:0:0:0:
344,108,257208,6,0,P|396:72|404:-4,1,135,6|0,0:0|0:0,0:0:0:0:
272,168,257744,2,0,L|184:116,2,90,4|2|0,0:0|0:0|0:0,0:0:0:0:
416,86,258494,2,0,L|416:176,1,90,8|0,0:0|0:0,0:0:0:0:
231,189,258922,6,0,L|79:168,1,135,2|0,0:0|0:0,0:0:0:0:
205,95,259458,2,0,L|306:81,1,90,4|2,0:0|0:0,0:0:0:0:
388,64,259887,1,0,0:0:0:0:
271,228,260208,2,0,L|257:126,1,90,8|0,0:0|0:0,0:0:0:0:
476,196,260637,6,0,P|476:138|398:79,1,135,2|0,0:0|0:0,0:0:0:0:
313,85,261172,2,0,L|416:84,1,90,4|2,0:0|0:0,0:0:0:0:
284,84,261601,1,0,0:0:0:0:
132,292,261922,2,0,L|32:292,1,90,8|2,0:0|0:0,0:0:0:0:
260,292,262351,6,0,L|332:292,2,45,2|2|2,0:0|0:0|0:0,0:0:0:0:
204,292,262672,1,2,0:0:0:0:
308,192,262887,1,2,0:0:0:0:
412,92,263101,1,2,0:0:0:0:
268,92,263315,2,0,L|264:40,1,45,0|2,0:0|0:0,0:0:0:0:
472,48,263637,2,0,P|484:108|468:144,1,90,8|0,0:0|0:0,0:0:0:0:
344,132,264065,5,2,0:0:0:0:
392,132,264172,1,0,0:0:0:0:
440,132,264280,1,2,0:0:0:0:
216,132,264494,2,0,P|160:140|100:240,1,180,4|2,0:0|0:0,0:0:0:0:
208,240,265137,1,2,0:0:0:0:
84,240,265351,2,0,L|76:336,1,90,8|0,0:0|0:0,0:0:0:0:
184,332,265780,6,0,B|320:332,1,135,2|0,0:0|0:0,0:0:0:0:
204,236,266315,2,0,L|124:192,2,90,4|2|0,0:0|0:0|0:0,0:0:0:0:
380,236,267065,2,0,L|280:236,1,90,8|0,0:0|0:0,0:0:0:0:
72,236,267494,6,0,P|36:192|72:132,1,135,2|0,0:0|0:0,0:0:0:0:
180,132,268030,1,4,0:0:0:0:
288,132,268244,1,2,0:0:0:0:
164,132,268458,1,0,0:0:0:0:
368,132,268780,2,0,L|376:32,1,90,8|2,0:0|0:0,0:0:0:0:
160,248,269208,6,0,P|175:189|243:157,1,135,2|0,0:0|0:0,0:0:0:0:
131,157,269744,2,0,L|28:156,1,90,4|2,0:0|0:0,0:0:0:0:
151,157,270172,1,0,0:0:0:0:
476,156,270494,2,0,L|484:248,1,90,8|2,0:0|0:0,0:0:0:0:
270,243,270922,6,0,L|170:243,1,90,12|0,0:0|0:0,0:0:0:0:
306,243,271351,2,0,L|314:135,1,90,8|0,0:0|0:0,0:0:0:0:
206,151,271780,1,8,0:0:0:0:
154,151,271887,1,0,0:0:0:0:
102,151,271994,1,8,0:0:0:0:
226,63,272208,2,0,L|122:63,1,90,8|0,0:0|0:0,0:0:0:0:
352,64,272637,6,0,L|452:64,1,90,8|0,0:0|0:0,0:0:0:0:
324,64,273065,2,0,L|316:172,1,90,8|0,0:0|0:0,0:0:0:0:
424,156,273494,2,0,L|488:156,2,45,8|0|8,0:0|0:0|0:0,0:0:0:0:
296,156,273922,2,0,L|206:156,1,90,8|0,0:0|0:0,0:0:0:0:
256,192,274351,12,2,277351,0:0:0:0:
348,192,277780,6,0,L|256:192,1,90,4|0,0:0|0:0,0:0:0:0:
384,192,278208,1,8,0:0:0:0:
168,192,278637,2,0,L|260:192,1,90,2|0,0:0|0:0,0:0:0:0:
116,192,279065,1,8,0:0:0:0:
332,192,279494,6,0,L|436:192,1,90,2|0,0:0|0:0,0:0:0:0:
316,192,279922,2,0,L|216:192,1,90,8|2,0:0|0:0,0:0:0:0:
116,192,280351,2,0,P|56:136|116:80,1,180,2|8,0:0|0:0,0:0:0:0:
220,80,280994,1,0,0:0:0:0:
96,80,281208,6,0,L|196:80,1,90,2|0,0:0|0:0,0:0:0:0:
312,80,281637,2,0,L|412:80,1,90,8|0,0:0|0:0,0:0:0:0:
260,80,282065,2,0,L|256:172,1,90,2|2,0:0|0:0,0:0:0:0:
400,172,282494,2,0,L|292:172,1,90,8|2,0:0|0:0,0:0:0:0:
96,168,282922,6,0,P|40:188|12:272,2,135,2|2|2,0:0|0:0|0:0,0:0:0:0:
240,172,283780,2,0,L|252:264,1,90,2|0,0:0|0:0,0:0:0:0:
108,260,284208,2,0,L|8:260,1,90,8|0,0:0|0:0,0:0:0:0:
232,260,284637,6,0,L|400:192,2,180,2|8|2,0:0|0:0|0:0,0:0:0:0:
144,236,285708,1,0,0:0:0:0:
144,148,285922,1,8,0:0:0:0:
232,124,286137,2,0,L|328:124,1,90,0|0,0:0|0:0,0:0:0:0:
448,124,286565,5,2,0:0:0:0:
340,124,286780,1,8,0:0:0:0:
232,124,286994,2,0,L|136:124,1,90,0|0,0:0|0:0,0:0:0:0:
248,124,287422,1,2,0:0:0:0:
376,124,287637,1,8,0:0:0:0:
160,124,287851,6,0,P|72:160|44:236,1,180,2|0,0:0|0:0,0:0:0:0:
152,240,288494,2,0,L|236:272,1,90,8|0,0:0|0:0,0:0:0:0:
352,224,288922,2,0,L|268:192,1,90,2|0,0:0|0:0,0:0:0:0:
160,192,289351,1,8,0:0:0:0:
380,192,289565,6,0,P|452:128|380:52,1,225,2|2,0:0|0:0,0:0:0:0:
252,48,290208,2,0,L|152:48,1,90,8|2,0:0|0:0,0:0:0:0:
272,48,290637,2,0,L|280:144,1,90,2|0,0:0|0:0,0:0:0:0:
404,136,291065,2,0,L|304:136,1,90,8|0,0:0|0:0,0:0:0:0:
96,140,291494,6,0,L|76:232,1,90,4|0,0:0|0:0,0:0:0:0:
184,228,291922,2,0,L|280:228,1,90,8|0,0:0|0:0,0:0:0:0:
148,228,292351,2,0,L|84:297,1,90,2|0,0:0|0:0,0:0:0:0:
224,316,292780,2,0,L|320:316,1,90,8|0,0:0|0:0,0:0:0:0:
436,192,293208,6,0,L|332:192,2,90,2|0|8,0:0|0:0|0:0,0:0:0:0:
320,192,293851,1,0,0:0:0:0:
204,192,294065,2,0,P|144:136|204:80,1,180,2|8,0:0|0:0,0:0:0:0:
308,80,294708,1,0,0:0:0:0:
184,80,294922,6,0,L|94:80,1,90,2|0,0:0|0:0,0:0:0:0:
224,80,295351,2,0,L|232:172,1,90,8|0,0:0|0:0,0:0:0:0:
104,168,295780,2,0,L|200:168,1,90,2|2,0:0|0:0,0:0:0:0:
336,168,296208,1,8,0:0:0:0:
204,168,296422,1,2,0:0:0:0:
420,168,296637,6,0,P|480:192|504:272,2,135,2|2|2,0:0|0:0|0:0,0:0:0:0:
276,172,297494,2,0,L|184:172,1,90,2|0,0:0|0:0,0:0:0:0:
328,260,297922,2,0,L|428:260,1,90,8|2,0:0|0:0,0:0:0:0:
208,260,298351,6,0,L|112:260,1,90,2|0,0:0|0:0,0:0:0:0:
20,192,298780,2,0,L|116:192,1,90,8|0,0:0|0:0,0:0:0:0:
228,192,299208,1,2,0:0:0:0:
316,168,299422,1,0,0:0:0:0:
316,80,299637,1,8,0:0:0:0:
228,56,299851,2,0,L|132:56,1,90,0|0,0:0|0:0,0:0:0:0:
12,56,300280,5,2,0:0:0:0:
120,56,300494,1,8,0:0:0:0:
228,56,300708,2,0,L|324:56,1,90,0|0,0:0|0:0,0:0:0:0:
212,56,301137,1,2,0:0:0:0:
84,56,301351,1,8,0:0:0:0:
300,56,301565,6,0,P|388:92|416:168,1,180,2|0,0:0|0:0,0:0:0:0:
308,172,302208,2,0,L|224:204,1,90,8|0,0:0|0:0,0:0:0:0:
340,284,302637,2,0,L|424:252,1,90,2|0,0:0|0:0,0:0:0:0:
216,204,303065,1,8,0:0:0:0:
256,192,303494,12,6,305208,0:0:0:0:
132,288,318922,6,0,L|126:137,1,135,2|0,0:0|0:0,0:0:0:0:
258,144,319458,2,0,L|379:123,2,90,2|2|0,0:0|0:0|0:0,0:0:0:0:
99,134,320208,2,0,L|225:127,1,90,2|0,0:0|0:0,0:0:0:0:
404,295,320637,6,0,L|408:142,1,135,2|0,0:0|0:0,0:0:0:0:
281,154,321172,1,2,0:0:0:0:
192,137,321387,1,2,0:0:0:0:
91,189,321601,2,0,L|87:113,1,45
207,119,321922,2,0,L|319:100,1,90,2|0,0:0|0:0,0:0:0:0:
71,287,322351,6,0,P|65:176|101:145,1,135,2|0,0:0|0:0,0:0:0:0:
195,153,322887,2,0,L|323:136,1,90,2|2,0:0|0:0,0:0:0:0:
179,182,323315,2,0,L|43:125,1,135,0|2,0:0|0:0,0:0:0:0:
159,107,323851,1,0,0:0:0:0:
365,271,324065,5,2,0:0:0:0:
500,192,324387,1,0,0:0:0:0:
426,128,324601,1,2,0:0:0:0:
352,82,324815,2,0,L|186:57,1,135,2|0,0:0|0:0,0:0:0:0:
351,222,325351,1,2,0:0:0:0:
343,158,325565,1,0,0:0:0:0:
145,292,325780,5,2,0:0:0:0:
66,238,325994,1,0,0:0:0:0:
68,151,326208,1,2,0:0:0:0:
149,104,326422,1,0,0:0:0:0:
250,88,326637,2,0,L|367:77,3,90,2|0|2|0,0:0|0:0|0:0|0:0,0:0:0:0:
127,284,327494,6,0,L|123:163,1,90,2|0,0:0|0:0,0:0:0:0:
243,281,327922,2,0,L|239:160,1,90,2|0,0:0|0:0,0:0:0:0:
359,229,328351,2,0,L|361:139,1,90,2|0,0:0|0:0,0:0:0:0:
481,231,328780,2,0,L|483:141,1,90,2|0,0:0|0:0,0:0:0:0:
256,192,329208,12,0,330494,0:0:0:0:
304,284,330922,6,0,P|312:96|328:284,1,562.5,4|0,0:0|0:0,0:0:0:0:
148,204,332208,1,4,0:0:0:0:
352,220,332637,6,0,L|436:136,1,112.5,6|0,0:0|0:0,0:0:0:0:
304,116,333065,2,0,L|188:80,1,90,8|0,0:0|0:0,0:0:0:0:
340,72,333494,2,0,L|440:44,2,90,2|0|8,0:0|0:0|0:0,0:0:0:0:
52,276,334351,6,0,L|44:172,1,90,2|0,0:0|0:0,0:0:0:0:
160,212,334780,2,0,L|152:108,1,90,8|0,0:0|0:0,0:0:0:0:
256,92,335208,2,0,L|408:32,2,135,2|4|0,0:0|0:0|0:0,0:0:0:0:
156,180,336065,6,0,L|264:144,1,90,2|0,0:0|0:0,0:0:0:0:
356,180,336494,2,0,L|248:144,1,90,8|0,0:0|0:0,0:0:0:0:
136,320,336922,1,2,0:0:0:0:
128,230,337137,1,0,0:0:0:0:
121,140,337351,1,8,0:0:0:0:
444,232,337780,6,0,L|448:120,1,90,2|0,0:0|0:0,0:0:0:0:
320,136,338208,2,0,L|212:116,1,90,8|0,0:0|0:0,0:0:0:0:
124,312,338637,2,0,L|116:212,1,90,2|0,0:0|0:0,0:0:0:0:
160,204,338958,1,0,0:0:0:0:
197,180,339065,1,8,0:0:0:0:
215,140,339172,1,0,0:0:0:0:
211,96,339280,1,0,0:0:0:0:
181,62,339387,1,0,0:0:0:0:
139,51,339494,6,0,P|80:76|156:136,1,180,2|8,0:0|0:0,0:0:0:0:
295,146,340351,1,2,0:0:0:0:
214,146,340565,1,0,0:0:0:0:
133,146,340780,1,8,0:0:0:0:
436,252,341208,6,0,P|464:168|423:84,1,180,2|8,0:0|0:0,0:0:0:0:
320,88,341851,1,0,0:0:0:0:
216,144,342065,2,0,L|84:72,2,135,2|4|0,0:0|0:0|0:0,0:0:0:0:
340,192,342922,6,0,L|344:76,1,90,2|0,0:0|0:0,0:0:0:0:
232,160,343351,2,0,L|236:44,1,90,8|0,0:0|0:0,0:0:0:0:
336,80,343780,2,0,L|448:52,2,90,2|0|8,0:0|0:0|0:0,0:0:0:0:
64,224,344637,6,0,P|60:156|160:100,1,180,2|8,0:0|0:0,0:0:0:0:
240,88,345280,1,0,0:0:0:0:
336,88,345494,1,2,0:0:0:0:
168,280,345922,1,4,0:0:0:0:
164,235,346030,1,0,0:0:0:0:
161,190,346137,1,0,0:0:0:0:
400,232,346351,6,0,P|452:192|380:120,1,180,2|8,0:0|0:0,0:0:0:0:
288,120,346994,1,0,0:0:0:0:
188,120,347208,2,0,L|68:100,2,90,2|0|8,0:0|0:0|0:0,0:0:0:0:
480,216,348065,6,0,L|476:120,1,90,2|0,0:0|0:0,0:0:0:0:
368,120,348494,2,0,L|264:100,1,90,8|0,0:0|0:0,0:0:0:0:
388,264,348922,2,0,P|452:240|468:160,2,135,2|4|0,0:0|0:0|0:0,0:0:0:0:
264,272,349780,6,0,L|136:260,1,90,2|0,0:0|0:0,0:0:0:0:
264,184,350208,2,0,L|384:168,1,90,8|0,0:0|0:0,0:0:0:0:
252,108,350637,1,2,0:0:0:0:
162,102,350851,1,0,0:0:0:0:
72,97,351065,1,8,0:0:0:0:
372,296,351494,6,0,P|376:201|296:160,1,180,2|8,0:0|0:0,0:0:0:0:
220,164,352137,1,0,0:0:0:0:
136,116,352351,2,0,L|300:92,1,135,2|0,0:0|0:0,0:0:0:0:
328,96,352780,1,8,0:0:0:0:
361,124,352887,1,0,0:0:0:0:
372,167,352994,1,0,0:0:0:0:
355,208,353101,1,0,0:0:0:0:
296,200,353208,6,0,L|108:144,1,180,2|8,0:0|0:0,0:0:0:0:
328,136,354065,2,0,L|140:80,1,180,2|8,0:0|0:0,0:0:0:0:
480,260,354922,6,0,L|488:44,1,180,2|8,0:0|0:0,0:0:0:0:
140,256,355780,2,0,L|132:40,1,180,2|8,0:0|0:0,0:0:0:0:
336,248,356637,6,0,L|332:158,1,90,2|2,0:0|0:0,0:0:0:0:
212,184,357065,2,0,L|216:76,1,90,8|2,0:0|0:0,0:0:0:0:
344,252,357494,2,0,L|340:154,1,90,8|2,0:0|0:0,0:0:0:0:
200,184,357922,1,8,0:0:0:0:
256,192,358351,12,4,359637,0:0:0:0:
128,296,360065,6,0,L|36:296,2,90,2|0|8,0:0|0:0|0:0,0:0:0:0:
322,300,360708,2,0,B|410:300|410:300|446:216,1,180,4|0,0:0|0:0,0:0:0:0:
338,212,361351,1,8,0:0:0:0:
140,224,361780,6,0,L|240:224,2,90,2|0|8,0:0|0:0|0:0,0:0:0:0:
332,220,362422,2,0,P|360:168|276:104,1,180,4|2,0:0|0:0,0:0:0:0:
172,104,363065,2,0,L|284:104,1,90,8|0,0:0|0:0,0:0:0:0:
380,104,363494,5,2,0:0:0:0:
304,144,363708,1,0,0:0:0:0:
303,229,363922,1,8,0:0:0:0:
377,271,364137,1,0,0:0:0:0:
496,272,364351,2,0,L|400:272,2,90,2|2|8,0:0|0:0|0:0,0:0:0:0:
280,272,365208,6,0,L|184:272,1,90,2|0,0:0|0:0,0:0:0:0:
144,272,365530,1,0,0:0:0:0:
100,272,365637,1,8,0:0:0:0:
224,272,365851,1,4,0:0:0:0:
124,192,366065,2,0,L|28:192,1,90,2|0,0:0|0:0,0:0:0:0:
152,192,366494,2,0,L|156:148,2,45,8|0|0,0:0|0:0|0:0,0:0:0:0:
268,192,366922,6,0,L|364:140,2,90,2|0|8,0:0|0:0|0:0,0:0:0:0:
76,192,367565,2,0,P|68:120|156:76,1,180,4|0,0:0|0:0,0:0:0:0:
264,76,368208,2,0,L|360:76,1,90,8|0,0:0|0:0,0:0:0:0:
242,192,368637,6,0,L|142:192,1,90,2|0,0:0|0:0,0:0:0:0:
108,192,368958,1,0,0:0:0:0:
62,192,369065,2,0,L|158:192,1,90,8|4,0:0|0:0,0:0:0:0:
42,192,369494,2,0,L|26:280,1,90,2|0,0:0|0:0,0:0:0:0:
142,280,369922,2,0,L|242:280,1,90,8|0,0:0|0:0,0:0:0:0:
348,280,370351,5,2,0:0:0:0:
267,239,370565,1,0,0:0:0:0:
186,198,370780,1,8,0:0:0:0:
380,280,370994,2,0,P|448:260|500:160,1,180,4|0,0:0|0:0,0:0:0:0:
384,168,371637,2,0,L|284:168,1,90,8|0,0:0|0:0,0:0:0:0:
408,168,372065,6,0,L|408:260,1,90,2|2,0:0|0:0,0:0:0:0:
280,260,372494,2,0,L|184:260,1,90,8|4,0:0|0:0,0:0:0:0:
296,260,372922,1,2,0:0:0:0:
408,258,373137,1,2,0:0:0:0:
272,348,373351,1,4,0:0:0:0:
228,348,373458,1,0,0:0:0:0:
184,348,373565,1,0,0:0:0:0:
384,348,373780,6,0,L|476:348,2,90,2|0|8,0:0|0:0|0:0,0:0:0:0:
184,348,374422,2,0,B|184:260|184:260|260:204,1,180,4|0,0:0|0:0,0:0:0:0:
376,204,375065,1,8,0:0:0:0:
150,204,375494,6,0,L|250:204,2,90,2|0|8,0:0|0:0|0:0,0:0:0:0:
344,204,376137,2,0,P|396:148|332:88,1,180,4|2,0:0|0:0,0:0:0:0:
282,88,376672,1,0,0:0:0:0:
228,88,376780,2,0,L|136:88,1,90,8|0,0:0|0:0,0:0:0:0:
256,88,377208,5,2,0:0:0:0:
332,128,377422,1,0,0:0:0:0:
333,213,377637,1,8,0:0:0:0:
259,255,377851,1,4,0:0:0:0:
140,256,378065,2,0,L|236:256,1,90,0|2,0:0|0:0,0:0:0:0:
112,256,378494,2,0,L|20:256,1,90,8|0,0:0|0:0,0:0:0:0:
140,336,378922,6,0,L|236:336,1,90,2|0,0:0|0:0,0:0:0:0:
276,336,379244,1,0,0:0:0:0:
320,336,379351,1,8,0:0:0:0:
196,336,379565,1,4,0:0:0:0:
296,256,379780,2,0,L|392:256,1,90,2|0,0:0|0:0,0:0:0:0:
268,256,380208,1,8,0:0:0:0:
232,216,380315,1,0,0:0:0:0:
232,164,380422,1,0,0:0:0:0:
268,124,380530,1,0,0:0:0:0:
312,124,380637,6,0,L|404:124,2,90,2|0|8,0:0|0:0|0:0,0:0:0:0:
112,124,381280,2,0,P|52:184|108:240,1,180,4|0,0:0|0:0,0:0:0:0:
224,240,381922,2,0,L|320:240,1,90,8|0,0:0|0:0,0:0:0:0:
202,124,382351,6,0,L|102:124,1,90,2|0,0:0|0:0,0:0:0:0:
64,124,382672,1,0,0:0:0:0:
16,124,382780,1,8,0:0:0:0:
210,124,382994,1,4,0:0:0:0:
320,124,383208,2,0,L|336:212,1,90,2|0,0:0|0:0,0:0:0:0:
220,212,383637,2,0,L|120:212,1,90,8|0,0:0|0:0,0:0:0:0:
248,212,384065,6,0,L|344:260,1,90,2|0,0:0|0:0,0:0:0:0:
368,296,384387,1,0,0:0:0:0:
372,356,384494,1,8,0:0:0:0:
180,356,384708,1,4,0:0:0:0:
68,280,384922,1,2,0:0:0:0:
196,280,385137,1,0,0:0:0:0:
206,236,385244,1,0,0:0:0:0:
216,192,385351,1,8,0:0:0:0:
256,192,385780,12,0,387065,0:0:0:0:
384,192,387494,6,0,L|404:144,2,45,6|0|0,0:0|0:0|0:0,0:0:0:0:
268,192,387922,2,0,L|160:192,1,90,8|0,0:0|0:0,0:0:0:0:
288,96,388351,1,2,0:0:0:0:
180,96,388565,1,0,0:0:0:0:
72,96,388780,2,0,L|172:96,1,90,8|0,0:0|0:0,0:0:0:0:
288,96,389208,5,2,0:0:0:0:
329,146,389315,1,0,0:0:0:0:
320,211,389422,1,0,0:0:0:0:
265,247,389530,1,0,0:0:0:0:
200,248,389637,2,0,L|100:248,1,90,8|0,0:0|0:0,0:0:0:0:
212,340,390065,2,0,L|144:280,1,90,2|2,0:0|0:0,0:0:0:0:
256,340,390494,2,0,L|352:340,1,90,8|0,0:0|0:0,0:0:0:0:
232,224,390922,6,0,L|120:224,1,90,2|0,0:0|0:0,0:0:0:0:
88,192,391244,1,0,0:0:0:0:
140,156,391351,2,0,L|240:156,1,90,8|0,0:0|0:0,0:0:0:0:
340,156,391780,1,2,0:0:0:0:
230,156,391994,1,0,0:0:0:0:
356,156,392208,2,0,L|456:156,1,90,8|0,0:0|0:0,0:0:0:0:
328,56,392637,6,0,L|265:92,1,45,2|0,0:0|0:0,0:0:0:0:
288,136,392851,2,0,L|339:166,1,45
380,160,393065,2,0,L|484:160,1,90,8|0,0:0|0:0,0:0:0:0:
360,248,393494,2,0,L|264:248,1,90,2|2,0:0|0:0,0:0:0:0:
216,248,393815,1,0,0:0:0:0:
162,248,393922,2,0,L|270:248,1,90,8|0,0:0|0:0,0:0:0:0:
124,248,394351,6,0,L|100:196,2,45,2|0|0,0:0|0:0|0:0,0:0:0:0:
230,128,394780,2,0,L|322:128,1,90,8|0,0:0|0:0,0:0:0:0:
220,40,395208,2,0,L|324:40,1,90,2|2,0:0|0:0,0:0:0:0:
364,44,395530,1,0,0:0:0:0:
310,40,395637,2,0,L|214:40,1,90,8|0,0:0|0:0,0:0:0:0:
112,36,396065,5,2,0:0:0:0:
57,72,396172,1,0,0:0:0:0:
46,137,396280,1,0,0:0:0:0:
84,190,396387,1,0,0:0:0:0:
140,192,396494,2,0,L|236:192,1,90,8|0,0:0|0:0,0:0:0:0:
336,192,396922,1,2,0:0:0:0:
236,192,397137,1,2,0:0:0:0:
352,192,397351,2,0,L|448:192,1,90,8|0,0:0|0:0,0:0:0:0:
328,284,397780,6,0,L|236:284,1,90,2|0,0:0|0:0,0:0:0:0:
296,284,398101,1,0,0:0:0:0:
356,284,398208,2,0,L|248:284,1,90,8|0,0:0|0:0,0:0:0:0:
156,284,398637,1,2,0:0:0:0:
148,232,398744,1,0,0:0:0:0:
140,180,398851,1,0,0:0:0:0:
264,180,399065,2,0,L|276:76,1,90,8|0,0:0|0:0,0:0:0:0:
164,88,399494,6,0,L|112:88,1,45,2|0,0:0|0:0,0:0:0:0:
64,88,399708,2,0,L|128:88,1,45
164,88,399922,2,0,L|264:88,1,90,8|0,0:0|0:0,0:0:0:0:
160,192,400351,1,2,0:0:0:0:
204,192,400458,1,2,0:0:0:0:
248,192,400565,1,2,0:0:0:0:
384,192,400780,2,0,P|440:220|464:300,1,135.000005149842,4|0,0:0|0:0,0:0:0:0:
272,284,401208,6,0,L|252:236,2,45,2|0|0,0:0|0:0|0:0,0:0:0:0:
388,284,401637,2,0,L|496:284,1,90,8|0,0:0|0:0,0:0:0:0:
368,188,402065,1,2,0:0:0:0:
476,188,402280,1,0,0:0:0:0:
360,188,402494,2,0,L|260:188,1,90,8|0,0:0|0:0,0:0:0:0:
160,260,402922,5,2,0:0:0:0:
119,210,403030,1,0,0:0:0:0:
128,145,403137,1,0,0:0:0:0:
183,109,403244,1,0,0:0:0:0:
248,108,403351,2,0,L|348:108,1,90,8|0,0:0|0:0,0:0:0:0:
440,48,403780,2,0,L|372:108,1,90,2|0,0:0|0:0,0:0:0:0:
192,16,404208,2,0,L|96:16,1,90,8|0,0:0|0:0,0:0:0:0:
212,108,404637,6,0,L|324:108,1,90,2|0,0:0|0:0,0:0:0:0:
356,140,404958,1,0,0:0:0:0:
304,176,405065,2,0,L|204:176,1,90,8|0,0:0|0:0,0:0:0:0:
104,176,405494,1,2,0:0:0:0:
214,176,405708,1,0,0:0:0:0:
320,176,405922,2,0,L|420:176,1,90,8|0,0:0|0:0,0:0:0:0:
300,108,406351,6,0,L|240:108,1,45,2|0,0:0|0:0,0:0:0:0:
200,108,406565,2,0,L|156:108,1,45
208,176,406780,2,0,L|312:176,1,90,8|0,0:0|0:0,0:0:0:0:
188,264,407208,2,0,L|292:264,1,90,2|2,0:0|0:0,0:0:0:0:
328,264,407530,1,0,0:0:0:0:
378,264,407637,2,0,L|278:264,1,90,8|0,0:0|0:0,0:0:0:0:
180,264,408065,5,2,0:0:0:0:
128,264,408172,1,0,0:0:0:0:
92,264,408280,1,0,0:0:0:0:
128,264,408387,1,0,0:0:0:0:
180,264,408494,2,0,L|272:264,1,90,8|0,0:0|0:0,0:0:0:0:
380,168,408922,2,0,L|459:122,1,90,2|0,0:0|0:0,0:0:0:0:
340,76,409351,2,0,L|244:76,1,90,8|0,0:0|0:0,0:0:0:0:
360,76,409780,5,2,0:0:0:0:
415,112,409887,1,0,0:0:0:0:
426,177,409994,1,0,0:0:0:0:
388,230,410101,1,0,0:0:0:0:
332,232,410208,2,0,L|236:232,1,90,8|0,0:0|0:0,0:0:0:0:
136,232,410637,1,2,0:0:0:0:
236,232,410851,1,2,0:0:0:0:
120,232,411065,2,0,L|112:328,1,90,8|0,0:0|0:0,0:0:0:0:
228,324,411494,6,0,L|320:324,1,90,2|0,0:0|0:0,0:0:0:0:
368,324,411815,1,0,0:0:0:0:
416,324,411922,2,0,L|308:324,1,90,8|0,0:0|0:0,0:0:0:0:
216,232,412351,2,0,L|168:232,1,45,2|0,0:0|0:0,0:0:0:0:
228,232,412565,2,0,L|284:232,1,45
216,232,412780,1,8,0:0:0:0:
256,192,413208,12,0,414494,0:0:0:0:
180,192,414922,6,0,P|140:124|184:40,1,180,4|2,0:0|0:0,0:0:0:0:
308,40,415565,1,8,0:0:0:0:
416,104,415780,2,0,L|248:40,1,180,2|2,0:0|0:0,0:0:0:0:
68,44,416637,6,0,P|108:144|176:168,1,180,2|2,0:0|0:0,0:0:0:0:
296,168,417280,1,8,0:0:0:0:
188,168,417494,1,2,0:0:0:0:
316,168,417708,2,0,L|436:168,2,90,8|2|8,0:0|0:0|0:0,0:0:0:0:
208,168,418351,6,0,L|20:168,1,180,2|2,0:0|0:0,0:0:0:0:
152,168,418994,1,8,0:0:0:0:
260,164,419208,2,0,P|248:228|144:284,1,180,2|2,0:0|0:0,0:0:0:0:
352,280,420065,6,0,P|456:236|476:176,1,180,2|2,0:0|0:0,0:0:0:0:
348,180,420708,1,8,0:0:0:0:
456,180,420922,2,0,L|360:180,1,90,2|8,0:0|0:0,0:0:0:0:
260,180,421351,1,2,0:0:0:0:
132,180,421565,1,8,0:0:0:0:
240,180,421780,6,0,P|200:96|116:72,1,180,2|2,0:0|0:0,0:0:0:0:
248,72,422422,1,8,0:0:0:0:
356,72,422637,2,0,L|176:72,1,180,2|2,0:0|0:0,0:0:0:0:
392,192,423494,6,0,L|232:276,1,180,2|2,0:0|0:0,0:0:0:0:
112,276,424137,1,8,0:0:0:0:
220,276,424351,1,2,0:0:0:0:
348,276,424565,2,0,L|272:220,2,90,8|2|8,0:0|0:0|0:0,0:0:0:0:
456,276,425208,6,0,P|424:208|328:172,1,180,2|2,0:0|0:0,0:0:0:0:
204,172,425851,1,8,0:0:0:0:
312,172,426065,2,0,B|404:172|404:172|452:248,1,180,2|2,0:0|0:0,0:0:0:0:
233,299,426922,6,0,P|239:235|337:171,1,180,2|2,0:0|0:0,0:0:0:0:
200,172,427565,1,8,0:0:0:0:
312,172,427780,2,0,L|315:76,1,90,2|0,0:0|0:0,0:0:0:0:
192,84,428208,1,8,0:0:0:0:
72,84,428422,1,8,0:0:0:0:
296,80,428637,6,0,B|388:80|388:80|440:160,1,180,4|2,0:0|0:0,0:0:0:0:
308,152,429280,2,0,P|220:240|308:320,1,270,8|2,0:0|0:0,0:0:0:0:
88,320,430351,6,0,L|300:320,1,180,2|2,0:0|0:0,0:0:0:0:
140,320,430994,2,0,P|60:296|24:212,1,180,8|0,0:0|0:0,0:0:0:0:
152,212,431637,1,0,0:0:0:0:
100,212,431744,1,0,0:0:0:0:
48,212,431851,1,0,0:0:0:0:
172,212,432065,6,0,L|336:136,1,180,2|2,0:0|0:0,0:0:0:0:
208,136,432708,2,0,P|232:48|392:4,1,270,8|2,0:0|0:0,0:0:0:0:
172,136,433780,6,0,B|240:192|240:192|332:192,1,180,2|2,0:0|0:0,0:0:0:0:
204,188,434422,2,0,P|124:212|88:296,1,180,8|0,0:0|0:0,0:0:0:0:
192,292,435065,1,8,0:0:0:0:
252,292,435172,1,8,0:0:0:0:
292,292,435280,1,8,0:0:0:0:
252,292,435387,1,8,0:0:0:0:
196,292,435494,6,0,P|128:280|80:188,1,180,2|2,0:0|0:0,0:0:0:0:
188,188,436137,1,8,0:0:0:0:
376,188,436780,1,2,0:0:0:0:
180,96,437208,6,0,L|332:192,1,180,2|2,0:0|0:0,0:0:0:0:
224,192,437851,1,8,0:0:0:0:
404,192,438280,2,0,L|492:148,1,90,2|8,0:0|0:0,0:0:0:0:
256,192,438922,12,0,442351,0:0:0:0:
