osu file format v14

[General]
AudioFilename: audio.ogg
AudioLeadIn: 0
PreviewTime: 250047
Countdown: 0
SampleSet: Soft
StackLeniency: 0.7
Mode: 3
LetterboxInBreaks: 0
SpecialStyle: 0
WidescreenStoryboard: 0

[Editor]
Bookmarks: 3898,17612,31326,58755,72469,86183,113601,127315,141030,154744,168458,182172,195887,209601,223315,291887
DistanceSpacing: 0.3
BeatDivisor: 8
GridSize: 16
TimelineZoom: 2.799999

[Metadata]
Title:143
TitleUnicode:143
Artist:Halozy
ArtistUnicode:Halozy
Creator:Faputa
Version:4K // Timeless Love
Source:東方花映塚 ~ Phantasmagoria of Flower View.
Tags:864 nayuta 例大祭12 ZUN 東方project touhou kaeidzuka sumijun 魂の花 〜 Another Dream… flower soul オリエンタルダークフライト oriental dark flight marisa kirisame 霧雨魔理沙 Electronic Japanese
BeatmapID:3632347
BeatmapSetID:1774019

[Difficulty]
HPDrainRate:8
CircleSize:4
OverallDifficulty:8
ApproachRate:5
SliderMultiplier:1.4
SliderTickRate:1

[Events]
//Background and Video events
0,0,"89281113_p1.jpg",0,0
//Break Periods
//Storyboard Layer 0 (Background)
//Storyboard Layer 1 (Fail)
//Storyboard Layer 2 (Pass)
//Storyboard Layer 3 (Foreground)
//Storyboard Layer 4 (Overlay)
//Storyboard Sound Samples

[TimingPoints]
-2970,428.571428571429,4,2,0,50,1,0
223315,-100,4,2,0,50,0,1
249030,-100,4,2,0,50,0,0
250744,-100,4,2,0,50,0,1
276458,-100,4,2,0,50,0,0

[HitObjects]
320,192,2172,128,0,3030:0:0:0:0:
192,192,2387,128,0,2922:0:0:0:0:
448,192,2601,128,0,3137:0:0:0:0:
64,192,2815,128,0,3244:0:0:0:0:
192,192,3030,128,0,3458:0:0:0:0:
320,192,3137,128,0,3405:0:0:0:0:
448,192,3244,128,0,3351:0:0:0:0:
64,192,3351,128,0,3512:0:0:0:0:
448,192,3458,128,0,3565:0:0:0:0:
320,192,3512,128,0,3619:0:0:0:0:
192,192,3565,128,0,3672:0:0:0:0:
64,192,3619,128,0,3726:0:0:0:0:
448,192,3672,1,0,0:0:0:0:
320,192,3726,1,0,0:0:0:0:
192,192,3780,1,0,0:0:0:0:
64,192,3833,1,0,0:0:0:0:
320,192,3887,1,0,0:0:0:0:
448,192,3887,128,0,14065:0:0:0:0:
64,192,5815,1,0,0:0:0:0:
64,192,6244,1,0,0:0:0:0:
64,192,6672,1,0,0:0:0:0:
64,192,7101,1,0,0:0:0:0:
64,192,7530,1,0,0:0:0:0:
64,192,7958,1,0,0:0:0:0:
64,192,8387,1,0,0:0:0:0:
64,192,8815,1,0,0:0:0:0:
64,192,9244,128,0,9297:0:0:0:0:
64,192,9672,128,0,9726:0:0:0:0:
64,192,10101,128,0,10155:0:0:0:0:
64,192,10530,128,0,10583:0:0:0:0:
64,192,10958,128,0,11012:0:0:0:0:
64,192,11387,128,0,11440:0:0:0:0:
64,192,11815,128,0,11869:0:0:0:0:
64,192,12244,128,0,12297:0:0:0:0:
64,192,12672,128,0,12780:0:0:0:0:
64,192,13101,128,0,13208:0:0:0:0:
64,192,13530,128,0,13637:0:0:0:0:
64,192,13958,128,0,14065:0:0:0:0:
448,192,14387,128,0,14494:0:0:0:0:
64,192,14815,128,0,14922:0:0:0:0:
448,192,15244,128,0,15351:0:0:0:0:
64,192,15672,128,0,15780:0:0:0:0:
448,192,16101,128,0,16262:0:0:0:0:
64,192,16530,128,0,16690:0:0:0:0:
448,192,16958,128,0,17119:0:0:0:0:
64,192,17387,128,0,17547:0:0:0:0:
192,192,17601,1,0,0:0:0:0:
320,192,17601,1,0,0:0:0:0:
448,192,17601,1,0,0:0:0:0:
320,192,17815,1,0,0:0:0:0:
448,192,17815,128,0,18030:0:0:0:0:
320,192,18030,1,0,0:0:0:0:
192,192,18244,1,0,0:0:0:0:
64,192,18244,128,0,18458:0:0:0:0:
192,192,18458,1,0,0:0:0:0:
192,192,18672,1,0,0:0:0:0:
448,192,18672,128,0,18887:0:0:0:0:
320,192,18887,1,0,0:0:0:0:
64,192,19101,128,0,19315:0:0:0:0:
192,192,19315,1,0,0:0:0:0:
192,192,19530,1,0,0:0:0:0:
448,192,19530,128,0,19744:0:0:0:0:
192,192,19744,1,0,0:0:0:0:
320,192,19958,1,0,0:0:0:0:
64,192,19958,128,0,20172:0:0:0:0:
320,192,20172,1,0,0:0:0:0:
320,192,20387,1,0,0:0:0:0:
448,192,20387,128,0,20601:0:0:0:0:
192,192,20494,1,0,0:0:0:0:
64,192,20815,128,0,21030:0:0:0:0:
320,192,21030,1,0,0:0:0:0:
448,192,21244,128,0,21458:0:0:0:0:
320,192,21244,1,0,0:0:0:0:
320,192,21458,1,0,0:0:0:0:
64,192,21672,128,0,21887:0:0:0:0:
192,192,21672,1,0,0:0:0:0:
192,192,21887,1,0,0:0:0:0:
448,192,22101,128,0,22315:0:0:0:0:
192,192,22101,1,0,0:0:0:0:
320,192,22315,1,0,0:0:0:0:
64,192,22530,128,0,22744:0:0:0:0:
192,192,22744,1,0,0:0:0:0:
448,192,22958,128,0,23172:0:0:0:0:
192,192,22958,1,0,0:0:0:0:
192,192,23172,1,0,0:0:0:0:
64,192,23387,128,0,23601:0:0:0:0:
320,192,23387,1,0,0:0:0:0:
320,192,23601,1,0,0:0:0:0:
448,192,23815,128,0,24030:0:0:0:0:
320,192,23815,1,0,0:0:0:0:
192,192,23922,1,0,0:0:0:0:
64,192,24244,128,0,24351:0:0:0:0:
192,192,24351,128,0,24458:0:0:0:0:
320,192,24458,1,0,0:0:0:0:
448,192,24672,128,0,25101:0:0:0:0:
320,192,24672,1,0,0:0:0:0:
320,192,24887,1,0,0:0:0:0:
64,192,25101,128,0,25530:0:0:0:0:
192,192,25101,1,0,0:0:0:0:
192,192,25315,1,0,0:0:0:0:
448,192,25530,128,0,25958:0:0:0:0:
192,192,25530,1,0,0:0:0:0:
320,192,25744,1,0,0:0:0:0:
64,192,25958,128,0,26387:0:0:0:0:
192,192,26172,1,0,0:0:0:0:
448,192,26387,128,0,26815:0:0:0:0:
192,192,26387,1,0,0:0:0:0:
192,192,26601,1,0,0:0:0:0:
64,192,26815,128,0,27244:0:0:0:0:
320,192,26815,1,0,0:0:0:0:
320,192,27030,1,0,0:0:0:0:
448,192,27244,128,0,27672:0:0:0:0:
320,192,27244,1,0,0:0:0:0:
192,192,27351,1,0,0:0:0:0:
64,192,27672,128,0,28101:0:0:0:0:
320,192,27887,1,0,0:0:0:0:
448,192,28101,128,0,28744:0:0:0:0:
320,192,28101,1,0,0:0:0:0:
320,192,28315,1,0,0:0:0:0:
64,192,28530,128,0,29172:0:0:0:0:
192,192,28530,1,0,0:0:0:0:
192,192,28744,1,0,0:0:0:0:
448,192,28958,128,0,29494:0:0:0:0:
192,192,28958,1,0,0:0:0:0:
320,192,29172,1,0,0:0:0:0:
64,192,29387,128,0,29494:0:0:0:0:
64,192,29601,1,0,0:0:0:0:
192,192,29601,1,0,0:0:0:0:
320,192,29601,1,0,0:0:0:0:
448,192,29815,1,0,0:0:0:0:
192,192,29922,1,0,0:0:0:0:
320,192,30030,1,0,0:0:0:0:
448,192,30030,1,0,0:0:0:0:
64,192,30030,128,0,30137:0:0:0:0:
192,192,30137,128,0,30244:0:0:0:0:
320,192,30244,128,0,30351:0:0:0:0:
64,192,30244,1,0,0:0:0:0:
448,192,30351,128,0,30458:0:0:0:0:
192,192,30351,1,0,0:0:0:0:
320,192,30458,1,0,0:0:0:0:
64,192,30565,1,0,0:0:0:0:
192,192,30565,1,0,0:0:0:0:
320,192,30672,1,0,0:0:0:0:
448,192,30672,1,0,0:0:0:0:
64,192,30780,1,0,0:0:0:0:
192,192,30887,128,0,30994:0:0:0:0:
320,192,30887,128,0,30994:0:0:0:0:
448,192,30887,128,0,30994:0:0:0:0:
64,192,31315,1,0,0:0:0:0:
192,192,31315,1,0,0:0:0:0:
320,192,31315,1,0,0:0:0:0:
448,192,31315,128,0,31422:0:0:0:0:
448,192,31530,128,0,31637:0:0:0:0:
64,192,31637,1,0,0:0:0:0:
320,192,31744,1,0,0:0:0:0:
448,192,31744,128,0,31851:0:0:0:0:
192,192,31851,1,0,0:0:0:0:
64,192,31958,128,0,32065:0:0:0:0:
320,192,32065,1,0,0:0:0:0:
64,192,32172,128,0,32280:0:0:0:0:
192,192,32172,1,0,0:0:0:0:
448,192,32280,1,0,0:0:0:0:
64,192,32387,128,0,32494:0:0:0:0:
320,192,32494,1,0,0:0:0:0:
192,192,32601,1,0,0:0:0:0:
448,192,32601,128,0,32708:0:0:0:0:
320,192,32708,1,0,0:0:0:0:
64,192,32815,1,0,0:0:0:0:
192,192,32922,1,0,0:0:0:0:
448,192,33030,128,0,33137:0:0:0:0:
320,192,33030,1,0,0:0:0:0:
64,192,33137,1,0,0:0:0:0:
448,192,33244,128,0,33351:0:0:0:0:
192,192,33351,1,0,0:0:0:0:
448,192,33458,128,0,33565:0:0:0:0:
320,192,33458,1,0,0:0:0:0:
192,192,33565,1,0,0:0:0:0:
64,192,33672,128,0,33780:0:0:0:0:
320,192,33780,1,0,0:0:0:0:
64,192,33887,128,0,33994:0:0:0:0:
448,192,33887,1,0,0:0:0:0:
192,192,33994,1,0,0:0:0:0:
64,192,34101,128,0,34208:0:0:0:0:
448,192,34208,128,0,34315:0:0:0:0:
320,192,34315,1,0,0:0:0:0:
192,192,34315,1,0,0:0:0:0:
64,192,34422,1,0,0:0:0:0:
320,192,34530,1,0,0:0:0:0:
192,192,34637,1,0,0:0:0:0:
448,192,34744,128,0,34851:0:0:0:0:
64,192,34744,1,0,0:0:0:0:
192,192,34851,1,0,0:0:0:0:
448,192,34958,128,0,35065:0:0:0:0:
320,192,35065,1,0,0:0:0:0:
448,192,35172,128,0,35280:0:0:0:0:
192,192,35172,1,0,0:0:0:0:
320,192,35280,1,0,0:0:0:0:
64,192,35387,128,0,35494:0:0:0:0:
320,192,35494,1,0,0:0:0:0:
64,192,35601,128,0,35708:0:0:0:0:
192,192,35601,1,0,0:0:0:0:
448,192,35708,1,0,0:0:0:0:
64,192,35815,128,0,35922:0:0:0:0:
320,192,35922,1,0,0:0:0:0:
192,192,36030,1,0,0:0:0:0:
448,192,36030,128,0,36137:0:0:0:0:
64,192,36137,1,0,0:0:0:0:
320,192,36244,1,0,0:0:0:0:
192,192,36351,1,0,0:0:0:0:
448,192,36458,128,0,36565:0:0:0:0:
64,192,36458,1,0,0:0:0:0:
320,192,36565,1,0,0:0:0:0:
448,192,36672,128,0,36780:0:0:0:0:
192,192,36780,1,0,0:0:0:0:
448,192,36887,128,0,36994:0:0:0:0:
64,192,36887,1,0,0:0:0:0:
320,192,36994,1,0,0:0:0:0:
64,192,37101,128,0,37208:0:0:0:0:
192,192,37208,1,0,0:0:0:0:
64,192,37315,128,0,37422:0:0:0:0:
448,192,37315,1,0,0:0:0:0:
320,192,37422,1,0,0:0:0:0:
64,192,37530,128,0,37637:0:0:0:0:
192,192,37637,128,0,37744:0:0:0:0:
448,192,37744,128,0,37851:0:0:0:0:
64,192,37744,1,0,0:0:0:0:
320,192,37851,128,0,37958:0:0:0:0:
192,192,37958,128,0,38065:0:0:0:0:
448,192,37958,1,0,0:0:0:0:
64,192,38065,128,0,38172:0:0:0:0:
320,192,38065,1,0,0:0:0:0:
448,192,38172,128,0,38280:0:0:0:0:
192,192,38172,1,0,0:0:0:0:
64,192,38280,1,0,0:0:0:0:
448,192,38387,128,0,38494:0:0:0:0:
320,192,38494,1,0,0:0:0:0:
448,192,38601,128,0,38708:0:0:0:0:
192,192,38601,1,0,0:0:0:0:
320,192,38708,1,0,0:0:0:0:
64,192,38815,128,0,38922:0:0:0:0:
192,192,38922,1,0,0:0:0:0:
64,192,39030,128,0,39137:0:0:0:0:
448,192,39030,1,0,0:0:0:0:
320,192,39137,1,0,0:0:0:0:
64,192,39244,128,0,39351:0:0:0:0:
192,192,39351,1,0,0:0:0:0:
320,192,39458,1,0,0:0:0:0:
448,192,39458,128,0,39565:0:0:0:0:
64,192,39565,1,0,0:0:0:0:
192,192,39672,1,0,0:0:0:0:
320,192,39780,1,0,0:0:0:0:
448,192,39887,128,0,39994:0:0:0:0:
64,192,39887,1,0,0:0:0:0:
192,192,39994,1,0,0:0:0:0:
448,192,40101,128,0,40208:0:0:0:0:
64,192,40208,1,0,0:0:0:0:
448,192,40315,128,0,40422:0:0:0:0:
320,192,40315,1,0,0:0:0:0:
192,192,40422,1,0,0:0:0:0:
64,192,40530,128,0,40637:0:0:0:0:
320,192,40637,1,0,0:0:0:0:
64,192,40744,128,0,40851:0:0:0:0:
448,192,40744,1,0,0:0:0:0:
192,192,40851,1,0,0:0:0:0:
64,192,40958,128,0,41065:0:0:0:0:
448,192,41065,128,0,41172:0:0:0:0:
192,192,41172,1,0,0:0:0:0:
64,192,41172,1,0,0:0:0:0:
320,192,41280,1,0,0:0:0:0:
192,192,41387,1,0,0:0:0:0:
320,192,41494,1,0,0:0:0:0:
448,192,41601,128,0,41708:0:0:0:0:
64,192,41601,1,0,0:0:0:0:
192,192,41708,1,0,0:0:0:0:
448,192,41815,128,0,41922:0:0:0:0:
64,192,41922,1,0,0:0:0:0:
448,192,42030,128,0,42137:0:0:0:0:
320,192,42030,1,0,0:0:0:0:
192,192,42137,1,0,0:0:0:0:
64,192,42244,128,0,42351:0:0:0:0:
320,192,42351,1,0,0:0:0:0:
64,192,42458,128,0,42565:0:0:0:0:
448,192,42458,1,0,0:0:0:0:
192,192,42565,1,0,0:0:0:0:
64,192,42672,128,0,42780:0:0:0:0:
320,192,42780,1,0,0:0:0:0:
64,192,42887,1,0,0:0:0:0:
448,192,42887,128,0,42994:0:0:0:0:
320,192,42994,1,0,0:0:0:0:
448,192,43101,1,0,0:0:0:0:
192,192,43208,1,0,0:0:0:0:
448,192,43315,128,0,43422:0:0:0:0:
64,192,43315,1,0,0:0:0:0:
320,192,43422,1,0,0:0:0:0:
448,192,43530,128,0,43637:0:0:0:0:
192,192,43637,1,0,0:0:0:0:
448,192,43744,128,0,43851:0:0:0:0:
320,192,43744,1,0,0:0:0:0:
192,192,43851,1,0,0:0:0:0:
64,192,43958,128,0,44065:0:0:0:0:
448,192,44065,1,0,0:0:0:0:
64,192,44172,128,0,44280:0:0:0:0:
192,192,44172,1,0,0:0:0:0:
320,192,44280,1,0,0:0:0:0:
64,192,44387,128,0,44494:0:0:0:0:
192,192,44494,128,0,44601:0:0:0:0:
448,192,44601,128,0,44708:0:0:0:0:
320,192,44708,128,0,44815:0:0:0:0:
192,192,44815,128,0,44922:0:0:0:0:
64,192,44922,128,0,45030:0:0:0:0:
192,192,45030,1,0,0:0:0:0:
320,192,45030,1,0,0:0:0:0:
448,192,45030,128,0,45137:0:0:0:0:
64,192,45137,1,0,0:0:0:0:
448,192,45244,128,0,45351:0:0:0:0:
192,192,45351,1,0,0:0:0:0:
448,192,45458,128,0,45565:0:0:0:0:
320,192,45458,1,0,0:0:0:0:
64,192,45458,1,0,0:0:0:0:
192,192,45565,1,0,0:0:0:0:
64,192,45672,128,0,45780:0:0:0:0:
320,192,45780,1,0,0:0:0:0:
64,192,45887,128,0,45994:0:0:0:0:
448,192,45887,1,0,0:0:0:0:
192,192,45994,1,0,0:0:0:0:
64,192,46101,128,0,46208:0:0:0:0:
320,192,46208,1,0,0:0:0:0:
448,192,46315,128,0,46422:0:0:0:0:
192,192,46315,1,0,0:0:0:0:
64,192,46315,1,0,0:0:0:0:
320,192,46422,1,0,0:0:0:0:
192,192,46530,1,0,0:0:0:0:
64,192,46637,1,0,0:0:0:0:
448,192,46744,128,0,46851:0:0:0:0:
320,192,46744,1,0,0:0:0:0:
192,192,46851,1,0,0:0:0:0:
448,192,46958,128,0,47065:0:0:0:0:
320,192,47065,1,0,0:0:0:0:
448,192,47172,128,0,47280:0:0:0:0:
64,192,47172,1,0,0:0:0:0:
192,192,47172,1,0,0:0:0:0:
320,192,47280,1,0,0:0:0:0:
64,192,47387,128,0,47494:0:0:0:0:
192,192,47494,1,0,0:0:0:0:
64,192,47601,128,0,47708:0:0:0:0:
448,192,47601,1,0,0:0:0:0:
320,192,47708,1,0,0:0:0:0:
64,192,47815,128,0,47922:0:0:0:0:
448,192,47922,128,0,48030:0:0:0:0:
320,192,48030,1,0,0:0:0:0:
64,192,48030,1,0,0:0:0:0:
192,192,48030,1,0,0:0:0:0:
448,192,48137,1,0,0:0:0:0:
320,192,48244,1,0,0:0:0:0:
64,192,48351,1,0,0:0:0:0:
448,192,48458,128,0,48565:0:0:0:0:
192,192,48458,1,0,0:0:0:0:
320,192,48458,1,0,0:0:0:0:
64,192,48565,1,0,0:0:0:0:
448,192,48672,128,0,48780:0:0:0:0:
192,192,48672,1,0,0:0:0:0:
320,192,48780,1,0,0:0:0:0:
448,192,48887,128,0,48994:0:0:0:0:
192,192,48887,1,0,0:0:0:0:
64,192,48887,1,0,0:0:0:0:
320,192,48994,1,0,0:0:0:0:
64,192,49101,128,0,49208:0:0:0:0:
192,192,49101,1,0,0:0:0:0:
448,192,49208,1,0,0:0:0:0:
64,192,49315,128,0,49422:0:0:0:0:
320,192,49315,1,0,0:0:0:0:
192,192,49422,1,0,0:0:0:0:
64,192,49530,128,0,49637:0:0:0:0:
448,192,49530,1,0,0:0:0:0:
320,192,49637,1,0,0:0:0:0:
448,192,49744,128,0,49851:0:0:0:0:
192,192,49744,1,0,0:0:0:0:
64,192,49744,1,0,0:0:0:0:
320,192,49851,1,0,0:0:0:0:
192,192,49958,1,0,0:0:0:0:
320,192,50065,1,0,0:0:0:0:
448,192,50172,128,0,50280:0:0:0:0:
64,192,50172,1,0,0:0:0:0:
192,192,50226,1,0,0:0:0:0:
320,192,50280,1,0,0:0:0:0:
448,192,50387,128,0,50494:0:0:0:0:
64,192,50387,1,0,0:0:0:0:
320,192,50494,1,0,0:0:0:0:
448,192,50601,128,0,50708:0:0:0:0:
192,192,50601,1,0,0:0:0:0:
64,192,50601,1,0,0:0:0:0:
320,192,50708,1,0,0:0:0:0:
64,192,50815,128,0,50922:0:0:0:0:
192,192,50815,1,0,0:0:0:0:
448,192,50922,1,0,0:0:0:0:
64,192,51030,128,0,51137:0:0:0:0:
320,192,51030,1,0,0:0:0:0:
192,192,51137,1,0,0:0:0:0:
64,192,51244,128,0,51351:0:0:0:0:
448,192,51244,1,0,0:0:0:0:
192,192,51351,128,0,51458:0:0:0:0:
448,192,51458,128,0,51565:0:0:0:0:
64,192,51458,1,0,0:0:0:0:
320,192,51458,1,0,0:0:0:0:
320,192,51565,128,0,51672:0:0:0:0:
192,192,51672,128,0,51780:0:0:0:0:
448,192,51672,1,0,0:0:0:0:
64,192,51780,128,0,51887:0:0:0:0:
320,192,51887,1,0,0:0:0:0:
448,192,51887,1,0,0:0:0:0:
192,192,51940,1,0,0:0:0:0:
64,192,51994,1,0,0:0:0:0:
320,192,52101,1,0,0:0:0:0:
448,192,52101,1,0,0:0:0:0:
192,192,52208,1,0,0:0:0:0:
320,192,52315,1,0,0:0:0:0:
448,192,52315,1,0,0:0:0:0:
64,192,52315,1,0,0:0:0:0:
192,192,52422,1,0,0:0:0:0:
64,192,52530,1,0,0:0:0:0:
320,192,52530,1,0,0:0:0:0:
448,192,52637,1,0,0:0:0:0:
64,192,52744,1,0,0:0:0:0:
192,192,52744,1,0,0:0:0:0:
320,192,52797,1,0,0:0:0:0:
448,192,52851,1,0,0:0:0:0:
192,192,52958,1,0,0:0:0:0:
64,192,52958,1,0,0:0:0:0:
448,192,53065,1,0,0:0:0:0:
192,192,53172,1,0,0:0:0:0:
64,192,53172,1,0,0:0:0:0:
320,192,53172,1,0,0:0:0:0:
448,192,53280,1,0,0:0:0:0:
320,192,53387,1,0,0:0:0:0:
64,192,53494,1,0,0:0:0:0:
320,192,53601,1,0,0:0:0:0:
448,192,53601,1,0,0:0:0:0:
192,192,53655,1,0,0:0:0:0:
64,192,53708,1,0,0:0:0:0:
320,192,53815,1,0,0:0:0:0:
448,192,53815,1,0,0:0:0:0:
64,192,53922,1,0,0:0:0:0:
448,192,54030,1,0,0:0:0:0:
192,192,54030,1,0,0:0:0:0:
320,192,54030,1,0,0:0:0:0:
64,192,54137,1,0,0:0:0:0:
320,192,54244,1,0,0:0:0:0:
192,192,54244,1,0,0:0:0:0:
448,192,54351,1,0,0:0:0:0:
64,192,54458,1,0,0:0:0:0:
192,192,54458,1,0,0:0:0:0:
320,192,54512,1,0,0:0:0:0:
448,192,54565,1,0,0:0:0:0:
192,192,54672,1,0,0:0:0:0:
64,192,54672,1,0,0:0:0:0:
320,192,54780,1,0,0:0:0:0:
448,192,54780,1,0,0:0:0:0:
64,192,54887,1,0,0:0:0:0:
192,192,54887,1,0,0:0:0:0:
448,192,54994,1,0,0:0:0:0:
192,192,55101,1,0,0:0:0:0:
320,192,55208,1,0,0:0:0:0:
64,192,55315,1,0,0:0:0:0:
448,192,55315,1,0,0:0:0:0:
192,192,55315,1,0,0:0:0:0:
320,192,55369,1,0,0:0:0:0:
192,192,55422,1,0,0:0:0:0:
64,192,55476,1,0,0:0:0:0:
320,192,55530,1,0,0:0:0:0:
448,192,55530,1,0,0:0:0:0:
192,192,55637,1,0,0:0:0:0:
448,192,55744,1,0,0:0:0:0:
64,192,55744,1,0,0:0:0:0:
320,192,55744,1,0,0:0:0:0:
192,192,55851,1,0,0:0:0:0:
448,192,55958,1,0,0:0:0:0:
64,192,55958,1,0,0:0:0:0:
192,192,56065,1,0,0:0:0:0:
64,192,56172,1,0,0:0:0:0:
448,192,56172,1,0,0:0:0:0:
320,192,56172,1,0,0:0:0:0:
192,192,56280,1,0,0:0:0:0:
320,192,56387,1,0,0:0:0:0:
448,192,56387,1,0,0:0:0:0:
192,192,56494,1,0,0:0:0:0:
64,192,56601,1,0,0:0:0:0:
320,192,56601,1,0,0:0:0:0:
448,192,56601,1,0,0:0:0:0:
192,192,56708,1,0,0:0:0:0:
320,192,56815,1,0,0:0:0:0:
64,192,56815,1,0,0:0:0:0:
192,192,56922,1,0,0:0:0:0:
448,192,56922,1,0,0:0:0:0:
64,192,57030,1,0,0:0:0:0:
192,192,57083,1,0,0:0:0:0:
448,192,57137,1,0,0:0:0:0:
320,192,57190,1,0,0:0:0:0:
64,192,57244,1,0,0:0:0:0:
192,192,57297,1,0,0:0:0:0:
448,192,57351,1,0,0:0:0:0:
320,192,57405,1,0,0:0:0:0:
64,192,57458,1,0,0:0:0:0:
192,192,57512,1,0,0:0:0:0:
448,192,57565,1,0,0:0:0:0:
320,192,57619,1,0,0:0:0:0:
64,192,57672,1,0,0:0:0:0:
192,192,57726,1,0,0:0:0:0:
448,192,57780,1,0,0:0:0:0:
320,192,57833,1,0,0:0:0:0:
64,192,57887,1,0,0:0:0:0:
192,192,57940,1,0,0:0:0:0:
448,192,57994,1,0,0:0:0:0:
320,192,58047,1,0,0:0:0:0:
64,192,58101,1,0,0:0:0:0:
192,192,58155,1,0,0:0:0:0:
448,192,58208,1,0,0:0:0:0:
320,192,58262,1,0,0:0:0:0:
192,192,58315,1,0,0:0:0:0:
64,192,58369,1,0,0:0:0:0:
448,192,58422,1,0,0:0:0:0:
320,192,58476,1,0,0:0:0:0:
192,192,58530,1,0,0:0:0:0:
64,192,58583,1,0,0:0:0:0:
448,192,58637,1,0,0:0:0:0:
320,192,58690,1,0,0:0:0:0:
64,192,58744,1,0,0:0:0:0:
192,192,58744,1,0,0:0:0:0:
448,192,58744,128,0,58851:0:0:0:0:
448,192,58958,128,0,59065:0:0:0:0:
320,192,58958,1,0,0:0:0:0:
192,192,59065,1,0,0:0:0:0:
448,192,59172,128,0,59280:0:0:0:0:
64,192,59387,128,0,59494:0:0:0:0:
192,192,59387,1,0,0:0:0:0:
320,192,59494,1,0,0:0:0:0:
64,192,59601,128,0,59708:0:0:0:0:
64,192,59815,128,0,59922:0:0:0:0:
192,192,59815,1,0,0:0:0:0:
320,192,59922,1,0,0:0:0:0:
448,192,60030,128,0,60137:0:0:0:0:
320,192,60244,1,0,0:0:0:0:
192,192,60351,1,0,0:0:0:0:
448,192,60458,128,0,60565:0:0:0:0:
448,192,60672,128,0,60780:0:0:0:0:
320,192,60672,1,0,0:0:0:0:
192,192,60780,1,0,0:0:0:0:
448,192,60887,128,0,60994:0:0:0:0:
64,192,61101,128,0,61208:0:0:0:0:
192,192,61101,1,0,0:0:0:0:
320,192,61208,1,0,0:0:0:0:
64,192,61315,128,0,61422:0:0:0:0:
64,192,61530,128,0,61637:0:0:0:0:
192,192,61530,1,0,0:0:0:0:
448,192,61637,128,0,61744:0:0:0:0:
320,192,61637,1,0,0:0:0:0:
320,192,61958,1,0,0:0:0:0:
192,192,62065,1,0,0:0:0:0:
448,192,62172,128,0,62280:0:0:0:0:
448,192,62387,128,0,62494:0:0:0:0:
320,192,62387,1,0,0:0:0:0:
192,192,62494,1,0,0:0:0:0:
448,192,62601,128,0,62708:0:0:0:0:
64,192,62815,128,0,62922:0:0:0:0:
192,192,62815,1,0,0:0:0:0:
320,192,62922,1,0,0:0:0:0:
64,192,63030,128,0,63137:0:0:0:0:
64,192,63244,128,0,63351:0:0:0:0:
192,192,63244,1,0,0:0:0:0:
320,192,63351,1,0,0:0:0:0:
448,192,63458,128,0,63565:0:0:0:0:
320,192,63672,1,0,0:0:0:0:
192,192,63780,1,0,0:0:0:0:
448,192,63887,128,0,63994:0:0:0:0:
448,192,64101,128,0,64208:0:0:0:0:
320,192,64101,1,0,0:0:0:0:
192,192,64208,1,0,0:0:0:0:
448,192,64315,128,0,64422:0:0:0:0:
64,192,64530,128,0,64637:0:0:0:0:
192,192,64530,1,0,0:0:0:0:
320,192,64637,1,0,0:0:0:0:
64,192,64744,128,0,64851:0:0:0:0:
64,192,64958,128,0,65065:0:0:0:0:
192,192,64958,1,0,0:0:0:0:
448,192,65065,128,0,65172:0:0:0:0:
320,192,65065,1,0,0:0:0:0:
64,192,65172,1,0,0:0:0:0:
320,192,65280,1,0,0:0:0:0:
192,192,65387,1,0,0:0:0:0:
320,192,65494,1,0,0:0:0:0:
448,192,65601,128,0,65708:0:0:0:0:
448,192,65815,128,0,65922:0:0:0:0:
320,192,65815,1,0,0:0:0:0:
192,192,65922,1,0,0:0:0:0:
448,192,66030,128,0,66137:0:0:0:0:
64,192,66244,128,0,66351:0:0:0:0:
192,192,66244,1,0,0:0:0:0:
320,192,66351,1,0,0:0:0:0:
64,192,66458,128,0,66565:0:0:0:0:
64,192,66672,128,0,66780:0:0:0:0:
192,192,66672,1,0,0:0:0:0:
320,192,66780,1,0,0:0:0:0:
448,192,66887,128,0,66994:0:0:0:0:
320,192,67101,1,0,0:0:0:0:
192,192,67208,1,0,0:0:0:0:
448,192,67315,128,0,67422:0:0:0:0:
448,192,67530,128,0,67637:0:0:0:0:
320,192,67530,1,0,0:0:0:0:
192,192,67637,1,0,0:0:0:0:
448,192,67744,128,0,67851:0:0:0:0:
64,192,67958,128,0,68065:0:0:0:0:
192,192,67958,1,0,0:0:0:0:
320,192,68065,1,0,0:0:0:0:
64,192,68172,128,0,68280:0:0:0:0:
64,192,68387,128,0,68494:0:0:0:0:
192,192,68387,1,0,0:0:0:0:
448,192,68494,128,0,68601:0:0:0:0:
320,192,68494,1,0,0:0:0:0:
320,192,68815,1,0,0:0:0:0:
192,192,68922,1,0,0:0:0:0:
448,192,69030,128,0,69137:0:0:0:0:
448,192,69244,128,0,69351:0:0:0:0:
320,192,69244,1,0,0:0:0:0:
192,192,69351,1,0,0:0:0:0:
448,192,69458,128,0,69565:0:0:0:0:
64,192,69672,128,0,69780:0:0:0:0:
192,192,69672,1,0,0:0:0:0:
320,192,69780,1,0,0:0:0:0:
64,192,69887,128,0,69994:0:0:0:0:
64,192,70101,128,0,70208:0:0:0:0:
192,192,70101,1,0,0:0:0:0:
320,192,70208,1,0,0:0:0:0:
448,192,70315,128,0,70422:0:0:0:0:
320,192,70530,1,0,0:0:0:0:
192,192,70637,1,0,0:0:0:0:
448,192,70744,128,0,70851:0:0:0:0:
448,192,70958,128,0,71065:0:0:0:0:
320,192,70958,1,0,0:0:0:0:
192,192,71065,1,0,0:0:0:0:
448,192,71172,128,0,71280:0:0:0:0:
64,192,71387,128,0,71494:0:0:0:0:
192,192,71387,1,0,0:0:0:0:
320,192,71494,1,0,0:0:0:0:
64,192,71601,128,0,71708:0:0:0:0:
64,192,71815,128,0,71922:0:0:0:0:
192,192,71815,1,0,0:0:0:0:
448,192,71922,128,0,72030:0:0:0:0:
320,192,71922,1,0,0:0:0:0:
64,192,72030,1,0,0:0:0:0:
320,192,72137,1,0,0:0:0:0:
192,192,72244,1,0,0:0:0:0:
320,192,72351,1,0,0:0:0:0:
192,192,72458,1,0,0:0:0:0:
64,192,72458,1,0,0:0:0:0:
448,192,72458,128,0,72565:0:0:0:0:
448,192,72672,128,0,72780:0:0:0:0:
320,192,72672,1,0,0:0:0:0:
192,192,72780,1,0,0:0:0:0:
448,192,72887,128,0,72994:0:0:0:0:
64,192,73101,128,0,73208:0:0:0:0:
192,192,73101,1,0,0:0:0:0:
320,192,73208,1,0,0:0:0:0:
64,192,73315,128,0,73422:0:0:0:0:
64,192,73530,128,0,73637:0:0:0:0:
192,192,73530,1,0,0:0:0:0:
320,192,73637,1,0,0:0:0:0:
448,192,73744,128,0,73851:0:0:0:0:
320,192,73958,1,0,0:0:0:0:
192,192,74065,1,0,0:0:0:0:
448,192,74172,128,0,74280:0:0:0:0:
320,192,74172,1,0,0:0:0:0:
192,192,74226,1,0,0:0:0:0:
64,192,74280,1,0,0:0:0:0:
448,192,74387,128,0,74494:0:0:0:0:
320,192,74387,1,0,0:0:0:0:
192,192,74494,1,0,0:0:0:0:
448,192,74601,128,0,74708:0:0:0:0:
64,192,74815,128,0,74922:0:0:0:0:
192,192,74815,1,0,0:0:0:0:
320,192,74922,1,0,0:0:0:0:
64,192,75030,128,0,75137:0:0:0:0:
64,192,75244,128,0,75351:0:0:0:0:
192,192,75244,1,0,0:0:0:0:
448,192,75351,128,0,75458:0:0:0:0:
320,192,75351,1,0,0:0:0:0:
320,192,75672,1,0,0:0:0:0:
192,192,75780,1,0,0:0:0:0:
448,192,75887,128,0,75994:0:0:0:0:
320,192,75887,1,0,0:0:0:0:
192,192,75940,1,0,0:0:0:0:
64,192,75994,1,0,0:0:0:0:
448,192,76101,128,0,76208:0:0:0:0:
320,192,76101,1,0,0:0:0:0:
192,192,76208,1,0,0:0:0:0:
448,192,76315,128,0,76422:0:0:0:0:
64,192,76530,128,0,76637:0:0:0:0:
192,192,76530,1,0,0:0:0:0:
320,192,76637,1,0,0:0:0:0:
64,192,76744,128,0,76851:0:0:0:0:
64,192,76958,128,0,77065:0:0:0:0:
192,192,76958,1,0,0:0:0:0:
320,192,77065,1,0,0:0:0:0:
448,192,77172,128,0,77280:0:0:0:0:
320,192,77387,1,0,0:0:0:0:
192,192,77494,1,0,0:0:0:0:
448,192,77601,128,0,77708:0:0:0:0:
320,192,77601,1,0,0:0:0:0:
192,192,77655,1,0,0:0:0:0:
64,192,77708,1,0,0:0:0:0:
448,192,77815,128,0,77922:0:0:0:0:
320,192,77815,1,0,0:0:0:0:
192,192,77922,1,0,0:0:0:0:
448,192,78030,128,0,78137:0:0:0:0:
64,192,78244,128,0,78351:0:0:0:0:
192,192,78244,1,0,0:0:0:0:
320,192,78351,1,0,0:0:0:0:
64,192,78458,128,0,78565:0:0:0:0:
64,192,78672,128,0,78780:0:0:0:0:
192,192,78672,1,0,0:0:0:0:
448,192,78780,128,0,78887:0:0:0:0:
320,192,78780,1,0,0:0:0:0:
64,192,78887,1,0,0:0:0:0:
192,192,78994,1,0,0:0:0:0:
320,192,79101,1,0,0:0:0:0:
192,192,79208,1,0,0:0:0:0:
448,192,79315,128,0,79422:0:0:0:0:
320,192,79315,1,0,0:0:0:0:
192,192,79369,1,0,0:0:0:0:
64,192,79422,1,0,0:0:0:0:
448,192,79530,128,0,79637:0:0:0:0:
320,192,79530,1,0,0:0:0:0:
192,192,79637,1,0,0:0:0:0:
448,192,79744,128,0,79851:0:0:0:0:
64,192,79958,128,0,80065:0:0:0:0:
192,192,79958,1,0,0:0:0:0:
320,192,80065,1,0,0:0:0:0:
64,192,80172,128,0,80280:0:0:0:0:
192,192,80172,1,0,0:0:0:0:
320,192,80226,1,0,0:0:0:0:
448,192,80280,1,0,0:0:0:0:
64,192,80387,128,0,80494:0:0:0:0:
192,192,80387,1,0,0:0:0:0:
320,192,80494,1,0,0:0:0:0:
448,192,80601,128,0,80708:0:0:0:0:
320,192,80815,1,0,0:0:0:0:
192,192,80922,1,0,0:0:0:0:
448,192,81030,128,0,81137:0:0:0:0:
320,192,81030,1,0,0:0:0:0:
192,192,81083,1,0,0:0:0:0:
64,192,81137,1,0,0:0:0:0:
448,192,81244,128,0,81351:0:0:0:0:
320,192,81244,1,0,0:0:0:0:
192,192,81351,1,0,0:0:0:0:
448,192,81458,128,0,81565:0:0:0:0:
64,192,81672,128,0,81780:0:0:0:0:
192,192,81672,1,0,0:0:0:0:
320,192,81780,1,0,0:0:0:0:
64,192,81887,128,0,81994:0:0:0:0:
192,192,81887,1,0,0:0:0:0:
320,192,81940,1,0,0:0:0:0:
448,192,81994,1,0,0:0:0:0:
64,192,82101,128,0,82208:0:0:0:0:
192,192,82101,1,0,0:0:0:0:
448,192,82208,128,0,82315:0:0:0:0:
320,192,82208,1,0,0:0:0:0:
64,192,82315,1,0,0:0:0:0:
192,192,82422,1,0,0:0:0:0:
320,192,82530,1,0,0:0:0:0:
448,192,82530,1,0,0:0:0:0:
192,192,82637,1,0,0:0:0:0:
64,192,82637,1,0,0:0:0:0:
320,192,82744,1,0,0:0:0:0:
448,192,82744,1,0,0:0:0:0:
192,192,82797,1,0,0:0:0:0:
64,192,82851,1,0,0:0:0:0:
320,192,82958,1,0,0:0:0:0:
448,192,82958,1,0,0:0:0:0:
192,192,83065,1,0,0:0:0:0:
64,192,83172,1,0,0:0:0:0:
448,192,83172,1,0,0:0:0:0:
320,192,83172,1,0,0:0:0:0:
192,192,83280,1,0,0:0:0:0:
320,192,83387,1,0,0:0:0:0:
448,192,83387,1,0,0:0:0:0:
192,192,83494,1,0,0:0:0:0:
320,192,83601,1,0,0:0:0:0:
448,192,83601,1,0,0:0:0:0:
64,192,83601,1,0,0:0:0:0:
192,192,83708,1,0,0:0:0:0:
64,192,83815,1,0,0:0:0:0:
320,192,83815,1,0,0:0:0:0:
448,192,83922,1,0,0:0:0:0:
64,192,84030,1,0,0:0:0:0:
192,192,84030,1,0,0:0:0:0:
320,192,84137,1,0,0:0:0:0:
448,192,84137,1,0,0:0:0:0:
192,192,84244,1,0,0:0:0:0:
64,192,84244,1,0,0:0:0:0:
320,192,84351,1,0,0:0:0:0:
448,192,84351,1,0,0:0:0:0:
64,192,84458,1,0,0:0:0:0:
192,192,84512,1,0,0:0:0:0:
448,192,84565,1,0,0:0:0:0:
320,192,84619,1,0,0:0:0:0:
64,192,84672,1,0,0:0:0:0:
192,192,84726,1,0,0:0:0:0:
448,192,84780,1,0,0:0:0:0:
320,192,84833,1,0,0:0:0:0:
64,192,84887,1,0,0:0:0:0:
192,192,84940,1,0,0:0:0:0:
448,192,84994,1,0,0:0:0:0:
320,192,85047,1,0,0:0:0:0:
64,192,85101,1,0,0:0:0:0:
192,192,85155,1,0,0:0:0:0:
448,192,85208,1,0,0:0:0:0:
320,192,85262,1,0,0:0:0:0:
64,192,85315,1,0,0:0:0:0:
192,192,85369,1,0,0:0:0:0:
448,192,85422,1,0,0:0:0:0:
320,192,85476,1,0,0:0:0:0:
64,192,85530,1,0,0:0:0:0:
192,192,85583,1,0,0:0:0:0:
448,192,85637,1,0,0:0:0:0:
320,192,85690,1,0,0:0:0:0:
64,192,85744,128,0,86172:0:0:0:0:
448,192,85744,128,0,85851:0:0:0:0:
192,192,85744,128,0,85851:0:0:0:0:
192,192,86172,1,0,0:0:0:0:
320,192,86172,1,0,0:0:0:0:
448,192,86172,128,0,86280:0:0:0:0:
64,192,86280,1,0,0:0:0:0:
320,192,86387,1,0,0:0:0:0:
448,192,86387,1,0,0:0:0:0:
64,192,86494,1,0,0:0:0:0:
448,192,86601,128,0,86708:0:0:0:0:
192,192,86601,1,0,0:0:0:0:
320,192,86601,1,0,0:0:0:0:
64,192,86708,1,0,0:0:0:0:
320,192,86815,1,0,0:0:0:0:
448,192,86815,1,0,0:0:0:0:
192,192,86922,1,0,0:0:0:0:
448,192,87030,128,0,87137:0:0:0:0:
64,192,87030,1,0,0:0:0:0:
192,192,87137,1,0,0:0:0:0:
320,192,87244,1,0,0:0:0:0:
64,192,87244,1,0,0:0:0:0:
448,192,87351,1,0,0:0:0:0:
64,192,87458,1,0,0:0:0:0:
192,192,87458,1,0,0:0:0:0:
320,192,87458,1,0,0:0:0:0:
448,192,87565,1,0,0:0:0:0:
320,192,87672,1,0,0:0:0:0:
64,192,87672,1,0,0:0:0:0:
192,192,87780,1,0,0:0:0:0:
448,192,87887,128,0,87994:0:0:0:0:
320,192,87887,1,0,0:0:0:0:
192,192,87994,1,0,0:0:0:0:
448,192,88101,1,0,0:0:0:0:
64,192,88101,1,0,0:0:0:0:
320,192,88208,1,0,0:0:0:0:
192,192,88315,128,0,88422:0:0:0:0:
448,192,88315,1,0,0:0:0:0:
64,192,88315,1,0,0:0:0:0:
320,192,88422,1,0,0:0:0:0:
64,192,88530,128,0,89172:0:0:0:0:
448,192,88530,1,0,0:0:0:0:
192,192,88637,1,0,0:0:0:0:
320,192,88744,1,0,0:0:0:0:
448,192,88744,1,0,0:0:0:0:
192,192,88851,1,0,0:0:0:0:
320,192,88958,1,0,0:0:0:0:
448,192,89065,1,0,0:0:0:0:
320,192,89172,1,0,0:0:0:0:
192,192,89172,1,0,0:0:0:0:
448,192,89172,1,0,0:0:0:0:
64,192,89280,1,0,0:0:0:0:
320,192,89387,1,0,0:0:0:0:
192,192,89494,1,0,0:0:0:0:
64,192,89601,128,0,89708:0:0:0:0:
448,192,89601,1,0,0:0:0:0:
192,192,89708,1,0,0:0:0:0:
448,192,89815,1,0,0:0:0:0:
64,192,89815,1,0,0:0:0:0:
320,192,89922,1,0,0:0:0:0:
64,192,90030,128,0,90137:0:0:0:0:
448,192,90030,1,0,0:0:0:0:
192,192,90030,1,0,0:0:0:0:
320,192,90137,1,0,0:0:0:0:
448,192,90244,1,0,0:0:0:0:
64,192,90244,1,0,0:0:0:0:
192,192,90351,1,0,0:0:0:0:
64,192,90458,128,0,90565:0:0:0:0:
320,192,90458,1,0,0:0:0:0:
192,192,90565,1,0,0:0:0:0:
448,192,90672,1,0,0:0:0:0:
320,192,90672,1,0,0:0:0:0:
64,192,90780,1,0,0:0:0:0:
192,192,90887,1,0,0:0:0:0:
320,192,90887,1,0,0:0:0:0:
448,192,90887,1,0,0:0:0:0:
64,192,90994,1,0,0:0:0:0:
448,192,91101,1,0,0:0:0:0:
192,192,91101,1,0,0:0:0:0:
320,192,91208,1,0,0:0:0:0:
64,192,91315,128,0,91422:0:0:0:0:
448,192,91315,1,0,0:0:0:0:
320,192,91422,1,0,0:0:0:0:
64,192,91530,1,0,0:0:0:0:
448,192,91530,1,0,0:0:0:0:
192,192,91637,1,0,0:0:0:0:
320,192,91744,128,0,91851:0:0:0:0:
64,192,91744,1,0,0:0:0:0:
448,192,91744,1,0,0:0:0:0:
192,192,91851,1,0,0:0:0:0:
448,192,91958,128,0,92387:0:0:0:0:
320,192,92065,1,0,0:0:0:0:
64,192,92172,1,0,0:0:0:0:
192,192,92172,1,0,0:0:0:0:
320,192,92280,1,0,0:0:0:0:
64,192,92387,128,0,92494:0:0:0:0:
192,192,92387,1,0,0:0:0:0:
448,192,92494,1,0,0:0:0:0:
192,192,92601,128,0,92708:0:0:0:0:
64,192,92601,1,0,0:0:0:0:
320,192,92601,1,0,0:0:0:0:
448,192,92708,1,0,0:0:0:0:
320,192,92815,128,0,92922:0:0:0:0:
192,192,92815,1,0,0:0:0:0:
64,192,92922,1,0,0:0:0:0:
448,192,93030,128,0,93137:0:0:0:0:
320,192,93030,1,0,0:0:0:0:
192,192,93137,1,0,0:0:0:0:
64,192,93244,1,0,0:0:0:0:
448,192,93244,1,0,0:0:0:0:
192,192,93351,1,0,0:0:0:0:
448,192,93458,128,0,93565:0:0:0:0:
320,192,93458,1,0,0:0:0:0:
64,192,93458,1,0,0:0:0:0:
192,192,93565,1,0,0:0:0:0:
320,192,93672,1,0,0:0:0:0:
448,192,93672,1,0,0:0:0:0:
64,192,93780,1,0,0:0:0:0:
448,192,93887,128,0,93994:0:0:0:0:
320,192,93887,1,0,0:0:0:0:
192,192,93994,1,0,0:0:0:0:
320,192,94101,1,0,0:0:0:0:
64,192,94101,1,0,0:0:0:0:
448,192,94208,1,0,0:0:0:0:
64,192,94315,1,0,0:0:0:0:
192,192,94315,1,0,0:0:0:0:
320,192,94315,1,0,0:0:0:0:
448,192,94422,1,0,0:0:0:0:
192,192,94530,1,0,0:0:0:0:
64,192,94530,1,0,0:0:0:0:
320,192,94637,1,0,0:0:0:0:
448,192,94744,128,0,94851:0:0:0:0:
64,192,94744,1,0,0:0:0:0:
192,192,94851,1,0,0:0:0:0:
320,192,94958,1,0,0:0:0:0:
64,192,94958,1,0,0:0:0:0:
448,192,95065,1,0,0:0:0:0:
192,192,95172,128,0,95280:0:0:0:0:
320,192,95172,1,0,0:0:0:0:
64,192,95172,1,0,0:0:0:0:
448,192,95280,1,0,0:0:0:0:
64,192,95387,128,0,95601:0:0:0:0:
192,192,95387,1,0,0:0:0:0:
320,192,95494,1,0,0:0:0:0:
448,192,95601,1,0,0:0:0:0:
192,192,95601,1,0,0:0:0:0:
320,192,95708,1,0,0:0:0:0:
64,192,95815,128,0,95922:0:0:0:0:
192,192,95815,1,0,0:0:0:0:
448,192,95922,1,0,0:0:0:0:
192,192,96030,128,0,96137:0:0:0:0:
64,192,96030,1,0,0:0:0:0:
320,192,96030,1,0,0:0:0:0:
448,192,96137,1,0,0:0:0:0:
320,192,96244,128,0,96351:0:0:0:0:
64,192,96244,1,0,0:0:0:0:
192,192,96351,1,0,0:0:0:0:
448,192,96458,128,0,96565:0:0:0:0:
320,192,96458,1,0,0:0:0:0:
64,192,96565,1,0,0:0:0:0:
320,192,96672,1,0,0:0:0:0:
448,192,96672,1,0,0:0:0:0:
192,192,96780,128,0,96887:0:0:0:0:
64,192,96887,1,0,0:0:0:0:
320,192,96887,1,0,0:0:0:0:
448,192,96887,1,0,0:0:0:0:
192,192,96994,1,0,0:0:0:0:
320,192,97101,128,0,97744:0:0:0:0:
448,192,97101,1,0,0:0:0:0:
64,192,97208,1,0,0:0:0:0:
192,192,97315,1,0,0:0:0:0:
448,192,97315,1,0,0:0:0:0:
64,192,97422,1,0,0:0:0:0:
448,192,97530,1,0,0:0:0:0:
192,192,97637,1,0,0:0:0:0:
64,192,97744,1,0,0:0:0:0:
192,192,97744,1,0,0:0:0:0:
448,192,97744,1,0,0:0:0:0:
320,192,97851,1,0,0:0:0:0:
64,192,97958,1,0,0:0:0:0:
192,192,97958,1,0,0:0:0:0:
448,192,98065,1,0,0:0:0:0:
320,192,98172,128,0,98280:0:0:0:0:
64,192,98172,1,0,0:0:0:0:
192,192,98280,1,0,0:0:0:0:
448,192,98387,1,0,0:0:0:0:
320,192,98387,1,0,0:0:0:0:
64,192,98494,128,0,98601:0:0:0:0:
320,192,98601,1,0,0:0:0:0:
192,192,98601,1,0,0:0:0:0:
448,192,98601,1,0,0:0:0:0:
64,192,98708,1,0,0:0:0:0:
192,192,98815,128,0,99244:0:0:0:0:
448,192,98815,1,0,0:0:0:0:
320,192,98922,1,0,0:0:0:0:
64,192,99030,1,0,0:0:0:0:
448,192,99030,1,0,0:0:0:0:
320,192,99137,1,0,0:0:0:0:
64,192,99244,1,0,0:0:0:0:
320,192,99351,1,0,0:0:0:0:
448,192,99458,128,0,99780:0:0:0:0:
64,192,99458,128,0,99565:0:0:0:0:
192,192,99565,128,0,99672:0:0:0:0:
320,192,99672,128,0,99780:0:0:0:0:
64,192,99780,1,0,0:0:0:0:
192,192,99887,1,0,0:0:0:0:
320,192,99887,1,0,0:0:0:0:
64,192,99887,128,0,99994:0:0:0:0:
448,192,99994,1,0,0:0:0:0:
320,192,100101,1,0,0:0:0:0:
64,192,100101,1,0,0:0:0:0:
192,192,100208,1,0,0:0:0:0:
64,192,100315,128,0,100422:0:0:0:0:
320,192,100315,1,0,0:0:0:0:
448,192,100315,1,0,0:0:0:0:
192,192,100422,1,0,0:0:0:0:
448,192,100530,1,0,0:0:0:0:
64,192,100530,1,0,0:0:0:0:
320,192,100637,1,0,0:0:0:0:
64,192,100744,128,0,100851:0:0:0:0:
448,192,100744,1,0,0:0:0:0:
192,192,100744,1,0,0:0:0:0:
320,192,100851,1,0,0:0:0:0:
448,192,100958,1,0,0:0:0:0:
64,192,100958,1,0,0:0:0:0:
192,192,101065,1,0,0:0:0:0:
320,192,101172,1,0,0:0:0:0:
448,192,101172,1,0,0:0:0:0:
64,192,101172,1,0,0:0:0:0:
192,192,101280,1,0,0:0:0:0:
64,192,101387,1,0,0:0:0:0:
448,192,101387,1,0,0:0:0:0:
320,192,101494,1,0,0:0:0:0:
64,192,101601,128,0,101708:0:0:0:0:
192,192,101601,1,0,0:0:0:0:
320,192,101655,1,0,0:0:0:0:
448,192,101708,1,0,0:0:0:0:
320,192,101815,1,0,0:0:0:0:
64,192,101815,1,0,0:0:0:0:
192,192,101922,1,0,0:0:0:0:
320,192,102030,128,0,102137:0:0:0:0:
64,192,102030,1,0,0:0:0:0:
448,192,102030,1,0,0:0:0:0:
192,192,102137,1,0,0:0:0:0:
448,192,102244,128,0,102887:0:0:0:0:
320,192,102244,1,0,0:0:0:0:
64,192,102351,1,0,0:0:0:0:
320,192,102458,1,0,0:0:0:0:
192,192,102458,1,0,0:0:0:0:
64,192,102565,1,0,0:0:0:0:
320,192,102672,1,0,0:0:0:0:
192,192,102780,1,0,0:0:0:0:
64,192,102887,1,0,0:0:0:0:
192,192,102887,1,0,0:0:0:0:
320,192,102887,1,0,0:0:0:0:
448,192,102994,1,0,0:0:0:0:
320,192,103101,1,0,0:0:0:0:
192,192,103101,1,0,0:0:0:0:
64,192,103208,1,0,0:0:0:0:
448,192,103315,128,0,103422:0:0:0:0:
320,192,103315,1,0,0:0:0:0:
192,192,103369,1,0,0:0:0:0:
64,192,103422,1,0,0:0:0:0:
320,192,103530,1,0,0:0:0:0:
448,192,103530,1,0,0:0:0:0:
64,192,103637,1,0,0:0:0:0:
448,192,103744,128,0,103851:0:0:0:0:
320,192,103744,1,0,0:0:0:0:
192,192,103744,1,0,0:0:0:0:
64,192,103851,1,0,0:0:0:0:
448,192,103958,1,0,0:0:0:0:
192,192,103958,1,0,0:0:0:0:
64,192,104065,1,0,0:0:0:0:
448,192,104172,128,0,104280:0:0:0:0:
320,192,104172,1,0,0:0:0:0:
192,192,104280,1,0,0:0:0:0:
448,192,104387,1,0,0:0:0:0:
64,192,104387,1,0,0:0:0:0:
320,192,104494,1,0,0:0:0:0:
64,192,104601,1,0,0:0:0:0:
192,192,104601,1,0,0:0:0:0:
448,192,104601,1,0,0:0:0:0:
320,192,104708,1,0,0:0:0:0:
448,192,104815,1,0,0:0:0:0:
64,192,104815,1,0,0:0:0:0:
192,192,104922,1,0,0:0:0:0:
448,192,105030,128,0,105137:0:0:0:0:
320,192,105030,1,0,0:0:0:0:
192,192,105083,1,0,0:0:0:0:
64,192,105137,1,0,0:0:0:0:
192,192,105244,1,0,0:0:0:0:
448,192,105244,1,0,0:0:0:0:
320,192,105351,1,0,0:0:0:0:
192,192,105458,128,0,105565:0:0:0:0:
448,192,105458,1,0,0:0:0:0:
64,192,105458,1,0,0:0:0:0:
320,192,105565,1,0,0:0:0:0:
64,192,105672,128,0,105887:0:0:0:0:
192,192,105672,1,0,0:0:0:0:
448,192,105780,1,0,0:0:0:0:
320,192,105887,1,0,0:0:0:0:
192,192,105887,1,0,0:0:0:0:
448,192,105994,1,0,0:0:0:0:
64,192,106101,128,0,106208:0:0:0:0:
448,192,106208,1,0,0:0:0:0:
192,192,106315,128,0,106422:0:0:0:0:
64,192,106315,1,0,0:0:0:0:
320,192,106315,1,0,0:0:0:0:
448,192,106422,1,0,0:0:0:0:
320,192,106530,128,0,106637:0:0:0:0:
64,192,106530,1,0,0:0:0:0:
192,192,106637,1,0,0:0:0:0:
448,192,106744,128,0,106851:0:0:0:0:
320,192,106744,1,0,0:0:0:0:
192,192,106797,1,0,0:0:0:0:
64,192,106851,1,0,0:0:0:0:
320,192,106958,1,0,0:0:0:0:
64,192,107065,1,0,0:0:0:0:
448,192,107172,128,0,107280:0:0:0:0:
320,192,107172,1,0,0:0:0:0:
192,192,107280,1,0,0:0:0:0:
448,192,107387,1,0,0:0:0:0:
320,192,107494,1,0,0:0:0:0:
448,192,107601,128,0,107708:0:0:0:0:
64,192,107601,1,0,0:0:0:0:
192,192,107708,1,0,0:0:0:0:
320,192,107815,1,0,0:0:0:0:
448,192,107922,1,0,0:0:0:0:
64,192,108030,1,0,0:0:0:0:
192,192,108030,1,0,0:0:0:0:
320,192,108137,1,0,0:0:0:0:
448,192,108244,1,0,0:0:0:0:
192,192,108351,1,0,0:0:0:0:
448,192,108458,128,0,108565:0:0:0:0:
64,192,108458,1,0,0:0:0:0:
192,192,108512,1,0,0:0:0:0:
320,192,108565,1,0,0:0:0:0:
64,192,108672,1,0,0:0:0:0:
448,192,108780,1,0,0:0:0:0:
192,192,108887,128,0,108994:0:0:0:0:
320,192,108887,1,0,0:0:0:0:
448,192,108994,1,0,0:0:0:0:
64,192,109101,128,0,109315:0:0:0:0:
320,192,109208,1,0,0:0:0:0:
192,192,109315,1,0,0:0:0:0:
320,192,109369,1,0,0:0:0:0:
448,192,109422,1,0,0:0:0:0:
64,192,109530,128,0,109637:0:0:0:0:
320,192,109637,1,0,0:0:0:0:
192,192,109744,128,0,109851:0:0:0:0:
64,192,109744,1,0,0:0:0:0:
448,192,109851,1,0,0:0:0:0:
320,192,109958,128,0,110065:0:0:0:0:
192,192,110065,1,0,0:0:0:0:
320,192,110172,1,0,0:0:0:0:
448,192,110172,1,0,0:0:0:0:
64,192,110172,1,0,0:0:0:0:
192,192,110226,1,0,0:0:0:0:
64,192,110280,1,0,0:0:0:0:
320,192,110387,1,0,0:0:0:0:
448,192,110387,1,0,0:0:0:0:
192,192,110494,1,0,0:0:0:0:
64,192,110601,1,0,0:0:0:0:
320,192,110601,1,0,0:0:0:0:
448,192,110601,1,0,0:0:0:0:
192,192,110708,1,0,0:0:0:0:
64,192,110815,1,0,0:0:0:0:
320,192,110815,1,0,0:0:0:0:
192,192,110922,1,0,0:0:0:0:
64,192,111030,1,0,0:0:0:0:
448,192,111030,1,0,0:0:0:0:
320,192,111030,1,0,0:0:0:0:
192,192,111137,1,0,0:0:0:0:
320,192,111244,1,0,0:0:0:0:
448,192,111244,1,0,0:0:0:0:
192,192,111351,1,0,0:0:0:0:
64,192,111458,1,0,0:0:0:0:
320,192,111458,1,0,0:0:0:0:
448,192,111458,1,0,0:0:0:0:
192,192,111565,1,0,0:0:0:0:
64,192,111672,1,0,0:0:0:0:
320,192,111672,1,0,0:0:0:0:
448,192,111780,1,0,0:0:0:0:
192,192,111780,1,0,0:0:0:0:
64,192,111887,1,0,0:0:0:0:
192,192,111940,1,0,0:0:0:0:
448,192,111994,1,0,0:0:0:0:
320,192,112047,1,0,0:0:0:0:
64,192,112101,1,0,0:0:0:0:
192,192,112155,1,0,0:0:0:0:
448,192,112208,1,0,0:0:0:0:
320,192,112262,1,0,0:0:0:0:
64,192,112315,1,0,0:0:0:0:
192,192,112369,1,0,0:0:0:0:
448,192,112422,1,0,0:0:0:0:
320,192,112476,1,0,0:0:0:0:
64,192,112530,1,0,0:0:0:0:
192,192,112583,1,0,0:0:0:0:
448,192,112637,1,0,0:0:0:0:
320,192,112690,1,0,0:0:0:0:
64,192,112744,1,0,0:0:0:0:
192,192,112797,1,0,0:0:0:0:
448,192,112851,1,0,0:0:0:0:
320,192,112905,1,0,0:0:0:0:
64,192,112958,1,0,0:0:0:0:
192,192,113012,1,0,0:0:0:0:
448,192,113065,1,0,0:0:0:0:
320,192,113119,1,0,0:0:0:0:
192,192,113172,1,0,0:0:0:0:
64,192,113226,1,0,0:0:0:0:
448,192,113280,1,0,0:0:0:0:
320,192,113333,1,0,0:0:0:0:
192,192,113387,1,0,0:0:0:0:
64,192,113440,1,0,0:0:0:0:
448,192,113494,1,0,0:0:0:0:
320,192,113547,1,0,0:0:0:0:
192,192,113601,1,0,0:0:0:0:
448,192,113601,1,0,0:0:0:0:
64,192,113601,128,0,113815:0:0:0:0:
448,192,113815,1,0,0:0:0:0:
192,192,113922,1,0,0:0:0:0:
448,192,114244,1,0,0:0:0:0:
192,192,114351,1,0,0:0:0:0:
448,192,114672,1,0,0:0:0:0:
192,192,114780,1,0,0:0:0:0:
448,192,115101,1,0,0:0:0:0:
192,192,115208,1,0,0:0:0:0:
64,192,115315,128,0,115530:0:0:0:0:
448,192,115530,1,0,0:0:0:0:
64,192,115637,1,0,0:0:0:0:
192,192,115744,128,0,115958:0:0:0:0:
320,192,115958,128,0,116172:0:0:0:0:
448,192,115958,1,0,0:0:0:0:
64,192,116065,1,0,0:0:0:0:
448,192,116387,1,0,0:0:0:0:
64,192,116494,1,0,0:0:0:0:
448,192,116815,1,0,0:0:0:0:
192,192,116922,1,0,0:0:0:0:
64,192,117030,128,0,117244:0:0:0:0:
448,192,117244,1,0,0:0:0:0:
192,192,117351,1,0,0:0:0:0:
448,192,117672,1,0,0:0:0:0:
192,192,117780,1,0,0:0:0:0:
448,192,118101,1,0,0:0:0:0:
192,192,118208,1,0,0:0:0:0:
448,192,118530,1,0,0:0:0:0:
192,192,118637,1,0,0:0:0:0:
64,192,118744,128,0,118958:0:0:0:0:
448,192,118958,1,0,0:0:0:0:
64,192,119065,1,0,0:0:0:0:
192,192,119172,128,0,119387:0:0:0:0:
320,192,119387,128,0,119601:0:0:0:0:
448,192,119387,1,0,0:0:0:0:
64,192,119494,1,0,0:0:0:0:
448,192,119815,128,0,120030:0:0:0:0:
192,192,119815,1,0,0:0:0:0:
64,192,119922,1,0,0:0:0:0:
320,192,120030,128,0,120244:0:0:0:0:
64,192,120137,1,0,0:0:0:0:
192,192,120244,128,0,120458:0:0:0:0:
448,192,120351,1,0,0:0:0:0:
64,192,120458,128,0,120672:0:0:0:0:
192,192,120672,1,0,0:0:0:0:
448,192,120780,1,0,0:0:0:0:
192,192,121101,1,0,0:0:0:0:
448,192,121208,1,0,0:0:0:0:
192,192,121530,1,0,0:0:0:0:
448,192,121637,1,0,0:0:0:0:
192,192,121958,1,0,0:0:0:0:
448,192,122065,1,0,0:0:0:0:
64,192,122172,128,0,122387:0:0:0:0:
192,192,122387,1,0,0:0:0:0:
448,192,122494,1,0,0:0:0:0:
192,192,122601,128,0,122815:0:0:0:0:
320,192,122815,128,0,123030:0:0:0:0:
64,192,122815,1,0,0:0:0:0:
448,192,122922,1,0,0:0:0:0:
192,192,123244,128,0,123458:0:0:0:0:
64,192,123244,1,0,0:0:0:0:
448,192,123351,1,0,0:0:0:0:
64,192,123458,128,0,123672:0:0:0:0:
320,192,123672,128,0,123887:0:0:0:0:
192,192,123672,1,0,0:0:0:0:
64,192,123780,1,0,0:0:0:0:
448,192,123887,128,0,124101:0:0:0:0:
320,192,124101,1,0,0:0:0:0:
192,192,124208,128,0,124422:0:0:0:0:
64,192,124208,1,0,0:0:0:0:
64,192,124530,128,0,124744:0:0:0:0:
448,192,124530,1,0,0:0:0:0:
192,192,124637,1,0,0:0:0:0:
448,192,124958,1,0,0:0:0:0:
192,192,125065,1,0,0:0:0:0:
320,192,125172,128,0,125387:0:0:0:0:
448,192,125387,128,0,125601:0:0:0:0:
192,192,125387,1,0,0:0:0:0:
320,192,125494,1,0,0:0:0:0:
64,192,125601,128,0,125815:0:0:0:0:
448,192,125815,1,0,0:0:0:0:
192,192,125922,128,0,126137:0:0:0:0:
64,192,125922,1,0,0:0:0:0:
320,192,126244,128,0,126458:0:0:0:0:
448,192,126244,1,0,0:0:0:0:
64,192,126351,1,0,0:0:0:0:
192,192,126672,128,0,127101:0:0:0:0:
64,192,126780,1,0,0:0:0:0:
320,192,126887,128,0,127101:0:0:0:0:
448,192,127101,128,0,128708:0:0:0:0:
192,192,127315,1,0,0:0:0:0:
320,192,127315,1,0,0:0:0:0:
64,192,127315,128,0,127422:0:0:0:0:
320,192,128601,128,0,128708:0:0:0:0:
448,192,128815,128,0,129780:0:0:0:0:
64,192,129030,128,0,129137:0:0:0:0:
192,192,129458,128,0,129565:0:0:0:0:
320,192,129672,128,0,129780:0:0:0:0:
192,192,130101,128,0,130530:0:0:0:0:
320,192,130315,128,0,130530:0:0:0:0:
448,192,130530,128,0,132137:0:0:0:0:
64,192,130744,128,0,130851:0:0:0:0:
64,192,132030,128,0,132137:0:0:0:0:
64,192,132244,128,0,133208:0:0:0:0:
448,192,132458,128,0,132565:0:0:0:0:
320,192,132887,128,0,132994:0:0:0:0:
192,192,133101,128,0,133208:0:0:0:0:
448,192,133530,128,0,133851:0:0:0:0:
320,192,133530,128,0,133637:0:0:0:0:
320,192,133744,128,0,134065:0:0:0:0:
192,192,133744,128,0,133851:0:0:0:0:
192,192,133958,128,0,134172:0:0:0:0:
64,192,133958,128,0,134065:0:0:0:0:
64,192,134172,128,0,134815:0:0:0:0:
448,192,134172,128,0,134280:0:0:0:0:
192,192,135030,128,0,135672:0:0:0:0:
320,192,135887,128,0,136637:0:0:0:0:
448,192,135887,128,0,135994:0:0:0:0:
192,192,136315,128,0,136422:0:0:0:0:
64,192,136530,128,0,136637:0:0:0:0:
448,192,136744,128,0,137280:0:0:0:0:
192,192,136958,128,0,137065:0:0:0:0:
320,192,137172,128,0,137280:0:0:0:0:
192,192,137387,128,0,137494:0:0:0:0:
64,192,137601,128,0,140922:0:0:0:0:
448,192,137601,128,0,137708:0:0:0:0:
320,192,137922,128,0,138030:0:0:0:0:
192,192,138244,128,0,138351:0:0:0:0:
448,192,139315,128,0,140922:0:0:0:0:
320,192,140387,128,0,140494:0:0:0:0:
192,192,140601,128,0,140708:0:0:0:0:
320,192,140815,128,0,140922:0:0:0:0:
64,192,141030,1,0,0:0:0:0:
192,192,141030,1,0,0:0:0:0:
448,192,141030,1,0,0:0:0:0:
64,192,142315,128,0,142422:0:0:0:0:
448,192,142530,128,0,142637:0:0:0:0:
64,192,143815,128,0,143922:0:0:0:0:
192,192,144030,128,0,144137:0:0:0:0:
320,192,144244,128,0,144351:0:0:0:0:
448,192,145744,128,0,145851:0:0:0:0:
192,192,145958,128,0,146065:0:0:0:0:
448,192,147244,128,0,147351:0:0:0:0:
320,192,147458,128,0,147565:0:0:0:0:
192,192,147672,128,0,147780:0:0:0:0:
64,192,147887,128,0,148101:0:0:0:0:
192,192,148744,128,0,148958:0:0:0:0:
320,192,149601,128,0,149815:0:0:0:0:
64,192,149601,128,0,149815:0:0:0:0:
192,192,150458,128,0,150672:0:0:0:0:
448,192,150458,128,0,150672:0:0:0:0:
192,192,151208,128,0,151262:0:0:0:0:
320,192,151262,128,0,151315:0:0:0:0:
64,192,151315,128,0,151530:0:0:0:0:
448,192,151315,128,0,151530:0:0:0:0:
192,192,152842,128,0,152922:0:0:0:0:
320,192,152922,128,0,153030:0:0:0:0:
64,192,153030,128,0,154637:0:0:0:0:
448,192,153030,128,0,153244:0:0:0:0:
448,192,154101,128,0,154208:0:0:0:0:
320,192,154101,1,0,0:0:0:0:
320,192,154315,128,0,154422:0:0:0:0:
192,192,154315,1,0,0:0:0:0:
192,192,154530,128,0,154637:0:0:0:0:
448,192,154530,1,0,0:0:0:0:
320,192,154744,1,0,0:0:0:0:
64,192,154744,128,0,154851:0:0:0:0:
448,192,154744,1,0,0:0:0:0:
192,192,154958,128,0,155065:0:0:0:0:
320,192,155172,128,0,155387:0:0:0:0:
192,192,155601,128,0,155708:0:0:0:0:
320,192,155815,128,0,155922:0:0:0:0:
448,192,156030,128,0,156244:0:0:0:0:
320,192,156458,128,0,156565:0:0:0:0:
64,192,156458,1,0,0:0:0:0:
192,192,156672,128,0,156780:0:0:0:0:
64,192,156887,128,0,156994:0:0:0:0:
448,192,157101,128,0,157208:0:0:0:0:
64,192,157315,128,0,157583:0:0:0:0:
192,192,157315,1,0,0:0:0:0:
320,192,157583,128,0,157690:0:0:0:0:
192,192,157958,128,0,158065:0:0:0:0:
320,192,158172,128,0,158280:0:0:0:0:
448,192,158172,1,0,0:0:0:0:
64,192,158387,128,0,158494:0:0:0:0:
448,192,158601,128,0,158815:0:0:0:0:
192,192,159030,128,0,159137:0:0:0:0:
320,192,159244,128,0,159351:0:0:0:0:
64,192,159431,128,0,159538:0:0:0:0:
448,192,159672,128,0,159780:0:0:0:0:
448,192,159887,128,0,160181:0:0:0:0:
320,192,160181,128,0,160288:0:0:0:0:
64,192,160530,128,0,160744:0:0:0:0:
192,192,160744,128,0,160851:0:0:0:0:
448,192,161172,128,0,161387:0:0:0:0:
320,192,161172,1,0,0:0:0:0:
192,192,161387,1,0,0:0:0:0:
64,192,161601,128,0,162137:0:0:0:0:
320,192,161601,1,0,0:0:0:0:
192,192,162672,128,0,162780:0:0:0:0:
64,192,162672,128,0,162780:0:0:0:0:
320,192,162887,128,0,162994:0:0:0:0:
192,192,162887,128,0,162994:0:0:0:0:
320,192,163101,128,0,163208:0:0:0:0:
448,192,163101,128,0,163208:0:0:0:0:
192,192,163315,1,0,0:0:0:0:
64,192,163530,128,0,163637:0:0:0:0:
320,192,163530,128,0,163637:0:0:0:0:
192,192,163744,128,0,163851:0:0:0:0:
448,192,163744,128,0,163851:0:0:0:0:
320,192,163958,128,0,164065:0:0:0:0:
64,192,163958,128,0,164065:0:0:0:0:
448,192,164172,1,0,0:0:0:0:
64,192,164387,128,0,164494:0:0:0:0:
320,192,164387,128,0,164494:0:0:0:0:
192,192,164601,128,0,164708:0:0:0:0:
320,192,164601,128,0,164708:0:0:0:0:
192,192,164815,128,0,164922:0:0:0:0:
448,192,164815,128,0,168458:0:0:0:0:
320,192,165030,1,0,0:0:0:0:
64,192,165244,128,0,165458:0:0:0:0:
320,192,165458,128,0,165672:0:0:0:0:
192,192,165672,128,0,165887:0:0:0:0:
64,192,165887,128,0,165994:0:0:0:0:
64,192,166315,128,0,166422:0:0:0:0:
320,192,166530,128,0,166958:0:0:0:0:
192,192,166744,1,0,0:0:0:0:
64,192,166958,128,0,167172:0:0:0:0:
320,192,167172,128,0,167387:0:0:0:0:
192,192,167387,128,0,167601:0:0:0:0:
64,192,167601,128,0,168030:0:0:0:0:
320,192,167601,1,0,0:0:0:0:
192,192,168458,1,0,0:0:0:0:
64,192,168458,128,0,168672:0:0:0:0:
320,192,168565,1,0,0:0:0:0:
192,192,168672,128,0,168887:0:0:0:0:
320,192,168887,128,0,169101:0:0:0:0:
448,192,168887,1,0,0:0:0:0:
192,192,169315,128,0,169530:0:0:0:0:
64,192,169422,1,0,0:0:0:0:
320,192,169530,128,0,169744:0:0:0:0:
448,192,169744,128,0,169958:0:0:0:0:
64,192,169744,1,0,0:0:0:0:
192,192,169958,1,0,0:0:0:0:
320,192,170065,1,0,0:0:0:0:
448,192,170172,128,0,170387:0:0:0:0:
64,192,170280,1,0,0:0:0:0:
320,192,170387,128,0,170601:0:0:0:0:
192,192,170601,128,0,170815:0:0:0:0:
448,192,170601,1,0,0:0:0:0:
64,192,170815,128,0,171030:0:0:0:0:
320,192,171030,128,0,171244:0:0:0:0:
192,192,171137,1,0,0:0:0:0:
192,192,171351,128,0,171458:0:0:0:0:
448,192,171458,1,0,0:0:0:0:
320,192,171458,1,0,0:0:0:0:
192,192,171672,128,0,171887:0:0:0:0:
320,192,171887,128,0,172101:0:0:0:0:
64,192,171994,1,0,0:0:0:0:
448,192,172101,128,0,172315:0:0:0:0:
64,192,172315,128,0,172530:0:0:0:0:
192,192,172315,1,0,0:0:0:0:
320,192,172530,1,0,0:0:0:0:
192,192,172637,1,0,0:0:0:0:
448,192,172744,128,0,172958:0:0:0:0:
320,192,172851,1,0,0:0:0:0:
64,192,172958,128,0,173172:0:0:0:0:
192,192,173172,128,0,173387:0:0:0:0:
448,192,173172,1,0,0:0:0:0:
320,192,173387,128,0,173494:0:0:0:0:
320,192,173601,128,0,173815:0:0:0:0:
64,192,173708,1,0,0:0:0:0:
448,192,173815,1,0,0:0:0:0:
192,192,173922,128,0,174137:0:0:0:0:
320,192,174030,1,0,0:0:0:0:
448,192,174030,1,0,0:0:0:0:
64,192,174244,128,0,174458:0:0:0:0:
320,192,174351,1,0,0:0:0:0:
192,192,174458,128,0,174672:0:0:0:0:
448,192,174565,1,0,0:0:0:0:
64,192,174672,1,0,0:0:0:0:
320,192,174780,1,0,0:0:0:0:
448,192,174887,128,0,175101:0:0:0:0:
64,192,174887,1,0,0:0:0:0:
192,192,174994,1,0,0:0:0:0:
320,192,175101,1,0,0:0:0:0:
192,192,175208,1,0,0:0:0:0:
64,192,175315,128,0,175530:0:0:0:0:
448,192,175422,1,0,0:0:0:0:
320,192,175530,1,0,0:0:0:0:
192,192,175637,1,0,0:0:0:0:
448,192,175744,1,0,0:0:0:0:
64,192,175744,1,0,0:0:0:0:
320,192,175851,1,0,0:0:0:0:
64,192,175958,1,0,0:0:0:0:
192,192,176065,1,0,0:0:0:0:
320,192,176172,1,0,0:0:0:0:
448,192,176280,1,0,0:0:0:0:
64,192,176387,128,0,176494:0:0:0:0:
192,192,176387,128,0,176494:0:0:0:0:
448,192,176494,1,0,0:0:0:0:
192,192,176601,128,0,176708:0:0:0:0:
320,192,176601,128,0,176708:0:0:0:0:
64,192,176708,1,0,0:0:0:0:
448,192,176815,128,0,176922:0:0:0:0:
320,192,176815,128,0,176922:0:0:0:0:
192,192,176922,1,0,0:0:0:0:
64,192,177030,1,0,0:0:0:0:
448,192,177137,1,0,0:0:0:0:
64,192,177244,128,0,177351:0:0:0:0:
320,192,177244,128,0,177351:0:0:0:0:
448,192,177351,1,0,0:0:0:0:
192,192,177458,128,0,177565:0:0:0:0:
320,192,177458,128,0,177565:0:0:0:0:
64,192,177565,1,0,0:0:0:0:
448,192,177672,128,0,177780:0:0:0:0:
192,192,177672,128,0,177780:0:0:0:0:
320,192,177780,1,0,0:0:0:0:
192,192,177887,1,0,0:0:0:0:
448,192,177994,1,0,0:0:0:0:
64,192,178101,128,0,178208:0:0:0:0:
192,192,178101,128,0,178208:0:0:0:0:
448,192,178208,1,0,0:0:0:0:
64,192,178315,128,0,178422:0:0:0:0:
320,192,178315,128,0,178422:0:0:0:0:
192,192,178422,1,0,0:0:0:0:
320,192,178530,128,0,178637:0:0:0:0:
448,192,178530,128,0,178958:0:0:0:0:
64,192,178637,1,0,0:0:0:0:
192,192,178744,1,0,0:0:0:0:
320,192,178851,1,0,0:0:0:0:
64,192,178958,128,0,179172:0:0:0:0:
320,192,179065,1,0,0:0:0:0:
192,192,179172,128,0,179387:0:0:0:0:
448,192,179172,1,0,0:0:0:0:
64,192,179280,1,0,0:0:0:0:
320,192,179387,128,0,179601:0:0:0:0:
64,192,179494,1,0,0:0:0:0:
448,192,179601,128,0,179815:0:0:0:0:
192,192,179708,1,0,0:0:0:0:
64,192,179815,1,0,0:0:0:0:
320,192,179922,1,0,0:0:0:0:
192,192,180030,128,0,180244:0:0:0:0:
64,192,180030,1,0,0:0:0:0:
320,192,180137,1,0,0:0:0:0:
448,192,180244,128,0,180672:0:0:0:0:
64,192,180351,1,0,0:0:0:0:
320,192,180458,1,0,0:0:0:0:
192,192,180565,1,0,0:0:0:0:
64,192,180672,128,0,180887:0:0:0:0:
320,192,180780,1,0,0:0:0:0:
192,192,180887,128,0,181101:0:0:0:0:
448,192,180887,1,0,0:0:0:0:
64,192,180994,1,0,0:0:0:0:
320,192,181101,128,0,181315:0:0:0:0:
64,192,181208,1,0,0:0:0:0:
448,192,181315,128,0,181530:0:0:0:0:
192,192,181422,1,0,0:0:0:0:
320,192,181530,1,0,0:0:0:0:
192,192,181637,1,0,0:0:0:0:
64,192,181744,128,0,181958:0:0:0:0:
448,192,181744,1,0,0:0:0:0:
320,192,181851,1,0,0:0:0:0:
192,192,181958,1,0,0:0:0:0:
320,192,182065,1,0,0:0:0:0:
448,192,182172,128,0,185601:0:0:0:0:
64,192,182172,1,0,0:0:0:0:
192,192,182172,1,0,0:0:0:0:
320,192,182280,1,0,0:0:0:0:
192,192,182387,1,0,0:0:0:0:
64,192,182494,1,0,0:0:0:0:
192,192,182601,1,0,0:0:0:0:
320,192,182601,1,0,0:0:0:0:
64,192,182708,1,0,0:0:0:0:
192,192,182815,1,0,0:0:0:0:
320,192,182922,1,0,0:0:0:0:
64,192,183030,1,0,0:0:0:0:
192,192,183030,1,0,0:0:0:0:
320,192,183137,1,0,0:0:0:0:
192,192,183244,1,0,0:0:0:0:
64,192,183351,1,0,0:0:0:0:
192,192,183458,1,0,0:0:0:0:
320,192,183458,1,0,0:0:0:0:
64,192,183565,1,0,0:0:0:0:
320,192,183672,1,0,0:0:0:0:
64,192,183780,1,0,0:0:0:0:
192,192,183887,1,0,0:0:0:0:
320,192,183887,1,0,0:0:0:0:
64,192,183994,1,0,0:0:0:0:
192,192,184101,1,0,0:0:0:0:
320,192,184208,1,0,0:0:0:0:
192,192,184315,1,0,0:0:0:0:
64,192,184315,1,0,0:0:0:0:
320,192,184422,1,0,0:0:0:0:
192,192,184530,1,0,0:0:0:0:
64,192,184637,1,0,0:0:0:0:
192,192,184744,1,0,0:0:0:0:
320,192,184744,1,0,0:0:0:0:
64,192,184851,1,0,0:0:0:0:
192,192,184958,1,0,0:0:0:0:
320,192,185065,1,0,0:0:0:0:
64,192,185172,1,0,0:0:0:0:
192,192,185172,1,0,0:0:0:0:
320,192,185280,1,0,0:0:0:0:
64,192,185387,1,0,0:0:0:0:
320,192,185494,1,0,0:0:0:0:
64,192,185601,1,0,0:0:0:0:
192,192,185601,1,0,0:0:0:0:
448,192,185708,1,0,0:0:0:0:
320,192,185815,1,0,0:0:0:0:
192,192,185922,1,0,0:0:0:0:
448,192,186030,1,0,0:0:0:0:
320,192,186030,1,0,0:0:0:0:
64,192,186137,1,0,0:0:0:0:
192,192,186244,1,0,0:0:0:0:
320,192,186351,1,0,0:0:0:0:
64,192,186458,1,0,0:0:0:0:
192,192,186458,1,0,0:0:0:0:
448,192,186565,1,0,0:0:0:0:
320,192,186672,1,0,0:0:0:0:
192,192,186780,1,0,0:0:0:0:
320,192,186887,1,0,0:0:0:0:
448,192,186887,1,0,0:0:0:0:
64,192,186994,1,0,0:0:0:0:
448,192,187101,1,0,0:0:0:0:
64,192,187208,1,0,0:0:0:0:
320,192,187315,1,0,0:0:0:0:
448,192,187315,1,0,0:0:0:0:
192,192,187422,1,0,0:0:0:0:
320,192,187530,1,0,0:0:0:0:
448,192,187637,1,0,0:0:0:0:
64,192,187744,1,0,0:0:0:0:
192,192,187744,1,0,0:0:0:0:
320,192,187851,1,0,0:0:0:0:
192,192,187958,1,0,0:0:0:0:
64,192,188065,1,0,0:0:0:0:
448,192,188172,1,0,0:0:0:0:
320,192,188172,1,0,0:0:0:0:
192,192,188280,1,0,0:0:0:0:
320,192,188387,1,0,0:0:0:0:
448,192,188494,1,0,0:0:0:0:
64,192,188601,1,0,0:0:0:0:
192,192,188601,1,0,0:0:0:0:
320,192,188708,1,0,0:0:0:0:
192,192,188815,1,0,0:0:0:0:
320,192,188922,1,0,0:0:0:0:
64,192,189030,1,0,0:0:0:0:
448,192,189030,1,0,0:0:0:0:
192,192,189137,1,0,0:0:0:0:
320,192,189244,1,0,0:0:0:0:
448,192,189351,1,0,0:0:0:0:
320,192,189458,1,0,0:0:0:0:
192,192,189458,1,0,0:0:0:0:
64,192,189565,1,0,0:0:0:0:
192,192,189672,1,0,0:0:0:0:
320,192,189780,1,0,0:0:0:0:
448,192,189887,1,0,0:0:0:0:
64,192,189887,1,0,0:0:0:0:
192,192,189994,1,0,0:0:0:0:
320,192,190101,1,0,0:0:0:0:
448,192,190208,1,0,0:0:0:0:
320,192,190315,1,0,0:0:0:0:
192,192,190315,1,0,0:0:0:0:
64,192,190422,1,0,0:0:0:0:
320,192,190530,1,0,0:0:0:0:
192,192,190637,1,0,0:0:0:0:
64,192,190744,1,0,0:0:0:0:
448,192,190744,1,0,0:0:0:0:
320,192,190851,1,0,0:0:0:0:
192,192,190958,1,0,0:0:0:0:
64,192,191065,1,0,0:0:0:0:
192,192,191172,1,0,0:0:0:0:
320,192,191172,1,0,0:0:0:0:
448,192,191280,1,0,0:0:0:0:
320,192,191387,1,0,0:0:0:0:
192,192,191494,1,0,0:0:0:0:
64,192,191601,1,0,0:0:0:0:
448,192,191601,1,0,0:0:0:0:
320,192,191708,1,0,0:0:0:0:
192,192,191815,1,0,0:0:0:0:
64,192,191922,1,0,0:0:0:0:
192,192,192030,1,0,0:0:0:0:
320,192,192030,1,0,0:0:0:0:
448,192,192137,1,0,0:0:0:0:
192,192,192244,1,0,0:0:0:0:
320,192,192351,1,0,0:0:0:0:
64,192,192458,1,0,0:0:0:0:
192,192,192458,1,0,0:0:0:0:
448,192,192565,1,0,0:0:0:0:
192,192,192672,1,0,0:0:0:0:
320,192,192780,1,0,0:0:0:0:
64,192,192887,1,0,0:0:0:0:
448,192,192887,1,0,0:0:0:0:
192,192,192994,1,0,0:0:0:0:
320,192,193101,1,0,0:0:0:0:
64,192,193208,1,0,0:0:0:0:
320,192,193315,1,0,0:0:0:0:
448,192,193315,1,0,0:0:0:0:
64,192,193422,1,0,0:0:0:0:
320,192,193530,1,0,0:0:0:0:
192,192,193637,1,0,0:0:0:0:
64,192,193744,1,0,0:0:0:0:
448,192,193744,1,0,0:0:0:0:
320,192,193851,1,0,0:0:0:0:
192,192,193958,1,0,0:0:0:0:
448,192,194065,1,0,0:0:0:0:
192,192,194172,1,0,0:0:0:0:
64,192,194172,1,0,0:0:0:0:
448,192,194280,1,0,0:0:0:0:
192,192,194387,1,0,0:0:0:0:
320,192,194494,1,0,0:0:0:0:
448,192,194601,1,0,0:0:0:0:
64,192,194601,1,0,0:0:0:0:
192,192,194708,1,0,0:0:0:0:
320,192,194815,1,0,0:0:0:0:
64,192,194922,1,0,0:0:0:0:
320,192,195030,1,0,0:0:0:0:
448,192,195030,1,0,0:0:0:0:
64,192,195137,1,0,0:0:0:0:
320,192,195244,1,0,0:0:0:0:
192,192,195351,1,0,0:0:0:0:
64,192,195458,1,0,0:0:0:0:
448,192,195458,1,0,0:0:0:0:
320,192,195565,1,0,0:0:0:0:
192,192,195672,1,0,0:0:0:0:
64,192,195780,1,0,0:0:0:0:
192,192,195887,1,0,0:0:0:0:
320,192,195887,1,0,0:0:0:0:
448,192,195887,1,0,0:0:0:0:
64,192,195994,1,0,0:0:0:0:
192,192,196101,1,0,0:0:0:0:
320,192,196208,1,0,0:0:0:0:
64,192,196315,128,0,196422:0:0:0:0:
192,192,196422,128,0,196530:0:0:0:0:
320,192,196530,128,0,196637:0:0:0:0:
448,192,196637,128,0,196744:0:0:0:0:
192,192,196744,128,0,196851:0:0:0:0:
64,192,196851,128,0,196958:0:0:0:0:
320,192,196958,128,0,197065:0:0:0:0:
448,192,197065,128,0,197172:0:0:0:0:
192,192,197172,128,0,197280:0:0:0:0:
320,192,197280,128,0,197387:0:0:0:0:
64,192,197387,128,0,197494:0:0:0:0:
448,192,197494,128,0,197601:0:0:0:0:
320,192,197601,128,0,197708:0:0:0:0:
192,192,197708,128,0,197815:0:0:0:0:
64,192,197815,128,0,197922:0:0:0:0:
448,192,197922,128,0,198030:0:0:0:0:
320,192,198030,128,0,198137:0:0:0:0:
192,192,198137,128,0,198244:0:0:0:0:
448,192,198244,128,0,198351:0:0:0:0:
64,192,198351,128,0,198458:0:0:0:0:
320,192,198458,128,0,198565:0:0:0:0:
192,192,198565,128,0,198672:0:0:0:0:
448,192,198672,128,0,198780:0:0:0:0:
64,192,198780,128,0,198887:0:0:0:0:
320,192,198887,128,0,198994:0:0:0:0:
448,192,198994,128,0,199101:0:0:0:0:
192,192,199101,128,0,199208:0:0:0:0:
64,192,199208,128,0,199315:0:0:0:0:
320,192,199315,128,0,199422:0:0:0:0:
448,192,199422,128,0,199530:0:0:0:0:
192,192,199530,128,0,199637:0:0:0:0:
320,192,199637,128,0,199744:0:0:0:0:
64,192,199744,128,0,199851:0:0:0:0:
192,192,199851,128,0,199958:0:0:0:0:
320,192,199958,128,0,200065:0:0:0:0:
448,192,200065,128,0,200172:0:0:0:0:
64,192,200172,128,0,200280:0:0:0:0:
192,192,200280,128,0,200387:0:0:0:0:
64,192,200387,128,0,200494:0:0:0:0:
320,192,200494,128,0,200601:0:0:0:0:
192,192,200601,128,0,200708:0:0:0:0:
448,192,200708,128,0,200815:0:0:0:0:
320,192,200815,128,0,200922:0:0:0:0:
192,192,200922,128,0,201030:0:0:0:0:
64,192,201030,128,0,201137:0:0:0:0:
448,192,201137,128,0,201244:0:0:0:0:
320,192,201244,128,0,201351:0:0:0:0:
64,192,201351,128,0,201458:0:0:0:0:
192,192,201458,128,0,201565:0:0:0:0:
448,192,201565,128,0,201672:0:0:0:0:
320,192,201672,128,0,201780:0:0:0:0:
448,192,201780,128,0,201887:0:0:0:0:
64,192,201887,128,0,201994:0:0:0:0:
192,192,201994,128,0,202101:0:0:0:0:
64,192,202101,128,0,202208:0:0:0:0:
320,192,202208,128,0,202315:0:0:0:0:
192,192,202315,128,0,202422:0:0:0:0:
448,192,202422,128,0,202530:0:0:0:0:
64,192,202530,128,0,202637:0:0:0:0:
192,192,202637,128,0,202744:0:0:0:0:
320,192,202744,128,0,202851:0:0:0:0:
64,192,202851,128,0,202958:0:0:0:0:
448,192,202958,128,0,203065:0:0:0:0:
192,192,203065,128,0,203172:0:0:0:0:
448,192,203172,128,0,203280:0:0:0:0:
320,192,203280,128,0,203387:0:0:0:0:
64,192,203387,128,0,203494:0:0:0:0:
192,192,203494,128,0,203601:0:0:0:0:
448,192,203601,128,0,203708:0:0:0:0:
320,192,203708,128,0,203815:0:0:0:0:
192,192,203815,128,0,203922:0:0:0:0:
64,192,203922,128,0,204030:0:0:0:0:
192,192,204030,128,0,204137:0:0:0:0:
320,192,204137,128,0,204244:0:0:0:0:
448,192,204244,128,0,204351:0:0:0:0:
192,192,204351,128,0,204458:0:0:0:0:
320,192,204458,128,0,204672:0:0:0:0:
64,192,204565,128,0,204672:0:0:0:0:
448,192,204672,128,0,204887:0:0:0:0:
192,192,204780,128,0,204887:0:0:0:0:
64,192,204887,128,0,205101:0:0:0:0:
320,192,204994,128,0,205101:0:0:0:0:
192,192,205101,128,0,205315:0:0:0:0:
448,192,205208,128,0,205315:0:0:0:0:
320,192,205315,128,0,205530:0:0:0:0:
192,192,205422,128,0,205530:0:0:0:0:
64,192,205530,128,0,205744:0:0:0:0:
448,192,205637,128,0,205744:0:0:0:0:
320,192,205744,128,0,205958:0:0:0:0:
448,192,205851,128,0,205958:0:0:0:0:
192,192,205958,128,0,206172:0:0:0:0:
64,192,206065,128,0,206172:0:0:0:0:
320,192,206172,128,0,206387:0:0:0:0:
192,192,206280,128,0,206387:0:0:0:0:
448,192,206387,128,0,206601:0:0:0:0:
320,192,206494,128,0,206601:0:0:0:0:
192,192,206601,128,0,206815:0:0:0:0:
448,192,206708,128,0,206815:0:0:0:0:
320,192,206815,128,0,207030:0:0:0:0:
64,192,206922,128,0,207030:0:0:0:0:
192,192,207030,128,0,207244:0:0:0:0:
320,192,207137,128,0,207244:0:0:0:0:
448,192,207244,128,0,207458:0:0:0:0:
64,192,207351,128,0,207458:0:0:0:0:
192,192,207458,128,0,207672:0:0:0:0:
448,192,207565,128,0,207672:0:0:0:0:
320,192,207672,128,0,207887:0:0:0:0:
64,192,207780,128,0,207887:0:0:0:0:
192,192,207887,128,0,208101:0:0:0:0:
320,192,207994,128,0,208101:0:0:0:0:
64,192,208101,128,0,208315:0:0:0:0:
192,192,208208,128,0,208315:0:0:0:0:
448,192,208315,128,0,208530:0:0:0:0:
320,192,208422,128,0,208530:0:0:0:0:
192,192,208530,128,0,208744:0:0:0:0:
320,192,208637,128,0,208744:0:0:0:0:
448,192,208744,128,0,208958:0:0:0:0:
64,192,208851,128,0,208958:0:0:0:0:
192,192,208958,128,0,209172:0:0:0:0:
320,192,209065,128,0,209172:0:0:0:0:
448,192,209172,128,0,209387:0:0:0:0:
320,192,209280,128,0,209387:0:0:0:0:
64,192,209387,128,0,209494:0:0:0:0:
192,192,209494,1,0,0:0:0:0:
448,192,209601,1,0,0:0:0:0:
64,192,209601,1,0,0:0:0:0:
192,192,209655,1,0,0:0:0:0:
320,192,209708,1,0,0:0:0:0:
64,192,209815,1,0,0:0:0:0:
192,192,209815,1,0,0:0:0:0:
320,192,209922,1,0,0:0:0:0:
448,192,209922,1,0,0:0:0:0:
64,192,210030,1,0,0:0:0:0:
192,192,210030,1,0,0:0:0:0:
320,192,210137,1,0,0:0:0:0:
448,192,210137,1,0,0:0:0:0:
192,192,210244,1,0,0:0:0:0:
64,192,210244,1,0,0:0:0:0:
320,192,210351,1,0,0:0:0:0:
64,192,210458,1,0,0:0:0:0:
192,192,210458,1,0,0:0:0:0:
448,192,210458,1,0,0:0:0:0:
320,192,210565,1,0,0:0:0:0:
192,192,210672,1,0,0:0:0:0:
448,192,210672,1,0,0:0:0:0:
320,192,210780,1,0,0:0:0:0:
64,192,210780,1,0,0:0:0:0:
192,192,210887,1,0,0:0:0:0:
448,192,210887,1,0,0:0:0:0:
320,192,210994,1,0,0:0:0:0:
64,192,210994,1,0,0:0:0:0:
192,192,211101,1,0,0:0:0:0:
448,192,211101,1,0,0:0:0:0:
64,192,211208,1,0,0:0:0:0:
448,192,211315,1,0,0:0:0:0:
320,192,211315,1,0,0:0:0:0:
192,192,211369,1,0,0:0:0:0:
64,192,211422,1,0,0:0:0:0:
320,192,211530,1,0,0:0:0:0:
448,192,211530,1,0,0:0:0:0:
192,192,211637,1,0,0:0:0:0:
64,192,211637,1,0,0:0:0:0:
320,192,211744,1,0,0:0:0:0:
448,192,211744,1,0,0:0:0:0:
192,192,211851,1,0,0:0:0:0:
64,192,211851,1,0,0:0:0:0:
448,192,211958,1,0,0:0:0:0:
320,192,211958,1,0,0:0:0:0:
192,192,212065,1,0,0:0:0:0:
320,192,212172,1,0,0:0:0:0:
64,192,212172,1,0,0:0:0:0:
448,192,212172,1,0,0:0:0:0:
192,192,212280,1,0,0:0:0:0:
320,192,212387,1,0,0:0:0:0:
64,192,212387,1,0,0:0:0:0:
192,192,212494,1,0,0:0:0:0:
448,192,212494,1,0,0:0:0:0:
320,192,212601,1,0,0:0:0:0:
64,192,212601,1,0,0:0:0:0:
192,192,212708,1,0,0:0:0:0:
448,192,212708,1,0,0:0:0:0:
320,192,212815,1,0,0:0:0:0:
64,192,212815,1,0,0:0:0:0:
448,192,212922,1,0,0:0:0:0:
192,192,213030,1,0,0:0:0:0:
64,192,213030,1,0,0:0:0:0:
320,192,213083,1,0,0:0:0:0:
448,192,213137,1,0,0:0:0:0:
192,192,213244,1,0,0:0:0:0:
64,192,213244,1,0,0:0:0:0:
448,192,213351,1,0,0:0:0:0:
320,192,213351,1,0,0:0:0:0:
192,192,213458,1,0,0:0:0:0:
64,192,213458,1,0,0:0:0:0:
320,192,213565,1,0,0:0:0:0:
448,192,213565,1,0,0:0:0:0:
192,192,213672,1,0,0:0:0:0:
64,192,213672,1,0,0:0:0:0:
320,192,213780,1,0,0:0:0:0:
192,192,213887,1,0,0:0:0:0:
64,192,213887,1,0,0:0:0:0:
448,192,213887,1,0,0:0:0:0:
320,192,213994,1,0,0:0:0:0:
192,192,214101,1,0,0:0:0:0:
448,192,214101,1,0,0:0:0:0:
320,192,214208,1,0,0:0:0:0:
64,192,214208,1,0,0:0:0:0:
192,192,214315,1,0,0:0:0:0:
448,192,214315,1,0,0:0:0:0:
320,192,214422,1,0,0:0:0:0:
64,192,214422,1,0,0:0:0:0:
192,192,214530,1,0,0:0:0:0:
448,192,214530,1,0,0:0:0:0:
64,192,214637,1,0,0:0:0:0:
320,192,214744,1,0,0:0:0:0:
448,192,214744,1,0,0:0:0:0:
192,192,214797,1,0,0:0:0:0:
64,192,214851,1,0,0:0:0:0:
320,192,214958,1,0,0:0:0:0:
448,192,214958,1,0,0:0:0:0:
192,192,215065,1,0,0:0:0:0:
64,192,215065,1,0,0:0:0:0:
320,192,215172,1,0,0:0:0:0:
448,192,215172,1,0,0:0:0:0:
192,192,215280,1,0,0:0:0:0:
64,192,215280,1,0,0:0:0:0:
320,192,215387,1,0,0:0:0:0:
448,192,215387,1,0,0:0:0:0:
192,192,215494,1,0,0:0:0:0:
320,192,215601,1,0,0:0:0:0:
448,192,215601,1,0,0:0:0:0:
64,192,215601,1,0,0:0:0:0:
192,192,215708,1,0,0:0:0:0:
64,192,215815,1,0,0:0:0:0:
320,192,215815,1,0,0:0:0:0:
192,192,215922,1,0,0:0:0:0:
448,192,215922,1,0,0:0:0:0:
320,192,216030,1,0,0:0:0:0:
64,192,216030,1,0,0:0:0:0:
192,192,216137,1,0,0:0:0:0:
448,192,216137,1,0,0:0:0:0:
320,192,216244,1,0,0:0:0:0:
64,192,216244,1,0,0:0:0:0:
192,192,216351,1,0,0:0:0:0:
320,192,216458,1,0,0:0:0:0:
448,192,216458,1,0,0:0:0:0:
64,192,216458,1,0,0:0:0:0:
192,192,216512,1,0,0:0:0:0:
320,192,216565,1,0,0:0:0:0:
448,192,216565,1,0,0:0:0:0:
192,192,216672,1,0,0:0:0:0:
64,192,216672,1,0,0:0:0:0:
320,192,216780,1,0,0:0:0:0:
448,192,216780,1,0,0:0:0:0:
192,192,216887,1,0,0:0:0:0:
448,192,216887,1,0,0:0:0:0:
64,192,216887,1,0,0:0:0:0:
320,192,216940,1,0,0:0:0:0:
192,192,216994,1,0,0:0:0:0:
64,192,216994,1,0,0:0:0:0:
320,192,217101,1,0,0:0:0:0:
448,192,217101,1,0,0:0:0:0:
192,192,217208,1,0,0:0:0:0:
64,192,217208,1,0,0:0:0:0:
64,192,217315,1,0,0:0:0:0:
320,192,217315,1,0,0:0:0:0:
448,192,217315,1,0,0:0:0:0:
192,192,217369,1,0,0:0:0:0:
320,192,217422,1,0,0:0:0:0:
448,192,217422,1,0,0:0:0:0:
64,192,217530,1,0,0:0:0:0:
192,192,217530,1,0,0:0:0:0:
320,192,217637,1,0,0:0:0:0:
448,192,217637,1,0,0:0:0:0:
64,192,217744,1,0,0:0:0:0:
192,192,217744,1,0,0:0:0:0:
448,192,217744,1,0,0:0:0:0:
320,192,217797,1,0,0:0:0:0:
192,192,217851,1,0,0:0:0:0:
64,192,217851,1,0,0:0:0:0:
448,192,217958,1,0,0:0:0:0:
320,192,217958,1,0,0:0:0:0:
64,192,218065,1,0,0:0:0:0:
192,192,218065,1,0,0:0:0:0:
448,192,218172,1,0,0:0:0:0:
320,192,218172,1,0,0:0:0:0:
64,192,218172,1,0,0:0:0:0:
192,192,218226,1,0,0:0:0:0:
320,192,218280,1,0,0:0:0:0:
448,192,218280,1,0,0:0:0:0:
64,192,218387,1,0,0:0:0:0:
192,192,218387,1,0,0:0:0:0:
320,192,218494,1,0,0:0:0:0:
448,192,218494,1,0,0:0:0:0:
64,192,218601,1,0,0:0:0:0:
192,192,218601,1,0,0:0:0:0:
448,192,218601,1,0,0:0:0:0:
320,192,218655,1,0,0:0:0:0:
192,192,218708,1,0,0:0:0:0:
64,192,218708,1,0,0:0:0:0:
320,192,218815,1,0,0:0:0:0:
448,192,218815,1,0,0:0:0:0:
192,192,218922,1,0,0:0:0:0:
64,192,218922,1,0,0:0:0:0:
448,192,219030,1,0,0:0:0:0:
64,192,219030,1,0,0:0:0:0:
320,192,219030,1,0,0:0:0:0:
192,192,219083,1,0,0:0:0:0:
320,192,219137,1,0,0:0:0:0:
448,192,219137,1,0,0:0:0:0:
192,192,219244,1,0,0:0:0:0:
64,192,219244,1,0,0:0:0:0:
320,192,219351,1,0,0:0:0:0:
448,192,219351,1,0,0:0:0:0:
192,192,219458,1,0,0:0:0:0:
64,192,219458,1,0,0:0:0:0:
448,192,219458,1,0,0:0:0:0:
320,192,219512,1,0,0:0:0:0:
192,192,219565,1,0,0:0:0:0:
64,192,219565,1,0,0:0:0:0:
320,192,219672,1,0,0:0:0:0:
448,192,219672,1,0,0:0:0:0:
192,192,219780,1,0,0:0:0:0:
64,192,219780,1,0,0:0:0:0:
448,192,219887,1,0,0:0:0:0:
320,192,219887,1,0,0:0:0:0:
192,192,219940,1,0,0:0:0:0:
64,192,219994,1,0,0:0:0:0:
320,192,219994,1,0,0:0:0:0:
448,192,220047,1,0,0:0:0:0:
64,192,220101,1,0,0:0:0:0:
192,192,220101,1,0,0:0:0:0:
448,192,220155,1,0,0:0:0:0:
320,192,220208,1,0,0:0:0:0:
64,192,220208,1,0,0:0:0:0:
192,192,220262,1,0,0:0:0:0:
320,192,220315,1,0,0:0:0:0:
448,192,220315,1,0,0:0:0:0:
192,192,220369,1,0,0:0:0:0:
64,192,220422,1,0,0:0:0:0:
448,192,220422,1,0,0:0:0:0:
320,192,220476,1,0,0:0:0:0:
64,192,220530,1,0,0:0:0:0:
192,192,220530,1,0,0:0:0:0:
320,192,220583,1,0,0:0:0:0:
448,192,220637,1,0,0:0:0:0:
64,192,220637,1,0,0:0:0:0:
192,192,220690,1,0,0:0:0:0:
320,192,220744,1,0,0:0:0:0:
448,192,220744,1,0,0:0:0:0:
192,192,220797,1,0,0:0:0:0:
64,192,220851,1,0,0:0:0:0:
320,192,220851,1,0,0:0:0:0:
448,192,220905,1,0,0:0:0:0:
192,192,220958,1,0,0:0:0:0:
64,192,220958,1,0,0:0:0:0:
448,192,221012,1,0,0:0:0:0:
320,192,221065,1,0,0:0:0:0:
64,192,221065,1,0,0:0:0:0:
192,192,221119,1,0,0:0:0:0:
320,192,221172,1,0,0:0:0:0:
448,192,221172,1,0,0:0:0:0:
192,192,221226,1,0,0:0:0:0:
64,192,221280,1,0,0:0:0:0:
448,192,221280,1,0,0:0:0:0:
320,192,221333,1,0,0:0:0:0:
64,192,221387,1,0,0:0:0:0:
192,192,221387,1,0,0:0:0:0:
320,192,221440,1,0,0:0:0:0:
64,192,221494,1,0,0:0:0:0:
448,192,221494,1,0,0:0:0:0:
192,192,221547,1,0,0:0:0:0:
320,192,221601,1,0,0:0:0:0:
448,192,221601,128,0,221708:0:0:0:0:
64,192,221708,128,0,221815:0:0:0:0:
192,192,221815,128,0,221922:0:0:0:0:
320,192,221922,128,0,222030:0:0:0:0:
448,192,222030,128,0,222137:0:0:0:0:
64,192,222137,128,0,222351:0:0:0:0:
192,192,222244,128,0,222458:0:0:0:0:
320,192,222351,128,0,222565:0:0:0:0:
448,192,222458,128,0,222672:0:0:0:0:
64,192,222565,128,0,222672:0:0:0:0:
192,192,222672,128,0,222780:0:0:0:0:
320,192,222780,128,0,222887:0:0:0:0:
64,192,222887,128,0,222994:0:0:0:0:
192,192,222887,128,0,222994:0:0:0:0:
448,192,222887,128,0,222994:0:0:0:0:
448,192,223315,1,0,0:0:0:0:
320,192,223315,1,0,0:0:0:0:
64,192,223315,1,0,0:0:0:0:
192,192,223315,1,0,0:0:0:0:
192,192,223422,1,0,0:0:0:0:
448,192,223530,1,0,0:0:0:0:
64,192,223637,1,0,0:0:0:0:
64,192,223744,1,0,0:0:0:0:
448,192,223744,1,0,0:0:0:0:
192,192,223744,1,0,0:0:0:0:
320,192,223744,1,0,0:0:0:0:
320,192,223851,1,0,0:0:0:0:
192,192,223958,1,0,0:0:0:0:
320,192,224065,1,0,0:0:0:0:
448,192,224172,1,0,0:0:0:0:
192,192,224172,1,0,0:0:0:0:
64,192,224172,1,0,0:0:0:0:
320,192,224280,1,0,0:0:0:0:
64,192,224387,1,0,0:0:0:0:
448,192,224494,1,0,0:0:0:0:
320,192,224601,1,0,0:0:0:0:
64,192,224601,1,0,0:0:0:0:
192,192,224601,1,0,0:0:0:0:
448,192,224601,1,0,0:0:0:0:
192,192,224708,1,0,0:0:0:0:
320,192,224815,1,0,0:0:0:0:
192,192,224922,1,0,0:0:0:0:
64,192,225030,1,0,0:0:0:0:
320,192,225030,1,0,0:0:0:0:
448,192,225030,1,0,0:0:0:0:
192,192,225137,1,0,0:0:0:0:
448,192,225244,1,0,0:0:0:0:
64,192,225351,1,0,0:0:0:0:
448,192,225458,1,0,0:0:0:0:
64,192,225458,1,0,0:0:0:0:
192,192,225458,1,0,0:0:0:0:
320,192,225458,1,0,0:0:0:0:
320,192,225565,1,0,0:0:0:0:
192,192,225672,1,0,0:0:0:0:
320,192,225780,1,0,0:0:0:0:
64,192,225887,1,0,0:0:0:0:
192,192,225887,1,0,0:0:0:0:
448,192,225887,1,0,0:0:0:0:
320,192,225994,1,0,0:0:0:0:
64,192,226101,1,0,0:0:0:0:
448,192,226208,1,0,0:0:0:0:
448,192,226315,1,0,0:0:0:0:
320,192,226315,1,0,0:0:0:0:
192,192,226315,1,0,0:0:0:0:
64,192,226315,1,0,0:0:0:0:
192,192,226422,1,0,0:0:0:0:
320,192,226530,1,0,0:0:0:0:
192,192,226637,1,0,0:0:0:0:
320,192,226744,1,0,0:0:0:0:
448,192,226744,1,0,0:0:0:0:
64,192,226744,1,0,0:0:0:0:
192,192,226851,1,0,0:0:0:0:
320,192,226958,1,0,0:0:0:0:
448,192,227065,1,0,0:0:0:0:
192,192,227172,1,0,0:0:0:0:
320,192,227172,1,0,0:0:0:0:
448,192,227172,1,0,0:0:0:0:
64,192,227172,1,0,0:0:0:0:
64,192,227280,1,0,0:0:0:0:
192,192,227387,1,0,0:0:0:0:
320,192,227494,1,0,0:0:0:0:
192,192,227601,1,0,0:0:0:0:
64,192,227601,1,0,0:0:0:0:
448,192,227601,1,0,0:0:0:0:
320,192,227708,1,0,0:0:0:0:
192,192,227815,1,0,0:0:0:0:
64,192,227922,1,0,0:0:0:0:
192,192,228030,1,0,0:0:0:0:
64,192,228030,1,0,0:0:0:0:
320,192,228030,1,0,0:0:0:0:
448,192,228030,1,0,0:0:0:0:
448,192,228137,1,0,0:0:0:0:
320,192,228244,1,0,0:0:0:0:
192,192,228351,1,0,0:0:0:0:
448,192,228458,1,0,0:0:0:0:
64,192,228458,1,0,0:0:0:0:
320,192,228458,1,0,0:0:0:0:
192,192,228565,1,0,0:0:0:0:
320,192,228672,1,0,0:0:0:0:
448,192,228780,1,0,0:0:0:0:
192,192,228887,1,0,0:0:0:0:
320,192,228887,1,0,0:0:0:0:
448,192,228887,1,0,0:0:0:0:
64,192,228887,1,0,0:0:0:0:
64,192,228994,1,0,0:0:0:0:
192,192,229101,1,0,0:0:0:0:
320,192,229208,1,0,0:0:0:0:
64,192,229315,1,0,0:0:0:0:
192,192,229315,1,0,0:0:0:0:
448,192,229315,1,0,0:0:0:0:
320,192,229422,1,0,0:0:0:0:
192,192,229530,1,0,0:0:0:0:
320,192,229637,1,0,0:0:0:0:
448,192,229637,1,0,0:0:0:0:
320,192,229744,1,0,0:0:0:0:
192,192,229744,1,0,0:0:0:0:
64,192,229744,1,0,0:0:0:0:
448,192,229744,1,0,0:0:0:0:
64,192,229958,1,0,0:0:0:0:
192,192,229958,1,0,0:0:0:0:
320,192,230065,1,0,0:0:0:0:
64,192,230172,1,0,0:0:0:0:
448,192,230172,1,0,0:0:0:0:
192,192,230172,1,0,0:0:0:0:
320,192,230172,1,0,0:0:0:0:
64,192,230280,1,0,0:0:0:0:
192,192,230387,1,0,0:0:0:0:
320,192,230494,1,0,0:0:0:0:
64,192,230601,1,0,0:0:0:0:
192,192,230601,1,0,0:0:0:0:
320,192,230601,1,0,0:0:0:0:
448,192,230601,1,0,0:0:0:0:
192,192,230708,1,0,0:0:0:0:
64,192,230815,1,0,0:0:0:0:
448,192,230922,1,0,0:0:0:0:
64,192,231030,1,0,0:0:0:0:
192,192,231030,1,0,0:0:0:0:
320,192,231030,1,0,0:0:0:0:
448,192,231137,1,0,0:0:0:0:
320,192,231244,1,0,0:0:0:0:
192,192,231351,1,0,0:0:0:0:
448,192,231458,1,0,0:0:0:0:
192,192,231458,1,0,0:0:0:0:
64,192,231458,1,0,0:0:0:0:
320,192,231458,1,0,0:0:0:0:
320,192,231565,1,0,0:0:0:0:
448,192,231672,1,0,0:0:0:0:
64,192,231780,1,0,0:0:0:0:
192,192,231887,1,0,0:0:0:0:
320,192,231887,1,0,0:0:0:0:
448,192,231887,1,0,0:0:0:0:
64,192,231994,1,0,0:0:0:0:
192,192,232101,1,0,0:0:0:0:
320,192,232208,1,0,0:0:0:0:
64,192,232315,1,0,0:0:0:0:
320,192,232315,1,0,0:0:0:0:
192,192,232315,1,0,0:0:0:0:
448,192,232315,1,0,0:0:0:0:
192,192,232422,1,0,0:0:0:0:
64,192,232530,1,0,0:0:0:0:
448,192,232637,1,0,0:0:0:0:
320,192,232744,1,0,0:0:0:0:
192,192,232744,1,0,0:0:0:0:
64,192,232744,1,0,0:0:0:0:
448,192,232851,1,0,0:0:0:0:
320,192,232958,1,0,0:0:0:0:
192,192,233065,1,0,0:0:0:0:
64,192,233172,1,0,0:0:0:0:
192,192,233172,1,0,0:0:0:0:
320,192,233172,1,0,0:0:0:0:
448,192,233172,1,0,0:0:0:0:
320,192,233280,1,0,0:0:0:0:
448,192,233387,1,0,0:0:0:0:
64,192,233494,1,0,0:0:0:0:
64,192,233601,1,0,0:0:0:0:
192,192,233601,1,0,0:0:0:0:
320,192,233601,1,0,0:0:0:0:
448,192,233601,1,0,0:0:0:0:
448,192,233708,1,0,0:0:0:0:
192,192,233815,1,0,0:0:0:0:
320,192,233922,1,0,0:0:0:0:
64,192,234030,1,0,0:0:0:0:
192,192,234030,1,0,0:0:0:0:
320,192,234030,1,0,0:0:0:0:
448,192,234030,1,0,0:0:0:0:
64,192,234137,1,0,0:0:0:0:
320,192,234244,1,0,0:0:0:0:
448,192,234351,1,0,0:0:0:0:
320,192,234458,1,0,0:0:0:0:
192,192,234458,1,0,0:0:0:0:
64,192,234458,1,0,0:0:0:0:
448,192,234565,1,0,0:0:0:0:
64,192,234672,1,0,0:0:0:0:
192,192,234780,1,0,0:0:0:0:
64,192,234887,1,0,0:0:0:0:
320,192,234887,1,0,0:0:0:0:
192,192,234887,1,0,0:0:0:0:
448,192,234887,1,0,0:0:0:0:
448,192,234994,1,0,0:0:0:0:
192,192,235101,1,0,0:0:0:0:
64,192,235208,1,0,0:0:0:0:
448,192,235315,1,0,0:0:0:0:
320,192,235369,1,0,0:0:0:0:
64,192,235422,1,0,0:0:0:0:
192,192,235476,1,0,0:0:0:0:
448,192,235530,1,0,0:0:0:0:
320,192,235530,1,0,0:0:0:0:
192,192,235637,1,0,0:0:0:0:
64,192,235637,1,0,0:0:0:0:
320,192,235744,1,0,0:0:0:0:
192,192,235851,1,0,0:0:0:0:
64,192,235851,1,0,0:0:0:0:
320,192,235958,1,0,0:0:0:0:
448,192,235958,1,0,0:0:0:0:
448,192,236065,1,0,0:0:0:0:
320,192,236065,1,0,0:0:0:0:
192,192,236119,1,0,0:0:0:0:
64,192,236172,1,0,0:0:0:0:
320,192,236280,1,0,0:0:0:0:
448,192,236280,1,0,0:0:0:0:
64,192,236387,1,0,0:0:0:0:
192,192,236387,1,0,0:0:0:0:
448,192,236494,1,0,0:0:0:0:
64,192,236601,1,0,0:0:0:0:
192,192,236601,1,0,0:0:0:0:
320,192,236708,1,0,0:0:0:0:
192,192,236815,1,0,0:0:0:0:
448,192,236815,1,0,0:0:0:0:
64,192,236922,1,0,0:0:0:0:
448,192,237030,1,0,0:0:0:0:
320,192,237083,1,0,0:0:0:0:
192,192,237137,1,0,0:0:0:0:
64,192,237190,1,0,0:0:0:0:
448,192,237244,1,0,0:0:0:0:
320,192,237351,1,0,0:0:0:0:
64,192,237458,1,0,0:0:0:0:
192,192,237458,1,0,0:0:0:0:
320,192,237458,1,0,0:0:0:0:
448,192,237458,1,0,0:0:0:0:
64,192,237565,1,0,0:0:0:0:
192,192,237672,1,0,0:0:0:0:
320,192,237780,1,0,0:0:0:0:
64,192,237887,1,0,0:0:0:0:
192,192,237887,1,0,0:0:0:0:
448,192,237887,1,0,0:0:0:0:
320,192,237994,1,0,0:0:0:0:
192,192,238101,1,0,0:0:0:0:
64,192,238208,1,0,0:0:0:0:
320,192,238315,1,0,0:0:0:0:
448,192,238315,1,0,0:0:0:0:
192,192,238315,1,0,0:0:0:0:
64,192,238315,1,0,0:0:0:0:
448,192,238422,1,0,0:0:0:0:
320,192,238530,1,0,0:0:0:0:
192,192,238637,1,0,0:0:0:0:
64,192,238744,1,0,0:0:0:0:
320,192,238744,1,0,0:0:0:0:
448,192,238744,1,0,0:0:0:0:
192,192,238851,1,0,0:0:0:0:
320,192,238958,1,0,0:0:0:0:
448,192,239065,1,0,0:0:0:0:
64,192,239172,1,0,0:0:0:0:
192,192,239172,1,0,0:0:0:0:
320,192,239172,1,0,0:0:0:0:
448,192,239172,1,0,0:0:0:0:
64,192,239280,1,0,0:0:0:0:
192,192,239387,1,0,0:0:0:0:
320,192,239494,1,0,0:0:0:0:
192,192,239601,1,0,0:0:0:0:
64,192,239601,1,0,0:0:0:0:
448,192,239601,1,0,0:0:0:0:
320,192,239708,1,0,0:0:0:0:
192,192,239815,1,0,0:0:0:0:
64,192,239922,1,0,0:0:0:0:
64,192,240030,1,0,0:0:0:0:
192,192,240030,1,0,0:0:0:0:
320,192,240030,1,0,0:0:0:0:
448,192,240030,1,0,0:0:0:0:
448,192,240137,1,0,0:0:0:0:
320,192,240244,1,0,0:0:0:0:
192,192,240351,1,0,0:0:0:0:
64,192,240458,1,0,0:0:0:0:
320,192,240458,1,0,0:0:0:0:
448,192,240458,1,0,0:0:0:0:
192,192,240565,1,0,0:0:0:0:
320,192,240672,1,0,0:0:0:0:
192,192,240780,1,0,0:0:0:0:
448,192,240887,1,0,0:0:0:0:
320,192,240887,1,0,0:0:0:0:
64,192,240887,1,0,0:0:0:0:
192,192,240887,1,0,0:0:0:0:
448,192,240994,1,0,0:0:0:0:
64,192,241101,1,0,0:0:0:0:
320,192,241208,1,0,0:0:0:0:
448,192,241315,1,0,0:0:0:0:
64,192,241315,1,0,0:0:0:0:
192,192,241315,1,0,0:0:0:0:
320,192,241422,1,0,0:0:0:0:
192,192,241530,1,0,0:0:0:0:
320,192,241637,1,0,0:0:0:0:
64,192,241744,1,0,0:0:0:0:
192,192,241744,1,0,0:0:0:0:
320,192,241744,1,0,0:0:0:0:
448,192,241744,1,0,0:0:0:0:
64,192,241851,1,0,0:0:0:0:
448,192,241958,1,0,0:0:0:0:
192,192,242065,1,0,0:0:0:0:
64,192,242172,1,0,0:0:0:0:
320,192,242172,1,0,0:0:0:0:
448,192,242172,1,0,0:0:0:0:
192,192,242280,1,0,0:0:0:0:
320,192,242387,1,0,0:0:0:0:
192,192,242494,1,0,0:0:0:0:
64,192,242601,1,0,0:0:0:0:
192,192,242601,1,0,0:0:0:0:
320,192,242601,1,0,0:0:0:0:
448,192,242601,1,0,0:0:0:0:
448,192,242708,1,0,0:0:0:0:
64,192,242815,1,0,0:0:0:0:
320,192,242922,1,0,0:0:0:0:
64,192,243030,1,0,0:0:0:0:
192,192,243030,1,0,0:0:0:0:
448,192,243030,1,0,0:0:0:0:
320,192,243137,1,0,0:0:0:0:
192,192,243244,1,0,0:0:0:0:
320,192,243351,1,0,0:0:0:0:
448,192,243351,1,0,0:0:0:0:
448,192,243458,1,0,0:0:0:0:
320,192,243458,1,0,0:0:0:0:
192,192,243458,1,0,0:0:0:0:
64,192,243458,1,0,0:0:0:0:
192,192,243672,1,0,0:0:0:0:
64,192,243672,1,0,0:0:0:0:
320,192,243780,1,0,0:0:0:0:
64,192,243887,1,0,0:0:0:0:
192,192,243887,1,0,0:0:0:0:
320,192,243887,1,0,0:0:0:0:
448,192,243887,1,0,0:0:0:0:
192,192,243994,1,0,0:0:0:0:
64,192,243994,1,0,0:0:0:0:
320,192,244101,1,0,0:0:0:0:
448,192,244101,1,0,0:0:0:0:
448,192,244208,1,0,0:0:0:0:
320,192,244208,1,0,0:0:0:0:
192,192,244315,1,0,0:0:0:0:
64,192,244315,1,0,0:0:0:0:
64,192,244422,1,0,0:0:0:0:
192,192,244422,1,0,0:0:0:0:
320,192,244530,1,0,0:0:0:0:
448,192,244530,1,0,0:0:0:0:
448,192,244637,1,0,0:0:0:0:
320,192,244637,1,0,0:0:0:0:
192,192,244744,1,0,0:0:0:0:
64,192,244744,1,0,0:0:0:0:
64,192,244851,1,0,0:0:0:0:
192,192,244851,1,0,0:0:0:0:
320,192,244958,1,0,0:0:0:0:
448,192,244958,1,0,0:0:0:0:
448,192,245065,1,0,0:0:0:0:
320,192,245065,1,0,0:0:0:0:
192,192,245172,1,0,0:0:0:0:
64,192,245172,1,0,0:0:0:0:
64,192,245280,1,0,0:0:0:0:
192,192,245280,1,0,0:0:0:0:
320,192,245387,1,0,0:0:0:0:
448,192,245387,1,0,0:0:0:0:
320,192,245494,1,0,0:0:0:0:
64,192,245601,1,0,0:0:0:0:
448,192,245601,1,0,0:0:0:0:
448,192,245708,1,0,0:0:0:0:
64,192,245708,1,0,0:0:0:0:
192,192,245815,1,0,0:0:0:0:
320,192,245815,1,0,0:0:0:0:
320,192,245922,1,0,0:0:0:0:
192,192,245922,1,0,0:0:0:0:
64,192,246030,1,0,0:0:0:0:
448,192,246030,1,0,0:0:0:0:
448,192,246137,1,0,0:0:0:0:
64,192,246137,1,0,0:0:0:0:
192,192,246244,1,0,0:0:0:0:
320,192,246244,1,0,0:0:0:0:
320,192,246351,1,0,0:0:0:0:
192,192,246351,1,0,0:0:0:0:
448,192,246458,1,0,0:0:0:0:
64,192,246458,1,0,0:0:0:0:
64,192,246565,1,0,0:0:0:0:
448,192,246565,1,0,0:0:0:0:
192,192,246672,1,0,0:0:0:0:
320,192,246672,1,0,0:0:0:0:
320,192,246780,1,0,0:0:0:0:
192,192,246780,1,0,0:0:0:0:
448,192,246887,1,0,0:0:0:0:
64,192,246887,1,0,0:0:0:0:
64,192,246994,1,0,0:0:0:0:
448,192,246994,1,0,0:0:0:0:
192,192,247101,1,0,0:0:0:0:
320,192,247101,1,0,0:0:0:0:
192,192,247208,1,0,0:0:0:0:
448,192,247315,1,0,0:0:0:0:
320,192,247369,1,0,0:0:0:0:
64,192,247422,1,0,0:0:0:0:
192,192,247476,1,0,0:0:0:0:
448,192,247530,1,0,0:0:0:0:
320,192,247583,1,0,0:0:0:0:
64,192,247637,1,0,0:0:0:0:
192,192,247690,1,0,0:0:0:0:
448,192,247744,1,0,0:0:0:0:
320,192,247797,1,0,0:0:0:0:
64,192,247851,1,0,0:0:0:0:
192,192,247905,1,0,0:0:0:0:
448,192,247958,1,0,0:0:0:0:
320,192,248012,1,0,0:0:0:0:
64,192,248065,1,0,0:0:0:0:
192,192,248119,1,0,0:0:0:0:
448,192,248172,1,0,0:0:0:0:
320,192,248226,1,0,0:0:0:0:
64,192,248280,1,0,0:0:0:0:
192,192,248333,1,0,0:0:0:0:
448,192,248387,1,0,0:0:0:0:
320,192,248440,1,0,0:0:0:0:
64,192,248494,1,0,0:0:0:0:
192,192,248547,1,0,0:0:0:0:
448,192,248601,1,0,0:0:0:0:
320,192,248655,1,0,0:0:0:0:
64,192,248708,1,0,0:0:0:0:
192,192,248762,1,0,0:0:0:0:
448,192,248815,1,0,0:0:0:0:
320,192,248869,1,0,0:0:0:0:
64,192,248922,1,0,0:0:0:0:
192,192,248976,1,0,0:0:0:0:
448,192,249030,1,0,0:0:0:0:
320,192,249083,1,0,0:0:0:0:
192,192,249137,1,0,0:0:0:0:
64,192,249190,1,0,0:0:0:0:
448,192,249244,1,0,0:0:0:0:
320,192,249297,1,0,0:0:0:0:
192,192,249351,1,0,0:0:0:0:
64,192,249405,1,0,0:0:0:0:
448,192,249458,1,0,0:0:0:0:
320,192,249512,1,0,0:0:0:0:
192,192,249565,1,0,0:0:0:0:
64,192,249619,1,0,0:0:0:0:
448,192,249672,1,0,0:0:0:0:
320,192,249726,1,0,0:0:0:0:
192,192,249780,1,0,0:0:0:0:
64,192,249833,1,0,0:0:0:0:
448,192,249887,1,0,0:0:0:0:
320,192,249940,1,0,0:0:0:0:
192,192,249994,1,0,0:0:0:0:
64,192,250047,1,0,0:0:0:0:
448,192,250101,1,0,0:0:0:0:
320,192,250155,1,0,0:0:0:0:
192,192,250208,1,0,0:0:0:0:
64,192,250262,1,0,0:0:0:0:
320,192,250315,128,0,250422:0:0:0:0:
192,192,250315,128,0,250422:0:0:0:0:
448,192,250315,128,0,250422:0:0:0:0:
64,192,250530,128,0,250637:0:0:0:0:
192,192,250744,128,0,250851:0:0:0:0:
320,192,250744,1,0,0:0:0:0:
64,192,250744,1,0,0:0:0:0:
448,192,250851,1,0,0:0:0:0:
320,192,250958,128,0,251065:0:0:0:0:
192,192,251065,1,0,0:0:0:0:
448,192,251172,128,0,251280:0:0:0:0:
64,192,251172,1,0,0:0:0:0:
320,192,251172,1,0,0:0:0:0:
192,192,251280,1,0,0:0:0:0:
320,192,251387,1,0,0:0:0:0:
64,192,251494,1,0,0:0:0:0:
192,192,251601,128,0,251708:0:0:0:0:
320,192,251601,1,0,0:0:0:0:
448,192,251601,1,0,0:0:0:0:
64,192,251708,1,0,0:0:0:0:
320,192,251815,128,0,251922:0:0:0:0:
192,192,251922,1,0,0:0:0:0:
448,192,252030,128,0,252137:0:0:0:0:
320,192,252030,1,0,0:0:0:0:
64,192,252030,1,0,0:0:0:0:
192,192,252137,1,0,0:0:0:0:
320,192,252244,1,0,0:0:0:0:
64,192,252351,1,0,0:0:0:0:
448,192,252458,128,0,252565:0:0:0:0:
320,192,252458,1,0,0:0:0:0:
192,192,252458,1,0,0:0:0:0:
64,192,252565,1,0,0:0:0:0:
320,192,252672,128,0,252780:0:0:0:0:
448,192,252780,1,0,0:0:0:0:
192,192,252887,128,0,252994:0:0:0:0:
64,192,252887,1,0,0:0:0:0:
320,192,252887,1,0,0:0:0:0:
448,192,252994,1,0,0:0:0:0:
64,192,253101,128,0,253208:0:0:0:0:
320,192,253208,1,0,0:0:0:0:
192,192,253315,128,0,253422:0:0:0:0:
64,192,253315,1,0,0:0:0:0:
448,192,253315,1,0,0:0:0:0:
320,192,253422,1,0,0:0:0:0:
192,192,253530,1,0,0:0:0:0:
64,192,253637,128,0,253744:0:0:0:0:
448,192,253744,1,0,0:0:0:0:
320,192,253744,1,0,0:0:0:0:
192,192,253851,1,0,0:0:0:0:
64,192,253958,128,0,254065:0:0:0:0:
448,192,254065,1,0,0:0:0:0:
192,192,254172,128,0,254280:0:0:0:0:
64,192,254172,1,0,0:0:0:0:
320,192,254172,1,0,0:0:0:0:
448,192,254280,1,0,0:0:0:0:
320,192,254387,128,0,254494:0:0:0:0:
192,192,254494,1,0,0:0:0:0:
448,192,254601,128,0,254708:0:0:0:0:
64,192,254601,1,0,0:0:0:0:
320,192,254601,1,0,0:0:0:0:
192,192,254708,1,0,0:0:0:0:
320,192,254815,1,0,0:0:0:0:
448,192,254922,1,0,0:0:0:0:
192,192,255030,128,0,255137:0:0:0:0:
320,192,255030,1,0,0:0:0:0:
64,192,255030,1,0,0:0:0:0:
448,192,255137,1,0,0:0:0:0:
320,192,255244,128,0,255351:0:0:0:0:
192,192,255351,1,0,0:0:0:0:
448,192,255458,128,0,255565:0:0:0:0:
64,192,255458,1,0,0:0:0:0:
320,192,255458,1,0,0:0:0:0:
192,192,255565,1,0,0:0:0:0:
64,192,255672,128,0,255780:0:0:0:0:
320,192,255780,1,0,0:0:0:0:
64,192,255887,128,0,255994:0:0:0:0:
192,192,255887,1,0,0:0:0:0:
448,192,255887,1,0,0:0:0:0:
320,192,255994,1,0,0:0:0:0:
192,192,256101,1,0,0:0:0:0:
320,192,256208,128,0,256315:0:0:0:0:
64,192,256315,1,0,0:0:0:0:
192,192,256315,1,0,0:0:0:0:
448,192,256315,1,0,0:0:0:0:
320,192,256422,1,0,0:0:0:0:
192,192,256530,128,0,256637:0:0:0:0:
64,192,256637,1,0,0:0:0:0:
448,192,256744,128,0,256851:0:0:0:0:
192,192,256744,1,0,0:0:0:0:
320,192,256744,1,0,0:0:0:0:
64,192,256851,1,0,0:0:0:0:
320,192,256958,1,0,0:0:0:0:
192,192,257065,1,0,0:0:0:0:
64,192,257065,1,0,0:0:0:0:
64,192,257172,128,0,257280:0:0:0:0:
320,192,257172,1,0,0:0:0:0:
448,192,257172,1,0,0:0:0:0:
448,192,257387,1,0,0:0:0:0:
320,192,257387,1,0,0:0:0:0:
192,192,257494,1,0,0:0:0:0:
448,192,257601,128,0,257708:0:0:0:0:
64,192,257601,1,0,0:0:0:0:
320,192,257601,1,0,0:0:0:0:
192,192,257708,1,0,0:0:0:0:
320,192,257815,1,0,0:0:0:0:
64,192,257922,1,0,0:0:0:0:
320,192,258030,1,0,0:0:0:0:
448,192,258030,1,0,0:0:0:0:
192,192,258030,1,0,0:0:0:0:
64,192,258137,1,0,0:0:0:0:
448,192,258244,1,0,0:0:0:0:
320,192,258351,1,0,0:0:0:0:
64,192,258458,1,0,0:0:0:0:
192,192,258458,1,0,0:0:0:0:
448,192,258458,1,0,0:0:0:0:
320,192,258565,1,0,0:0:0:0:
64,192,258672,128,0,258780:0:0:0:0:
448,192,258780,1,0,0:0:0:0:
192,192,258887,128,0,258994:0:0:0:0:
64,192,258887,1,0,0:0:0:0:
320,192,258887,1,0,0:0:0:0:
448,192,258994,1,0,0:0:0:0:
320,192,259101,128,0,259208:0:0:0:0:
448,192,259208,1,0,0:0:0:0:
64,192,259315,1,0,0:0:0:0:
192,192,259315,1,0,0:0:0:0:
320,192,259315,1,0,0:0:0:0:
448,192,259422,1,0,0:0:0:0:
192,192,259530,128,0,259637:0:0:0:0:
64,192,259637,1,0,0:0:0:0:
320,192,259744,128,0,259851:0:0:0:0:
192,192,259744,1,0,0:0:0:0:
448,192,259744,1,0,0:0:0:0:
64,192,259851,1,0,0:0:0:0:
448,192,259958,128,0,260065:0:0:0:0:
320,192,260065,1,0,0:0:0:0:
192,192,260172,1,0,0:0:0:0:
64,192,260172,1,0,0:0:0:0:
448,192,260172,1,0,0:0:0:0:
320,192,260280,1,0,0:0:0:0:
64,192,260387,128,0,260494:0:0:0:0:
320,192,260494,1,0,0:0:0:0:
192,192,260601,128,0,260708:0:0:0:0:
448,192,260601,1,0,0:0:0:0:
64,192,260601,1,0,0:0:0:0:
320,192,260708,1,0,0:0:0:0:
448,192,260815,128,0,260922:0:0:0:0:
192,192,260922,1,0,0:0:0:0:
64,192,261030,1,0,0:0:0:0:
320,192,261030,1,0,0:0:0:0:
448,192,261030,1,0,0:0:0:0:
192,192,261137,1,0,0:0:0:0:
320,192,261244,128,0,261351:0:0:0:0:
64,192,261351,1,0,0:0:0:0:
448,192,261458,128,0,261565:0:0:0:0:
192,192,261458,1,0,0:0:0:0:
320,192,261458,1,0,0:0:0:0:
64,192,261565,1,0,0:0:0:0:
320,192,261672,128,0,261780:0:0:0:0:
448,192,261780,1,0,0:0:0:0:
192,192,261887,128,0,261994:0:0:0:0:
64,192,261887,1,0,0:0:0:0:
320,192,261887,1,0,0:0:0:0:
448,192,261994,1,0,0:0:0:0:
320,192,262101,1,0,0:0:0:0:
192,192,262208,1,0,0:0:0:0:
64,192,262315,128,0,262422:0:0:0:0:
320,192,262315,1,0,0:0:0:0:
448,192,262315,1,0,0:0:0:0:
192,192,262422,1,0,0:0:0:0:
448,192,262530,128,0,262637:0:0:0:0:
64,192,262637,1,0,0:0:0:0:
320,192,262744,1,0,0:0:0:0:
448,192,262797,1,0,0:0:0:0:
192,192,262851,1,0,0:0:0:0:
64,192,262905,1,0,0:0:0:0:
320,192,262958,128,0,263065:0:0:0:0:
192,192,263065,1,0,0:0:0:0:
448,192,263172,128,0,263280:0:0:0:0:
320,192,263172,1,0,0:0:0:0:
64,192,263280,1,0,0:0:0:0:
320,192,263387,128,0,263494:0:0:0:0:
192,192,263387,1,0,0:0:0:0:
64,192,263494,1,0,0:0:0:0:
448,192,263494,1,0,0:0:0:0:
192,192,263601,128,0,263708:0:0:0:0:
320,192,263708,1,0,0:0:0:0:
448,192,263708,1,0,0:0:0:0:
192,192,263815,1,0,0:0:0:0:
64,192,263815,1,0,0:0:0:0:
320,192,263922,1,0,0:0:0:0:
192,192,264030,1,0,0:0:0:0:
448,192,264030,1,0,0:0:0:0:
64,192,264137,1,0,0:0:0:0:
448,192,264244,1,0,0:0:0:0:
192,192,264244,1,0,0:0:0:0:
320,192,264351,1,0,0:0:0:0:
64,192,264458,128,0,264565:0:0:0:0:
448,192,264458,1,0,0:0:0:0:
192,192,264458,1,0,0:0:0:0:
320,192,264565,1,0,0:0:0:0:
192,192,264672,128,0,264780:0:0:0:0:
448,192,264780,1,0,0:0:0:0:
320,192,264887,128,0,264994:0:0:0:0:
192,192,264887,1,0,0:0:0:0:
64,192,264887,1,0,0:0:0:0:
448,192,264994,1,0,0:0:0:0:
192,192,265101,1,0,0:0:0:0:
64,192,265208,1,0,0:0:0:0:
192,192,265315,128,0,265422:0:0:0:0:
320,192,265315,1,0,0:0:0:0:
448,192,265315,1,0,0:0:0:0:
64,192,265422,1,0,0:0:0:0:
320,192,265530,128,0,265637:0:0:0:0:
192,192,265637,1,0,0:0:0:0:
448,192,265744,128,0,265851:0:0:0:0:
64,192,265744,1,0,0:0:0:0:
320,192,265744,1,0,0:0:0:0:
192,192,265851,1,0,0:0:0:0:
320,192,265958,1,0,0:0:0:0:
64,192,266065,1,0,0:0:0:0:
448,192,266172,128,0,266280:0:0:0:0:
320,192,266172,1,0,0:0:0:0:
192,192,266280,1,0,0:0:0:0:
320,192,266387,128,0,266494:0:0:0:0:
448,192,266494,1,0,0:0:0:0:
192,192,266601,128,0,266708:0:0:0:0:
320,192,266601,1,0,0:0:0:0:
64,192,266601,1,0,0:0:0:0:
448,192,266708,1,0,0:0:0:0:
64,192,266815,128,0,266922:0:0:0:0:
320,192,266922,1,0,0:0:0:0:
192,192,267030,128,0,267137:0:0:0:0:
64,192,267030,1,0,0:0:0:0:
448,192,267030,1,0,0:0:0:0:
320,192,267137,1,0,0:0:0:0:
192,192,267244,1,0,0:0:0:0:
64,192,267351,128,0,267458:0:0:0:0:
320,192,267458,1,0,0:0:0:0:
448,192,267458,1,0,0:0:0:0:
192,192,267565,1,0,0:0:0:0:
64,192,267672,128,0,267780:0:0:0:0:
448,192,267780,1,0,0:0:0:0:
192,192,267887,128,0,267994:0:0:0:0:
64,192,267887,1,0,0:0:0:0:
320,192,267887,1,0,0:0:0:0:
448,192,267994,1,0,0:0:0:0:
320,192,268101,128,0,268208:0:0:0:0:
192,192,268208,1,0,0:0:0:0:
448,192,268315,128,0,268422:0:0:0:0:
64,192,268315,1,0,0:0:0:0:
320,192,268315,1,0,0:0:0:0:
192,192,268422,1,0,0:0:0:0:
320,192,268530,1,0,0:0:0:0:
448,192,268637,1,0,0:0:0:0:
192,192,268744,128,0,268851:0:0:0:0:
64,192,268744,1,0,0:0:0:0:
320,192,268744,1,0,0:0:0:0:
448,192,268851,1,0,0:0:0:0:
320,192,268958,128,0,269065:0:0:0:0:
192,192,269065,1,0,0:0:0:0:
448,192,269172,128,0,269280:0:0:0:0:
320,192,269172,1,0,0:0:0:0:
64,192,269172,1,0,0:0:0:0:
192,192,269280,1,0,0:0:0:0:
64,192,269387,128,0,269494:0:0:0:0:
320,192,269494,1,0,0:0:0:0:
64,192,269601,128,0,269708:0:0:0:0:
192,192,269601,1,0,0:0:0:0:
448,192,269601,1,0,0:0:0:0:
320,192,269708,1,0,0:0:0:0:
192,192,269815,1,0,0:0:0:0:
320,192,269922,128,0,270030:0:0:0:0:
64,192,270030,1,0,0:0:0:0:
192,192,270030,1,0,0:0:0:0:
448,192,270030,1,0,0:0:0:0:
320,192,270137,1,0,0:0:0:0:
448,192,270244,128,0,270351:0:0:0:0:
64,192,270351,1,0,0:0:0:0:
192,192,270458,128,0,270565:0:0:0:0:
320,192,270458,1,0,0:0:0:0:
448,192,270458,1,0,0:0:0:0:
64,192,270565,1,0,0:0:0:0:
192,192,270672,1,0,0:0:0:0:
448,192,270780,1,0,0:0:0:0:
64,192,270887,128,0,270994:0:0:0:0:
320,192,270887,1,0,0:0:0:0:
192,192,270887,1,0,0:0:0:0:
448,192,270994,1,0,0:0:0:0:
192,192,271101,1,0,0:0:0:0:
64,192,271208,1,0,0:0:0:0:
448,192,271315,128,0,271422:0:0:0:0:
192,192,271315,1,0,0:0:0:0:
320,192,271315,1,0,0:0:0:0:
64,192,271422,1,0,0:0:0:0:
192,192,271530,1,0,0:0:0:0:
320,192,271637,1,0,0:0:0:0:
448,192,271744,1,0,0:0:0:0:
64,192,271744,1,0,0:0:0:0:
192,192,271744,1,0,0:0:0:0:
320,192,271851,1,0,0:0:0:0:
192,192,271958,1,0,0:0:0:0:
448,192,272065,1,0,0:0:0:0:
192,192,272172,1,0,0:0:0:0:
64,192,272172,1,0,0:0:0:0:
320,192,272172,1,0,0:0:0:0:
448,192,272280,1,0,0:0:0:0:
64,192,272387,128,0,272494:0:0:0:0:
320,192,272494,1,0,0:0:0:0:
192,192,272601,128,0,272708:0:0:0:0:
64,192,272601,1,0,0:0:0:0:
448,192,272601,1,0,0:0:0:0:
320,192,272708,1,0,0:0:0:0:
448,192,272815,128,0,272922:0:0:0:0:
320,192,272922,1,0,0:0:0:0:
448,192,273030,1,0,0:0:0:0:
64,192,273030,1,0,0:0:0:0:
192,192,273030,1,0,0:0:0:0:
320,192,273137,1,0,0:0:0:0:
192,192,273244,128,0,273351:0:0:0:0:
64,192,273351,1,0,0:0:0:0:
320,192,273458,128,0,273565:0:0:0:0:
192,192,273458,1,0,0:0:0:0:
448,192,273458,1,0,0:0:0:0:
64,192,273565,1,0,0:0:0:0:
448,192,273672,128,0,273780:0:0:0:0:
192,192,273780,1,0,0:0:0:0:
320,192,273887,1,0,0:0:0:0:
448,192,273887,1,0,0:0:0:0:
64,192,273887,1,0,0:0:0:0:
192,192,273994,1,0,0:0:0:0:
320,192,274101,128,0,274208:0:0:0:0:
64,192,274208,1,0,0:0:0:0:
192,192,274315,128,0,274422:0:0:0:0:
320,192,274315,1,0,0:0:0:0:
448,192,274315,1,0,0:0:0:0:
64,192,274422,1,0,0:0:0:0:
448,192,274530,128,0,274637:0:0:0:0:
192,192,274637,1,0,0:0:0:0:
64,192,274744,1,0,0:0:0:0:
320,192,274744,1,0,0:0:0:0:
448,192,274744,1,0,0:0:0:0:
192,192,274851,1,0,0:0:0:0:
320,192,274958,128,0,275065:0:0:0:0:
64,192,275065,1,0,0:0:0:0:
448,192,275172,128,0,275280:0:0:0:0:
320,192,275172,1,0,0:0:0:0:
192,192,275172,1,0,0:0:0:0:
64,192,275280,1,0,0:0:0:0:
320,192,275387,128,0,275494:0:0:0:0:
448,192,275494,1,0,0:0:0:0:
192,192,275601,128,0,275708:0:0:0:0:
64,192,275601,1,0,0:0:0:0:
320,192,275601,1,0,0:0:0:0:
448,192,275708,1,0,0:0:0:0:
64,192,275815,1,0,0:0:0:0:
192,192,275922,1,0,0:0:0:0:
64,192,276030,128,0,276137:0:0:0:0:
320,192,276030,1,0,0:0:0:0:
448,192,276030,1,0,0:0:0:0:
192,192,276137,1,0,0:0:0:0:
448,192,276244,128,0,276351:0:0:0:0:
192,192,276351,1,0,0:0:0:0:
448,192,276458,1,0,0:0:0:0:
320,192,276512,1,0,0:0:0:0:
64,192,276565,1,0,0:0:0:0:
192,192,276619,1,0,0:0:0:0:
448,192,276672,1,0,0:0:0:0:
320,192,276726,1,0,0:0:0:0:
64,192,276780,1,0,0:0:0:0:
192,192,276833,1,0,0:0:0:0:
448,192,276887,1,0,0:0:0:0:
320,192,276940,1,0,0:0:0:0:
64,192,276994,1,0,0:0:0:0:
192,192,277047,1,0,0:0:0:0:
448,192,277101,1,0,0:0:0:0:
320,192,277155,1,0,0:0:0:0:
64,192,277208,1,0,0:0:0:0:
192,192,277262,1,0,0:0:0:0:
448,192,277315,1,0,0:0:0:0:
320,192,277369,1,0,0:0:0:0:
64,192,277422,1,0,0:0:0:0:
192,192,277476,1,0,0:0:0:0:
448,192,277530,1,0,0:0:0:0:
320,192,277583,1,0,0:0:0:0:
64,192,277637,1,0,0:0:0:0:
192,192,277690,1,0,0:0:0:0:
320,192,277744,128,0,277851:0:0:0:0:
448,192,277744,128,0,277851:0:0:0:0:
64,192,277744,128,0,277851:0:0:0:0:
192,192,278172,1,0,0:0:0:0:
320,192,278172,1,0,0:0:0:0:
448,192,278172,1,0,0:0:0:0:
64,192,278280,1,0,0:0:0:0:
320,192,278387,1,0,0:0:0:0:
192,192,278494,1,0,0:0:0:0:
320,192,278601,1,0,0:0:0:0:
448,192,278601,1,0,0:0:0:0:
64,192,278708,1,0,0:0:0:0:
192,192,278815,1,0,0:0:0:0:
320,192,278922,1,0,0:0:0:0:
448,192,279030,1,0,0:0:0:0:
192,192,279137,1,0,0:0:0:0:
320,192,279244,1,0,0:0:0:0:
448,192,279351,1,0,0:0:0:0:
192,192,279458,1,0,0:0:0:0:
64,192,279458,1,0,0:0:0:0:
320,192,279565,1,0,0:0:0:0:
192,192,279672,1,0,0:0:0:0:
448,192,279780,1,0,0:0:0:0:
64,192,279887,1,0,0:0:0:0:
192,192,279994,1,0,0:0:0:0:
320,192,280101,1,0,0:0:0:0:
192,192,280208,1,0,0:0:0:0:
448,192,280315,1,0,0:0:0:0:
320,192,280315,1,0,0:0:0:0:
64,192,280422,1,0,0:0:0:0:
448,192,280530,1,0,0:0:0:0:
320,192,280637,1,0,0:0:0:0:
192,192,280744,1,0,0:0:0:0:
64,192,280851,1,0,0:0:0:0:
320,192,280958,1,0,0:0:0:0:
448,192,281065,1,0,0:0:0:0:
192,192,281172,1,0,0:0:0:0:
64,192,281172,1,0,0:0:0:0:
320,192,281280,1,0,0:0:0:0:
64,192,281387,1,0,0:0:0:0:
448,192,281494,1,0,0:0:0:0:
64,192,281601,1,0,0:0:0:0:
192,192,281708,1,0,0:0:0:0:
320,192,281815,1,0,0:0:0:0:
448,192,281922,1,0,0:0:0:0:
64,192,282030,1,0,0:0:0:0:
320,192,282030,1,0,0:0:0:0:
192,192,282137,1,0,0:0:0:0:
448,192,282244,1,0,0:0:0:0:
320,192,282351,1,0,0:0:0:0:
192,192,282458,1,0,0:0:0:0:
64,192,282565,1,0,0:0:0:0:
192,192,282672,1,0,0:0:0:0:
320,192,282780,1,0,0:0:0:0:
192,192,282887,1,0,0:0:0:0:
448,192,282887,1,0,0:0:0:0:
64,192,282994,1,0,0:0:0:0:
320,192,283101,1,0,0:0:0:0:
448,192,283208,1,0,0:0:0:0:
64,192,283315,1,0,0:0:0:0:
320,192,283422,1,0,0:0:0:0:
448,192,283530,1,0,0:0:0:0:
192,192,283637,1,0,0:0:0:0:
320,192,283744,1,0,0:0:0:0:
64,192,283744,1,0,0:0:0:0:
448,192,283851,1,0,0:0:0:0:
192,192,283958,1,0,0:0:0:0:
64,192,284065,1,0,0:0:0:0:
448,192,284172,1,0,0:0:0:0:
64,192,284280,1,0,0:0:0:0:
192,192,284387,1,0,0:0:0:0:
320,192,284494,1,0,0:0:0:0:
192,192,284601,1,0,0:0:0:0:
448,192,284601,1,0,0:0:0:0:
64,192,284708,1,0,0:0:0:0:
320,192,284815,1,0,0:0:0:0:
448,192,284922,1,0,0:0:0:0:
64,192,285030,1,0,0:0:0:0:
448,192,285137,1,0,0:0:0:0:
320,192,285244,1,0,0:0:0:0:
192,192,285351,1,0,0:0:0:0:
64,192,285458,1,0,0:0:0:0:
448,192,285458,1,0,0:0:0:0:
320,192,285565,1,0,0:0:0:0:
192,192,285672,1,0,0:0:0:0:
448,192,285780,1,0,0:0:0:0:
64,192,285887,1,0,0:0:0:0:
192,192,285994,1,0,0:0:0:0:
320,192,286101,1,0,0:0:0:0:
64,192,286208,1,0,0:0:0:0:
192,192,286315,1,0,0:0:0:0:
320,192,286315,1,0,0:0:0:0:
448,192,286422,1,0,0:0:0:0:
64,192,286530,1,0,0:0:0:0:
320,192,286637,1,0,0:0:0:0:
192,192,286744,1,0,0:0:0:0:
448,192,286851,1,0,0:0:0:0:
192,192,286958,1,0,0:0:0:0:
320,192,287065,1,0,0:0:0:0:
64,192,287172,1,0,0:0:0:0:
448,192,287172,1,0,0:0:0:0:
192,192,287280,1,0,0:0:0:0:
64,192,287387,1,0,0:0:0:0:
320,192,287494,1,0,0:0:0:0:
192,192,287601,1,0,0:0:0:0:
448,192,287708,1,0,0:0:0:0:
320,192,287815,1,0,0:0:0:0:
64,192,287922,1,0,0:0:0:0:
192,192,288030,1,0,0:0:0:0:
320,192,288030,1,0,0:0:0:0:
448,192,288137,1,0,0:0:0:0:
64,192,288244,1,0,0:0:0:0:
192,192,288351,1,0,0:0:0:0:
448,192,288458,1,0,0:0:0:0:
320,192,288565,1,0,0:0:0:0:
192,192,288672,1,0,0:0:0:0:
64,192,288780,1,0,0:0:0:0:
192,192,288887,1,0,0:0:0:0:
448,192,288887,1,0,0:0:0:0:
320,192,288994,1,0,0:0:0:0:
64,192,289101,1,0,0:0:0:0:
192,192,289208,1,0,0:0:0:0:
448,192,289315,1,0,0:0:0:0:
320,192,289422,1,0,0:0:0:0:
192,192,289530,1,0,0:0:0:0:
448,192,289637,1,0,0:0:0:0:
320,192,289744,1,0,0:0:0:0:
64,192,289744,1,0,0:0:0:0:
192,192,289851,1,0,0:0:0:0:
448,192,289958,1,0,0:0:0:0:
64,192,290065,1,0,0:0:0:0:
192,192,290172,1,0,0:0:0:0:
448,192,290280,1,0,0:0:0:0:
192,192,290387,1,0,0:0:0:0:
320,192,290494,1,0,0:0:0:0:
448,192,290601,1,0,0:0:0:0:
192,192,290601,1,0,0:0:0:0:
64,192,290708,1,0,0:0:0:0:
320,192,290815,1,0,0:0:0:0:
192,192,290922,1,0,0:0:0:0:
448,192,291030,1,0,0:0:0:0:
64,192,291137,1,0,0:0:0:0:
320,192,291244,1,0,0:0:0:0:
192,192,291351,1,0,0:0:0:0:
64,192,291458,1,0,0:0:0:0:
320,192,291458,1,0,0:0:0:0:
448,192,291565,1,0,0:0:0:0:
192,192,291672,1,0,0:0:0:0:
320,192,291780,1,0,0:0:0:0:
64,192,291887,1,0,0:0:0:0:
192,192,291887,1,0,0:0:0:0:
320,192,291940,1,0,0:0:0:0:
448,192,291994,1,0,0:0:0:0:
192,192,292101,1,0,0:0:0:0:
64,192,292101,1,0,0:0:0:0:
448,192,292208,1,0,0:0:0:0:
192,192,292315,1,0,0:0:0:0:
64,192,292315,1,0,0:0:0:0:
320,192,292422,1,0,0:0:0:0:
64,192,292530,1,0,0:0:0:0:
192,192,292530,1,0,0:0:0:0:
320,192,292637,1,0,0:0:0:0:
64,192,292744,1,0,0:0:0:0:
192,192,292744,1,0,0:0:0:0:
448,192,292851,1,0,0:0:0:0:
192,192,292958,1,0,0:0:0:0:
64,192,292958,1,0,0:0:0:0:
320,192,293065,1,0,0:0:0:0:
192,192,293172,1,0,0:0:0:0:
64,192,293172,1,0,0:0:0:0:
448,192,293280,1,0,0:0:0:0:
64,192,293387,1,0,0:0:0:0:
320,192,293387,1,0,0:0:0:0:
192,192,293494,1,0,0:0:0:0:
448,192,293601,1,0,0:0:0:0:
320,192,293601,1,0,0:0:0:0:
192,192,293655,1,0,0:0:0:0:
64,192,293708,1,0,0:0:0:0:
320,192,293815,1,0,0:0:0:0:
448,192,293815,1,0,0:0:0:0:
64,192,293922,1,0,0:0:0:0:
320,192,294030,1,0,0:0:0:0:
448,192,294030,1,0,0:0:0:0:
64,192,294137,1,0,0:0:0:0:
320,192,294244,1,0,0:0:0:0:
448,192,294244,1,0,0:0:0:0:
192,192,294351,1,0,0:0:0:0:
448,192,294458,1,0,0:0:0:0:
320,192,294458,1,0,0:0:0:0:
64,192,294565,1,0,0:0:0:0:
320,192,294672,1,0,0:0:0:0:
448,192,294672,1,0,0:0:0:0:
192,192,294780,1,0,0:0:0:0:
448,192,294887,1,0,0:0:0:0:
320,192,294887,1,0,0:0:0:0:
64,192,294994,1,0,0:0:0:0:
448,192,295101,1,0,0:0:0:0:
192,192,295101,1,0,0:0:0:0:
320,192,295208,1,0,0:0:0:0:
64,192,295315,1,0,0:0:0:0:
192,192,295315,1,0,0:0:0:0:
320,192,295369,1,0,0:0:0:0:
448,192,295422,1,0,0:0:0:0:
320,192,295530,1,0,0:0:0:0:
192,192,295530,1,0,0:0:0:0:
64,192,295637,1,0,0:0:0:0:
320,192,295744,1,0,0:0:0:0:
448,192,295744,1,0,0:0:0:0:
192,192,295851,1,0,0:0:0:0:
64,192,295958,1,0,0:0:0:0:
320,192,295958,1,0,0:0:0:0:
448,192,296065,1,0,0:0:0:0:
192,192,296172,1,0,0:0:0:0:
64,192,296172,1,0,0:0:0:0:
320,192,296280,1,0,0:0:0:0:
192,192,296387,1,0,0:0:0:0:
448,192,296387,1,0,0:0:0:0:
64,192,296494,1,0,0:0:0:0:
320,192,296601,1,0,0:0:0:0:
448,192,296601,1,0,0:0:0:0:
192,192,296708,1,0,0:0:0:0:
64,192,296815,1,0,0:0:0:0:
320,192,296815,1,0,0:0:0:0:
192,192,296922,1,0,0:0:0:0:
320,192,297030,1,0,0:0:0:0:
448,192,297030,1,0,0:0:0:0:
192,192,297083,1,0,0:0:0:0:
64,192,297137,1,0,0:0:0:0:
320,192,297244,1,0,0:0:0:0:
192,192,297244,1,0,0:0:0:0:
448,192,297351,1,0,0:0:0:0:
64,192,297458,1,0,0:0:0:0:
192,192,297458,1,0,0:0:0:0:
448,192,297565,1,0,0:0:0:0:
192,192,297672,1,0,0:0:0:0:
320,192,297672,1,0,0:0:0:0:
64,192,297780,1,0,0:0:0:0:
320,192,297887,1,0,0:0:0:0:
448,192,297887,1,0,0:0:0:0:
64,192,297994,1,0,0:0:0:0:
192,192,298101,1,0,0:0:0:0:
320,192,298101,1,0,0:0:0:0:
64,192,298208,1,0,0:0:0:0:
320,192,298315,1,0,0:0:0:0:
448,192,298315,1,0,0:0:0:0:
64,192,298422,1,0,0:0:0:0:
320,192,298530,1,0,0:0:0:0:
192,192,298530,1,0,0:0:0:0:
448,192,298637,1,0,0:0:0:0:
448,192,298744,1,0,0:0:0:0:
64,192,298744,1,0,0:0:0:0:
192,192,298744,1,0,0:0:0:0:
320,192,298797,1,0,0:0:0:0:
64,192,298851,1,0,0:0:0:0:
192,192,298851,1,0,0:0:0:0:
448,192,298958,1,0,0:0:0:0:
320,192,298958,1,0,0:0:0:0:
64,192,299065,1,0,0:0:0:0:
192,192,299065,1,0,0:0:0:0:
448,192,299172,1,0,0:0:0:0:
320,192,299172,1,0,0:0:0:0:
64,192,299280,1,0,0:0:0:0:
192,192,299280,1,0,0:0:0:0:
448,192,299387,1,0,0:0:0:0:
320,192,299387,1,0,0:0:0:0:
192,192,299494,1,0,0:0:0:0:
64,192,299494,1,0,0:0:0:0:
448,192,299601,1,0,0:0:0:0:
320,192,299601,1,0,0:0:0:0:
64,192,299601,1,0,0:0:0:0:
192,192,299655,1,0,0:0:0:0:
448,192,299708,1,0,0:0:0:0:
320,192,299708,1,0,0:0:0:0:
64,192,299815,1,0,0:0:0:0:
192,192,299815,1,0,0:0:0:0:
320,192,299922,1,0,0:0:0:0:
448,192,299922,1,0,0:0:0:0:
64,192,300030,1,0,0:0:0:0:
192,192,300030,1,0,0:0:0:0:
448,192,300137,1,0,0:0:0:0:
320,192,300137,1,0,0:0:0:0:
192,192,300244,1,0,0:0:0:0:
64,192,300244,1,0,0:0:0:0:
320,192,300351,1,0,0:0:0:0:
448,192,300351,1,0,0:0:0:0:
448,192,300458,1,0,0:0:0:0:
192,192,300458,1,0,0:0:0:0:
64,192,300458,1,0,0:0:0:0:
320,192,300512,1,0,0:0:0:0:
64,192,300565,1,0,0:0:0:0:
192,192,300565,1,0,0:0:0:0:
320,192,300672,1,0,0:0:0:0:
448,192,300672,1,0,0:0:0:0:
64,192,300780,1,0,0:0:0:0:
192,192,300780,1,0,0:0:0:0:
320,192,300887,1,0,0:0:0:0:
448,192,300887,1,0,0:0:0:0:
192,192,300994,1,0,0:0:0:0:
64,192,300994,1,0,0:0:0:0:
448,192,301101,1,0,0:0:0:0:
320,192,301101,1,0,0:0:0:0:
64,192,301208,1,0,0:0:0:0:
192,192,301208,1,0,0:0:0:0:
320,192,301315,1,0,0:0:0:0:
64,192,301315,1,0,0:0:0:0:
448,192,301315,1,0,0:0:0:0:
192,192,301369,1,0,0:0:0:0:
448,192,301422,1,0,0:0:0:0:
320,192,301422,1,0,0:0:0:0:
192,192,301530,1,0,0:0:0:0:
64,192,301530,1,0,0:0:0:0:
320,192,301637,1,0,0:0:0:0:
448,192,301637,1,0,0:0:0:0:
64,192,301744,1,0,0:0:0:0:
192,192,301744,1,0,0:0:0:0:
448,192,301851,1,0,0:0:0:0:
320,192,301851,1,0,0:0:0:0:
64,192,301958,1,0,0:0:0:0:
192,192,301958,1,0,0:0:0:0:
448,192,302065,1,0,0:0:0:0:
320,192,302065,1,0,0:0:0:0:
192,192,302172,1,0,0:0:0:0:
64,192,302172,1,0,0:0:0:0:
320,192,302226,1,0,0:0:0:0:
192,192,302280,1,0,0:0:0:0:
448,192,302280,1,0,0:0:0:0:
64,192,302333,1,0,0:0:0:0:
320,192,302387,1,0,0:0:0:0:
448,192,302387,1,0,0:0:0:0:
64,192,302440,1,0,0:0:0:0:
448,192,302494,1,0,0:0:0:0:
192,192,302494,1,0,0:0:0:0:
320,192,302547,1,0,0:0:0:0:
64,192,302601,1,0,0:0:0:0:
192,192,302601,1,0,0:0:0:0:
320,192,302655,1,0,0:0:0:0:
64,192,302708,1,0,0:0:0:0:
448,192,302708,1,0,0:0:0:0:
192,192,302762,1,0,0:0:0:0:
320,192,302815,1,0,0:0:0:0:
448,192,302815,1,0,0:0:0:0:
192,192,302869,1,0,0:0:0:0:
448,192,302922,1,0,0:0:0:0:
64,192,302922,1,0,0:0:0:0:
320,192,302976,1,0,0:0:0:0:
64,192,303030,1,0,0:0:0:0:
192,192,303030,1,0,0:0:0:0:
320,192,303083,1,0,0:0:0:0:
192,192,303137,1,0,0:0:0:0:
448,192,303137,1,0,0:0:0:0:
64,192,303190,1,0,0:0:0:0:
448,192,303244,1,0,0:0:0:0:
320,192,303244,1,0,0:0:0:0:
64,192,303297,1,0,0:0:0:0:
448,192,303351,1,0,0:0:0:0:
192,192,303351,1,0,0:0:0:0:
320,192,303405,1,0,0:0:0:0:
64,192,303458,1,0,0:0:0:0:
192,192,303458,1,0,0:0:0:0:
320,192,303512,1,0,0:0:0:0:
64,192,303565,1,0,0:0:0:0:
448,192,303565,1,0,0:0:0:0:
192,192,303619,1,0,0:0:0:0:
320,192,303672,1,0,0:0:0:0:
448,192,303672,1,0,0:0:0:0:
192,192,303726,1,0,0:0:0:0:
64,192,303780,1,0,0:0:0:0:
448,192,303780,1,0,0:0:0:0:
320,192,303833,1,0,0:0:0:0:
192,192,303887,1,0,0:0:0:0:
64,192,303887,1,0,0:0:0:0:
448,192,303994,1,0,0:0:0:0:
320,192,304047,1,0,0:0:0:0:
64,192,304101,1,0,0:0:0:0:
192,192,304155,1,0,0:0:0:0:
448,192,304208,1,0,0:0:0:0:
320,192,304262,1,0,0:0:0:0:
64,192,304315,1,0,0:0:0:0:
192,192,304369,1,0,0:0:0:0:
448,192,304422,1,0,0:0:0:0:
320,192,304476,1,0,0:0:0:0:
64,192,304530,1,0,0:0:0:0:
192,192,304583,1,0,0:0:0:0:
448,192,304637,1,0,0:0:0:0:
320,192,304690,1,0,0:0:0:0:
64,192,304744,1,0,0:0:0:0:
192,192,304797,1,0,0:0:0:0:
448,192,304851,1,0,0:0:0:0:
320,192,304905,1,0,0:0:0:0:
64,192,304958,1,0,0:0:0:0:
192,192,305012,1,0,0:0:0:0:
448,192,305065,1,0,0:0:0:0:
320,192,305119,1,0,0:0:0:0:
192,192,305172,128,0,305280:0:0:0:0:
64,192,305172,128,0,305280:0:0:0:0:
448,192,305172,128,0,305280:0:0:0:0:
