osu file format v14

[General]
AudioFilename: audio.mp3
AudioLeadIn: 0
PreviewTime: 221592
Countdown: 0
SampleSet: Soft
StackLeniency: 0.2
Mode: 0
LetterboxInBreaks: 0
WidescreenStoryboard: 1

[Editor]
Bookmarks: 72449,84449,113592,153878,204449,216449,218592,219878,223306,229520,237020,264475,278189,291904,305189
DistanceSpacing: 0.8
BeatDivisor: 4
GridSize: 8
TimelineZoom: 2.2

[Metadata]
Title:143
TitleUnicode:143
Artist:Halozy
ArtistUnicode:Halozy
Creator:871
Version:Ar10
Source:
Tags:
BeatmapID:1668098
BeatmapSetID:671533

[Difficulty]
HPDrainRate:6
CircleSize:4.2
OverallDifficulty:8
ApproachRate:10
SliderMultiplier:1.6
SliderTickRate:1

[Events]
//Background and Video events
0,0,"Sum gud shite right there.png",0,0
//Break Periods
2,141246,153609
2,196104,203966
//Storyboard Layer 0 (Background)
//Storyboard Layer 1 (Fail)
//Storyboard Layer 2 (Pass)
//Storyboard Layer 3 (Foreground)
//Storyboard Sound Samples

[TimingPoints]
3904,428.571428571429,4,2,1,40,1,0
3904,-194.931773879142,4,2,1,40,0,0
17592,-50,4,2,1,40,0,0
19306,-100,4,2,1,40,0,0
31306,-83.3333333333333,4,2,1,40,0,0
44592,-200,4,2,1,40,0,0
45020,-33.3333333333333,4,2,1,40,0,0
45342,-50,4,2,1,40,0,0
46306,-33.3333333333333,4,2,1,40,0,0
46628,-50,4,2,1,40,0,0
48449,-33.3333333333333,4,2,1,40,0,0
48770,-50,4,2,1,40,0,0
49735,-33.3333333333333,4,2,1,40,0,0
50056,-83.3333333333333,4,2,1,40,0,0
50592,-33.3333333333333,4,2,1,40,0,0
50913,-50,4,2,1,40,0,0
51878,-200,4,2,1,40,0,0
52735,-83.3333333333333,4,2,1,40,0,0
53592,-58.8235294117647,4,2,1,40,0,0
54449,-50,4,2,1,40,0,0
55306,-83.3333333333333,4,2,1,40,0,0
57020,-200,4,2,1,40,0,0
72449,-50,4,2,1,40,0,0
72878,-83.3333333333333,4,2,1,40,0,0
80163,-71.4285714285714,4,2,1,40,0,0
81020,-62.5,4,2,1,40,0,0
81878,-55.5555555555556,4,2,1,40,0,0
86163,-33.3333333333333,4,2,1,40,0,0
86485,-50,4,2,1,40,0,0
87020,-33.3333333333333,4,2,1,40,0,0
87342,-50,4,2,1,40,0,0
87878,-33.3333333333333,4,2,1,40,0,0
88199,-50,4,2,1,40,0,0
88735,-33.3333333333333,4,2,1,40,0,0
89056,-50,4,2,1,40,0,0
89592,-33.3333333333333,4,2,1,40,0,0
89692,-33.3333333333333,4,2,1,40,0,0
90342,-50,4,2,1,40,0,0
90878,-33.3333333333333,4,2,1,40,0,0
91199,-50,4,2,1,40,0,0
91949,-33.3333333333333,4,2,1,40,0,0
92270,-50,4,2,1,40,0,0
93020,-33.3333333333333,4,2,1,40,0,0
93878,-50,4,2,1,40,0,0
94735,-33.3333333333333,4,2,1,40,0,0
95056,-50,4,2,1,40,0,0
95378,-33.3333333333333,4,2,1,40,0,0
95699,-50,4,2,1,40,0,0
96449,-33.3333333333333,4,2,1,40,0,0
97092,-50,4,2,1,40,0,0
98163,-33.3333333333333,4,2,1,40,0,0
98913,-50,4,2,1,40,0,0
99878,-33.3333333333333,4,2,1,40,0,0
100199,-50,4,2,1,40,0,0
101592,-33.3333333333333,4,2,1,40,0,0
101913,-50,4,2,1,40,0,0
102449,-33.3333333333333,4,2,1,40,0,0
102770,-50,4,2,1,40,0,0
104592,-33.3333333333333,4,2,1,40,0,0
104913,-50,4,2,1,40,0,0
106735,-100,4,2,1,40,0,0
120449,-133.333333333333,4,2,1,40,0,0
126663,-83.3333333333333,4,2,1,40,0,0
127306,-133.333333333333,4,2,1,40,0,0
154092,-133.333333333333,4,2,1,40,0,0
168449,-133.333333333333,4,2,1,40,0,0
168663,-100,4,2,1,40,0,0
172306,-83.3333333333333,4,2,1,40,0,0
210449,-71.4285714285714,4,2,1,40,0,0
211306,-62.5,4,2,1,40,0,0
212163,-55.5555555555556,4,2,1,40,0,0
213020,-50,4,2,1,40,0,0
219878,-100,4,2,1,40,0,0
219985,-83.3333333333333,4,2,1,40,0,0
220092,-71.4285714285714,4,2,1,40,0,0
220199,-62.5,4,2,1,40,0,0
220306,-55.5555555555556,4,2,1,40,0,0
220413,-50,4,2,1,40,0,0
221163,-55.5555555555556,4,2,1,40,0,0
221270,-62.5,4,2,1,40,0,0
221378,-71.4285714285714,4,2,1,40,0,0
221485,-83.3333333333333,4,2,1,40,0,0
223306,-40,4,2,1,40,0,0
223735,-33.3333333333333,4,2,1,40,0,0
224056,-40,4,2,1,40,0,0
225449,-33.3333333333333,4,2,1,40,0,0
225770,-40,4,2,1,40,0,0
227163,-33.3333333333333,4,2,1,40,0,0
227485,-40,4,2,1,40,0,0
228878,-33.3333333333333,4,2,1,40,0,0
229199,-40,4,2,1,40,0,0
231663,-33.3333333333333,4,2,1,40,0,0
231985,-40,4,2,1,40,0,0
234020,-33.3333333333333,4,2,1,40,0,0
234342,-40,4,2,1,40,0,0
235306,-100,4,2,1,40,0,0
237449,-33.3333333333333,4,2,1,40,0,0
237796,-40,4,2,1,40,0,0
240904,-33.3333333333333,4,2,1,40,0,0
241225,-40,4,2,1,40,0,0
242616,-33.3333333333333,4,2,1,40,0,0
242939,-40,4,2,1,40,0,0
247332,-100,4,2,1,40,0,0
250761,-40,4,2,1,40,0,0
251189,-33.3333333333333,4,2,1,40,0,0
251511,-40,4,2,1,40,0,0
252046,-33.3333333333333,4,2,1,40,0,0
252368,-40,4,2,1,40,0,0
253332,-33.3333333333333,4,2,1,40,0,0
253654,-40,4,2,1,40,0,0
254618,-33.3333333333333,4,2,1,40,0,0
254939,-40,4,2,1,40,0,0
256332,-33.3333333333333,4,2,1,40,0,0
257189,-100,4,2,1,40,0,0
257725,-33.3333333333333,4,2,1,40,0,0
258904,-40,4,2,1,40,0,0
259332,-33.3333333333333,4,2,1,40,0,0
259654,-40,4,2,1,40,0,0
260189,-33.3333333333333,4,2,1,40,0,0
260511,-40,4,2,1,40,0,0
260832,-33.3333333333333,4,2,1,40,0,0
261368,-40,4,2,1,40,0,0
261796,-33.3333333333333,4,2,1,40,0,0
262225,-40,4,2,1,40,0,0
262761,-100,4,2,1,40,0,0
264475,-40,4,2,1,40,0,0
264904,-33.3333333333333,4,2,1,40,0,0
265225,-40,4,2,1,40,0,0
265761,-33.3333333333333,4,2,1,40,0,0
266082,-40,4,2,1,40,0,0
267475,-33.3333333333333,4,2,1,40,0,0
267796,-40,4,2,1,40,0,0
270046,-33.3333333333333,4,2,1,40,0,0
270910,-40,4,2,1,40,0,0
274761,-33.3333333333333,4,2,1,40,0,0
275725,-40,4,2,1,40,0,0
278189,-83.3333333333333,4,2,1,40,0,0
302618,-111.111111111111,4,2,1,40,0,0
303046,-142.857142857143,4,2,1,40,0,0
303475,-200,4,2,1,40,0,0
304225,-142.857142857143,4,2,1,40,0,0
304332,-111.111111111111,4,2,1,40,0,0
304439,-90.9090909090909,4,2,1,40,0,0
304546,-76.9230769230769,4,2,1,40,0,0
304761,-90.9090909090909,4,2,1,40,0,0
304868,-111.111111111111,4,2,1,40,0,0
304975,-142.857142857143,4,2,1,40,0,0
305082,-200,4,2,1,40,0,0

[Colours]
Combo1 : 183,183,255
Combo2 : 237,167,254
Combo3 : 228,228,228

[HitObjects]
464,352,3904,6,0,B|432:304|464:256|464:256|400:192|400:192|336:256|336:256|368:304|336:352|336:352|304:320|272:320|272:320|208:320|176:384|80:352|48:288|96:208|144:192|192:224|192:256|192:256,1,780
184,241,8189,6,0,P|168:224|160:196,1,41.0399991420777
144,128,8618,1,0,0:0:0:0:
432,48,9046,6,0,P|431:71|417:97,1,41.0399991420777
368,144,9475,2,0,P|336:160|320:160,1,41.0399991420777
240,160,9904,5,0,0:0:0:0:
368,144,10118,1,0,0:0:0:0:
432,48,10332,1,0,0:0:0:0:
128,352,10761,6,0,P|152:328|160:304,1,41.0399991420777
160,224,11189,2,0,P|151:191|134:172,1,41.0399991420777
64,128,11618,5,0,0:0:0:0:
160,224,11832,1,0,0:0:0:0:
128,352,12046,1,0,0:0:0:0:
416,352,12475,6,0,P|448:336|464:320,1,41.0399991420777
352,240,12904,2,0,P|336:208|336:192,1,41.0399991420777
448,128,13332,2,0,P|464:96|464:80,1,41.0399991420777
448,16,13654,1,0,0:0:0:0:
448,16,13761,1,0,0:0:0:0:
192,112,14189,6,0,P|216:96|232:72,1,41.0399991420777
64,112,14618,2,0,P|89:124|118:126,1,41.0399991420777
0,48,15046,5,0,0:0:0:0:
96,128,15261,1,0,0:0:0:0:
224,80,15475,1,0,0:0:0:0:
96,352,15904,6,0,P|64:336|48:320,1,41.0399991420777
160,240,16333,2,0,P|176:208|176:192,1,41.0399991420777
64,128,16761,2,0,P|48:96|48:80,1,41.0399991420777
64,16,17083,1,0,0:0:0:0:
64,16,17190,1,0,0:0:0:0:
384,160,17618,6,0,P|426:143|448:112,1,80
448,48,17832,6,0,P|405:64|384:96,1,80
384,160,18046,1,0,0:0:0:0:
448,48,18261,1,0,0:0:0:0:
432,224,18475,1,0,0:0:0:0:
448,48,18689,1,0,0:0:0:0:
512,240,18904,1,0,0:0:0:0:
432,360,19332,6,0,P|384:344|320:360,1,80
280,368,19654,1,0,0:0:0:0:
280,368,19761,1,0,0:0:0:0:
192,320,19975,1,0,0:0:0:0:
192,224,20189,1,0,0:0:0:0:
128,144,20404,1,0,0:0:0:0:
128,144,20512,1,0,0:0:0:0:
256,64,21046,6,0,L|230:139,1,80
48,80,21475,2,0,L|73:4,1,80
128,144,21904,1,0,0:0:0:0:
96,240,22118,1,0,0:0:0:0:
176,352,22332,1,0,0:0:0:0:
400,288,22761,6,0,P|368:256|352:224,1,80
464,160,23189,2,0,P|480:112|480:64,1,80
464,0,23618,1,0,0:0:0:0:
368,96,23832,1,0,0:0:0:0:
368,96,23939,1,0,0:0:0:0:
336,192,24475,6,0,L|448:208,1,80
352,12,24903,2,0,L|240:-4,1,80
336,192,25332,1,0,0:0:0:0:
368,96,25546,1,0,0:0:0:0:
352,12,25761,1,0,0:0:0:0:
112,288,26189,6,0,L|160:384,1,80
256,176,26618,2,0,L|177:191,1,80
128,96,27046,1,0,0:0:0:0:
84,188,27261,1,0,0:0:0:0:
84,188,27368,1,0,0:0:0:0:
256,192,27475,12,0,29618,0:0:0:0:
384,352,29832,5,0,0:0:0:0:
320,288,29939,1,0,0:0:0:0:
352,208,30046,1,0,0:0:0:0:
464,328,30261,5,0,0:0:0:0:
384,352,30368,1,0,0:0:0:0:
316,290,30475,1,0,0:0:0:0:
227,277,30582,1,0,0:0:0:0:
210,191,30690,1,0,0:0:0:0:
287,149,30797,1,0,0:0:0:0:
352,208,30904,1,0,0:0:0:0:
112,128,31332,5,0,0:0:0:0:
96,176,31440,1,0,0:0:0:0:
80,224,31547,1,0,0:0:0:0:
64,272,31654,1,0,0:0:0:0:
48,320,31761,2,0,L|32:368,1,47.9999985351563
192,192,31975,5,0,0:0:0:0:
208,240,32082,1,0,0:0:0:0:
224,284,32189,2,0,L|252:352,1,47.9999985351563
288,144,32404,5,0,0:0:0:0:
335,162,32511,1,0,0:0:0:0:
379,178,32618,2,0,L|448:208,1,47.9999985351563
304,48,32832,5,0,0:0:0:0:
304,48,32939,1,0,0:0:0:0:
304,48,33046,2,0,L|256:48,1,47.9999985351563
176,160,33261,2,0,L|128:160,1,47.9999985351563
304,272,33475,2,0,L|256:272,1,47.9999985351563
160,368,33690,2,0,L|112:368,1,47.9999985351563
304,272,33904,6,0,L|304:208,1,47.9999985351563
176,160,34118,1,0,0:0:0:0:
176,160,34225,2,0,L|176:208,1,47.9999985351563
432,208,34439,5,0,0:0:0:0:
432,176,34546,1,0,0:0:0:0:
432,144,34654,1,0,0:0:0:0:
432,112,34761,6,0,L|432:64,1,47.9999985351563
304,160,34975,2,0,L|304:112,1,47.9999985351563
48,64,35189,2,0,L|48:112,1,47.9999985351563
176,16,35403,2,0,L|176:64,1,47.9999985351563
304,160,35618,2,0,L|304:112,1,47.9999985351563
432,112,35832,2,0,L|432:64,1,47.9999985351563
304,256,36046,5,0,0:0:0:0:
256,248,36154,1,0,0:0:0:0:
216,216,36261,1,0,0:0:0:0:
200,168,36368,1,0,0:0:0:0:
208,128,36475,6,0,P|224:96|264:72,1,47.9999985351563
112,240,36689,2,0,L|64:240,1,47.9999985351563
304,160,36904,2,0,L|368:160,1,47.9999985351563
112,96,37118,2,0,L|112:160,1,47.9999985351563
304,288,37332,2,0,L|304:224,1,47.9999985351563
304,80,37546,2,0,L|304:32,1,47.9999985351563
480,352,37761,5,0,0:0:0:0:
448,352,37868,1,0,0:0:0:0:
416,320,37975,1,0,0:0:0:0:
384,320,38082,1,0,0:0:0:0:
352,288,38189,2,0,L|304:288,1,47.9999985351563
144,304,38404,5,0,0:0:0:0:
160,352,38511,1,0,0:0:0:0:
208,368,38618,2,0,L|256:368,1,47.9999985351563
224,240,38832,5,0,0:0:0:0:
208,192,38939,1,0,0:0:0:0:
160,176,39046,2,0,L|112:176,1,47.9999985351563
80,64,39261,2,0,L|32:64,1,47.9999985351563
160,176,39475,2,0,L|112:176,1,47.9999985351563
240,64,39689,1,0,0:0:0:0:
288,64,39796,1,0,0:0:0:0:
336,64,39904,6,0,L|384:64,1,47.9999985351563
464,208,40118,2,0,L|464:144,1,47.9999985351563
272,144,40332,2,0,L|320:144,1,47.9999985351563
384,288,40546,2,0,L|384:224,1,47.9999985351563
208,240,40761,6,0,L|208:288,1,47.9999985351563
384,288,40975,1,0,0:0:0:0:
384,288,41082,2,0,L|384:224,1,47.9999985351563
200,376,41296,1,0,0:0:0:0:
152,360,41404,1,0,0:0:0:0:
128,320,41511,1,0,0:0:0:0:
144,272,41618,6,0,P|176:240|208:232,1,47.9999985351563
96,128,41832,2,0,P|136:160|160:168,1,47.9999985351563
208,48,42046,2,0,P|224:96|208:128,1,47.9999985351563
336,160,42261,2,0,P|288:176|272:208,1,47.9999985351563
432,256,42475,2,0,P|416:208|400:192,1,47.9999985351563
336,352,42689,2,0,P|384:336|400:320,1,47.9999985351563
336,256,42904,5,0,0:0:0:0:
288,256,43011,1,0,0:0:0:0:
240,256,43118,1,0,0:0:0:0:
192,256,43225,1,0,0:0:0:0:
144,256,43332,6,0,L|96:256,1,47.9999985351563
232,120,43546,2,0,L|168:120,1,47.9999985351563
144,0,43761,6,0,L|64:0,1,47.9999985351563
232,120,43975,2,0,L|168:120,1,47.9999985351563
144,256,44189,2,0,L|96:256,1,47.9999985351563
192,368,44404,1,0,0:0:0:0:
304,384,44511,1,0,0:0:0:0:
400,320,44618,2,0,P|416:300|420:288,3,20
400,320,45046,6,0,P|416:252|328:312,1,240.000009155274
372,204,45368,5,0,0:0:0:0:
372,204,45475,2,0,P|380:236|340:300,1,80
240,96,45689,2,0,P|268:136|332:152,1,80
464,80,45904,2,0,P|400:96|368:144,1,80
456,248,46118,2,0,P|472:200|448:152,1,80
280,232,46332,6,0,B|176:320|144:144|-16:304,1,240.000009155274
112,320,46654,5,0,0:0:0:0:
176,384,46761,2,0,P|208:336|208:304,1,80
52,249,46975,2,0,P|20:297|20:329,1,80
304,160,47189,2,0,P|294:122|144:113,1,160
216,160,47511,5,0,0:0:0:0:
416,224,47618,2,0,P|352:224|320:272,1,80
448,384,47832,1,0,0:0:0:0:
448,384,47939,2,0,P|480:336|464:256,1,80
392,312,48154,5,0,0:0:0:0:
336,312,48261,1,0,0:0:0:0:
288,344,48368,1,0,0:0:0:0:
232,344,48475,6,0,P|224:280|280:352,1,240.000009155274
232,192,48796,1,0,0:0:0:0:
232,192,48904,2,0,P|264:240|264:272,1,80
80,176,49118,2,0,P|144:160|192:176,1,80
352,32,49332,2,0,P|336:96|352:144,1,80
368,192,49546,2,0,P|400:224|448:240,1,80
464,208,49761,6,0,P|368:128|384:16,1,240.000009155274
484,92,50082,1,0,0:0:0:0:
484,92,50189,6,0,L|480:128,2,31.9999990234375
464,208,50404,2,0,L|460:244,2,31.9999990234375
448,320,50618,2,0,B|408:312|368:336|368:336|320:328|288:304|288:304|248:336|192:320,1,240.000009155274
224,232,50939,1,0,0:0:0:0:
272,96,51046,2,0,P|288:152|256:200,1,80
224,232,51261,5,0,0:0:0:0:
144,224,51368,1,0,0:0:0:0:
108,152,51475,1,0,0:0:0:0:
132,80,51582,1,0,0:0:0:0:
208,56,51689,1,0,0:0:0:0:
272,96,51796,1,0,0:0:0:0:
352,96,51904,6,0,P|360:92|368:84,11,13.3333333333333
296,176,52761,2,0,P|312:208|328:224,11,31.9999990234375
192,208,53618,2,0,P|160:224|144:240,11,45.3333341979981
172,368,54475,2,0,P|140:336|140:288,11,53.3333333333333
264,272,55332,6,0,L|256:300,1,23.9999992675781
264,272,55439,2,0,L|256:296,1,23.9999992675781
264,272,55546,5,0,0:0:0:0:
320,296,55654,1,0,0:0:0:0:
376,288,55761,1,0,0:0:0:0:
416,240,55868,1,0,0:0:0:0:
416,176,55975,1,0,0:0:0:0:
360,120,56082,1,0,0:0:0:0:
280,128,56189,1,0,0:0:0:0:
232,192,56296,5,0,0:0:0:0:
168,240,56404,1,0,0:0:0:0:
88,232,56511,1,0,0:0:0:0:
32,160,56618,1,0,0:0:0:0:
56,72,56725,1,0,0:0:0:0:
144,32,56832,1,0,0:0:0:0:
216,80,56939,1,0,0:0:0:0:
140,140,57046,6,0,L|140:132,6,6.66666666666667
140,168,57368,1,0,0:0:0:0:
140,168,57475,1,0,0:0:0:0:
256,192,57582,12,0,58761,0:0:0:0:
416,240,58975,5,0,0:0:0:0:
352,336,59189,2,0,P|304:336|304:336,1,40
416,240,59618,2,0,L|464:240,1,40
352,336,60046,1,0,0:0:0:0:
448,112,60475,6,0,L|448:160,1,40
336,64,60904,2,0,L|335:24,1,40
448,112,61332,1,0,0:0:0:0:
336,176,61546,1,0,0:0:0:0:
336,176,61654,2,0,P|303:178|268:160,1,60
176,336,62189,6,0,L|208:288,1,40
112,192,62618,2,0,L|80:240,1,40
176,336,63046,1,0,0:0:0:0:
112,192,63261,1,0,0:0:0:0:
176,336,63475,1,0,0:0:0:0:
192,136,63904,6,0,P|204:151|210:170,1,40
40,256,64332,2,0,P|27:240|21:221,1,40
192,136,64761,1,0,0:0:0:0:
192,304,64975,1,0,0:0:0:0:
192,304,65082,2,0,L|160:320,2,20
280,256,65404,2,0,L|312:240,1,20
400,192,65618,5,0,0:0:0:0:
384,272,65832,1,0,0:0:0:0:
400,192,66046,5,0,0:0:0:0:
432,336,66260,1,0,0:0:0:0:
400,192,66475,5,0,0:0:0:0:
512,352,66689,1,0,0:0:0:0:
400,192,66904,2,0,P|368:208|352:224,1,40
464,96,67332,5,0,0:0:0:0:
400,48,67546,1,0,0:0:0:0:
464,96,67761,5,0,0:0:0:0:
320,64,67975,1,0,0:0:0:0:
464,96,68189,5,0,0:0:0:0:
272,192,68404,1,0,0:0:0:0:
272,192,68511,2,0,P|240:180|220:160,1,60
384,160,69046,5,0,0:0:0:0:
368,256,69261,1,0,0:0:0:0:
272,304,69475,1,0,0:0:0:0:
176,256,69689,1,0,0:0:0:0:
64,272,69904,1,0,0:0:0:0:
0,352,70118,1,0,0:0:0:0:
176,256,70332,2,0,P|176:224|164:204,1,40
128,152,70761,5,0,0:0:0:0:
264,48,70975,1,0,0:0:0:0:
272,176,71189,2,0,P|256:160|248:128,1,40
360,112,71618,1,0,0:0:0:0:
312,280,71832,1,0,0:0:0:0:
312,280,71939,6,0,L|344:272,2,20
224,304,72261,2,0,L|192:312,1,20
104,184,72475,6,0,P|144:216|152:248,1,80
120,312,72689,2,0,P|80:280|72:248,1,80
104,184,72904,5,0,0:0:0:0:
120,312,73118,1,0,0:0:0:0:
104,184,73332,5,0,0:0:0:0:
48,344,73546,1,0,0:0:0:0:
104,184,73761,2,0,P|168:184|208:160,1,95.9999970703126
132,48,74189,6,0,P|128:80|136:104,1,47.9999985351563
195,170,74404,2,0,P|232:180|259:178,1,47.9999985351563
336,144,74618,2,0,P|368:112|384:80,3,47.9999985351563
416,256,75046,2,0,P|384:240|336:240,3,47.9999985351563
240,320,75475,2,0,P|269:280|272:240,3,47.9999985351563
272,200,75904,5,0,0:0:0:0:
247,165,76011,1,0,0:0:0:0:
208,148,76118,1,0,0:0:0:0:
165,152,76225,1,0,0:0:0:0:
131,178,76332,1,0,0:0:0:0:
115,218,76439,1,0,0:0:0:0:
120,256,76546,1,0,0:0:0:0:
144,290,76653,1,0,0:0:0:0:
183,307,76760,5,0,0:0:0:0:
226,303,76867,1,0,0:0:0:0:
260,277,76974,1,0,0:0:0:0:
304,272,77082,1,0,0:0:0:0:
343,289,77189,1,0,0:0:0:0:
367,323,77296,1,0,0:0:0:0:
406,340,77404,1,0,0:0:0:0:
450,335,77512,1,0,0:0:0:0:
488,304,77618,2,0,P|492:284|488:264,4,23.9999992675781
472,200,77939,5,0,0:0:0:0:
430,184,78046,1,0,0:0:0:0:
387,197,78153,1,0,0:0:0:0:
358,231,78260,1,0,0:0:0:0:
351,276,78367,1,0,0:0:0:0:
367,318,78474,1,0,0:0:0:0:
367,318,78581,1,0,0:0:0:0:
367,318,78688,5,0,0:0:0:0:
300,288,78796,1,0,0:0:0:0:
232,296,78903,1,0,0:0:0:0:
176,340,79010,1,0,0:0:0:0:
108,360,79118,1,0,0:0:0:0:
40,328,79225,1,0,0:0:0:0:
24,256,79332,6,0,P|24:220|32:204,8,31.9999990234375
136,224,79975,2,0,P|136:272|112:304,1,47.9999985351563
80,112,80189,6,0,P|96:96|120:88,8,37.3333321940105
184,198,80832,2,0,P|142:222|92:222,1,55.9999982910157
240,80,81046,6,0,P|271:97|280:120,8,42.6666666666667
233,234,81689,2,0,P|191:210|177:155,1,64
328,224,81904,6,0,P|328:259|320:276,8,47.9999985351563
224,302,82546,2,0,P|222:255|262:211,1,71.9999978027344
400,272,82761,6,0,P|392:328|368:352,1,71.9999978027344
392,152,82975,1,0,0:0:0:0:
442,303,83189,6,0,P|396:336|362:336,1,71.9999978027344
472,184,83404,1,0,0:0:0:0:
440,376,83618,6,0,P|387:353|371:324,1,71.9999978027344
512,264,83832,1,0,0:0:0:0:
240,344,84046,1,0,0:0:0:0:
240,344,84154,1,0,0:0:0:0:
240,344,84261,1,0,0:0:0:0:
256,192,84475,12,0,85761,0:0:0:0:
416,256,86189,6,0,P|448:128|336:80,1,240.000009155274
272,176,86511,1,0,0:0:0:0:
272,176,86618,2,0,L|400:176,1,80
176,176,86832,2,0,L|176:64,1,80
272,272,87046,2,0,P|224:336|64:320,1,240.000009155274
40,300,87368,6,0,P|72:328|80:396,1,80
0,208,87582,1,0,0:0:0:0:
32,128,87689,1,0,0:0:0:0:
112,96,87796,1,0,0:0:0:0:
208,128,87904,2,0,B|320:192|384:64|480:160,1,240.000009155274
400,208,88225,5,0,0:0:0:0:
415,282,88332,2,0,P|418:247|338:183,1,80
240,320,88546,2,0,P|262:346|364:335,1,80
320,256,88761,2,0,B|296:208|296:208|320:160|296:128|296:128|344:64|288:0,1,240.000009155274
144,56,89082,1,0,0:0:0:0:
144,56,89189,2,0,P|184:72|223:71,1,80
48,32,89404,5,0,0:0:0:0:
64,112,89511,1,0,0:0:0:0:
83,203,89618,2,0,P|150:181|47:142,1,240.000009155274
102,294,89939,1,0,0:0:0:0:
102,294,90046,2,0,P|7:266|82:202,1,240.000009155274
224,288,90368,5,0,0:0:0:0:
224,288,90475,2,0,P|208:352|176:384,1,80
320,208,90689,2,0,P|367:253|379:297,1,80
272,80,90904,2,0,P|356:92|284:208,1,240.000009155274
240,168,91225,5,0,0:0:0:0:
291,302,91332,2,0,P|331:302|368:288,1,80
432,240,91546,2,0,P|456:200|456:120,1,80
456,88,91761,2,0,P|432:40|384:8,1,80
305,141,91975,2,0,B|203:222|150:98|49:169,1,240.000009155274
64,296,92296,1,0,0:0:0:0:
64,296,92404,2,0,P|109:257|120:200,1,80
224,240,92618,2,0,P|212:181|168:143,1,80
73,70,92832,5,0,0:0:0:0:
121,134,92939,1,0,0:0:0:0:
201,166,93046,6,0,B|288:160|320:80|320:80|256:48|192:96,1,240.000009155274
164,96,93368,1,0,0:0:0:0:
120,160,93475,2,0,B|81:238|134:306|134:306|194:266|185:187,1,240.000009155274
204,168,93796,5,0,0:0:0:0:
164,96,93904,2,0,P|112:32|64:32,1,80
284,172,94118,2,0,P|352:160|384:128,1,80
172,244,94332,2,0,P|160:296|168:336,1,80
368,256,94546,5,0,0:0:0:0:
320,192,94654,1,0,0:0:0:0:
240,188,94761,2,0,P|176:236|208:384,1,240.000009155274
272,288,95082,5,0,0:0:0:0:
368,256,95189,2,0,P|404:212|380:148,1,80
304,16,95404,2,0,P|320:96|448:48,1,240
374,42,95725,5,0,0:0:0:0:
374,42,95832,2,0,P|338:102|306:118,1,80
249,133,96046,2,0,P|179:131|149:112,1,80,0|0,2:0|2:0,2:0:0:0:
64,288,96261,2,0,P|128:256|176:256,1,80,0|0,2:0|2:0,2:0:0:0:
224,256,96475,6,0,B|288:240|320:272|336:368|464:304|496:256|464:176|448:176,1,240.000009155274
388,212,96796,6,0,P|352:304|480:352,1,240.000009155274
480,184,97118,6,0,P|464:144|380:124,1,80
352,120,97332,2,0,P|312:136|292:220,1,80
0,144,97546,2,0,P|16:184|100:204,1,80
128,208,97760,2,0,P|168:191|188:107,1,80
96,80,97975,1,0,0:0:0:0:
80,152,98082,1,0,0:0:0:0:
128,208,98189,2,0,B|172:248|172:248|160:320|160:320|112:352|112:352|48:336|48:336,1,240.000009155274
304,308,98511,5,0,0:0:0:0:
304,308,98618,2,0,B|258:269|258:269|268:197|268:197|314:163|314:163|379:177|379:177,1,240.000009155274
508,260,98939,5,0,0:0:0:0:
508,260,99046,2,0,P|452:248|396:204,1,80
363,173,99261,2,0,P|345:118|355:48,1,80
484,116,99475,1,0,0:0:0:0:
484,152,99582,1,0,0:0:0:0:
456,184,99689,1,0,0:0:0:0:
456,220,99796,1,0,0:0:0:0:
504,256,99904,6,0,B|516:300|516:300|488:344|488:344|424:352|424:352|388:312|388:312|384:272,1,240.000009155274
272,184,100225,1,0,0:0:0:0:
308,268,100332,2,0,P|356:284|436:284,1,80
208,256,100546,2,0,P|218:305|258:374,1,80
176,160,100761,6,0,P|138:193|98:262,1,80
32,96,100975,1,0,0:0:0:0:
32,96,101082,2,0,P|32:144|16:192,1,80
80,32,101296,1,0,0:0:0:0:
160,32,101404,1,0,0:0:0:0:
208,96,101511,1,0,0:0:0:0:
288,128,101618,6,0,B|368:144|416:112|416:112|400:48|272:32,1,240.000009155274
264,44,101939,1,0,0:0:0:0:
208,96,102046,2,0,P|196:136|228:192,1,80
276,216,102261,2,0,P|316:216|372:176,1,80
288,124,102475,6,0,B|272:208|272:208|301:296|301:296|272:384,1,240.000009155274
360,350,102796,1,0,0:0:0:0:
360,350,102904,2,0,P|306:347|251:371,1,80
209,128,103118,2,0,P|262:130|318:107,1,80
416,80,103332,5,0,0:0:0:0:
416,80,103439,1,0,0:0:0:0:
416,80,103546,2,0,P|384:144|400:192,1,80
160,288,103761,5,0,0:0:0:0:
160,288,103868,1,0,0:0:0:0:
160,288,103975,2,0,P|192:224|176:176,1,80
0,224,104189,1,0,0:0:0:0:
64,288,104296,1,0,0:0:0:0:
160,288,104404,1,0,0:0:0:0:
240,240,104511,1,0,0:0:0:0:
320,256,104618,6,0,B|400:288|400:288|497:256|497:256|464:336,1,240.000009155274
400,112,104939,1,0,0:0:0:0:
400,112,105046,2,0,P|396:171|368:208,1,80
112,96,105261,1,0,0:0:0:0:
112,96,105368,1,0,0:0:0:0:
112,96,105475,2,0,P|112:160|160:208,1,80
192,320,105689,6,0,P|192:272|144:224,1,80
118,172,105904,2,0,P|106:135|112:96,1,80
384,24,106118,1,0,0:0:0:0:
360,96,106225,1,0,0:0:0:0:
296,144,106332,2,0,P|216:160|184:144,1,80
384,24,106546,6,0,P|424:48|432:120,1,80
232,56,106761,2,0,L|208:-8,5,40
184,160,107404,2,0,L|208:224,1,40
312,248,107618,2,0,L|336:312,5,40
475,211,108261,2,0,L|459:175,1,40
352,104,108476,2,0,L|368:140,5,40
447,364,109118,2,0,L|431:328,1,40
326,285,109332,2,0,L|312:248,1,40
204,206,109546,2,0,L|189:168,1,40
326,285,109761,6,0,L|311:247,1,40
368,140,109975,2,0,L|351:103,1,40
416,8,110189,6,0,L|432:48,3,26.6666666666667
512,96,110511,1,0,0:0:0:0:
512,96,110618,6,0,L|464:144,2,40
464,224,110939,1,0,0:0:0:0:
464,224,111046,6,0,L|400:208,2,40
320,288,111368,1,0,0:0:0:0:
272,256,111475,1,0,0:0:0:0:
216,264,111582,1,0,0:0:0:0:
176,304,111689,1,0,0:0:0:0:
120,312,111796,1,0,0:0:0:0:
80,272,111904,1,0,0:0:0:0:
256,192,112011,12,0,113618,0:0:0:0:
160,304,113832,5,0,0:0:0:0:
208,240,114046,1,0,0:0:0:0:
240,352,114261,1,0,0:0:0:0:
208,240,114475,1,0,0:0:0:0:
336,352,114689,1,0,0:0:0:0:
336,352,114796,1,0,0:0:0:0:
432,64,115332,5,0,0:0:0:0:
416,144,115546,1,0,0:0:0:0:
432,64,115761,1,0,0:0:0:0:
320,176,115975,1,0,0:0:0:0:
432,64,116189,1,0,0:0:0:0:
224,176,116404,1,0,0:0:0:0:
224,176,116511,1,0,0:0:0:0:
56,64,117046,5,0,0:0:0:0:
64,208,117261,1,0,0:0:0:0:
56,64,117475,1,0,0:0:0:0:
64,208,117689,1,0,0:0:0:0:
56,64,117904,6,0,L|60:124,1,40
64,208,118118,2,0,L|68:268,1,40
72,348,118332,1,0,0:0:0:0:
72,348,118761,5,0,0:0:0:0:
72,348,118975,1,0,0:0:0:0:
160,320,119189,1,0,0:0:0:0:
160,320,119404,1,0,0:0:0:0:
208,224,119618,1,0,0:0:0:0:
208,224,119832,1,0,0:0:0:0:
288,176,120046,5,0,0:0:0:0:
384,368,120475,2,0,B|432:320|400:264|352:256|352:256|432:192|384:96|320:80,1,360.000013732911
432,64,122189,6,0,P|416:144|256:32,1,360.000013732911
336,96,123904,6,0,B|304:160|304:160|208:192|208:192|128:160|128:160|60:180|60:180|32:224,1,360.000013732911
224,96,125618,6,0,P|218:66|207:38,1,60.0000022888184
128,256,126046,2,0,P|133:285|144:313,1,60.0000022888184
224,96,126475,1,0,0:0:0:0:
128,256,126689,5,0,0:0:0:0:
168,256,126796,1,0,0:0:0:0:
200,296,126904,1,0,0:0:0:0:
240,296,127011,1,0,0:0:0:0:
280,256,127118,1,0,0:0:0:0:
320,256,127225,1,0,0:0:0:0:
360,296,127332,6,0,B|432:296|432:296|480:219|480:219|432:144|432:144|343:145|320:144,1,360.000013732911
208,96,128832,2,0,B|256:96|256:96|320:144|320:144|384:144|384:144|424:200,1,240.000009155274
480,32,130118,5,0,0:0:0:0:
400,32,130332,1,0,0:0:0:0:
320,144,130546,2,0,B|240:144|240:144|176:192|176:192|86:191|86:191|32:144,1,300.000011444092
128,96,132047,5,0,0:0:0:0:
32,256,132261,2,0,P|133:209|117:81,1,240.000009155274
48,160,133546,5,0,0:0:0:0:
112,224,133760,1,0,0:0:0:0:
208,240,133975,1,0,0:0:0:0:
304,208,134189,6,0,B|368:160|361:100|361:100|320:96|288:112,1,180.000006866455
240,288,135046,2,0,B|272:336|320:352|320:352|352:304|336:256,1,180.000006866455
160,240,135904,2,0,B|112:271|96:319|96:319|144:351|192:335,1,180.000006866455
208,144,136761,2,0,B|176:96|128:79|128:79|96:128|112:176,1,180.000006866455
256,192,137618,12,0,139118,0:0:0:0:
256,192,139332,12,0,141046,0:0:0:0:
384,352,154118,5,0,0:0:0:0:
448,288,154332,1,0,0:0:0:0:
448,192,154546,1,0,0:0:0:0:
384,128,154761,1,0,0:0:0:0:
384,128,154975,1,0,0:0:0:0:
384,128,155189,1,0,0:0:0:0:
144,256,155618,5,0,0:0:0:0:
144,256,155832,1,0,0:0:0:0:
144,256,156046,1,0,0:0:0:0:
224,32,156475,5,0,0:0:0:0:
272,112,156689,1,0,0:0:0:0:
240,208,156904,1,0,0:0:0:0:
144,256,157118,1,0,0:0:0:0:
48,224,157332,5,0,0:0:0:0:
48,224,157654,5,0,0:0:0:0:
152,132,157975,5,0,0:0:0:0:
240,160,158189,1,0,0:0:0:0:
320,128,158404,1,0,0:0:0:0:
400,160,158618,1,0,0:0:0:0:
256,64,159046,5,0,0:0:0:0:
320,128,159261,1,0,0:0:0:0:
288,224,159475,1,0,0:0:0:0:
352,304,159689,1,0,0:0:0:0:
448,304,159904,5,0,0:0:0:0:
448,304,160225,5,0,0:0:0:0:
272,368,160546,5,0,0:0:0:0:
160,336,160761,2,0,L|144:272,1,60.0000022888184
256,304,161189,2,0,L|272:368,1,60.0000022888184
48,288,161618,2,0,P|96:192|224:224,1,240.000009155274
144,272,162689,5,0,0:0:0:0:
80,192,162903,1,0,0:0:0:0:
80,96,163117,1,0,0:0:0:0:
336,384,163546,5,0,0:0:0:0:
400,304,163760,1,0,0:0:0:0:
400,208,163974,1,0,0:0:0:0:
144,272,164404,5,0,0:0:0:0:
48,240,164619,1,0,0:0:0:0:
128,160,164832,2,0,B|184:144|224:176|240:224|240:224|280:208|280:208|312:224|312:224|344:208|344:208|366:227|400:232,1,300.000011444092
416,128,166332,5,0,0:0:0:0:
376,320,166546,2,0,P|456:288|472:256,1,120.000004577637
384,224,167189,1,0,0:0:0:0:
296,272,167404,1,0,0:0:0:0:
256,192,167618,12,0,168475,0:0:0:0:
336,160,168689,5,0,0:0:0:0:
184,184,168904,2,0,L|152:272,1,80
416,176,169332,5,0,0:0:0:0:
336,160,169546,1,0,0:0:0:0:
264,200,169761,2,0,L|232:288,1,80
448,256,170189,5,0,0:0:0:0:
416,176,170404,1,0,0:0:0:0:
336,160,170618,2,0,P|288:176|256:208,1,80
480,128,171046,2,0,P|512:80|512:48,1,80
432,64,171368,1,0,0:0:0:0:
432,64,171475,1,0,0:0:0:0:
352,272,171689,5,0,0:0:0:0:
240,240,171904,1,0,0:0:0:0:
144,304,172118,1,0,0:0:0:0:
32,256,172332,2,0,P|16:192|32:128,1,95.9999970703126
256,128,172761,1,0,0:0:0:0:
240,240,172975,1,0,0:0:0:0:
144,304,173189,6,0,P|96:304|48:256,1,95.9999970703126
336,192,173618,2,0,P|352:256|336:288,1,95.9999970703126
240,240,173939,1,0,0:0:0:0:
240,240,174046,1,0,0:0:0:0:
168,72,174261,5,0,0:0:0:0:
200,40,174368,1,0,0:0:0:0:
244,28,174475,1,0,0:0:0:0:
288,40,174582,1,0,0:0:0:0:
320,72,174689,2,0,P|352:80|376:72,1,47.9999985351563
480,40,174904,2,0,B|464:24|464:-8|464:-8|464:16|440:48,1,95.9999970703126
448,208,175332,5,0,0:0:0:0:
408,208,175439,1,0,0:0:0:0:
368,240,175546,1,0,0:0:0:0:
320,240,175654,1,0,0:0:0:0:
288,272,175761,2,0,P|240:288|192:272,1,95.9999970703126
240,176,176082,1,0,0:0:0:0:
240,176,176189,1,0,0:0:0:0:
136,352,176404,5,0,0:0:0:0:
96,328,176511,1,0,0:0:0:0:
79,287,176618,2,0,P|78:264|85:241,1,47.9999985351563
16,168,176832,2,0,P|16:136|0:104,1,47.9999985351563
136,48,177046,1,0,0:0:0:0:
416,288,177261,6,0,P|417:264|410:241,1,47.9999985351563
480,168,177475,2,0,P|480:136|496:104,1,47.9999985351563
360,48,177689,1,0,0:0:0:0:
256,368,177904,5,0,0:0:0:0:
240,320,178011,1,0,0:0:0:0:
256,272,178118,2,0,P|280:216|280:200,1,47.9999985351563
256,136,178332,2,0,P|240:104|240:80,1,47.9999985351563
256,8,178546,1,0,0:0:0:0:
416,160,178761,6,0,P|464:112|480:64,1,95.9999970703126
320,224,179189,2,0,P|320:288|336:320,1,95.9999970703126
320,112,179618,2,0,P|272:96|208:112,1,95.9999970703126
160,144,179939,1,0,0:0:0:0:
160,144,180046,1,0,0:0:0:0:
128,368,180261,6,0,P|192:320|192:192,1,191.999994140625
94,255,180904,1,0,0:0:0:0:
304,336,181118,2,0,P|368:288|480:320,1,191.999994140625
471,311,181761,1,0,0:0:0:0:
480,112,182189,5,0,0:0:0:0:
448,144,182296,1,0,0:0:0:0:
400,160,182404,1,0,0:0:0:0:
352,160,182511,1,0,0:0:0:0:
304,141,182618,6,0,P|284:119|271:87,1,47.9999985351563
411,76,182832,2,0,P|388:79|365:72,1,47.9999985351563
190,124,183046,2,0,P|185:101|186:77,1,47.9999985351563
355,215,183261,1,0,0:0:0:0:
304,272,183368,2,0,L|224:256,2,47.9999985351563
384,288,183689,1,0,0:0:0:0:
176,344,183904,5,0,0:0:0:0:
144,296,184011,1,0,0:0:0:0:
144,240,184118,1,0,0:0:0:0:
168,192,184225,1,0,0:0:0:0:
207,159,184332,6,0,P|250:147|292:156,1,47.9999985351563
317,263,184546,2,0,P|287:243|272:217,1,47.9999985351563
337,112,184761,2,0,P|341:167|323:189,1,47.9999985351563
272,55,184975,1,0,0:0:0:0:
368,24,185082,2,0,P|390:27|421:44,2,47.9999985351563
204,162,185404,1,0,0:0:0:0:
416,32,185618,5,0,0:0:0:0:
368,24,185725,1,0,0:0:0:0:
320,48,185832,1,0,0:0:0:0:
296,96,185939,1,0,0:0:0:0:
304,143,186046,6,0,P|332:183|363:201,1,47.9999985351563
432,146,186261,2,0,P|466:162|493:162,1,47.9999985351563
241,240,186475,2,0,P|240:290|249:318,1,47.9999985351563
357,324,186689,1,0,0:0:0:0:
450,301,186796,2,0,P|441:278|426:261,2,47.9999985351563
422,382,187118,1,0,0:0:0:0:
256,360,187332,5,0,0:0:0:0:
196,344,187439,1,0,0:0:0:0:
192,280,187546,1,0,0:0:0:0:
252,252,187654,1,0,0:0:0:0:
288,304,187761,6,0,P|272:348|250:367,1,47.9999985351563
108,298,187975,2,0,P|119:244|135:227,1,47.9999985351563
357,259,188189,2,0,P|374:298|371:318,1,47.9999985351563
220,229,188404,1,0,0:0:0:0:
288,128,188511,2,0,P|288:184|272:208,2,47.9999985351563
225,62,188832,1,0,0:0:0:0:
0,144,189046,6,0,B|80:192|112:112|192:144,1,191.999994140625
144,232,189689,2,0,P|96:160|128:64,1,191.999994140625
232,144,190332,1,0,0:0:0:0:
291,318,190546,6,0,B|259:270|259:270|259:190|259:190|211:110,1,191.999994140625
376,240,191189,1,0,0:0:0:0:
496,248,191404,2,0,B|482:195|482:195|426:138|426:138|414:82,1,191.999994140625
376,240,192046,5,0,0:0:0:0:
291,318,192261,2,0,P|396:356|356:128,1,479.999985351563
256,192,193546,12,0,195904,0:0:0:0:
48,352,204475,6,0,P|96:320|112:288,3,47.9999985351563
136,260,204904,2,0,P|152:224|152:180,1,47.9999985351563
152,132,205118,2,0,P|140:96|112:72,1,47.9999985351563
64,44,205332,1,0,0:0:0:0:
272,112,205546,1,0,0:0:0:0:
272,112,205654,2,0,P|320:96|336:80,2,47.9999985351563
268,32,205975,1,0,0:0:0:0:
400,352,206189,6,0,P|432:320|448:288,3,47.9999985351563
352,256,206618,2,0,P|336:224|336:176,1,47.9999985351563
448,160,206832,2,0,P|464:112|464:80,1,47.9999985351563
464,32,207046,1,0,0:0:0:0:
320,128,207261,1,0,0:0:0:0:
320,128,207368,2,0,P|288:128|256:112,2,47.9999985351563
304,48,207689,2,0,P|264:32|228:32,1,47.9999985351563
112,160,207904,5,0,0:0:0:0:
134,165,208011,1,0,0:0:0:0:
160,157,208118,1,0,0:0:0:0:
177,134,208225,1,0,0:0:0:0:
168,103,208332,1,0,0:0:0:0:
143,89,208439,1,0,0:0:0:0:
120,94,208546,1,0,0:0:0:0:
103,111,208654,1,0,0:0:0:0:
100,137,208761,5,0,0:0:0:0:
112,160,208868,1,0,0:0:0:0:
128,176,208975,1,0,0:0:0:0:
162,188,209082,1,0,0:0:0:0:
208,208,209189,1,0,0:0:0:0:
256,240,209296,1,0,0:0:0:0:
272,296,209404,5,0,0:0:0:0:
312,224,209511,1,0,0:0:0:0:
384,192,209618,6,0,P|406:187|434:191,3,31.9999990234375
488,224,209939,1,0,0:0:0:0:
464,276,210046,1,0,0:0:0:0:
416,304,210154,1,0,0:0:0:0:
344,304,210261,1,0,0:0:0:0:
280,256,210368,1,0,0:0:0:0:
272,172,210475,6,0,P|280:132|296:112,3,37.3333321940105
352,88,210796,1,0,0:0:0:0:
368,152,210904,1,0,0:0:0:0:
352,224,211011,1,0,0:0:0:0:
280,272,211118,1,0,0:0:0:0:
200,272,211225,1,0,0:0:0:0:
136,224,211332,6,0,P|120:192|120:168,3,42.6666666666667
184,112,211654,1,0,0:0:0:0:
240,152,211761,1,0,0:0:0:0:
256,224,211868,1,0,0:0:0:0:
208,312,211975,1,0,0:0:0:0:
120,344,212082,1,0,0:0:0:0:
40,304,212189,6,0,P|24:280|16:248,3,47.9999985351563
136,224,212511,5,0,0:0:0:0:
200,192,212618,1,0,0:0:0:0:
272,216,212725,1,0,0:0:0:0:
344,240,212832,1,0,0:0:0:0:
424,232,212939,1,0,0:0:0:0:
472,168,213046,6,0,P|480:136|464:88,3,53.3333333333333
432,48,213368,1,0,0:0:0:0:
360,80,213475,1,0,0:0:0:0:
336,152,213582,1,0,0:0:0:0:
344,232,213689,1,0,0:0:0:0:
392,296,213796,1,0,0:0:0:0:
472,320,213904,6,0,P|480:288|456:240,3,53.3333333333333
440,200,214225,1,0,0:0:0:0:
368,168,214332,1,0,0:0:0:0:
288,184,214439,1,0,0:0:0:0:
224,248,214546,1,0,0:0:0:0:
144,264,214654,1,0,0:0:0:0:
72,224,214761,2,0,P|48:192|48:160,3,53.3333333333333
160,152,215082,5,0,0:0:0:0:
240,128,215189,1,0,0:0:0:0:
320,152,215296,1,0,0:0:0:0:
376,88,215404,1,0,0:0:0:0:
320,24,215511,1,0,0:0:0:0:
232,48,215618,6,0,P|232:104|240:128,3,53.3333333333333
272,176,215939,1,0,0:0:0:0:
336,216,216046,1,0,0:0:0:0:
416,216,216154,1,0,0:0:0:0:
488,152,216261,1,0,0:0:0:0:
496,64,216368,1,0,0:0:0:0:
432,8,216475,5,0,0:0:0:0:
428,16,216582,1,0,0:0:0:0:
436,20,216689,1,0,0:0:0:0:
440,12,216796,1,0,0:0:0:0:
372,140,216904,5,0,0:0:0:0:
368,148,217011,1,0,0:0:0:0:
376,152,217118,1,0,0:0:0:0:
380,144,217225,1,0,0:0:0:0:
456,264,217332,5,0,0:0:0:0:
452,272,217439,1,0,0:0:0:0:
460,276,217546,1,0,0:0:0:0:
464,268,217653,1,0,0:0:0:0:
344,368,217761,5,0,0:0:0:0:
340,376,217868,1,0,0:0:0:0:
348,380,217975,1,0,0:0:0:0:
352,372,218082,1,0,0:0:0:0:
216,304,218189,5,0,0:0:0:0:
212,312,218296,1,0,0:0:0:0:
220,316,218403,1,0,0:0:0:0:
224,308,218510,1,0,0:0:0:0:
248,184,218618,5,0,0:0:0:0:
244,192,218725,1,0,0:0:0:0:
252,196,218832,1,0,0:0:0:0:
256,188,218939,1,0,0:0:0:0:
128,120,219046,5,0,0:0:0:0:
124,128,219153,1,0,0:0:0:0:
132,132,219260,1,0,0:0:0:0:
136,124,219367,1,0,0:0:0:0:
40,224,219475,5,0,0:0:0:0:
36,232,219582,1,0,0:0:0:0:
44,236,219689,1,0,0:0:0:0:
48,228,219796,1,0,0:0:0:0:
104,328,219904,6,0,L|96:360,1,20
160,336,220011,2,0,L|172:376,1,23.9999992675781
208,304,220118,2,0,L|244:336,1,27.9999991455078
232,248,220225,2,0,L|276:256,1,32
216,192,220332,2,0,L|256:176,1,35.9999989013672
248,104,220439,6,0,L|256:64,1,40
192,96,220546,2,0,L|176:44,1,40
144,128,220653,2,0,L|104:96,1,40
120,184,220760,2,0,L|72:176,1,40
136,240,220867,2,0,L|92:260,1,40
180,280,220975,2,0,L|151:319,1,40
232,296,221082,6,0,L|227:344,1,40
284,276,221189,2,0,L|296:312,1,35.9999989013672
336,248,221296,2,0,L|336:288,1,32
392,256,221404,2,0,L|376:280,1,27.9999991455078
440,288,221511,2,0,L|412:304,1,23.9999992675781
468,336,221618,5,0,0:0:0:0:
384,40,221832,1,0,0:0:0:0:
408,128,221939,1,0,0:0:0:0:
336,184,222046,1,0,0:0:0:0:
288,24,222261,5,0,0:0:0:0:
384,40,222368,1,0,0:0:0:0:
408,128,222475,1,0,0:0:0:0:
336,184,222582,1,0,0:0:0:0:
240,128,222689,1,0,0:0:0:0:
152,176,222796,1,0,0:0:0:0:
64,136,222904,1,0,0:0:0:0:
64,136,223332,5,0,0:0:0:0:
80,224,223439,1,0,0:0:0:0:
163,269,223546,2,0,P|171:215|135:161,1,100
40,312,223761,2,0,B|112:352|144:208|336:320,1,240.000009155274
285,193,224082,6,0,P|285:252|256:303,1,100
368,112,224296,1,0,0:0:0:0:
368,112,224404,2,0,P|432:144|464:192,1,100
336,16,224618,2,0,P|288:48|272:112,1,100
432,192,224832,2,0,P|480:128|480:96,1,100
368,112,225046,5,0,0:0:0:0:
272,128,225154,1,0,0:0:0:0:
192,208,225261,2,0,L|80:232,1,100
151,44,225475,2,0,P|183:140|55:228,1,240.000009155274
60,128,225796,6,0,P|100:124|68:144,1,100
112,304,226011,1,0,0:0:0:0:
112,304,226118,2,0,P|32:304|0:288,1,100
208,352,226332,2,0,P|256:304|288:224,1,100
368,256,226546,2,0,P|368:192|336:128,1,100
240,144,226761,5,0,0:0:0:0:
272,224,226868,1,0,0:0:0:0:
368,256,226975,2,0,P|432:240|480:176,1,100
368,32,227189,2,0,B|288:160|432:176|352:272,1,240.000009155274
466,46,227511,6,0,L|354:30,1,100
240,144,227725,1,0,0:0:0:0:
269,241,227832,2,0,L|381:257,1,100
144,96,228046,2,0,P|144:192|192:224,1,100
176,368,228261,2,0,P|176:272|128:240,1,100
144,192,228475,5,0,0:0:0:0:
144,96,228582,1,0,0:0:0:0:
224,48,228689,2,0,P|272:52|336:116,1,100
272,240,228904,2,0,P|140:184|160:80,1,240.000009155274
352,192,229225,6,0,P|376:248|320:328,1,100
240,144,229439,1,0,0:0:0:0:
240,144,229546,2,0,P|216:88|272:8,1,100
392,80,229761,2,0,P|368:24|376:72,1,200
432,152,230082,5,0,0:0:0:0:
408,240,230189,2,0,P|360:288|304:296,1,100
176,200,230404,1,0,0:0:0:0:
176,200,230511,2,0,P|200:256|280:296,1,100
96,136,230725,2,0,P|35:128|-39:178,1,100
184,104,230939,2,0,P|220:55|215:-34,1,100
131,22,231154,5,0,0:0:0:0:
131,22,231261,2,0,P|195:30|251:-2,1,100
352,128,231475,2,0,P|288:136|256:224,1,100
304,288,231689,2,0,P|400:224|288:128,1,240.000009155274
320,208,232011,5,0,0:0:0:0:
400,192,232118,1,0,0:0:0:0:
484,176,232225,2,0,L|500:64,1,100
320,208,232439,2,0,L|304:320,1,100
144,160,232654,6,0,L|272:128,1,100
128,256,232868,1,0,0:0:0:0:
128,256,232975,2,0,P|80:240|48:160,1,100
187,58,233189,2,0,P|226:89|229:175,1,100
272,304,233404,2,0,P|232:272|229:186,1,100
432,240,233618,5,0,0:0:0:0:
368,304,233725,1,0,0:0:0:0:
272,304,233832,2,0,P|208:304|144:336,1,100
336,208,234046,2,0,B|368:128|320:80|320:80|256:112|272:192,1,240.000009155274
368,304,234368,6,0,P|424:264|432:224,1,100
176,144,234582,1,0,0:0:0:0:
176,144,234689,2,0,P|184:204|224:236,1,100
82,374,234904,6,0,P|80:325|48:288,1,100
210,230,235118,2,0,P|178:193|176:144,1,100
208,64,235332,6,0,P|232:48|248:48,5,26.6666666666667
288,144,235761,1,0,0:0:0:0:
336,136,235868,1,0,0:0:0:0:
384,128,235975,1,0,0:0:0:0:
480,32,236189,5,0,0:0:0:0:
416,224,236296,1,0,0:0:0:0:
416,224,236404,1,0,0:0:0:0:
160,128,236618,1,0,0:0:0:0:
96,296,236832,5,0,0:0:0:0:
184,232,236939,1,0,0:0:0:0:
160,128,237046,2,0,P|152:112|136:104,6,20
184,232,237475,6,0,B|272:304|336:176|448:256,1,240.000009155274
434,342,237796,2,0,P|402:262|418:230,1,120.000004577637
448,48,238011,1,0,0:0:0:0:
448,48,238118,2,0,P|480:128|464:160,1,120.000004577637
256,176,238332,2,0,P|224:96|240:64,1,120.000004577637
256,288,238546,2,0,P|176:336|112:304,1,100
80,304,238761,5,0,0:0:0:0:
48,224,238868,1,0,0:0:0:0:
104,152,238975,2,0,P|144:200|128:264,1,100
32,80,239189,2,0,P|144:64|216:128,1,200
207,113,239511,6,0,P|160:72|96:56,1,100
256,192,239725,1,0,0:0:0:0:
352,160,239832,2,0,P|400:128|416:64,1,100
208,272,240046,2,0,P|192:320|224:400,1,100
207,113,240261,2,0,P|160:72|96:56,1,100
128,192,240475,5,0,0:0:0:0:
208,272,240582,1,0,0:0:0:0:
312,256,240689,2,0,P|352:200|344:144,1,100
248,184,240904,2,0,B|176:272|256:352|256:352|304:328|344:360,1,240.000009155274
392,376,241225,6,0,P|312:344|264:352,1,100
480,256,241439,1,0,0:0:0:0:
480,256,241546,2,0,P|448:192|448:128,1,100
208,96,241761,2,0,P|240:160|240:224,1,100
48,256,241975,2,0,P|16:192|16:128,1,100
128,304,242189,5,0,0:0:0:0:
224,304,242296,1,0,0:0:0:0:
304,256,242404,2,0,P|368:256|432:320,1,100
224,224,242618,2,0,P|256:160|272:264,1,240.000009155274
308,124,242939,6,0,P|284:204|252:228,1,100
416,48,243154,1,0,0:0:0:0:
416,48,243261,2,0,P|455:121|449:161,1,100,0|0,2:0|2:0,2:0:0:0:
208,128,243475,2,0,B|160:80|96:96|96:96|96:144|144:192,1,200
192,224,243796,1,0,0:0:0:0:
272,192,243904,5,0,0:0:0:0:
312,160,244011,1,0,0:0:0:0:
328,112,244118,1,0,0:0:0:0:
320,64,244225,1,0,0:0:0:0:
272,64,244332,1,0,0:0:0:0:
232,88,244439,1,0,0:0:0:0:
208,128,244546,1,0,0:0:0:0:
200,184,244654,5,0,0:0:0:0:
224,248,244761,1,0,0:0:0:0:
280,296,244868,1,0,0:0:0:0:
352,304,244975,1,0,0:0:0:0:
424,272,245082,1,0,0:0:0:0:
464,200,245189,1,0,0:0:0:0:
464,120,245296,1,0,0:0:0:0:
400,72,245404,1,0,0:0:0:0:
384,0,245511,1,0,0:0:0:0:
336,184,245618,5,0,0:0:0:0:
296,208,245725,1,0,0:0:0:0:
248,216,245832,1,0,0:0:0:0:
200,200,245939,1,0,0:0:0:0:
168,160,246046,1,0,0:0:0:0:
160,112,246154,1,0,0:0:0:0:
176,64,246261,1,0,0:0:0:0:
224,80,246368,5,0,0:0:0:0:
256,120,246475,1,0,0:0:0:0:
264,184,246582,1,0,0:0:0:0:
232,256,246689,1,0,0:0:0:0:
168,304,246796,1,0,0:0:0:0:
80,304,246904,1,0,0:0:0:0:
16,248,247011,1,0,0:0:0:0:
0,160,247118,1,0,0:0:0:0:
32,80,247225,1,0,0:0:0:0:
128,176,247332,6,0,L|136:208,7,20
208,160,247761,6,0,L|230:183,7,20
252,92,248189,6,0,L|283:101,7,20
232,16,248618,6,0,L|264:7,7,20
152,80,249046,5,0,0:0:0:0:
304,352,249261,1,0,0:0:0:0:
352,288,249368,1,0,0:0:0:0:
304,208,249475,1,0,0:0:0:0:
216,328,249689,5,0,0:0:0:0:
304,352,249796,1,0,0:0:0:0:
352,288,249904,1,0,0:0:0:0:
304,208,250011,1,0,0:0:0:0:
216,232,250118,1,0,0:0:0:0:
144,176,250225,1,0,0:0:0:0:
160,88,250332,1,0,0:0:0:0:
160,88,250761,6,0,P|224:112|320:80,1,100
396,190,250975,2,0,P|347:185|304:208,1,100
376,360,251189,2,0,P|452:296|348:184,1,240.000009155274
256,296,251511,5,0,0:0:0:0:
256,296,251618,2,0,P|304:224|304:192,1,100
120,296,251832,2,0,P|158:373|186:389,1,100
192,184,252046,2,0,B|128:144|48:152|48:152|40:208|88:296,1,240.000009155274
192,256,252368,5,0,0:0:0:0:
192,256,252475,2,0,P|248:224|256:152,1,100
192,112,252689,2,0,P|136:144|128:216,1,100
352,224,252904,2,0,P|304:224|260:192,1,100
296,48,253118,2,0,P|353:46|400:80,1,100
320,128,253332,6,0,B|240:176|192:64|72:128,1,240.000009155274
32,176,253654,1,0,0:0:0:0:
64,272,253761,2,0,P|128:224|128:160,1,100
32,176,253975,5,0,0:0:0:0:
64,272,254082,1,0,0:0:0:0:
160,320,254189,2,0,P|240:304|288:272,1,100
368,320,254404,2,0,P|400:224|400:176,1,100
240,112,254618,2,0,P|224:144|288:96,1,240.000009155274
192,32,254939,5,0,0:0:0:0:
144,96,255046,2,0,P|128:160|160:240,1,100
280,152,255261,2,0,P|296:88|264:8,1,100
176,264,255475,2,0,P|232:304|304:304,1,100
416,176,255689,2,0,P|353:204|336:288,1,100
432,320,255904,5,0,0:0:0:0:
480,240,256011,1,0,0:0:0:0:
416,176,256118,1,0,0:0:0:0:
384,96,256225,1,0,0:0:0:0:
468,76,256332,6,0,P|408:180|296:88,1,240.000009155274
304,64,256654,1,0,0:0:0:0:
384,96,256761,2,0,B|448:176|336:240|400:336,1,240.000009155274
496,296,257082,1,0,0:0:0:0:
496,296,257189,2,0,P|517:269|509:287,1,160
416,296,257725,1,0,0:0:0:0:
344,336,257832,1,0,0:0:0:0:
264,336,257939,1,0,0:0:0:0:
192,368,258046,6,0,B|144:368|144:368|112:304|112:304|144:240|144:240|224:240,1,240.000009155274
193,112,258368,1,0,0:0:0:0:
193,112,258475,2,0,B|241:112|241:112|273:176|273:176|241:240|241:240|161:240,1,240.000009155274
112,176,258796,5,0,0:0:0:0:
96,88,258904,2,0,P|128:40|208:24,1,100
80,272,259118,2,0,P|40:320|-16:336,1,100
208,208,259332,2,0,B|320:160|352:288|480:168,1,240.000009155274
432,112,259654,5,0,0:0:0:0:
352,152,259761,2,0,P|336:208|352:256,1,100
512,159,259975,2,0,P|480:122|432:112,1,100
264,304,260189,2,0,B|160:256|128:384|0:320,1,240.000009155274
72,240,260511,5,0,0:0:0:0:
160,280,260618,2,0,P|152:336|128:376,1,100
160,96,260832,2,0,B|176:64|208:48|232:72|248:104|248:152|224:176|176:160|139:206|139:206|136:168|96:144|48:128|64:64|128:0|160:60|168:72|176:112,1,480.000018310548
336,288,261368,5,0,0:0:0:0:
336,288,261475,2,0,P|308:224|328:172,1,100
486,290,261689,2,0,P|454:322|374:322,1,100
416,224,261904,2,0,B|480:144|336:64|432:-32,1,240.000009155274
496,48,262225,5,0,0:0:0:0:
416,96,262332,1,0,0:0:0:0:
320,96,262439,1,0,0:0:0:0:
240,48,262546,1,0,0:0:0:0:
144,32,262654,1,0,0:0:0:0:
64,64,262761,6,0,P|48:78|40:104,3,26.6666666666667
120,128,263082,1,0,0:0:0:0:
128,160,263189,1,0,0:0:0:0:
136,192,263296,1,0,0:0:0:0:
144,224,263404,5,0,0:0:0:0:
96,288,263511,2,0,L|112:360,1,40
224,176,263725,5,0,0:0:0:0:
272,112,263832,2,0,L|256:40,1,40
224,264,264046,2,0,P|272:248|304:208,1,80
305,212,264475,6,0,P|256:256|211:264,1,100
400,144,264689,2,0,P|432:208|432:256,1,100
128,200,264904,2,0,P|136:120|272:88,1,240.000009155274
305,212,265225,5,0,0:0:0:0:
305,212,265332,2,0,P|248:200|216:152,1,100
382,50,265546,2,0,P|405:97|390:161,1,100
256,288,265761,2,0,B|160:352|128:224|-32:320,1,240.000009155274
31,195,266082,5,0,0:0:0:0:
31,195,266189,2,0,P|37:244|23:292,1,100
192,192,266404,2,0,P|143:184|102:155,1,100
72,88,266618,2,0,P|80:32|112:-8,1,100
192,80,266832,5,0,0:0:0:0:
272,80,266939,1,0,0:0:0:0:
344,112,267046,1,0,0:0:0:0:
424,112,267154,1,0,0:0:0:0:
496,160,267261,2,0,P|456:192|376:184,1,100
384,32,267475,2,0,P|464:32|488:168,1,240.000009155274
352,272,267796,5,0,0:0:0:0:
352,272,267904,2,0,P|312:224|312:160,1,100
424,112,268118,2,0,P|456:160|456:216,1,100
352,272,268332,5,0,0:0:0:0:
272,248,268439,1,0,0:0:0:0:
184,256,268546,1,0,0:0:0:0:
112,304,268654,1,0,0:0:0:0:
184,348,268761,6,0,P|192:268|121:231,1,100
128,176,268975,2,0,P|111:129|127:83,1,100
127,83,269189,6,0,B|112:132|112:132|132:192,1,100
183,255,269404,2,0,B|200:301|200:301|184:356,1,100
96,240,269618,5,0,0:0:0:0:
144,176,269725,1,0,0:0:0:0:
224,176,269832,1,0,0:0:0:0:
272,240,269939,1,0,0:0:0:0:
368,240,270046,2,0,B|416:192|400:112|400:112|320:128|288:192,1,240.000009155274
272,240,270368,5,0,0:0:0:0:
320,320,270475,2,0,B|368:384|464:368|464:368|448:288|384:256,1,240.000009155274
368,240,270796,1,0,0:0:0:0:
272,240,270904,6,0,P|232:288|232:352,1,120.000004577637
448,192,271118,2,0,P|480:144|480:80,1,100
280,16,271332,5,0,0:0:0:0:
312,88,271439,1,0,0:0:0:0:
389,118,271546,2,0,P|453:118|485:102,1,100
232,80,271761,2,0,P|199:117|187:165,1,100
40,168,271975,2,0,P|67:209|111:233,1,100
136,328,272189,5,0,0:0:0:0:
232,344,272296,2,0,P|280:320|344:328,1,100
456,168,272511,2,0,P|408:200|296:160,1,100
408,32,272725,5,0,0:0:0:0:
464,88,272832,1,0,0:0:0:0:
456,168,272939,1,0,0:0:0:0:
408,232,273046,2,0,P|400:296|432:336,1,100
376,120,273261,5,0,0:0:0:0:
296,96,273368,1,0,0:0:0:0:
216,112,273475,1,0,0:0:0:0:
144,152,273582,1,0,0:0:0:0:
64,136,273689,1,0,0:0:0:0:
32,64,273796,1,0,0:0:0:0:
112,64,273904,2,0,P|148:112|140:160,1,100
112,360,274118,5,0,0:0:0:0:
48,304,274225,1,0,0:0:0:0:
72,216,274332,1,0,0:0:0:0:
152,200,274439,1,0,0:0:0:0:
200,264,274546,1,0,0:0:0:0:
280,312,274654,1,0,0:0:0:0:
366,289,274761,6,0,B|402:289|436:310|436:310|492:192|311:102|223:246|249:323|295:380|398:388,2,480.000018310548
168,144,275725,5,0,0:0:0:0:
168,144,275832,2,0,P|216:80|280:64,1,100
72,200,276046,2,0,P|32:168|16:104,1,100
100,300,276261,2,0,B|60:364|-20:364|-20:364|4:284|28:276,1,200
152,224,276689,5,0,0:0:0:0:
232,240,276796,1,0,0:0:0:0:
292,168,276904,1,0,0:0:0:0:
152,224,277118,5,0,0:0:0:0:
232,240,277225,1,0,0:0:0:0:
292,168,277332,1,0,0:0:0:0:
236,92,277439,1,0,0:0:0:0:
144,128,277546,1,0,0:0:0:0:
56,96,277654,1,0,0:0:0:0:
32,16,277761,1,0,0:0:0:0:
336,80,278189,5,0,0:0:0:0:
312,112,278296,1,0,0:0:0:0:
320,152,278404,2,0,L|296:240,1,47.9999985351563
408,280,278618,2,0,P|440:232|440:152,1,95.9999970703126
296,320,278939,2,0,P|208:296|168:304,1,95.9999970703126
128,312,279261,1,0,0:0:0:0:
128,312,279368,1,0,0:0:0:0:
48,184,279475,6,0,P|48:232|64:256,1,47.9999985351563
144,104,279689,2,0,P|148:80|143:57,1,47.9999985351563
0,112,279904,5,0,0:0:0:0:
12,156,280011,1,0,0:0:0:0:
48,184,280118,2,0,L|128:184,1,47.9999985351563
240,104,280332,2,0,L|344:104,1,95.9999970703126
248,264,280654,2,0,P|200:216|216:152,1,95.9999970703126
240,104,280975,1,0,0:0:0:0:
240,104,281082,1,0,0:0:0:0:
376,56,281189,6,0,P|328:88|304:88,1,47.9999985351563
352,184,281404,2,0,P|304:176|272:152,1,47.9999985351563
248,264,281618,5,0,0:0:0:0:
200,256,281725,1,0,0:0:0:0:
152,272,281832,2,0,P|112:296|88:296,1,47.9999985351563
32,160,282046,2,0,P|48:200|8:272,1,95.9999970703126
36,338,282368,2,0,P|20:298|60:226,1,95.9999970703126
111,295,282689,1,0,0:0:0:0:
111,295,282796,1,0,0:0:0:0:
192,344,282904,6,0,L|280:344,1,47.9999985351563
280,264,283118,2,0,L|368:264,1,47.9999985351563
304,104,283332,1,0,0:0:0:0:
280,144,283439,1,0,0:0:0:0:
240,160,283546,2,0,L|168:160,1,47.9999985351563
96,208,283761,5,0,0:0:0:0:
96,208,283975,1,0,0:0:0:0:
48,80,284189,2,0,P|100:40|164:52,1,95.9999970703126
120,128,284511,5,0,0:0:0:0:
96,208,284618,2,0,L|56:336,1,95.9999970703126
232,360,284939,1,0,0:0:0:0:
232,360,285046,6,0,B|312:344|312:280|312:280|265:273|240:227,1,191.999994140625
402,134,285689,2,0,P|306:161|392:110,1,287.999991210938
351,139,286546,2,0,B|304:160|287:207|287:207|175:207|175:207|164:256|95:271,1,287.999991210938
108,144,287404,2,0,P|169:215|52:192,1,287.999991210938
208,336,288261,2,0,B|272:336|304:304|304:304|384:320|384:320|432:272|496:288,1,287.999991210938
256,192,289118,12,0,291904,0:0:0:0:
336,144,292118,5,0,0:0:0:0:
352,224,292332,1,0,0:0:0:0:
304,304,292546,1,0,0:0:0:0:
192,336,292761,1,0,0:0:0:0:
80,288,292975,1,0,0:0:0:0:
32,160,293189,1,0,0:0:0:0:
80,48,293404,1,0,0:0:0:0:
192,192,293618,5,0,0:0:0:0:
264,144,293832,1,0,0:0:0:0:
352,160,294046,1,0,0:0:0:0:
400,232,294261,1,0,0:0:0:0:
392,328,294475,1,0,0:0:0:0:
304,384,294689,1,0,0:0:0:0:
192,352,294904,1,0,0:0:0:0:
80,384,295118,1,0,0:0:0:0:
288,256,295332,6,0,P|312:248|328:232,2,31.9999990234375
384,176,295546,1,0,0:0:0:0:
368,64,295761,1,0,0:0:0:0:
240,16,295975,1,0,0:0:0:0:
144,96,296189,1,0,0:0:0:0:
176,208,296404,1,0,0:0:0:0:
112,320,296618,1,0,0:0:0:0:
0,352,296832,1,0,0:0:0:0:
48,208,297046,6,0,P|32:200|8:176,2,31.9999990234375
128,224,297261,2,0,P|176:216|200:200,1,47.9999985351563
256,176,297475,2,0,P|304:168|336:176,1,47.9999985351563
384,192,297689,2,0,P|408:224|416:264,1,47.9999985351563
392,320,297904,5,0,0:0:0:0:
288,336,298011,1,0,0:0:0:0:
288,336,298118,2,0,P|299:292|323:269,1,47.9999985351563
352,216,298332,2,0,P|384:160|384:136,1,47.9999985351563
384,96,298546,1,0,0:0:0:0:
336,32,298654,1,0,0:0:0:0:
256,24,298761,2,0,P|224:32|184:64,1,47.9999985351563
176,240,298975,5,0,0:0:0:0:
240,192,299082,1,0,0:0:0:0:
208,112,299189,1,0,0:0:0:0:
128,128,299296,1,0,0:0:0:0:
112,208,299404,1,0,0:0:0:0:
176,240,299511,1,0,0:0:0:0:
240,192,299618,2,0,P|304:208|320:224,1,47.9999985351563
432,304,299832,5,0,0:0:0:0:
496,272,299939,1,0,0:0:0:0:
480,192,300047,1,0,0:0:0:0:
400,176,300154,1,0,0:0:0:0:
368,256,300261,1,0,0:0:0:0:
288,272,300368,1,0,0:0:0:0:
224,224,300475,2,0,P|208:192|208:144,1,47.9999985351563
304,192,300689,5,0,0:0:0:0:
288,272,300796,1,0,0:0:0:0:
208,304,300904,1,0,0:0:0:0:
136,256,301011,1,0,0:0:0:0:
48,256,301118,1,0,0:0:0:0:
112,336,301225,1,0,0:0:0:0:
208,304,301332,2,0,P|228:252|224:224,1,47.9999985351563
160,96,301546,5,0,0:0:0:0:
224,160,301654,1,0,0:0:0:0:
304,176,301761,1,0,0:0:0:0:
384,144,301868,1,0,0:0:0:0:
432,80,301975,1,0,0:0:0:0:
328,76,302082,1,0,0:0:0:0:
304,176,302189,6,0,P|320:204|328:212,7,23.9999992675781
296,280,302618,6,0,P|316:280|328:276,7,17.9999994506836
384,344,303046,6,0,P|392:336|396:328,7,13.9999995727539
480,304,303475,6,0,L|472:296,7,10
496,200,303904,1,0,0:0:0:0:
384,236,304118,6,0,L|392:248,1,10
352,248,304225,2,0,L|352:268,1,13.9999995727539
312,248,304332,2,0,L|304:272,1,17.9999994506836
280,228,304439,2,0,L|260:248,1,22.0000006713867
260,192,304546,2,0,L|228:212,1,25.9999988098145
260,152,304654,2,0,L|228:156,1,25.9999988098145
276,116,304761,2,0,L|236:108,1,22.0000006713867
344,160,304868,6,0,L|332:176,1,17.9999994506836
368,200,304975,2,0,L|344:200,1,13.9999995727539
360,252,305082,2,0,L|344:244,1,10
312,292,305189,1,0,0:0:0:0:
