osu file format v14

[General]
AudioFilename: audio.mp3
AudioLeadIn: 0
PreviewTime: -1
Countdown: 0
SampleSet: Soft
StackLeniency: 0.7
Mode: 0
LetterboxInBreaks: 0
WidescreenStoryboard: 1

[Editor]
DistanceSpacing: 0.5
BeatDivisor: 4
GridSize: 8
TimelineZoom: 4.099999

[Metadata]
Title:What am I fighting for
TitleUnicode:What am I fighting for
Artist:Haloweak ft. AKINO with Bless4
ArtistUnicode:Haloweak ft. AKINO with Bless4
Creator:lkx_Shore
Version:Easy
Source:少女前线
Tags:Akino with Bless4 B@kamin KANASA Girlsfrontline Winter event Collapse point 坍缩点 Girlsfrontline
BeatmapID:1662670
BeatmapSetID:792705

[Difficulty]
HPDrainRate:5
CircleSize:4
OverallDifficulty:8
ApproachRate:9.1
SliderMultiplier:1.8
SliderTickRate:1

[Events]
//Background and Video events
0,0,"4206.png",0,0
//Break Periods
2,146930,168089
//Storyboard Layer 0 (Background)
//Storyboard Layer 1 (Fail)
//Storyboard Layer 2 (Pass)
//Storyboard Layer 3 (Foreground)
//Storyboard Sound Samples

[TimingPoints]
-12,342.857142857143,4,2,0,40,1,0
26045,-100,4,2,0,60,0,0
46616,-100,4,2,0,35,0,0
47988,-66.6666666666667,4,2,0,60,0,0
58616,-60.2409638554217,4,2,0,60,0,0
58959,-66.6666666666667,4,2,0,60,0,0
68559,-200,4,2,0,60,0,0
69930,-100,4,2,0,60,0,0
83302,-66.6666666666667,4,2,0,60,0,0
83645,-100,4,2,0,60,0,0
86388,-90.9090909090909,4,2,0,60,0,0
86816,-90.9090909090909,4,2,0,5,0,0
86902,-90.9090909090909,4,2,0,60,0,0
87245,-90.9090909090909,4,2,0,60,0,0
90523,-90.9090909090909,4,2,0,5,0,0
90759,-90.9090909090909,4,2,0,60,0,0
91188,-133.333333333333,4,2,0,60,0,0
91788,-133.333333333333,4,2,0,5,0,0
91873,-66.6666666666667,4,2,0,60,0,0
92473,-66.6666666666667,4,2,0,5,0,0
92902,-66.6666666666667,4,2,0,60,0,0
93073,-66.6666666666667,4,2,0,40,0,0
93330,-66.6666666666667,4,2,0,5,0,0
93759,-100,4,2,0,60,0,0
93845,-100,4,2,0,5,0,0
94102,-66.6666666666667,4,2,0,60,0,0
95645,-133.333333333333,4,2,0,60,0,0
96716,-133.333333333333,4,2,0,5,0,0
97016,-66.6666666666667,4,2,0,60,0,0
97359,-66.6666666666667,4,2,0,60,0,0
98388,-133.333333333333,4,2,0,60,0,0
98730,-66.6666666666667,4,2,0,60,0,0
99759,-133.333333333333,4,2,0,60,0,0
100102,-66.6666666666667,4,2,0,60,0,0
101130,-133.333333333333,4,2,0,60,0,0
101473,-75.187969924812,4,2,0,60,0,0
102845,-100,4,2,0,60,0,0
103188,-200,4,2,0,60,0,0
113816,-55.5555555555556,4,2,0,60,0,0
118845,-100,4,2,0,60,0,0
119302,-100,4,2,0,60,0,0
121702,-200,4,2,0,60,0,0
122045,-100,4,2,0,60,0,0
123416,-50,4,2,0,60,0,0
123459,-50,4,2,0,5,0,0
124102,-151.515151515152,4,2,0,60,0,0
124788,-100,4,2,0,60,0,0
127616,-100,4,2,0,5,0,0
127702,-100,4,2,0,60,0,0
141245,-66.6666666666667,4,2,0,60,0,0
141588,-133.333333333333,4,2,0,60,0,0
141930,-66.6666666666667,4,2,0,60,0,0
142616,-100,4,2,0,60,0,0
146388,-133.333333333333,4,2,0,60,0,0
146730,-100,4,2,0,60,0,0
168673,-151.515151515152,4,2,0,40,0,0
179645,-100,4,2,0,60,0,0
189245,-133.333333333333,4,2,0,30,0,0
189416,-133.333333333333,4,2,0,5,0,0
190616,-151.515151515152,4,2,0,40,0,0
211873,-129.87012987013,4,2,0,60,0,0
212559,-100,4,2,0,60,0,0

[Colours]
Combo1 : 240,43,43
Combo2 : 219,219,219
Combo3 : 255,255,255
Combo4 : 227,158,117
Combo5 : 200,208,196

[HitObjects]
64,288,4102,6,0,B|112:264|112:264|240:288,1,180,4|0,0:2|0:0,0:0:0:0:
57,258,4616,2,0,B|105:234|105:234|233:258,1,180,0|0,0:2|0:0,0:0:0:0:
320,296,5130,2,0,B|264:328|264:328|336:344,1,135
408,320,5473,6,0,L|400:296,4,22.5
424,184,5816,1,0,0:0:0:0:
448,96,5988,1,0,0:0:0:0:
432,312,6159,1,0,0:0:0:0:
456,224,6330,1,0,0:0:0:0:
432,136,6502,2,0,L|329:162,1,90
64,96,6845,6,0,B|112:120|112:120|200:104,1,90,0|0,0:2|0:0,0:0:0:0:
240,96,7188,1,0,0:0:0:0:
184,24,7359,1,0,0:0:0:0:
296,200,7530,6,0,B|248:176|248:176|160:192,1,90,0|0,0:2|0:0,0:0:0:0:
120,200,7873,2,0,B|56:216|56:216|88:136,1,135
30,286,8216,6,0,L|67:305,4,22.5
128,328,8559,1,0,0:0:0:0:
296,304,8730,1,0,0:0:0:0:
208,288,8901,1,0,0:0:0:0:
397,358,9073,1,0,0:0:0:0:
397,358,9159,1,0,0:0:0:0:
397,358,9245,2,0,B|378:311|383:267|383:267|403:218,1,135
412,124,9588,6,0,L|420:168,1,45
304,118,9759,2,0,L|312:162,1,45
294,278,9930,2,0,B|254:294|254:294|198:286,1,90
207,287,10188,1,0,0:0:0:0:
207,287,10273,2,0,B|160:280|160:280|120:296,1,90
40,336,10616,2,0,B|24:296|24:296|56:208,1,135
96,128,10959,6,0,L|120:120,4,22.5
256,168,11302,1,0,0:0:0:0:
192,232,11473,1,0,0:0:0:0:
176,192,11559,1,0,0:0:0:0:
176,144,11645,1,0,0:0:0:0:
320,112,11816,2,0,P|336:136|344:160,1,45
320,248,11988,2,0,P|368:240|432:248,1,90
363,347,12330,5,0,0:0:0:0:
369,352,12502,1,0,0:0:0:0:
224,280,12673,2,0,L|240:184,1,90
394,158,13016,1,0,0:0:0:0:
369,352,13188,2,0,L|260:335,1,90
69,310,13530,1,0,0:0:0:0:
171,351,13702,6,0,L|167:378,4,22.5
205,147,14044,1,0,0:0:0:0:
205,147,14216,1,0,0:0:0:0:
205,147,14388,2,0,L|189:246,1,90
86,260,14730,1,0,0:0:0:0:
301,203,14902,1,0,0:0:0:0:
42,86,15073,5,4,1:2:0:0:
42,86,15416,1,0,1:0:0:0:
128,64,15588,1,0,1:0:0:0:
128,64,15930,1,0,1:0:0:0:
272,112,16102,1,0,1:0:0:0:
272,112,16445,6,0,L|280:88,1,22.5,0|0,1:0|0:0,0:0:0:0:
296,104,16530,2,0,L|304:80,1,22.5
320,96,16616,1,2,0:0:0:0:
448,64,16788,1,0,1:0:0:0:
416,192,16959,1,0,0:0:0:0:
336,224,17130,2,0,P|330:274|344:312,1,90,0|0,1:0|1:0,0:0:0:0:
432,344,17473,2,0,L|440:280,1,45,0|0,1:0|0:0,0:0:0:0:
336,224,17645,1,0,1:0:0:0:
288,216,17730,1,0,1:0:0:0:
240,208,17816,6,0,L|184:200,1,45,0|0,1:0|0:0,0:0:0:0:
72,216,17988,2,0,P|88:168|88:112,1,90,0|0,0:0|1:0,0:0:0:0:
144,280,18330,1,0,0:0:0:0:
256,336,18502,1,0,0:0:0:0:
256,336,18673,2,0,P|210:358|171:398,1,90,0|0,1:0|0:0,0:0:0:0:
216,217,19016,1,0,0:0:0:0:
184,104,19188,6,0,L|224:96,4,22.5
264,120,19445,2,0,L|328:136,1,45,0|0,1:0|0:0,0:0:0:0:
464,216,19702,1,0,0:1:0:0:
416,216,19788,1,0,0:0:0:0:
376,192,19873,1,0,1:1:0:0:
360,152,19959,2,0,P|360:120|368:88,1,45
504,184,20216,1,0,1:0:0:0:
464,208,20302,1,0,3:0:0:0:
440,248,20388,1,0,3:0:0:0:
432,288,20473,1,0,3:0:0:0:
432,336,20559,5,0,1:0:0:0:
440,352,20730,1,0,3:0:0:0:
448,368,20902,1,0,1:0:0:0:
320,264,21073,1,0,3:0:0:0:
312,288,21159,1,0,3:0:0:0:
304,312,21245,1,0,3:0:0:0:
192,264,21416,1,0,1:1:0:0:
72,304,21588,1,0,3:0:0:0:
64,280,21674,1,0,3:0:0:0:
56,256,21759,2,0,P|64:216|72:192,1,45,0|0,3:0|0:0,0:0:0:0:
118,136,21930,6,0,L|131:168,3,22.5
80,112,22102,2,0,L|40:128,3,22.5
96,72,22273,2,0,P|96:48|88:24,1,45,0|0,1:0|0:0,0:0:0:0:
224,112,22445,1,0,0:0:0:0:
216,144,22530,1,0,0:0:0:0:
224,176,22616,2,0,P|236:196|254:213,1,45
320,280,22788,2,0,L|424:264,1,90,0|0,1:0|1:0,0:0:0:0:
408,266,23130,1,0,1:0:0:0:
368,288,23216,1,0,1:0:0:0:
328,312,23302,6,0,L|256:304,1,45,0|0,1:0|0:0,0:0:0:0:
160,288,23473,1,0,0:0:0:0:
256,176,23645,2,0,L|272:224,1,45,0|0,1:0|0:0,0:0:0:0:
283,307,23816,2,0,P|277:336|240:384,1,90
32,288,24159,2,0,B|88:264|88:264|200:304,1,180,0|0,1:2|0:0,0:0:0:0:
76,212,24588,1,0,0:0:0:0:
68,188,24673,6,0,L|84:156,4,22.5
80,88,24930,2,0,P|101:77|128:72,1,45,0|0,1:0|3:0,0:0:0:0:
192,104,25102,1,0,0:0:0:0:
224,152,25188,1,0,0:0:0:0:
272,176,25273,1,0,0:0:0:0:
328,176,25359,1,0,0:0:0:0:
376,152,25445,1,0,1:0:0:0:
416,112,25530,2,0,P|424:88|424:56,1,45,0|0,1:0|0:0,0:0:0:0:
256,16,25702,1,0,1:0:0:0:
240,88,25788,1,0,1:0:0:0:
264,152,25873,1,0,1:0:0:0:
248,224,25959,1,0,1:0:0:0:
264,296,26045,5,4,1:2:0:0:
256,312,26216,1,0,1:0:0:0:
96,152,26388,1,0,1:0:0:0:
40,248,26559,2,0,B|88:264|88:264|160:248,1,90,0|0,1:0|0:0,0:0:0:0:
166,249,26773,2,0,L|182:265,3,22.5
96,40,27073,2,0,L|80:184,1,135,0|0,1:0|1:0,0:0:0:0:
81,174,27416,6,0,L|144:160,1,45
208,80,27588,2,0,P|232:120|240:168,1,90,0|0,0:0|1:0,0:0:0:0:
328,216,27930,1,0,1:0:0:0:
360,200,28016,1,0,0:0:0:0:
400,200,28102,1,0,3:0:0:0:
432,216,28188,1,0,3:0:0:0:
456,248,28273,1,0,3:0:0:0:
472,280,28359,1,0,3:0:0:0:
472,320,28445,2,0,L|488:264,1,45,0|0,1:0|1:0,0:0:0:0:
344,352,28616,2,0,L|360:296,1,45,0|0,1:0|1:0,0:0:0:0:
216,320,28788,6,0,B|176:304|128:312,1,90,0|0,1:2|1:0,0:0:0:0:
280,224,29130,1,0,1:0:0:0:
280,224,29302,2,0,P|232:192|168:168,1,90,0|0,1:0|0:0,0:0:0:0:
167,165,29516,2,0,P|164:146|167:125,3,22.5
424,64,29816,2,0,L|408:224,1,135,0|0,1:0|1:0,0:0:0:0:
360,256,30159,6,0,P|408:256|464:272,1,90,0|0,1:0|0:0,0:0:0:0:
288,320,30502,1,0,1:0:0:0:
392,352,30673,1,0,1:0:0:0:
408,320,30759,1,0,0:0:0:0:
408,280,30845,1,0,0:0:0:0:
392,248,30930,1,0,0:0:0:0:
344,256,31016,1,0,0:0:0:0:
296,248,31102,1,0,0:1:0:0:
264,216,31188,1,0,0:1:0:0:
272,192,31273,1,0,0:0:0:0:
280,168,31359,1,0,0:0:0:0:
288,144,31445,1,0,0:0:0:0:
296,120,31530,6,0,L|280:32,1,90,4|0,1:2|0:0,0:0:0:0:
416,152,31873,1,0,1:0:0:0:
184,152,32045,2,0,L|96:168,1,90,0|0,1:2|0:0,0:0:0:0:
73,193,32259,2,0,L|57:217,3,22.5
136,264,32473,1,0,0:0:0:0:
144,280,32559,2,0,L|128:368,1,90,0|0,1:0|0:0,0:0:0:0:
88,352,32816,1,0,1:0:0:0:
167,331,32902,6,0,L|263:355,1,90,0|0,1:2|0:0,0:0:0:0:
472,288,33245,2,0,L|423:278,1,45,0|0,1:0|0:0,1:0:0:0:
328,296,33416,1,0,0:0:0:0:
344,256,33502,1,0,0:0:0:0:
344,208,33588,1,0,0:0:0:0:
328,168,33673,1,0,0:0:0:0:
296,136,33759,1,0,0:0:0:0:
304,168,33845,1,0,0:0:0:0:
336,192,33930,1,0,0:0:0:0:
368,200,34016,1,0,0:0:0:0:
408,200,34102,1,0,0:0:0:0:
440,184,34188,1,0,0:0:0:0:
464,152,34273,5,0,1:0:0:0:
472,136,34445,1,0,1:0:0:0:
384,88,34616,1,0,1:0:0:0:
208,128,34788,1,0,0:0:0:0:
240,120,34873,1,0,0:0:0:0:
272,112,34959,2,0,L|264:160,1,45
208,248,35130,2,0,P|256:240|304:248,1,90,0|0,1:0|1:0,0:0:0:0:
128,344,35473,1,0,0:0:0:0:
104,304,35559,1,0,0:0:0:0:
80,264,35645,6,0,L|96:144,1,90,2|0,1:2|0:0,0:0:0:0:
296,245,35988,1,0,1:0:0:0:
128,344,36159,2,0,L|32:328,1,90,2|0,1:2|0:0,0:0:0:0:
192,152,36502,1,0,1:0:0:0:
296,245,36673,2,0,L|280:341,1,90,2|0,1:2|0:0,0:0:0:0:
281,333,36930,1,0,0:0:0:0:
281,333,37016,5,4,1:2:0:0:
208,272,37188,1,0,0:0:0:0:
368,304,37359,1,0,1:0:0:0:
328,128,37530,1,0,1:0:0:0:
281,333,37702,2,0,L|271:375,3,22.5
288,304,37873,2,0,L|312:208,1,90,0|0,1:0|1:0,0:0:0:0:
264,64,38216,1,0,0:0:0:0:
304,88,38302,1,0,0:0:0:0:
344,104,38388,6,0,L|400:96,1,45,0|0,1:0|0:0,0:0:0:0:
472,48,38559,2,0,B|456:96|456:96|464:152,1,90,0|0,1:0|0:0,0:0:0:0:
416,296,38902,1,0,1:0:0:0:
440,288,38988,1,0,0:0:0:0:
464,280,39073,1,0,0:0:0:0:
440,240,39159,1,0,0:0:0:0:
400,224,39245,1,0,0:0:0:0:
352,224,39330,1,0,0:0:0:0:
312,248,39416,1,0,0:0:0:0:
288,288,39502,1,0,0:0:0:0:
248,312,39588,1,0,0:0:0:0:
200,312,39673,1,0,0:0:0:0:
160,288,39759,5,4,1:2:0:0:
384,320,39930,1,0,1:0:0:0:
224,216,40102,1,0,1:0:0:0:
296,384,40273,1,0,0:0:0:0:
368,176,40445,2,0,L|360:80,1,90,0|0,1:0|0:0,0:0:0:0:
128,184,40788,2,0,L|136:280,1,90,0|0,1:0|0:0,0:0:0:0:
80,336,41045,1,0,0:0:0:0:
80,336,41130,5,0,1:0:0:0:
264,352,41302,2,0,P|224:368|168:368,1,90,0|0,1:0|0:0,0:0:0:0:
344,360,41645,2,0,B|288:304|288:304|264:200,1,180,0|0,1:0|0:0,0:0:0:0:
336,152,42073,1,0,0:0:0:0:
336,152,42159,6,0,L|344:200,1,45,0|0,1:0|0:0,0:0:0:0:
416,96,42330,2,0,L|432:200,1,90,0|0,1:0|0:0,0:0:0:0:
96,96,42673,2,0,L|88:140,1,45,0|0,1:0|0:0,0:0:0:0:
136,224,42845,2,0,L|120:320,1,90,0|0,1:0|0:0,0:0:0:0:
210,271,43102,1,0,0:0:0:0:
226,255,43188,2,0,L|322:239,1,90,2|0,0:0|0:0,0:0:0:0:
384,168,43445,1,0,0:0:0:0:
400,152,43530,1,0,0:0:0:0:
440,176,43616,1,0,0:0:0:0:
456,216,43702,1,0,0:0:0:0:
448,264,43788,1,0,0:0:0:0:
432,304,43873,6,0,L|384:328,1,45,2|0,0:0|0:0,0:0:0:0:
267,337,44045,2,0,L|227:358,1,45
48,312,44216,1,0,0:0:0:0:
72,320,44302,1,0,0:0:0:0:
96,312,44388,1,2,0:0:0:0:
113,298,44473,1,0,0:0:0:0:
124,278,44559,2,0,L|104:225,1,45
77,143,44730,2,0,L|91:91,1,45
186,214,44902,2,0,L|166:161,1,45
139,79,45073,2,0,L|153:27,1,45
255,225,45245,6,0,L|269:325,1,90,4|0,1:2|0:0,0:0:0:0:
310,327,45502,1,0,0:0:0:0:
352,312,45588,1,0,0:0:0:0:
376,280,45673,1,0,0:0:0:0:
391,237,45759,2,0,P|448:210|494:216,1,90,0|0,1:0|0:0,0:0:0:0:
483,166,46016,1,0,0:0:0:0:
477,121,46102,1,0,0:0:0:0:
441,92,46188,1,0,0:0:0:0:
396,87,46273,2,0,L|344:87,1,45,0|0,1:0|0:0,0:0:0:0:
276,146,46445,2,0,L|212:148,1,45
128,64,46616,6,0,B|112:128|112:128|136:192,1,135,0|0,1:0|0:0,0:0:0:0:
232,336,46959,2,0,B|248:272|248:272|224:208,1,135,0|0,1:0|0:0,0:0:0:0:
136,192,47302,2,0,B|200:208|200:208|264:184,1,135,0|0,1:0|0:0,0:0:0:0:
400,144,47645,1,0,1:0:0:0:
128,64,47816,2,0,L|144:112,1,45,0|0,1:0|0:0,0:0:0:0:
48,248,47988,6,0,B|72:312|152:320|192:280|192:280|248:264|288:288,1,270.000010299683,2|0,1:0|1:0,0:0:0:0:
472,296,48502,1,0,0:0:0:0:
472,296,48588,1,0,0:0:0:0:
472,296,48673,2,0,P|472:328|464:368,1,67.5000025749208
376,320,48845,2,0,P|348:304|317:277,1,67.5000025749208
416,160,49016,2,0,L|408:232,1,67.5000025749208,2|0,1:0|0:0,0:0:0:0:
224,56,49188,1,2,1:1:0:0:
224,56,49359,6,0,B|280:120|352:80|352:80|432:64,1,202.500007724762,4|0,1:2|0:0,0:0:0:0:
410,68,49702,1,0,1:0:0:0:
392,295,49873,2,2,P|328:183|264:263,1,270.000010299683,0|0,1:0|1:0,0:0:0:0:
224,347,50302,2,0,P|264:347|320:363,1,67.5000025749208,0|2,0:0|1:0,0:0:0:0:
66,278,50559,1,2,1:0:0:0:
176,48,50730,6,0,B|160:128|160:128|200:192|168:248,1,202.500007724762,4|0,1:2|0:0,0:0:0:0:
66,278,51073,1,0,1:0:0:0:
62,126,51245,2,0,B|134:102|134:102|262:134,1,202.500007724762,0|0,1:0|0:0,0:0:0:0:
377,219,51588,1,0,1:0:0:0:
163,309,51759,2,0,L|171:237,1,67.5000025749208,2|0,1:0|0:0,0:0:0:0:
371,287,51930,2,0,L|379:207,1,67.5000025749208,2|0,1:0|0:0,0:0:0:0:
503,66,52102,6,0,P|383:42|305:78,1,202.500007724762,4|0,1:2|0:0,0:0:0:0:
281,310,52445,1,0,1:0:0:0:
281,310,52616,2,0,L|264:243,1,67.5000025749208,0|0,1:0|0:0,0:0:0:0:
114,67,52788,6,0,L|122:99,1,33.7500012874604,2|0,1:0|2:0,0:0:0:0:
323,320,52959,6,0,L|315:288,1,33.7500012874604,2|0,1:0|2:0,0:0:0:0:
141,38,53130,6,0,L|149:70,1,33.7500012874604,2|0,1:0|2:0,0:0:0:0:
36,182,53302,1,2,0:0:0:0:
36,182,53388,1,0,0:0:0:0:
36,182,53473,6,4,B|108:198|108:198|148:238|148:238|220:254,1,202.500007724762,4|0,1:2|0:0,1:2:0:0:
336,240,53816,1,0,1:0:0:0:
102,292,53988,2,0,P|91:226|161:101,1,202.500007724762,0|0,1:0|0:0,0:0:0:0:
232,82,54330,1,0,1:0:0:0:
427,136,54502,2,0,P|392:151|345:150,1,67.5000025749208,2|0,1:1|0:0,0:0:0:0:
254,327,54673,2,0,L|238:246,1,67.5000025749208,2|0,1:1|0:0,0:0:0:0:
53,158,54845,6,0,B|42:94|78:60|78:60|179:38,1,202.500007724762,4|0,1:2|0:0,0:0:0:0:
269,25,55188,1,0,1:0:0:0:
291,158,55359,2,0,L|268:24,1,135.000005149842,0|0,1:0|0:0,0:0:0:0:
147,130,55702,1,0,1:0:0:0:
383,72,55873,2,0,B|423:72|423:72|455:88,1,67.5000025749208,2|0,1:0|0:0,0:0:0:0:
248,256,56045,2,0,B|208:256|208:256|176:240,1,67.5000025749208,2|0,1:0|0:0,0:0:0:0:
352,160,56216,6,0,L|336:304,1,135.000005149842,4|0,1:2|0:0,0:0:0:0:
331,374,56473,1,0,0:0:0:0:
331,374,56559,1,0,1:0:0:0:
480,88,56730,2,0,P|416:48|288:48,1,202.500007724762,0|0,1:0|0:0,0:0:0:0:
224,120,57073,2,0,L|216:192,1,67.5000025749208
204,311,57245,1,2,1:0:0:0:
112,40,57416,1,2,1:0:0:0:
8,240,57588,6,0,L|144:240,1,135.000005149842,4|0,1:2|0:0,0:0:0:0:
272,264,57845,2,0,P|261:231|256:192,1,67.5000025749208,0|0,0:0|1:0,0:0:0:0:
376,56,58102,2,0,L|360:328,1,270.000010299683,2|0,1:0|0:0,0:0:0:0:
72,234,58616,2,0,L|144:256,1,74.70000108284,2|0,1:0|0:0,0:0:0:0:
488,224,58788,2,0,L|416:202,1,74.70000108284,2|0,1:0|0:0,0:0:0:0:
192,40,58959,6,0,B|168:112|168:112|192:168|192:168|176:232,1,202.500007724762,4|0,1:2|0:0,0:0:0:0:
144,328,59302,1,0,1:0:0:0:
280,200,59473,2,0,L|416:248,1,135.000005149842,0|0,1:0|0:0,0:0:0:0:
433,282,59816,2,0,L|368:260,1,67.5000025749208
314,110,59988,1,2,1:0:0:0:
269,348,60159,1,2,1:0:0:0:
494,117,60330,6,0,P|421:152|309:104,1,202.500007724762,4|0,1:2|0:0,0:0:0:0:
273,32,60673,1,0,1:0:0:0:
288,208,60845,2,0,P|208:208|96:272,1,202.500007724762,0|0,1:0|0:0,0:0:0:0:
64,344,61188,1,0,0:0:0:0:
136,136,61359,2,0,L|156:208,1,67.5000025749208,2|0,1:0|0:0,0:0:0:0:
368,336,61530,1,2,1:0:0:0:
368,336,61702,6,0,P|336:256|352:144,1,202.500007724762,4|0,1:2|0:0,0:0:0:0:
417,67,62045,1,0,1:0:0:0:
336,248,62216,2,0,B|400:280|451:272|451:272|480:232|480:232|424:216,1,202.500007724762,0|0,1:0|0:0,0:0:0:0:
240,192,62559,1,0,1:0:0:0:
240,192,62730,2,0,L|248:288,1,67.5000025749208,2|0,1:0|0:0,0:0:0:0:
112,136,62902,2,0,L|106:68,1,67.5000025749208,2|0,1:0|0:0,0:0:0:0:
16,304,63073,6,0,P|88:344|208:336,1,202.500007724762,4|0,1:2|1:0,0:0:0:0:
328,296,63416,2,0,P|428:306|481:337,1,135.000005149842,0|0,1:0|1:0,0:0:0:0:
457,320,63759,2,0,L|452:273,1,33.7500012874604,2|0,1:0|2:0,2:0:0:0:
411,92,63930,2,0,L|355:99,1,33.7500012874604,2|0,1:0|2:0,2:0:0:0:
181,93,64102,2,0,P|101:125|103:39,1,202.500007724762,2|0,1:0|2:0,2:0:0:0:
104,40,64445,6,0,B|96:104|96:104|104:160|104:160|96:248,1,202.500007724762,4|0,1:2|0:0,0:0:0:0:
80,328,64788,1,0,1:1:0:0:
224,104,64959,2,0,B|281:70|352:86|352:86|359:177,1,202.500007724762,0|0,1:0|0:0,0:0:0:0:
488,240,65302,1,0,0:0:0:0:
488,240,65473,2,0,L|416:224,1,67.5000025749208,2|0,1:0|0:0,0:0:0:0:
240,352,65645,2,0,L|256:280,1,67.5000025749208,2|0,1:0|0:0,0:0:0:0:
120,144,65816,6,0,P|168:192|336:112,1,270.000010299683,4|0,1:2|1:0,0:0:0:0:
456,304,66330,2,0,L|312:280,1,135.000005149842,0|0,1:0|0:0,0:0:0:0:
112,320,66673,1,0,0:0:0:0:
176,48,66845,2,0,L|152:144,1,67.5000025749208,2|0,1:0|0:0,0:0:0:0:
352,113,67016,2,0,L|336:48,1,67.5000025749208,2|0,1:0|0:0,0:0:0:0:
480,280,67188,6,0,P|424:328|304:312,1,202.500007724762,4|0,1:2|0:0,0:0:0:0:
240,199,67530,1,0,1:0:0:0:
404,32,67702,2,0,P|452:88|446:210,1,202.500007724762,0|0,1:0|0:0,0:0:0:0:
320,104,68045,2,0,L|335:175,1,67.5000025749208,2|0,1:2|0:0,0:0:0:0:
239,240,68216,1,2,1:0:0:0:
245,218,68388,1,2,1:2:0:0:
253,194,68559,5,4,1:2:0:0:
72,328,69416,1,0,1:0:0:0:
72,328,69588,2,0,L|152:312,1,67.5,0|0,1:0|0:0,0:0:0:0:
256,288,69930,6,0,L|236:200,1,90,4|0,1:2|0:0,0:0:0:0:
280,125,70188,1,0,0:0:0:0:
280,125,70273,1,0,1:0:0:0:
381,217,70445,2,0,P|419:188|493:183,1,90
469,295,70788,1,0,1:0:0:0:
350,336,70959,1,0,1:2:0:0:
469,295,71130,1,0,1:0:0:0:
234,267,71302,5,2,0:2:0:0:
350,336,71473,1,0,1:0:0:0:
143,352,71645,1,0,1:0:0:0:
223,161,71816,2,0,B|249:173|249:173|269:195,1,45,0|0,1:0|2:0,0:0:0:0:
350,336,71988,1,0,1:0:0:0:
143,352,72159,2,0,L|155:288,1,45,0|0,1:0|0:2,0:0:0:0:
91,116,72330,1,0,1:0:0:0:
75,138,72416,1,0,1:0:0:0:
70,164,72502,1,0,1:0:0:0:
68,191,72588,1,0,1:0:0:0:
74,216,72673,5,0,1:0:0:0:
189,185,72845,1,0,0:0:0:0:
74,216,73016,1,0,0:0:0:0:
255,275,73188,2,0,L|205:260,1,45
315,162,73359,1,0,0:0:0:0:
389,319,73530,1,0,0:0:0:0:
389,319,73702,2,0,P|342:293|293:293,2,90
473,245,74216,5,0,0:0:0:0:
417,97,74388,2,0,L|403:185,1,90
403,185,74730,1,0,0:0:0:0:
427,12,74902,1,0,0:0:0:0:
369,228,75073,2,0,L|378:169,1,45
468,16,75245,2,0,L|461:60,1,45
315,105,75416,6,0,B|257:85|257:85|185:96,1,135
114,150,75759,2,0,L|19:170,1,90,4|0,1:2|0:0,0:0:0:0:
211,238,76102,1,0,0:0:0:0:
26,169,76273,1,0,0:0:0:0:
254,53,76445,2,0,P|250:116|281:183,1,135,4|0,1:2|0:0,0:0:0:0:
363,209,76788,2,0,P|391:195|358:202,1,90
239,299,77130,1,0,1:2:0:0:
239,299,77302,2,0,P|253:327|246:294,1,90,2|0,1:2|0:0,0:0:0:0:
154,201,77645,1,0,0:0:0:0:
129,212,77730,1,0,0:0:0:0:
108,229,77816,2,0,P|89:270|84:328,1,90
26,217,78073,6,0,L|14:144,1,45,0|4,1:0|1:2,0:0:0:0:
118,40,78330,1,0,0:0:0:0:
272,142,78502,1,0,0:0:0:0:
160,297,78673,2,0,L|113:306,1,45
373,328,78845,1,0,0:0:0:0:
219,226,79016,2,0,L|274:216,1,45
371,195,79188,2,0,L|465:182,1,90
383,46,79530,5,0,0:0:0:0:
371,70,79616,1,0,0:0:0:0:
367,96,79702,1,0,1:0:0:0:
455,267,79873,1,0,1:0:0:0:
472,56,80045,2,0,L|382:45,1,90,0|0,1:0|0:0,0:0:0:0:
167,82,80388,1,0,1:0:0:0:
400,110,80559,1,0,0:0:0:0:
415,132,80645,1,0,0:0:0:0:
422,157,80730,1,0,0:0:0:0:
423,184,80816,1,0,0:0:0:0:
419,210,80902,6,0,L|407:306,1,90,4|0,1:2|0:0,0:0:0:0:
407,299,81159,2,0,L|489:314,1,45,0|0,0:0|1:0,0:0:0:0:
301,213,81416,1,0,0:0:0:0:
273,214,81502,1,0,0:0:0:0:
248,224,81588,2,0,L|233:325,1,90,0|0,0:0|1:0,0:0:0:0:
234,313,81930,2,0,P|189:328|88:296,1,135
67,221,82273,6,0,P|109:213|165:231,1,90
209,120,82616,2,0,P|205:102|219:114,1,45
323,172,82788,2,0,P|327:190|313:178,1,45
383,82,82959,1,0,0:0:0:0:
209,120,83130,1,0,0:0:0:0:
235,123,83216,1,0,0:0:0:0:
263,125,83302,6,0,P|201:173|231:103,1,202.500007724762,0|0,0:0|1:0,0:0:0:0:
343,184,83645,6,0,B|331:225|307:241|307:241|311:265,1,90,0|0,1:0|0:0,0:0:0:0:
395,347,83988,1,0,0:0:0:0:
498,184,84159,1,0,0:0:0:0:
498,184,84245,2,0,P|459:173|432:175,1,45
220,230,84502,1,0,1:0:0:0:
380,60,84673,2,0,L|244:86,1,135,0|0,1:0|0:0,0:0:0:0:
179,151,85016,6,0,P|157:99|167:52,1,90
282,319,85359,2,0,P|304:267|294:220,1,90
219,258,85616,2,0,L|168:253,1,45
404,166,85873,1,0,0:0:0:0:
431,165,85959,1,0,0:0:0:0:
458,163,86045,1,0,0:0:0:0:
482,330,86216,1,0,0:0:0:0:
438,319,86302,1,0,0:0:0:0:
393,307,86388,6,0,B|258:347|258:347|221:318|217:267|246:236,1,247.500007553101,4|2,1:2|0:0,0:0:0:0:
256,74,86902,6,0,B|274:89|270:140|233:169|233:169|109:133,1,198.000006042481,0|0,1:2|1:0,0:0:0:0:
123,148,87416,2,0,L|179:165,1,49.5000015106202,0|0,1:0|0:0,0:0:0:0:
367,210,87588,2,0,L|384:153,1,49.5000015106202,0|0,1:0|0:0,0:0:0:0:
399,48,87759,5,0,0:0:0:0:
399,48,87930,2,0,P|411:88|448:61,2,99.0000030212403,0|2|2,1:0|0:0|0:0,0:0:0:0:
341,196,88445,2,0,P|403:183|453:199,1,99.0000030212403
202,140,88788,2,0,L|216:253,1,99.0000030212403,0|0,1:0|0:0,0:0:0:0:
155,332,89045,1,0,0:0:0:0:
155,332,89130,6,0,P|115:287|108:249,1,99.0000030212403,0|2,1:0|0:0,0:0:0:0:
324,269,89473,2,0,L|433:297,1,99.0000030212403
330,161,89816,1,0,0:0:0:0:
330,161,89902,2,0,L|312:56,1,99.0000030212403
316,68,90159,2,0,B|410:87|410:87|421:116|418:142,1,148.50000453186,0|0,1:0|0:0,0:0:0:0:
477,192,90502,6,0,L|482:233,1,24.7500007553101,0|0,1:0|0:0,0:0:0:0:
374,337,90759,1,0,0:0:0:0:
374,337,90845,2,0,L|365:230,1,99.0000030212403
365,238,91188,6,0,P|318:235|272:249,1,67.5000025749208,0|0,1:0|0:0,0:0:0:0:
272,259,91445,1,0,0:0:0:0:
272,259,91530,2,0,P|232:270|171:258,1,101.250003862381,0|0,1:0|0:0,0:0:0:0:
86,163,91873,6,0,B|236:197|236:197|281:162|281:162|250:107|250:107|111:73,2,405.000015449525,4|0|0,1:2|0:0|1:0,0:0:0:0:
270,288,93073,5,4,1:2:0:0:
270,288,93245,2,0,B|120:254|120:254|75:289|75:289|106:340|106:340|213:368,1,337.500012874604,0|0,1:2|0:0,0:0:0:0:
356,352,93759,6,0,P|375:313|356:234,1,90,0|0,1:2|0:0,0:0:0:0:
338,44,94102,1,0,0:0:0:0:
338,44,94273,6,0,P|319:83|321:126,1,67.5000025749208,0|0,1:2|0:0,0:0:0:0:
344,191,94445,2,0,P|383:210|426:208,1,67.5000025749208,0|0,1:2|0:0,0:0:0:0:
465,105,94616,2,0,B|364:122|364:122|316:94|316:94|343:49|343:49|408:37,1,270.000010299683,4|0,1:2|0:0,0:0:0:0:
117,155,95130,2,0,B|218:138|218:138|266:166|266:166|239:211|239:211|174:223,1,270.000010299683,2|0,1:2|0:0,0:0:0:0:
65,316,95645,6,0,P|72:287|78:313,1,67.5000025749208,0|0,1:0|0:0,0:0:0:0:
150,352,95988,1,4,1:2:0:0:
154,306,96159,2,0,L|174:316,1,16.8750006437302
142,334,96245,2,0,L|172:337,1,16.8750006437302
150,352,96330,1,0,0:0:0:0:
226,334,96502,1,0,0:0:0:0:
330,279,96673,6,0,L|356:274,6,16.8750006437302
212,215,97016,6,0,P|204:186|208:141,1,67.5000025749208
328,33,97188,2,0,P|336:62|332:107,1,67.5000025749208
254,328,97359,6,0,B|129:293|129:293|88:314|88:314|98:360|98:360|161:378,1,270.000010299683,4|0,1:2|0:0,0:0:0:0:
50,181,97873,2,0,B|175:216|175:216|216:195|216:195|206:149|206:149|143:131,1,270.000010299683,0|2,1:0|0:0,0:0:0:0:
160,136,98388,6,0,P|155:102|168:62,1,67.5000025749208,0|2,1:0|0:0,0:0:0:0:
357,48,98730,6,0,B|392:173|392:173|371:214|371:214|325:204|325:204|307:141,1,270.000010299683,0|2,1:0|0:0,0:0:0:0:
205,349,99245,2,0,B|170:224|170:224|191:183|191:183|237:193|237:193|255:256,1,270.000010299683,0|2,1:0|0:0,0:0:0:0:
361,303,99759,6,0,P|313:311|279:304,1,67.5000025749208,0|2,1:0|0:0,0:0:0:0:
78,118,100102,6,0,P|121:193|76:119,1,270.000010299683,0|0,1:0|0:0,0:0:0:0:
163,127,100616,2,0,P|122:229|23:155,1,270.000010299683,0|0,1:0|0:0,0:0:0:0:
110,321,101130,6,0,P|138:303|171:298,1,67.5000025749208,0|0,1:0|1:0,0:0:0:0:
466,291,101473,5,4,1:2:0:0:
444,312,101559,1,0,0:0:0:0:
414,316,101645,1,0,0:0:0:0:
390,298,101730,1,0,0:0:0:0:
391,220,101816,5,0,0:0:0:0:
418,259,101902,1,0,0:0:0:0:
421,305,101988,2,0,L|406:364,1,59.8499975342561,0|0,1:0|0:0,0:0:0:0:
321,333,102159,5,0,0:0:0:0:
356,277,102245,1,0,0:0:0:0:
418,259,102330,1,0,0:0:0:0:
482,273,102416,1,0,0:0:0:0:
453,349,102502,5,0,1:0:0:0:
421,306,102588,1,0,0:0:0:0:
418,259,102673,1,0,0:0:0:0:
451,201,102759,1,0,0:0:0:0:
440,152,102845,5,4,1:2:0:0:
440,152,103188,1,0,1:0:0:0:
274,84,103359,2,0,L|282:140,1,45
295,259,103702,1,0,0:0:0:0:
274,84,103873,1,0,3:0:0:0:
45,311,104216,6,0,B|85:337|85:337|141:332,1,90
148,235,104730,2,0,B|108:209|108:209|52:214,1,90
223,304,105245,1,0,0:0:0:0:
223,304,105416,1,0,0:0:0:0:
188,115,105588,6,0,L|197:162,1,45,2|0,1:2|0:0,0:0:0:0:
223,304,105930,1,0,0:0:0:0:
317,75,106102,2,0,L|300:118,1,45
223,304,106445,1,0,0:0:0:0:
466,254,106616,2,0,B|422:240|422:240|369:261,1,90
342,329,107130,5,0,0:0:0:0:
346,304,107216,1,0,0:0:0:0:
350,279,107302,1,0,0:0:0:0:
355,254,107388,1,0,0:0:0:0:
360,230,107473,1,0,1:0:0:0:
391,208,107559,1,0,0:0:0:0:
402,171,107645,1,0,0:0:0:0:
384,137,107730,1,0,0:0:0:0:
346,129,107816,1,0,1:0:0:0:
312,147,107902,1,0,0:0:0:0:
301,183,107988,5,0,1:0:0:0:
346,228,108073,1,0,0:0:0:0:
405,205,108159,1,0,0:0:0:0:
413,142,108245,1,0,0:0:0:0:
367,103,108330,5,4,0:2:0:0:
367,103,108673,1,0,1:0:0:0:
166,144,108845,1,0,0:0:0:0:
253,278,109016,2,0,L|260:230,1,45
285,24,109359,1,0,1:0:0:0:
471,241,109702,6,0,B|477:212|477:212|458:151,1,90
366,249,110216,2,0,B|360:278|360:278|379:339,1,90
255,349,110730,1,0,0:0:0:0:
255,349,110902,1,0,0:0:0:0:
91,320,111073,6,0,L|140:329,1,45
255,349,111416,1,0,0:0:0:0:
82,203,111588,2,0,L|116:238,1,45
255,349,111930,1,0,0:0:0:0:
212,170,112102,2,0,B|200:123|200:123|208:98,1,67.5
219,86,112445,1,0,0:0:0:0:
231,67,112530,1,0,0:0:0:0:
244,48,112616,1,0,0:0:0:0:
257,29,112702,1,0,1:0:0:0:
279,26,112788,2,0,L|316:34,1,22.5,0|0,1:0|0:0,0:0:0:0:
419,58,112959,1,0,0:0:0:0:
419,58,113045,1,0,0:0:0:0:
419,58,113130,2,0,L|435:84,1,22.5
442,181,113302,2,0,L|431:212,1,22.5
397,314,113473,1,0,1:0:0:0:
397,314,113645,1,0,1:0:0:0:
128,304,113816,6,0,B|78:331|78:331|119:205|119:205|164:172|164:172|188:224|188:224|148:350|148:350|121:296,2,485.999985168458,4|4|0,1:2|1:2|1:0,0:0:0:0:
384,80,115188,6,0,B|433:52|433:52|392:178|392:178|347:211|347:211|323:159|323:159|363:33|363:33|390:87,2,485.999985168458,4|4|0,1:2|1:2|1:0,0:0:0:0:
384,80,116388,1,0,3:0:0:0:
144,64,116559,6,0,B|116:14|116:14|242:55|242:55|275:100|275:100|223:124|223:124|97:84|97:84|151:57,2,485.999985168458,4|4|0,1:2|1:2|1:0,0:0:0:0:
368,320,117930,5,0,0:0:0:0:
376,344,118016,1,0,0:0:0:0:
389,368,118102,1,0,0:0:0:0:
357,359,118188,1,0,0:0:0:0:
326,349,118273,1,0,0:0:0:0:
295,338,118359,1,0,0:0:0:0:
264,327,118445,1,0,0:0:0:0:
246,300,118530,1,0,0:0:0:0:
228,272,118616,6,0,P|265:236|307:230,1,53.9999983520508,0|0,1:0|0:0,0:0:0:0:
297,219,118730,2,0,P|346:233|372:266,1,53.9999983520508,0|0,1:0|0:0,0:0:0:0:
386,263,118845,6,0,L|402:183,1,60,0|0,1:0|1:0,0:0:0:0:
62,55,119188,1,0,1:0:0:0:
62,55,119302,5,0,1:0:0:0:
93,231,119473,1,0,0:0:0:0:
214,89,119645,1,0,1:0:0:0:
39,131,119816,1,0,0:0:0:0:
243,339,119988,1,0,1:0:0:0:
202,164,120159,1,0,1:0:0:0:
61,322,120330,2,0,L|149:306,1,90,0|0,1:0|0:0,0:0:0:0:
462,262,120673,5,4,1:2:0:0:
430,84,120845,1,0,0:0:0:0:
227,195,121016,1,0,1:2:0:0:
405,163,121188,1,0,0:0:0:0:
296,303,121359,1,0,1:2:0:0:
264,125,121531,1,0,1:0:0:0:
443,353,121702,6,0,P|449:327|447:309,1,45,0|0,1:0|1:0,0:0:0:0:
157,287,122045,5,4,1:2:0:0:
386,214,122216,1,0,1:0:0:0:
126,195,122388,1,0,1:0:0:0:
401,190,122559,2,0,L|356:180,1,45,4|0,1:2|0:0,0:0:0:0:
95,105,122730,1,0,1:0:0:0:
393,97,122902,2,0,P|373:91|345:91,1,45,4|0,1:2|0:0,0:0:0:0:
126,195,123073,2,0,P|146:201|174:201,1,45,4|0,1:2|0:0,0:0:0:0:
340,323,123245,1,0,0:0:0:0:
340,323,123330,1,0,0:0:0:0:
340,323,123416,2,0,L|360:267,1,45,0|0,1:2|0:0,0:0:0:0:
221,328,124273,5,0,1:0:0:0:
221,328,124445,2,0,P|210:277|214:235,1,89.0999997280884,0|0,1:0|0:0,0:0:0:0:
240,162,124788,6,0,P|270:142|322:132,1,90,4|0,1:2|0:0,0:0:0:0:
436,255,125130,2,0,L|423:347,1,90,0|0,1:0|0:0,0:0:0:0:
328,279,125473,1,0,0:0:0:0:
497,191,125645,1,0,0:0:0:0:
301,93,125816,1,0,1:0:0:0:
154,230,125988,1,0,0:0:0:0:
154,230,126073,1,0,0:0:0:0:
154,230,126159,2,0,B|153:277|153:277|166:327,1,90
90,103,126502,2,0,B|56:135|56:135|29:180,1,90
282,80,126845,2,0,B|249:46|249:46|204:19,1,90
90,103,127188,1,0,0:0:0:0:
396,49,127359,2,0,B|369:87|369:87|388:201,1,135
367,230,127702,1,0,0:0:0:0:
367,230,127873,6,0,P|413:212|465:219,1,90
303,302,128130,1,0,0:0:0:0:
262,280,128216,2,0,P|218:266|169:264,1,90
92,326,128559,1,0,0:0:0:0:
52,115,128730,2,0,B|33:142|33:142|42:203,1,90,0|0,1:0|0:0,0:0:0:0:
274,98,129073,5,0,0:0:0:0:
232,79,129159,1,0,0:0:0:0:
190,60,129245,1,0,0:0:0:0:
219,233,129416,1,0,0:0:0:0:
391,113,129588,1,0,1:0:0:0:
149,151,129759,1,0,3:0:0:0:
391,113,129930,1,0,1:0:0:0:
312,298,130102,1,0,0:0:0:0:
312,298,130273,6,0,B|338:278|356:274|356:274|455:289,1,135,4|0,1:2|0:0,0:0:0:0:
476,323,130616,1,0,0:0:0:0:
207,351,130788,1,0,0:0:0:0:
207,351,130873,1,0,0:0:0:0:
207,351,130959,2,0,P|197:305|198:287,1,45
207,221,131130,1,0,0:0:0:0:
207,221,131302,2,0,P|162:210|114:163,1,90
245,29,131645,6,0,B|213:67|213:67|209:110,1,90,4|0,1:2|0:0,0:0:0:0:
445,93,131988,2,0,L|356:87,1,90,0|0,1:0|0:0,0:0:0:0:
245,314,132330,6,0,B|277:276|277:276|281:233,1,90,2|0,1:2|0:0,0:0:0:0:
101,106,132673,2,0,L|117:197,1,90,0|0,1:0|0:0,0:0:0:0:
112,276,132930,2,0,L|159:265,1,45,0|0,0:0|1:0,0:0:0:0:
356,161,133188,1,0,0:0:0:0:
313,148,133273,1,0,0:0:0:0:
269,135,133359,2,0,P|257:92|261:42,1,90
443,118,133702,1,0,0:0:0:0:
364,308,133873,2,0,L|359:245,1,45
360,263,134045,2,0,L|245:270,1,90
49,119,134388,6,0,B|94:133|94:133|198:112,1,135,4|0,1:2|0:0,0:0:0:0:
320,161,134730,2,0,L|221:187,1,90
37,250,135073,6,0,B|82:264|82:264|160:249,1,90,4|0,1:2|0:0,0:0:0:0:
308,292,135415,2,0,L|209:318,1,90
220,314,135673,2,0,L|232:371,1,45,0|0,0:0|1:0,0:0:0:0:
265,191,135930,5,0,0:0:0:0:
466,245,136102,2,0,L|378:223,1,90,0|0,1:0|0:0,0:0:0:0:
265,191,136445,1,0,0:0:0:0:
501,149,136616,1,0,0:0:0:0:
501,149,136788,1,0,0:0:0:0:
369,317,136959,1,0,0:0:0:0:
277,90,137130,5,0,0:0:0:0:
383,205,137302,1,0,0:0:0:0:
173,256,137473,1,0,0:0:0:0:
356,245,137645,1,0,0:0:0:0:
163,131,137816,1,0,0:0:0:0:
148,318,137988,1,0,0:0:0:0:
375,220,138159,2,0,L|330:216,1,45
133,327,138330,2,0,L|181:334,1,45
77,167,138502,6,0,B|55:153|55:153|75:227,1,90,0|0,1:0|1:0,0:0:0:0:
100,330,138845,1,0,1:0:0:0:
204,167,139016,1,0,0:0:0:0:
204,167,139102,1,0,0:0:0:0:
204,167,139188,2,0,P|187:214|192:255,1,90
312,340,139530,1,0,0:0:0:0:
392,211,139702,1,0,0:0:0:0:
312,340,139873,5,0,0:0:0:0:
286,123,140045,1,0,0:0:0:0:
477,241,140216,1,0,0:0:0:0:
477,241,140388,2,0,P|444:283|411:296,1,90
411,295,140730,2,0,L|361:286,1,45
137,298,140902,2,0,B|238:310|238:310|256:333|247:354,1,135
249,340,141245,6,0,P|168:260|190:185,1,202.500007724762,4|0,1:2|0:0,0:0:0:0:
265,64,141588,6,0,L|279:132,1,67.5000025749208,0|0,1:0|0:0,0:0:0:0:
278,130,141930,6,0,B|313:145|337:144|337:144|410:103,1,135.000005149842,0|0,1:2|0:0,0:0:0:0:
172,221,142273,2,0,L|34:178,1,135.000005149842,0|0,1:0|0:0,0:0:0:0:
304,323,142616,6,0,B|322:297|347:289|347:289|436:277,1,135,0|0,1:0|0:0,0:0:0:0:
393,114,142959,2,0,P|381:180|397:228,1,90,0|0,1:0|0:0,0:0:0:0:
131,270,143302,2,0,P|188:272|238:297,1,90,0|0,1:0|0:0,0:0:0:0:
240,33,143645,2,0,P|211:94|214:145,1,90,0|0,1:0|0:0,0:0:0:0:
210,116,143902,6,0,L|221:167,1,45,0|0,0:0|1:0,0:0:0:0:
267,320,144159,1,0,1:0:0:0:
97,223,144330,1,0,1:0:0:0:
365,272,144502,1,0,1:0:0:0:
382,234,144588,1,0,1:0:0:0:
433,212,144673,5,0,1:0:0:0:
204,239,144845,1,0,1:0:0:0:
446,349,145016,2,0,L|439:294,1,45,0|0,1:0|0:0,0:0:0:0:
417,125,145188,1,0,1:0:0:0:
204,239,145359,6,0,L|261:247,1,45,0|0,1:0|0:0,0:0:0:0:
326,258,145530,1,0,1:0:0:0:
340,281,145616,1,0,1:0:0:0:
323,333,145702,1,0,1:0:0:0:
180,319,145873,1,0,3:0:0:0:
226,161,146045,6,0,L|181:154,1,45,0|0,1:0|0:0,0:0:0:0:
90,139,146216,1,0,1:0:0:0:
67,146,146302,1,0,1:0:0:0:
41,193,146388,2,0,B|42:224|60:236|60:236|131:248,1,101.250003862381,0|0,1:0|0:0,0:0:0:0:
255,268,146730,5,4,1:2:0:0:
59,318,168673,6,0,L|134:304,1,59.3999998187256
199,291,169016,1,0,1:0:0:0:
280,273,169188,1,0,0:0:0:0:
309,286,169273,1,0,0:0:0:0:
324,314,169359,1,0,0:0:0:0:
403,274,169530,1,0,0:0:0:0:
403,274,169702,1,0,1:0:0:0:
403,274,169873,2,0,L|410:187,1,59.3999998187256
319,89,170216,6,0,L|323:148,1,59.3999998187256,0|0,0:0|1:0,0:0:0:0:
258,232,170559,1,0,0:0:0:0:
231,235,170645,1,0,0:0:0:0:
204,239,170730,1,0,0:0:0:0:
416,137,170902,1,0,0:0:0:0:
403,274,171073,1,0,1:0:0:0:
403,274,171245,2,0,L|432:277,1,29.6999999093628
301,314,171416,5,0,0:0:0:0:
212,324,171588,1,0,0:0:0:0:
123,333,171759,1,0,1:0:0:0:
123,333,171930,2,0,P|109:300|115:212,1,118.799999637451
174,102,172445,2,0,P|187:140|187:168,1,59.3999998187256,0|0,1:0|0:0,0:0:0:0:
20,84,172788,6,0,P|58:95|81:111,1,59.3999998187256
133,23,173130,2,0,P|158:54|167:80,1,59.3999998187256,0|0,1:0|1:0,0:0:0:0:
165,71,173473,2,0,B|202:52|202:52|256:63,1,89.0999997280884,0|0,1:0|0:0,0:0:0:0:
349,98,173816,2,0,L|427:86,1,59.3999998187256,0|0,1:0|0:0,0:0:0:0:
61,137,174159,5,4,1:2:0:0:
61,137,174502,1,0,1:0:0:0:
119,239,174673,1,0,0:0:0:0:
213,166,174845,1,0,0:0:0:0:
21,220,175016,1,0,1:0:0:0:
21,220,175102,1,0,3:0:0:0:
21,220,175188,1,0,1:0:0:0:
95,53,175359,1,0,0:0:0:0:
257,323,175530,5,2,1:2:0:0:
257,323,175873,1,0,1:0:0:0:
344,241,176045,1,0,0:0:0:0:
461,253,176216,1,0,0:0:0:0:
267,187,176388,1,0,0:0:0:0:
259,161,176473,1,0,0:0:0:0:
252,135,176559,2,0,P|249:96|257:64,1,59.3999998187256,0|0,1:0|0:0,0:0:0:0:
335,25,176816,1,0,0:0:0:0:
348,48,176902,5,0,1:0:0:0:
347,49,177073,1,0,1:0:0:0:
464,154,177245,1,0,1:0:0:0:
373,278,177416,2,0,L|334:282,1,29.6999999093628
237,251,177588,1,0,0:0:0:0:
451,335,177759,1,0,0:0:0:0:
255,223,177930,1,0,1:0:0:0:
464,154,178102,1,0,0:0:0:0:
472,175,178187,1,0,0:0:0:0:
479,198,178273,5,0,0:0:0:0:
312,317,178445,1,0,0:0:0:0:
354,116,178616,1,0,1:0:0:0:
443,281,178788,2,0,L|382:275,1,59.3999998187256
118,248,179130,1,0,0:0:0:0:
441,279,179302,1,0,1:0:0:0:
217,350,179473,1,0,0:0:0:0:
310,41,179645,6,0,B|296:69|296:69|302:135,1,90,4|0,1:2|0:0,0:0:0:0:
314,296,179988,1,0,1:0:0:0:
477,205,180159,2,0,B|453:191|436:189|436:189|378:196,1,90
227,285,180502,2,0,B|251:299|268:301|268:301|326:294,1,90
221,99,180845,1,0,0:0:0:0:
214,120,180930,1,0,0:0:0:0:
206,141,181016,5,0,0:0:0:0:
313,295,181188,1,0,0:0:0:0:
95,192,181359,2,0,B|123:188|123:188|150:190,1,45,0|0,1:0|0:0,0:0:0:0:
229,329,181530,2,0,B|225:300|225:300|227:273,1,45,0|0,1:0|0:0,0:0:0:0:
297,143,181702,2,0,B|329:155|329:155|341:214,1,90,0|0,1:0|0:0,0:0:0:0:
427,129,181959,1,0,1:0:0:0:
427,129,182045,2,0,B|404:155|404:155|427:271,1,135
476,344,182388,6,0,P|425:358|376:346,1,90,0|0,1:0|0:0,0:0:0:0:
218,354,182730,2,0,L|212:307,1,45,0|0,1:0|0:0,0:0:0:0:
206,216,182902,1,0,0:0:0:0:
206,216,182988,1,0,3:0:0:0:
206,216,183073,1,0,1:0:0:0:
218,354,183245,1,0,1:0:0:0:
121,180,183416,2,0,P|104:197|93:217,1,45,0|0,1:0|0:0,0:0:0:0:
137,332,183588,2,0,P|124:311|108:295,1,45,0|0,1:0|0:0,0:0:0:0:
20,278,183759,6,0,B|11:177|11:177|46:117,1,135,4|0,1:2|0:0,0:0:0:0:
38,58,184102,2,0,B|79:42|79:42|130:47,1,90,0|0,1:0|0:0,0:0:0:0:
291,169,184445,2,0,B|250:185|250:185|199:180,1,90,0|0,1:0|0:0,0:0:0:0:
342,31,184788,1,0,1:0:0:0:
453,209,184959,1,0,0:0:0:0:
453,209,185045,1,0,0:0:0:0:
453,209,185130,5,4,1:2:0:0:
395,254,185473,6,0,L|439:245,1,45,0|0,1:0|0:0,0:0:0:0:
316,321,185645,2,0,L|362:334,1,45,0|0,1:0|0:0,0:0:0:0:
145,308,185816,2,0,L|231:335,1,90,0|0,1:0|0:0,0:0:0:0:
127,217,186073,1,0,0:0:0:0:
127,217,186159,2,0,B|53:242|53:242|34:203|60:149,1,135,0|0,1:0|0:0,0:0:0:0:
165,72,186502,6,0,L|208:208,1,135,0|0,1:0|0:0,0:0:0:0:
278,268,186845,2,0,P|300:261|324:250,1,45,0|0,1:0|0:0,0:0:0:0:
369,168,187016,2,0,P|389:158|458:150,1,90,0|0,1:0|0:0,0:0:0:0:
411,328,187359,1,0,0:0:0:0:
223,360,187530,2,0,B|197:321|197:321|196:277,1,90,0|0,1:0|0:0,0:0:0:0:
83,311,187788,1,0,1:0:0:0:
83,311,187873,6,0,B|113:266|113:266|111:172,1,135,4|0,1:2|0:0,0:0:0:0:
43,124,188216,2,0,L|47:80,1,45,0|0,1:0|0:0,0:0:0:0:
194,39,188388,2,0,L|198:83,1,45,0|0,1:0|0:0,0:0:0:0:
213,201,188559,1,0,3:0:0:0:
346,155,188730,1,0,3:0:0:0:
213,201,188902,2,0,L|220:293,1,90,0|0,1:0|0:0,0:0:0:0:
219,290,189245,6,0,P|261:304|288:303,1,67.5000025749208
374,358,189588,6,0,P|385:326|386:292,1,67.5000025749208
440,201,189930,6,0,P|408:189|374:188,1,67.5000025749208
266,189,190273,6,0,P|233:168|268:188,1,135.000005149842,0|4,0:0|1:2,0:0:0:0:
63,57,190959,5,0,0:0:0:0:
63,57,191130,1,0,0:0:0:0:
169,95,191473,1,0,0:0:0:0:
169,95,191644,1,0,0:0:0:0:
267,45,191988,1,0,0:0:0:0:
267,45,192502,1,0,0:0:0:0:
366,105,193016,1,0,0:0:0:0:
366,105,193188,1,0,0:0:0:0:
466,65,193359,5,0,0:0:0:0:
446,176,193702,1,0,0:0:0:0:
446,176,193873,1,0,0:0:0:0:
366,105,194216,1,0,0:0:0:0:
366,105,194387,1,0,0:0:0:0:
