osu file format v14

[General]
AudioFilename: audio.mp3
AudioLeadIn: 0
PreviewTime: 95287
Countdown: 0
SampleSet: Soft
StackLeniency: 0.7
Mode: 0
LetterboxInBreaks: 0
WidescreenStoryboard: 1

[Editor]
DistanceSpacing: 0.8
BeatDivisor: 4
GridSize: 4
TimelineZoom: 1

[Metadata]
Title:Narwhal
TitleUnicode:Narwhal
Artist:Haloweak
ArtistUnicode:Haloweak
Creator:meiikyuu
Version:Normal
Source:战双帕弥什
Tags:punishing gray raven 库洛游戏 mobile chinese video game パニシング:グレイレイヴン vanguard sound studio trance
BeatmapID:2448396
BeatmapSetID:1173876

[Difficulty]
HPDrainRate:4
CircleSize:3.4
OverallDifficulty:4.5
ApproachRate:5
SliderMultiplier:1.6
SliderTickRate:1

[Events]
//Background and Video events
0,0,"narwhal-bg.jpg",0,0
//Break Periods
//Storyboard Layer 0 (Background)
//Storyboard Layer 1 (Fail)
//Storyboard Layer 2 (Pass)
//Storyboard Layer 3 (Foreground)
//Storyboard Layer 4 (Overlay)
//Storyboard Sound Samples

[TimingPoints]
3114,434.782608695652,4,2,1,60,1,0
22244,-133.333333333333,4,2,1,35,0,0
23005,-133.333333333333,4,2,1,10,0,0
23113,-133.333333333333,4,2,1,35,0,0
23983,-133.333333333333,4,2,1,70,0,0
51809,-100,4,3,1,60,0,0
60505,-100,4,3,1,30,0,0
61374,-100,4,2,1,30,0,0
62244,-100,4,2,1,35,0,0
67461,-133.333333333333,4,2,1,45,0,0
69200,-100,4,2,1,75,0,1
97027,-100,4,2,1,70,0,0
117896,-100,4,2,1,60,0,0
124853,-100,4,2,1,65,0,0
125722,-100,4,3,1,55,0,0
125831,-100,4,2,1,65,0,0
126592,-100,4,3,1,55,0,0
126700,-100,4,2,1,65,0,0
127461,-100,4,3,1,55,0,0
127570,-100,4,2,1,65,0,0
128331,-100,4,3,1,55,0,0
128440,-100,4,2,1,65,0,0
129200,-100,4,3,1,55,0,0
129309,-100,4,2,1,65,0,0
130070,-100,4,3,1,55,0,0
130179,-100,4,2,1,65,0,0
130940,-100,4,3,1,55,0,0
131048,-100,4,2,1,65,0,0
131809,-100,4,3,1,55,0,0
131918,-100,4,2,1,65,0,0
132679,-100,4,3,1,55,0,0
132787,-100,4,2,1,65,0,0
133548,-100,4,3,1,55,0,0
133657,-100,4,2,1,65,0,0
134418,-100,4,3,1,55,0,0
134527,-100,4,2,1,65,0,0
135287,-100,4,3,1,55,0,0
135396,-100,4,2,1,65,0,0
136157,-100,4,3,1,55,0,0
136266,-100,4,2,1,65,0,0
137027,-100,4,3,1,55,0,0
137135,-100,4,2,1,65,0,0
137896,-100,4,3,1,55,0,0
138005,-100,4,2,1,65,0,0
139200,-100,4,3,1,50,0,0
139309,-100,4,2,1,50,0,0
140070,-100,4,3,1,50,0,0
140179,-100,4,2,1,50,0,0
140940,-100,4,3,1,50,0,0
141048,-100,4,2,1,50,0,0
141809,-100,4,3,1,50,0,0
141918,-100,4,2,1,50,0,0
142679,-100,4,3,1,50,0,0
142787,-100,4,2,1,50,0,0
143548,-100,4,3,1,50,0,0
143657,-100,4,2,1,50,0,0
144418,-100,4,3,1,50,0,0
144527,-100,4,2,1,50,0,0
145287,-100,4,3,1,50,0,0
145396,-100,4,2,1,50,0,0
146157,-100,4,3,1,50,0,0
146266,-100,4,2,1,50,0,0
147027,-100,4,3,1,50,0,0
147135,-100,4,2,1,50,0,0
147896,-100,4,3,1,50,0,0
148005,-100,4,2,1,50,0,0
148766,-100,4,3,1,50,0,0
148874,-100,4,2,1,50,0,0
149635,-100,4,3,1,50,0,0
149744,-100,4,2,1,50,0,0

[Colours]
Combo1 : 248,97,119
Combo2 : 89,183,238
Combo3 : 153,230,238
Combo4 : 162,151,206

[HitObjects]
80,164,22244,6,0,P|92:282|196:308,2,240.000009155274,2|2|4,0:0|0:0|1:0,0:0:0:0:
148,80,24418,6,0,B|208:68|256:96|328:80,1,180.000006866455,2|0,0:0|0:0,0:0:0:0:
380,80,25287,2,0,P|416:88|456:80,2,60.0000022888184,2|0|2,0:0|0:0|0:0,0:0:0:0:
412,184,26157,2,0,B|424:248|392:296|392:296|324:272,1,180.000006866455,2|0,0:0|0:0,0:0:0:0:
280,260,27027,2,0,P|240:256|200:268,2,60.0000022888184,2|0|2,0:0|0:0|0:0,0:0:0:0:
268,152,27896,1,2,0:0:0:0:
328,64,28331,5,0,0:0:0:0:
420,124,28766,1,2,0:0:0:0:
392,228,29200,2,0,P|376:284|392:356,1,120.000004577637,2|2,0:0|0:0,0:0:0:0:
332,344,29853,2,0,P|264:324|152:336,1,180.000006866455,0|2,0:0|0:0,0:0:0:0:
80,260,30940,6,0,P|68:204|104:140,1,120.000004577637,2|2,0:0|0:0,0:0:0:0:
148,156,31592,2,0,P|172:116|168:56,2,90.0000034332277,0|0|2,0:0|0:0|0:0,0:0:0:0:
188,192,32461,1,0,0:0:0:0:
236,216,32679,6,0,P|332:232|400:176,2,180.000006866455,2|0|2,0:0|0:0|0:0,0:0:0:0:
156,288,34418,2,0,L|28:296,1,120.000004577637,2|2,0:0|0:0,0:0:0:0:
40,240,35070,2,0,B|52:172|52:172|72:144|72:144|84:56,1,180.000006866455,0|2,0:0|0:0,0:0:0:0:
188,56,36157,2,0,B|192:88|192:88|212:124|212:124|224:168,1,120.000004577637,2|2,0:0|0:0,0:0:0:0:
280,260,37027,2,0,P|340:272|404:256,1,120.000004577637,2|0,0:0|0:0,0:0:0:0:
448,164,37896,6,0,L|432:32,1,120.000004577637,4|2,0:0|0:0,0:0:0:0:
380,40,38548,2,0,B|284:56|284:56|192:40,1,180.000006866455
104,88,39635,1,2,0:0:0:0:
112,196,40070,1,2,0:0:0:0:
96,248,40287,2,0,P|144:280|212:260,1,120.000004577637
252,248,40940,2,0,P|296:244|332:252,1,60.0000022888184,2|0,0:0|0:0,0:0:0:0:
364,264,41374,5,2,0:0:0:0:
416,168,41809,1,2,0:0:0:0:
356,76,42244,1,2,0:0:0:0:
256,112,42679,1,2,0:0:0:0:
156,76,43113,1,2,0:0:0:0:
96,168,43548,1,2,0:0:0:0:
104,220,43766,2,0,B|128:268|112:320|112:320|156:320|192:360,1,180.000006866455,0|2,0:0|0:0,0:0:0:0:
260,276,44853,6,0,B|236:228|252:176|252:176|208:176|182:146,1,180.000006866455,2|0,0:0|0:0,0:0:0:0:
176,96,45722,2,0,P|208:44|264:32,1,120.000004577637,0|2,0:0|0:0,0:0:0:0:
312,52,46374,1,0,0:0:0:0:
368,48,46592,2,0,L|456:144,1,120.000004577637,2|2,0:0|0:0,0:0:0:0:
472,244,47461,1,0,0:0:0:0:
372,200,47896,2,0,L|312:193,1,60.0000022888184,2|0,0:0|0:0,0:0:0:0:
270,227,48331,5,2,0:0:0:0:
319,323,48766,2,0,P|251:351|155:299,2,180.000006866455,2|0|0,0:0|0:0|0:0,0:0:0:0:
384,237,50505,2,0,P|352:173|408:77,2,180.000006866455,2|0|4,0:0|0:0|0:2,0:0:0:0:
336,356,52244,6,0,L|240:348,1,80,8|0,0:0|0:0,0:0:0:0:
192,348,52679,2,0,L|32:332,1,160,8|8,0:0|0:0,0:0:0:0:
92,218,53548,2,0,B|172:178|172:178|260:186,1,160,8|8,0:0|0:0,0:0:0:0:
352,249,54418,1,8,0:0:0:0:
424,143,54853,2,0,L|376:71,1,80,8|8,0:0|0:0,0:0:0:0:
320,48,55287,6,0,B|280:120|280:120|200:160,1,160,8|8,0:0|0:0,0:0:0:0:
120,248,56157,2,0,L|208:256,1,80,8|0,0:0|0:0,0:0:0:0:
240,304,56592,2,0,L|328:312,1,80,8|8,0:0|0:0,0:0:0:0:
376,344,57027,5,8,0:0:0:0:
440,232,57461,2,0,P|448:144|432:64,2,160,8|8|8,0:0|0:0|0:0,0:0:0:0:
376,256,58548,1,8,0:0:0:0:
312,264,58766,6,0,P|224:232|136:240,1,160,8|8,0:0|0:0,0:0:0:0:
56,160,59635,2,0,P|128:120|216:112,1,160,8|8,0:0|0:0,0:0:0:0:
328,136,60505,6,0,P|328:80|304:48,2,80,2|2|2,0:2|0:2|0:2,0:0:0:0:
336,200,61157,1,2,0:2:0:0:
328,264,61374,2,0,P|328:320|352:352,2,80
256,192,62244,12,0,65613,0:0:0:0:
264,104,67461,6,0,B|192:88|160:32|160:32|128:88|56:104|56:104|88:152|80:200,1,360.000013732911,2|0,0:0|0:0,0:0:0:0:
172,288,69200,6,0,P|252:280|332:304,1,160,4|8,0:1|1:2,0:0:0:0:
448,252,70070,2,0,P|472:212|456:92,1,160,2|8,1:2|1:2,0:0:0:0:
390,67,70722,1,0,0:2:0:0:
316,99,70940,6,0,B|268:131|268:131|220:139|140:107,1,160,8|2,1:2|1:2,0:0:0:0:
89,218,71809,2,0,P|113:322|153:354,2,160,2|0|8,1:2|1:2|1:2,0:0:0:0:
214,240,73113,5,2,1:2:0:0:
341,247,73548,2,0,P|395:190|389:111,1,160,2|0,1:2|1:2,0:0:0:0:
273,166,74418,6,0,P|233:270|329:350,1,240,8|0,1:2|0:0,0:0:0:0:
396,346,75287,2,0,P|445:344|480:354,2,80,2|2|0,1:2|0:0|1:0,0:0:0:0:
453,231,76157,6,0,L|429:71,1,160,10|0,1:2|1:0,0:0:0:0:
302,54,77027,2,0,L|325:212,1,160,2|0,1:2|1:0,0:0:0:0:
332,292,77679,1,0,0:0:0:0:
252,284,77896,6,0,P|196:276|156:284,2,80,8|0|0,1:2|0:0|1:0,0:0:0:0:
160,193,78766,2,0,P|91:248|96:329,1,160,2|0,1:2|1:0,0:0:0:0:
224,339,79635,5,8,1:2:0:0:
224,339,79853,1,0,0:0:0:0:
224,339,80070,1,0,1:0:0:0:
288,232,80505,1,2,1:2:0:0:
288,232,80722,1,2,0:0:0:0:
288,232,80940,1,2,1:2:0:0:
366,346,81374,5,8,1:2:0:0:
366,346,81592,1,0,0:0:0:0:
366,346,81809,2,0,P|454:338|497:275,1,160,0|2,1:2|1:2,0:0:0:0:
487,156,82679,1,2,1:2:0:0:
392,71,83113,6,0,P|304:63|224:95,1,160,4|8,1:2|1:2,0:0:0:0:
197,156,83766,1,0,0:0:0:0:
216,233,83983,2,0,P|304:241|384:209,1,160,2|8,1:2|1:2,0:0:0:0:
483,278,84853,5,2,1:2:0:0:
475,150,85287,1,8,1:2:0:0:
420,91,85505,1,0,0:0:0:0:
356,42,85722,2,0,L|258:42,1,80,2|0,1:2|0:0,0:0:0:0:
195,39,86157,2,0,P|197:81|189:128,1,80,8|0,1:2|0:0,0:0:0:0:
195,198,86592,5,2,1:2:0:0:
323,199,87027,1,8,1:2:0:0:
343,72,87461,1,2,1:2:0:0:
418,43,87679,1,0,0:0:0:0:
454,113,87896,2,0,B|477:193|477:193|465:283,1,160,8|2,1:2|1:2,0:0:0:0:
354,207,88766,6,0,B|330:287|330:287|354:367,1,160,8|2,1:2|1:2,0:0:0:0:
223,358,89635,1,8,1:2:0:0:
95,346,90070,6,0,P|119:266|103:178,1,160,6|8,1:2|1:2,0:0:0:0:
142,119,90722,1,0,0:0:0:0:
217,144,90940,2,0,P|297:176|385:176,1,160,2|8,1:2|1:2,0:0:0:0:
448,161,91592,1,0,0:0:0:0:
502,219,91809,6,0,B|482:262|484:306|484:306|448:312|412:341,1,160,2|8,1:2|1:2,0:0:0:0:
292,332,92679,1,2,1:2:0:0:
164,324,93113,1,8,1:2:0:0:
78,228,93548,6,0,L|49:302,2,80,2|2|8,1:2|0:0|1:2,0:0:0:0:
134,116,94418,2,0,L|164:41,2,80,2|2|8,1:2|0:0|1:2,0:0:0:0:
206,221,95287,5,0,1:0:0:0:
231,144,95505,1,0,1:0:0:0:
311,144,95722,1,0,1:0:0:0:
336,221,95940,1,0,1:0:0:0:
271,268,96157,1,0,1:0:0:0:
417,296,96592,1,0,1:0:0:0:
417,296,96809,1,0,1:0:0:0:
417,296,97027,6,0,L|441:120,1,160,4|8,1:2|1:2,0:0:0:0:
321,86,97896,2,0,L|153:70,1,160,2|8,1:2|1:2,0:0:0:0:
81,63,98548,1,0,0:0:0:0:
39,131,98766,2,0,P|15:211|23:299,1,160,2|8,1:2|1:2,0:0:0:0:
146,303,99635,2,0,P|194:311|250:335,2,80,0|0|8,1:0|0:0|1:2,0:0:0:0:
159,223,100287,1,0,0:0:0:0:
176,144,100505,6,0,P|248:128|344:136,1,160,2|10,1:2|1:2,0:0:0:0:
386,250,101374,2,0,P|307:267|228:263,2,160,0|8|2,1:0|1:2|1:2,0:0:0:0:
440,133,102679,1,8,1:2:0:0:
356,36,103113,1,2,1:2:0:0:
232,70,103548,2,0,L|256:150,1,80,10|0,1:2|0:0,0:0:0:0:
232,224,103983,6,0,P|240:312|80:248,1,320,2|2,1:2|1:2,0:0:0:0:
124,161,105287,1,8,1:2:0:0:
250,144,105722,6,0,P|281:61|397:189,1,320,2|2,1:2|1:2,0:0:0:0:
413,288,107027,1,8,1:2:0:0:
300,227,107461,5,2,1:2:0:0:
177,262,107896,2,0,P|185:214|209:174,1,80,8|2,1:2|0:0,0:0:0:0:
147,125,108331,2,0,P|195:101|251:93,1,80,2|0,1:2|0:0,0:0:0:0:
244,18,108766,2,0,P|300:26|332:50,1,80,10|0,1:2|0:0,0:0:0:0:
395,61,109200,6,0,P|411:149|361:213,1,160,0|8,1:2|1:2,0:0:0:0:
258,147,110070,2,0,P|239:222|280:288,1,160,2|10,1:2|1:2,0:0:0:0:
374,204,110940,5,2,1:2:0:0:
339,77,111374,1,8,1:2:0:0:
216,48,111809,1,2,1:2:0:0:
117,129,112244,1,8,1:2:0:0:
136,206,112461,1,0,0:0:0:0:
159,282,112679,1,2,1:2:0:0:
285,266,113113,6,0,B|365:250|365:250|453:266,1,160,8|2,1:2|1:2,0:0:0:0:
472,139,113983,2,0,L|440:59,2,80,8|0|2,1:2|0:0|1:2,0:0:0:0:
343,134,114853,2,0,L|311:54,2,80,8|2|2,1:2|0:0|1:2,0:0:0:0:
236,204,115722,1,8,1:2:0:0:
133,280,116157,6,0,B|181:344|277:320|277:320|349:376|437:328,1,320,2|2,1:2|1:2,0:0:0:0:
461,260,117244,1,0,0:0:0:0:
451,180,117461,1,8,1:2:0:0:
356,93,117896,6,0,P|268:61|195:61,1,160,12|2,1:2|0:2,0:0:0:0:
156,179,118766,2,0,P|239:171|318:197,1,160,2|2,0:0|0:0,0:0:0:0:
312,321,119635,2,0,P|232:294|157:301,1,160,2|2,0:0|0:0,0:0:0:0:
93,298,120287,1,0,0:0:0:0:
54,246,120505,2,0,P|44:205|47:163,2,80,0|0|2,0:0|0:0|0:0,0:0:0:0:
170,192,121374,5,2,0:0:0:0:
282,256,121809,1,0,0:0:0:0:
366,160,122244,1,2,0:0:0:0:
470,232,122679,1,2,0:0:0:0:
322,354,123331,6,0,L|242:346,1,80,2|2,0:0|0:0,0:0:0:0:
193,227,123983,1,2,0:0:0:0:
313,195,124418,1,2,0:0:0:0:
433,163,124853,6,0,L|409:339,1,160,4|8,1:0|1:2,0:0:0:0:
313,195,125722,2,0,L|289:371,1,160,2|8,0:0|1:2,0:0:0:0:
182,285,126592,2,0,L|203:126,1,160,2|8,0:0|1:2,0:0:0:0:
302,253,127461,2,0,L|323:94,1,160,2|8,0:0|1:2,0:0:0:0:
444,53,128331,5,2,0:0:0:0:
436,181,128766,1,8,1:2:0:0:
428,309,129200,1,2,0:0:0:0:
306,267,129635,2,0,L|282:184,2,80,8|0|2,1:2|0:0|0:0,0:0:0:0:
214,356,130505,2,0,L|134:316,2,80,8|0|2,1:2|0:0|0:0,0:0:0:0:
185,231,131374,2,0,B|115:200|115:200|88:115,1,160,8|2,1:2|0:0,0:0:0:0:
187,37,132244,5,8,1:2:0:0:
314,41,132679,2,0,L|330:133,1,80,2|0,0:0|0:0,0:0:0:0:
310,181,133113,2,0,P|286:261|342:325,1,160,8|2,1:2|0:0,0:0:0:0:
455,308,133983,2,0,P|479:221|435:165,1,160,8|2,1:2|0:2,0:0:0:0:
350,78,134853,2,0,P|302:78|246:54,1,80,8|0,1:2|0:0,0:0:0:0:
238,123,135287,6,0,P|196:147|135:154,1,80,2|0,0:0|0:0,0:0:0:0:
176,217,135722,2,0,P|152:258|103:295,1,80,8|0,1:2|0:0,0:0:0:0:
90,332,136157,2,0,P|158:372|248:356,1,160,2|8,0:0|1:2,0:0:0:0:
357,323,137027,1,2,0:0:0:0:
397,203,137461,1,8,1:2:0:0:
269,227,137896,1,2,0:0:0:0:
357,323,138331,1,8,1:2:0:0:
377,263,138548,1,0,0:0:0:0:
397,203,138766,5,4,1:2:0:0:
392,75,139200,2,0,L|228:115,1,160,2|2,0:0|1:2,0:0:0:0:
108,103,140070,1,2,0:0:0:0:
68,151,140287,1,0,0:0:0:0:
100,207,140505,2,0,P|120:287|104:363,1,160,0|2,1:0|0:0,0:0:0:0:
228,311,141374,1,2,1:2:0:0:
352,340,141809,1,2,0:0:0:0:
405,304,142027,1,0,0:0:0:0:
468,312,142244,6,0,L|484:216,1,80,0|0,1:0|0:0,0:0:0:0:
430,193,142679,2,0,P|414:117|346:65,1,160,2|2,0:0|1:2,0:0:0:0:
239,128,143548,1,2,0:0:0:0:
118,83,143983,2,0,P|94:119|78:175,1,80,0|0,1:2|0:0,0:0:0:0:
23,180,144418,2,0,P|63:256|71:332,2,160,2|2|2,0:0|1:2|0:0,0:0:0:0:
147,210,145722,6,0,P|179:237|220:245,1,80,0|0,1:2|0:0,0:0:0:0:
251,298,146157,2,0,P|331:262|379:186,1,160,2|2,0:0|1:2,0:0:0:0:
319,88,147027,1,2,0:0:0:0:
193,63,147461,1,0,1:0:0:0:
153,184,147896,6,0,L|230:236,1,80,2|0,0:0|0:0,0:0:0:0:
278,203,148331,2,0,L|370:183,1,80,2|0,1:2|0:0,0:0:0:0:
419,177,148766,2,0,L|493:226,1,80,2|0,0:0|0:0,0:0:0:0:
256,192,149200,12,4,152679,1:2:0:0:
