osu file format v14

[General]
AudioFilename: audio.mp3
AudioLeadIn: 0
PreviewTime: 37995
Countdown: 0
SampleSet: Soft
StackLeniency: 0.4
Mode: 0
LetterboxInBreaks: 0
WidescreenStoryboard: 0

[Editor]
Bookmarks: 13823
DistanceSpacing: 1.2
BeatDivisor: 8
GridSize: 4
TimelineZoom: 1

[Metadata]
Title:Honeythief
TitleUnicode:Honeythief
Artist:Halou
ArtistUnicode:Halou
Creator:Nyukai
Version:Timeless
Source:
Tags:Wholeness Separation Alternative Indie Mortem English
BeatmapID:2183238
BeatmapSetID:1044351

[Difficulty]
HPDrainRate:6
CircleSize:5
OverallDifficulty:7
ApproachRate:8
SliderMultiplier:2.8
SliderTickRate:1

[Events]
//Background and Video events
0,0,"uwu.png",0,0
//Break Periods
2,63458,75140
//Storyboard Layer 0 (Background)
//Storyboard Layer 1 (Fail)
//Storyboard Layer 2 (Pass)
//Storyboard Layer 3 (Foreground)
//Storyboard Layer 4 (Overlay)
//Storyboard Sound Samples

[TimingPoints]
101,789.473684210526,4,2,1,40,1,0
37206,-100,4,2,1,50,0,0
37600,-100,4,2,1,60,0,0
37995,-100,4,2,1,70,0,1
38193,-100,4,2,1,70,0,0
75890,-100,4,2,1,40,0,0
88522,-100,4,2,1,50,0,0
101153,-100,4,2,1,40,0,0
128785,-100,4,2,1,50,0,0
129574,-100,4,2,1,70,0,1
129772,-100,4,2,1,70,0,0
186416,-100,4,2,1,5,0,0

[Colours]
Combo1 : 126,176,222
Combo2 : 50,94,148
SliderBorder : 58,111,173
SliderTrackOverride : 140,186,226

[HitObjects]
440,192,12732,6,0,B|368:160|368:224|296:192,1,140,0|0,3:2|0:0,0:0:0:0:
256,128,13324,1,0,0:0:0:0:
206,195,13522,2,0,B|144:224|144:160|72:192,1,140,8|0,0:0|0:0,0:0:0:0:
24,260,14114,1,0,0:0:0:0:
73,191,14311,2,0,L|29:123,1,70,0|0,3:2|0:0,0:0:0:0:
24,260,14706,2,0,L|68:328,1,70,0|0,3:2|0:0,0:0:0:0:
132,368,15100,1,8,0:0:0:0:
256,252,15495,1,0,0:0:0:0:
380,368,15890,6,0,P|404:304|380:240,1,140,0|0,3:2|0:0,0:0:0:0:
308,192,16482,1,0,0:0:0:0:
379,144,16679,2,0,P|403:80|380:16,1,140,8|0,0:0|0:0,0:0:0:0:
324,80,17272,1,0,0:0:0:0:
380,144,17469,2,0,L|472:144,1,70,0|0,3:2|0:0,0:0:0:0:
324,80,17864,2,0,L|232:80,1,70,0|0,3:2|0:0,0:0:0:0:
172,76,18258,2,0,B|116:76|116:76|84:96|84:96|20:96,1,140,8|0,0:0|0:0,0:0:0:0:
37,288,19048,6,0,B|84:288|84:288|116:308|116:308|172:308,1,140,0|0,3:2|0:0,0:0:0:0:
256,296,19640,1,0,0:0:0:0:
340,308,19837,2,0,B|396:308|396:308|428:288|428:288|474:288,1,140,8|0,0:0|0:0,0:0:0:0:
452,208,20429,1,0,0:0:0:0:
424,128,20627,2,0,B|432:92|432:92|424:59,1,70,0|0,3:2|0:0,0:0:0:0:
340,128,21022,2,0,B|332:160|332:160|340:196,1,70,0|0,3:2|0:0,0:0:0:0:
320,276,21416,2,0,P|255:251|191:276,1,140,8|0,0:0|0:0,0:0:0:0:
59,108,22206,6,0,P|123:132|188:108,1,140,0|0,3:2|0:0,0:0:0:0:
256,56,22798,1,0,0:0:0:0:
324,108,22995,2,0,P|388:132|452:108,1,140,8|0,0:0|0:0,0:0:0:0:
388,52,23587,1,0,0:0:0:0:
388,52,23686,1,0,0:0:0:0:
388,52,23785,2,0,L|388:216,1,140,0|0,3:2|0:0,0:0:0:0:
368,272,24377,1,0,0:0:0:0:
320,340,24574,2,0,B|256:312|256:312|192:340,1,140,8|8,0:0|0:0,0:0:0:0:
144,272,25166,1,10,0:0:0:0:
144,188,25364,6,0,B|144:140|144:140|172:96|172:96|172:44,1,140,4|0,3:2|0:0,0:0:0:0:
256,44,25956,1,0,0:0:0:0:
340,56,26153,2,0,B|340:96|340:96|368:140|368:140|368:188,1,140,8|0,0:0|0:0,0:0:0:0:
320,256,26745,1,0,0:0:0:0:
320,256,26943,2,0,B|256:284|256:284|192:256,1,140,0|0,3:2|3:2,0:0:0:0:
256,200,27535,1,0,0:0:0:0:
316,140,27732,2,0,B|380:112|380:112|444:140,1,140,8|0,0:0|0:0,0:0:0:0:
512,192,28324,1,0,0:0:0:0:
444,244,28522,6,0,B|380:272|380:272|316:244,1,140,0|0,3:2|0:0,0:0:0:0:
188,136,29311,1,8,0:0:0:0:
332,52,29706,2,0,P|368:52|404:100,1,70
476,52,30100,2,0,L|344:172,1,140,0|0,3:2|3:2,0:0:0:0:
444,192,30693,1,0,0:0:0:0:
444,192,30890,2,0,L|312:312,1,140,8|0,0:0|0:0,0:0:0:0:
268,328,31482,1,0,0:0:0:0:
184,328,31679,6,0,P|104:328|60:244,1,140,0|0,3:2|0:0,0:0:0:0:
24,212,32272,1,0,0:0:0:0:
68,140,32469,2,0,B|140:140|140:140|204:92,1,140,8|0,0:0|0:0,0:0:0:0:
256,44,33061,1,0,3:2:0:0:
317,99,33258,2,0,B|372:140|372:140|444:140,2,140,0|0|8,3:2|3:0|0:0,0:0:0:0:
164,28,34443,1,0,0:0:0:0:
104,88,34640,1,0,0:0:0:0:
44,148,34837,6,0,B|44:220|44:220|88:288,1,140,0|0,3:2|0:0,0:0:0:0:
320,147,35627,2,0,P|256:123|192:148,1,140,8|0,0:0|0:0,0:0:0:0:
256,204,36219,1,0,0:0:0:0:
320,147,36416,2,0,B|356:147|356:147|382:125,1,70,2|8,0:0|0:0,0:0:0:0:
300,64,36811,1,0,3:2:0:0:
212,64,37008,1,0,0:0:0:0:
129,125,37206,2,0,B|156:147|156:147|192:147,1,70,8|0,0:0|0:0,0:0:0:0:
256,204,37600,1,8,0:0:0:0:
256,288,37798,1,8,0:0:0:0:
256,288,37995,6,0,B|216:316|184:316|184:316|104:316,1,140,4|0,0:0|0:0,0:0:0:0:
60,256,38587,1,0,0:0:0:0:
60,256,38785,2,0,B|60:216|36:192|36:192|60:168|60:128,1,140,8|0,0:0|0:0,0:0:0:0:
122,68,39377,1,0,0:0:0:0:
122,68,39574,2,0,B|184:68|184:68|216:68|256:96,1,140,2|0,3:2|3:2,0:0:0:0:
340,244,40364,1,8,0:0:0:0:
180,192,40758,1,0,0:0:0:0:
340,140,41153,6,0,P|412:140|464:76,2,140,2|0|8,3:2|0:0|0:0,0:0:0:0:
172,148,42337,1,0,0:0:0:0:
332,192,42732,2,0,B|372:192|396:168|396:168|420:192|460:192,1,140,2|0,3:2|3:2,0:0:0:0:
320,288,43522,2,0,B|280:288|256:312|256:312|232:288|192:288,1,140,8|0,0:0|0:0,0:0:0:0:
120,244,44114,1,8,0:0:0:0:
56,192,44311,6,0,B|56:144|56:144|76:104|76:104|76:48,1,140,2|0,3:2|0:0,0:0:0:0:
160,56,44903,1,0,0:0:0:0:
160,56,45100,2,0,B|160:104|160:104|180:144|180:144|180:191,1,140,8|0,0:0|0:0,0:0:0:0:
256,224,45693,1,0,0:0:0:0:
332,191,45890,2,0,B|332:144|332:144|352:104|352:104|352:56,1,140,2|0,3:2|3:2,0:0:0:0:
436,56,46482,1,0,0:0:0:0:
436,56,46679,2,0,B|436:104|436:104|456:144|456:144|456:192,1,140,8|0,0:0|0:0,0:0:0:0:
328,300,47469,6,0,B|256:268|256:332|184:300,1,140,2|0,3:2|0:0,0:0:0:0:
193,303,48258,2,0,B|185:267|185:267|193:234,2,70,8|8|0,0:0|0:0|0:0,0:0:0:0:
256,356,48850,1,0,0:0:0:0:
319,303,49048,2,0,B|327:267|327:267|319:234,1,70,2|0,3:2|0:0,0:0:0:0:
256,176,49443,2,0,B|248:140|248:140|256:107,1,70,0|0,3:2|3:2,0:0:0:0:
320,56,49837,2,0,P|255:31|191:55,1,140,12|0,0:0|0:0,0:0:0:0:
116,92,50429,1,8,0:0:0:0:
40,128,50627,6,0,B|40:168|64:192|64:192|40:216|40:256,1,140,4|0,3:2|0:0,0:0:0:0:
116,292,51219,1,0,0:0:0:0:
191,328,51416,2,0,P|255:352|320:328,1,140,8|0,0:0|0:0,0:0:0:0:
255,270,52008,1,0,0:0:0:0:
255,270,52206,2,0,B|224:200|288:200|259:137,1,140,2|0,3:2|3:2,0:0:0:0:
132,32,52995,1,8,0:0:0:0:
76,192,53390,1,0,0:0:0:0:
132,352,53785,6,0,P|176:352|200:260,1,140,2|0,3:2|0:0,0:0:0:0:
256,204,54377,1,0,0:0:0:0:
303,273,54574,2,0,P|315:338|380:352,1,140,8|0,0:0|0:0,0:0:0:0:
456,320,55166,1,0,0:0:0:0:
436,240,55364,2,0,P|479:193|438:144,1,140,0|0,3:2|3:2,0:0:0:0:
456,64,55956,1,0,0:0:0:0:
379,31,56153,2,0,P|315:45|303:111,1,140,8|0,0:0|0:0,0:0:0:0:
320,280,56943,6,0,B|256:252|256:252|192:280,1,140,2|0,3:2|0:0,0:0:0:0:
256,336,57535,1,0,0:0:0:0:
256,336,57732,2,0,B|287:266|223:266|252:203,1,140,8|0,0:0|0:0,0:0:0:0:
304,136,58324,1,0,0:0:0:0:
304,136,58522,2,0,B|340:136|340:136|376:156,1,70,2|8,3:2|0:0,0:0:0:0:
369,232,58916,2,0,B|340:248|340:248|304:248,1,70,0|0,3:2|0:0,0:0:0:0:
220,248,59311,1,8,0:0:0:0:
64,192,59706,2,0,B|102:192|102:192|130:208,1,70,0|8,0:0|0:0,0:0:0:0:
192,264,60100,6,0,P|256:288|321:264,1,140,2|0,3:2|0:0,0:0:0:0:
364,192,60693,1,0,0:0:0:0:
320,120,60890,2,0,P|256:96|191:120,1,140,8|0,0:0|0:0,0:0:0:0:
172,288,61679,2,0,L|208:352,1,70,0|8,3:2|0:0,0:0:0:0:
340,288,62074,2,0,L|304:352,1,70,0|0,3:2|3:2,0:0:0:0:
256,280,62469,2,0,L|256:128,2,140,12|0|2,0:0|0:0|0:0,0:0:0:0:
384,64,75890,6,0,B|320:32|320:32|256:72|192:32|192:32|128:64,1,280,2|2,0:0|0:0,0:0:0:0:
16,192,77074,1,0,0:0:0:0:
128,320,77469,2,0,B|192:352|192:352|256:312|320:352|320:352|384:320,1,280,2|2,0:0|0:0,0:0:0:0:
496,192,78653,1,0,0:0:0:0:
400,64,79048,6,0,B|256:0|256:128|112:64,1,280,2|2,0:0|0:0,0:0:0:0:
12,192,80232,1,0,0:0:0:0:
130,312,80627,2,0,B|256:256|256:384|400:320,1,280,2|2,0:0|0:0,0:0:0:0:
500,192,81811,1,0,0:0:0:0:
500,192,82206,6,0,B|404:192|404:192|344:144|344:144|224:144,1,280,2|2,0:0|0:0,0:0:0:0:
76,192,83390,1,0,0:0:0:0:
236,240,83785,2,0,B|344:240|344:240|404:192|404:192|500:192,1,280,2|2,0:0|0:0,0:0:0:0:
384,68,84969,1,0,0:0:0:0:
384,68,85364,6,0,P|256:20|128:68,1,280,2|2,0:0|0:0,0:0:0:0:
16,192,86548,1,0,0:0:0:0:
127,315,86943,1,2,0:0:0:0:
127,68,87732,1,2,0:0:0:0:
127,68,88127,1,10,0:0:0:0:
52,108,88324,1,10,0:0:0:0:
72,192,88522,6,0,B|144:224|144:160|216:192,1,140,4|0,3:2|0:0,0:0:0:0:
256,256,89114,1,0,0:0:0:0:
306,189,89312,2,0,B|368:160|368:224|440:192,1,140,8|0,0:0|0:0,0:0:0:0:
488,124,89904,1,0,0:0:0:0:
439,193,90101,2,0,L|483:261,1,70,0|0,3:2|0:0,0:0:0:0:
488,124,90496,2,0,L|444:56,1,70,0|0,3:2|0:0,0:0:0:0:
380,16,90890,1,8,0:0:0:0:
256,132,91285,1,0,0:0:0:0:
132,16,91680,6,0,P|108:80|132:144,1,140,0|0,3:2|0:0,0:0:0:0:
204,192,92272,1,0,0:0:0:0:
133,240,92469,2,0,P|109:304|132:368,1,140,8|0,0:0|0:0,0:0:0:0:
188,304,93062,1,0,0:0:0:0:
132,240,93259,2,0,L|40:240,1,70,0|0,3:2|0:0,0:0:0:0:
188,304,93654,2,0,L|280:304,1,70,0|0,3:2|0:0,0:0:0:0:
340,308,94048,2,0,B|396:308|396:308|428:288|428:288|492:288,1,140,8|0,0:0|0:0,0:0:0:0:
475,96,94838,6,0,B|428:96|428:96|396:76|396:76|340:76,1,140,0|0,3:2|0:0,0:0:0:0:
256,88,95430,1,0,0:0:0:0:
172,76,95627,2,0,B|116:76|116:76|84:96|84:96|38:96,1,140,8|0,0:0|0:0,0:0:0:0:
60,176,96219,1,0,0:0:0:0:
88,256,96417,2,0,B|80:292|80:292|88:325,1,70,0|0,3:2|0:0,0:0:0:0:
172,256,96812,2,0,B|180:224|180:224|172:188,1,70,0|0,3:2|0:0,0:0:0:0:
192,108,97206,2,0,P|257:133|321:108,1,140,8|0,0:0|0:0,0:0:0:0:
453,276,97996,6,0,P|389:252|324:276,1,140,0|0,3:2|0:0,0:0:0:0:
256,328,98588,1,0,0:0:0:0:
188,276,98785,2,0,P|124:252|60:276,1,140,8|0,0:0|0:0,0:0:0:0:
124,332,99377,1,0,0:0:0:0:
124,332,99575,2,0,L|124:168,1,140,0|0,3:2|3:2,0:0:0:0:
144,112,100167,1,0,0:0:0:0:
192,44,100364,2,0,B|256:72|256:72|320:44,1,140,8|8,0:0|0:0,0:0:0:0:
368,112,100956,1,10,0:0:0:0:
368,196,101154,6,0,B|368:244|368:244|340:288|340:288|340:340,1,140,4|0,0:0|0:0,0:0:0:0:
256,340,101746,1,0,0:0:0:0:
172,328,101943,2,0,B|172:288|172:288|144:244|144:244|144:196,1,140,2|0,0:0|0:0,0:0:0:0:
192,128,102535,1,0,0:0:0:0:
192,128,102733,2,0,B|256:100|256:100|320:128,1,140,2|0,0:0|0:0,0:0:0:0:
256,184,103325,1,0,0:0:0:0:
196,244,103522,2,0,B|132:272|132:272|68:244,1,140,2|0,0:0|0:0,0:0:0:0:
0,192,104114,1,0,0:0:0:0:
68,140,104312,6,0,B|132:112|132:112|196:140,1,140,2|0,0:0|0:0,0:0:0:0:
256,296,105101,1,2,0:0:0:0:
180,332,105298,2,0,P|144:332|108:284,1,70
36,332,105693,1,0,0:0:0:0:
36,332,105890,2,0,L|168:212,1,140,2|0,0:0|0:0,0:0:0:0:
68,192,106483,1,0,0:0:0:0:
68,192,106680,2,0,L|200:72,1,140,2|0,0:0|0:0,0:0:0:0:
244,56,107272,1,0,0:0:0:0:
328,56,107469,6,0,P|408:56|452:140,1,140,2|0,0:0|0:0,0:0:0:0:
488,172,108062,1,0,0:0:0:0:
444,244,108259,2,0,B|372:244|372:244|308:292,1,140,2|0,0:0|0:0,0:0:0:0:
256,340,108851,1,0,0:0:0:0:
195,285,109048,2,0,B|140:244|140:244|68:244,2,140,2|0|2,0:0|0:0|0:0,0:0:0:0:
348,356,110233,1,0,0:0:0:0:
408,296,110430,1,0,0:0:0:0:
468,236,110627,6,0,B|468:164|468:164|424:96,1,140,2|0,0:0|0:0,0:0:0:0:
192,237,111417,2,0,P|256:261|320:236,1,140,2|0,0:0|0:0,0:0:0:0:
256,180,112009,1,0,0:0:0:0:
192,237,112206,2,0,L|140:305,1,70,2|0,0:0|0:0,0:0:0:0:
224,332,112601,2,0,P|256:344|288:332,1,70
362,292,112996,2,0,L|320:237,1,70,2|0,0:0|0:0,0:0:0:0:
392,192,113390,2,0,L|349:136,1,70,0|0,0:0|0:0,0:0:0:0:
320,56,113785,6,0,P|256:32|192:57,1,140,2|0,0:0|0:0,0:0:0:0:
64,164,114574,2,0,P|128:188|192:163,1,140,2|0,0:0|0:0,0:0:0:0:
256,104,115167,1,0,0:0:0:0:
320,163,115364,2,0,P|383:187|448:164,1,140,2|0,0:0|0:0,0:0:0:0:
384,108,115956,1,0,0:0:0:0:
384,108,116153,2,0,L|384:268,1,140,2|0,0:0|0:0,0:0:0:0:
320,304,116746,1,0,0:0:0:0:
320,304,116943,6,0,B|280:304|256:328|256:328|232:304|192:304,1,140,2|0,0:0|0:0,0:0:0:0:
128,248,117535,1,0,0:0:0:0:
128,248,117732,2,0,L|128:108,1,140,2|0,0:0|0:0,0:0:0:0:
192,52,118324,1,0,0:0:0:0:
192,52,118522,2,0,B|232:52|256:28|256:28|280:52|320:52,1,140,2|0,0:0|0:0,0:0:0:0:
392,100,119114,1,0,0:0:0:0:
464,140,119311,2,0,L|320:140,1,140,2|0,0:0|0:0,0:0:0:0:
256,188,119903,1,0,0:0:0:0:
188,140,120101,5,2,0:0:0:0:
188,140,120298,2,0,P|148:140|112:176,1,70
72,224,120693,1,0,0:0:0:0:
64,308,120890,2,0,B|104:280|136:280|136:280|216:280,1,140,2|0,0:0|0:0,0:0:0:0:
256,340,121482,1,0,0:0:0:0:
314,280,121680,2,0,B|376:280|376:280|408:280|448:308,1,140,2|0,0:0|0:0,0:0:0:0:
464,224,122272,1,0,0:0:0:0:
480,144,122469,2,0,P|416:144|376:104,1,105,2|0,0:0|0:0,0:0:0:0:
364,104,122864,1,0,0:0:0:0:
300,48,123061,5,0,0:0:0:0:
212,48,123259,2,0,B|156:48|156:48|132:80|60:80,2,140,2|0|2,0:0|0:0|0:0,0:0:0:0:
380,48,124443,2,0,L|380:120,1,70
444,176,124838,2,0,P|379:152|316:176,1,140,2|0,0:0|0:0,0:0:0:0:
256,236,125430,1,0,0:0:0:0:
195,176,125627,2,0,P|132:152|68:176,1,140,2|0,0:0|0:0,0:0:0:0:
132,232,126219,1,0,0:0:0:0:
195,176,126417,6,0,L|315:52,1,140,2|0,0:0|0:0,0:0:0:0:
416,192,127206,2,0,L|296:316,1,140,2|0,0:0|0:0,0:0:0:0:
256,348,127798,1,0,0:0:0:0:
193,292,127996,2,0,L|96:192,1,140,2|0,0:0|0:0,0:0:0:0:
256,96,128785,1,2,0:0:0:0:
256,96,129574,6,0,B|296:68|328:68|328:68|408:68,1,140,4|0,0:0|0:0,0:0:0:0:
452,128,130166,1,0,0:0:0:0:
452,128,130364,2,0,B|452:168|476:192|476:192|452:216|452:256,1,140,8|0,0:0|0:0,0:0:0:0:
390,316,130956,1,0,0:0:0:0:
390,316,131153,2,0,B|328:316|328:316|296:316|256:288,1,140,2|0,3:2|0:0,0:0:0:0:
172,140,131943,1,8,0:0:0:0:
332,192,132337,1,0,0:0:0:0:
252,216,132535,1,8,0:0:0:0:
172,244,132732,6,0,P|100:244|48:308,2,140,2|0|8,3:2|0:0|0:0,0:0:0:0:
332,192,133916,1,0,0:0:0:0:
256,156,134114,1,0,0:0:0:0:
180,192,134311,2,0,B|140:192|116:216|116:216|92:192|52:192,1,140,2|0,3:2|3:2,0:0:0:0:
192,96,135101,2,0,B|232:96|256:72|256:72|280:96|320:96,1,140,8|0,0:0|0:0,0:0:0:0:
392,140,135693,1,8,0:0:0:0:
456,192,135890,6,0,B|456:240|456:240|436:280|436:280|436:336,1,140,2|0,3:2|0:0,0:0:0:0:
352,328,136482,1,0,0:0:0:0:
352,328,136679,2,0,B|352:280|352:280|332:240|332:240|332:193,1,140,8|0,0:0|0:0,0:0:0:0:
256,160,137272,1,0,0:0:0:0:
180,193,137469,2,0,B|180:240|180:240|160:280|160:280|160:328,1,140,2|0,3:2|0:0,0:0:0:0:
76,327,138061,1,0,0:0:0:0:
76,327,138258,2,0,B|76:280|76:280|56:240|56:240|56:192,1,140,8|0,0:0|0:0,0:0:0:0:
120,136,138851,1,8,0:0:0:0:
184,84,139048,6,0,B|256:116|256:52|328:84,1,140,2|0,3:2|0:0,0:0:0:0:
319,81,139837,2,0,B|327:117|327:117|319:150,2,70,8|0|8,0:0|0:0|0:0,0:0:0:0:
256,28,140429,1,0,0:0:0:0:
193,81,140627,2,0,B|185:117|185:117|193:150,1,70,2|8,3:2|0:0,0:0:0:0:
256,208,141022,2,0,B|264:244|264:244|256:277,1,70,0|0,3:2|0:0,0:0:0:0:
192,328,141416,2,0,P|256:352|320:328,1,140,12|8,0:0|0:0,0:0:0:0:
396,292,142008,1,8,0:0:0:0:
472,256,142206,6,0,B|472:216|448:192|448:192|472:168|472:128,1,140,4|0,0:0|0:0,0:0:0:0:
396,92,142798,1,0,0:0:0:0:
320,55,142995,2,0,P|256:31|192:56,1,140,8|0,0:0|0:0,0:0:0:0:
256,112,143587,1,0,0:0:0:0:
256,113,143785,2,0,B|288:184|224:184|252:246,1,140,2|0,3:2|3:2,0:0:0:0:
380,352,144574,1,8,0:0:0:0:
436,192,144969,1,0,0:0:0:0:
408,112,145167,1,0,0:0:0:0:
380,32,145364,6,0,P|336:32|312:124,1,140,2|0,3:2|0:0,0:0:0:0:
256,180,145956,1,0,0:0:0:0:
208,110,146153,2,0,P|196:45|132:32,1,140,8|0,0:0|0:0,0:0:0:0:
56,64,146746,1,0,0:0:0:0:
76,144,146944,2,0,P|32:190|73:239,1,140,2|0,3:2|3:2,0:0:0:0:
56,320,147536,1,8,0:0:0:0:
132,352,147733,2,0,P|196:338|209:273,1,140,8|8,0:0|0:0,0:0:0:0:
196,188,148324,1,8,0:0:0:0:
192,104,148523,6,0,B|256:132|256:132|320:104,1,140,4|0,0:0|0:0,0:0:0:0:
256,48,149115,1,0,0:0:0:0:
256,48,149312,2,0,B|225:118|289:118|260:181,1,140,8|0,0:0|0:0,0:0:0:0:
208,248,149904,1,0,0:0:0:0:
208,248,150100,2,0,B|168:248|168:248|136:228,1,70,2|8,3:2|0:0,0:0:0:0:
68,192,150496,1,0,3:2:0:0:
142,151,150693,1,0,0:0:0:0:
142,151,150890,2,0,B|168:136|168:136|208:136,1,70,8|8,0:0|0:0,0:0:0:0:
369,151,151285,2,0,B|344:136|344:136|304:136,1,70,0|8,0:0|0:0,0:0:0:0:
191,220,151680,6,0,P|255:244|320:220,1,140,2|0,3:2|0:0,0:0:0:0:
320,84,152273,1,8,0:0:0:0:
320,84,152371,1,8,0:0:0:0:
320,84,152470,2,0,P|255:59|191:83,1,140,8|0,0:0|0:0,0:0:0:0:
124,132,153061,1,8,0:0:0:0:
64,192,153259,2,0,L|100:256,1,70,8|0,0:0|0:0,0:0:0:0:
218,317,153654,2,0,L|184:256,1,70,0|0,3:2|3:2,0:0:0:0:
188,172,154049,2,0,L|328:172,1,140,12|8,0:0|0:0,0:0:0:0:
400,216,154640,1,8,0:0:0:0:
452,284,154838,6,0,B|400:308|360:288|360:288|304:324,1,140,4|0,0:0|0:0,0:0:0:0:
256,260,155430,1,0,0:0:0:0:
189,312,155627,2,0,B|152:288|152:288|112:308|60:284,1,140,8|0,0:0|0:0,0:0:0:0:
112,216,156219,1,0,3:0:0:0:
112,132,156417,2,0,P|112:80|200:44,1,140,2|0,3:2|0:0,0:0:0:0:
256,80,157009,1,0,0:0:0:0:
330,39,157206,2,0,P|391:65|400:132,1,140,8|0,0:0|0:0,0:0:0:0:
364,208,157798,1,8,0:0:0:0:
320,280,157996,6,0,B|280:280|256:256|256:256|232:280|192:280,1,140,2|0,3:2|0:0,0:0:0:0:
48,192,158785,2,0,B|88:192|112:168|112:168|136:192|176:192,1,140,8|0,0:0|0:0,0:0:0:0:
256,172,159377,1,0,3:2:0:0:
336,192,159574,1,0,3:2:0:0:
336,192,159772,2,0,B|376:192|400:168|400:168|424:192|464:192,1,140,8|0,0:0|0:0,0:0:0:0:
460,108,160364,2,0,L|488:32,1,70,8|8,0:0|0:0,0:0:0:0:
463,191,160759,2,0,L|435:267,1,70,0|8,0:0|0:0,0:0:0:0:
420,340,161153,6,0,P|344:340|304:292,1,140,6|0,0:0|0:0,0:0:0:0:
256,228,161746,1,0,0:0:0:0:
207,294,161943,2,0,P|159:343|92:340,1,140,8|0,0:0|0:0,0:0:0:0:
124,264,162535,1,0,0:0:0:0:
124,264,162732,2,0,L|84:196,1,70,2|8,3:2|0:0,0:0:0:0:
136,131,163127,2,0,L|172:192,1,70,0|0,3:2|0:0,0:0:0:0:
256,196,163522,2,0,B|308:196|308:196|340:216|340:216|404:216,1,140,8|8,0:0|0:0,0:0:0:0:
494,116,164114,1,8,0:0:0:0:
494,116,164311,6,0,B|442:116|442:116|410:136|410:136|360:136,1,140,2|0,3:2|0:0,0:0:0:0:
200,192,165101,1,8,0:0:0:0:
360,248,165496,1,0,0:0:0:0:
360,248,165890,2,0,B|410:248|410:248|442:268|442:268|494:268,2,140,2|0|12,3:2|3:2|0:0,0:0:0:0:
256,116,167074,1,8,0:0:0:0:
208,184,167272,1,8,0:0:0:0:
152,248,167469,6,0,P|87:272|23:248,1,140,4|0,0:0|0:0,0:0:0:0:
88,192,168061,1,0,0:0:0:0:
88,192,168259,2,0,B|119:122|55:122|84:59,1,140,8|8,0:0|0:0,0:0:0:0:
184,192,169048,2,0,B|213:255|149:255|180:325,1,140,2|0,3:2|0:0,0:0:0:0:
256,360,169640,1,0,0:0:0:0:
332,325,169838,2,0,B|363:255|299:255|328:192,1,140,8|0,0:0|0:0,0:0:0:0:
320,108,170430,1,0,0:0:0:0:
320,108,170627,6,0,B|256:136|256:136|192:108,1,140,6|0,0:0|0:0,0:0:0:0:
256,56,171219,1,0,0:0:0:0:
256,56,171417,2,0,L|256:212,1,140,8|8,0:0|0:0,0:0:0:0:
304,264,172009,1,0,0:0:0:0:
352,332,172206,2,0,B|408:332|428:304|428:304|496:304,2,140,2|0|8,3:2|3:2|0:0,0:0:0:0:
160,332,173390,1,8,0:0:0:0:
160,332,173588,1,8,0:0:0:0:
160,332,173785,6,0,B|104:332|84:304|84:304|16:304,1,140,6|0,0:0|0:0,0:0:0:0:
56,224,174377,1,0,0:0:0:0:
96,152,174574,2,0,B|128:112|128:76|128:76|128:16,1,140,8|0,0:0|0:0,0:0:0:0:
256,128,175364,1,0,3:2:0:0:
256,128,175561,2,0,B|224:168|224:204|224:204|224:264,1,140,8|0,0:0|0:0,0:0:0:0:
296,304,176153,1,8,0:0:0:0:
380,288,176351,1,8,0:0:0:0:
380,288,176449,1,8,0:0:0:0:
380,288,176548,2,0,B|420:288|420:288|464:264,1,70,8|8,0:0|0:0,0:0:0:0:
448,188,176943,6,0,B|404:188|404:188|368:164|368:164|300:164,1,140,2|0,3:2|0:0,0:0:0:0:
256,104,177535,1,0,0:0:0:0:
196,164,177732,2,0,B|144:164|144:164|108:188|108:188|64:188,1,140,12|0,0:0|0:0,0:0:0:0:
148,332,178522,2,0,P|182:338|216:330,1,70,2|0,3:2|0:0,0:0:0:0:
364,332,178917,2,0,P|329:338|295:330,1,70,0|0,3:2|0:0,0:0:0:0:
256,256,179311,2,0,B|287:185|223:185|251:122,1,140,12|0,0:0|0:0,0:0:0:0:
256,192,180101,12,0,186417,0:0:0:0:
