osu file format v14

[General]
AudioFilename: audio.mp3
AudioLeadIn: 0
PreviewTime: 31055
Countdown: 0
SampleSet: Normal
StackLeniency: 0.3
Mode: 0
LetterboxInBreaks: 0
WidescreenStoryboard: 1

[Editor]
Bookmarks: 68555,71700,89120
DistanceSpacing: 1.7
BeatDivisor: 4
GridSize: 32
TimelineZoom: 1

[Metadata]
Title:U Got That
TitleUnicode:U Got That
Artist:Halogen
ArtistUnicode:Halogen
Creator:MerinGD
Version:Ultimate Crossover
Source:
Tags:Chika
BeatmapID:1982035
BeatmapSetID:949162

[Difficulty]
HPDrainRate:6.7
CircleSize:3.9
OverallDifficulty:8.5
ApproachRate:9
SliderMultiplier:2.6
SliderTickRate:1

[Events]
//Background and Video events
0,0,"yes.jpg",0,0
Video,0,"A video edited by me.mp4"
//Break Periods
//Storyboard Layer 0 (Background)
//Storyboard Layer 1 (Fail)
//Storyboard Layer 2 (Pass)
//Storyboard Layer 3 (Foreground)
//Storyboard Sound Samples

[TimingPoints]
2023.39395633821,483.870967741935,4,1,0,100,1,0
3716,-133.333333333333,4,1,0,100,0,0
4200,-100,4,1,0,100,0,0
7587,-133.333333333333,4,1,0,100,0,0
8071,-100,4,1,0,100,0,0
11458,-133.333333333333,4,1,0,100,0,0
11942,-100,4,1,0,100,0,0
15329,-133.333333333333,4,1,0,100,0,0
15813,-100,4,1,0,100,0,0
17507,-83.3333333333333,4,1,0,100,0,0
21378,-66.6666666666667,4,1,0,100,0,0
21862,-83.3333333333333,4,1,0,100,0,0
25249,-66.6666666666667,4,1,0,100,0,0
25733,-83.3333333333333,4,1,0,100,0,0
27184,-66.6666666666667,4,1,0,100,0,0
29120,-62.5,4,1,0,100,0,0
30087,-66.6666666666667,4,1,0,100,0,0
32507,-133.333333333333,4,1,0,100,0,0
32991,-50,4,1,0,100,0,0
46539,-40,4,1,0,100,0,0
48475,-50,4,1,0,100,0,0
63958,-333.333333333333,4,1,0,100,0,0
77507,-100,4,1,0,100,0,0

[Colours]
Combo1 : 255,240,240
Combo2 : 234,0,6

[HitObjects]
157,346,2023,6,0,B|149:277|149:277|154:277|154:277|144:192,1,130
162,375,2507,1,0,0:0:0:0:
144,187,2749,1,0,0:0:0:0:
144,187,3233,1,0,0:0:0:0:
162,375,3475,1,0,0:0:0:0:
144,187,3716,6,0,B|166:144|189:130|189:130|262:140|304:81,1,195.00000743866
325,277,4442,1,0,0:0:0:0:
214,38,4684,1,0,0:0:0:0:
238,24,5168,1,0,0:0:0:0:
135,137,5410,1,0,0:0:0:0:
128,0,5652,1,0,0:0:0:0:
5,72,5894,6,0,B|9:109|18:135|18:135|19:165|6:214,1,130
1,43,6378,1,0,0:0:0:0:
14,233,6620,1,0,0:0:0:0:
14,233,7104,1,0,0:0:0:0:
1,43,7345,1,0,0:0:0:0:
14,233,7587,6,0,B|54:273|105:261|105:261|154:275|174:323,1,195.00000743866
79,352,8313,1,0,0:0:0:0:
405,249,8555,1,0,0:0:0:0:
405,249,9039,1,0,0:0:0:0:
334,375,9281,1,0,0:0:0:0:
237,248,9523,1,0,0:0:0:0:
458,352,9765,6,0,B|503:318|503:318|511:233,1,130
423,376,10249,1,0,0:0:0:0:
512,197,10491,1,0,0:0:0:0:
512,197,10975,1,0,0:0:0:0:
423,376,11216,1,0,0:0:0:0:
512,197,11458,6,0,B|481:176|481:176|460:144|460:144|424:112|377:117|377:117|393:107|417:97,1,195.00000743866
394,206,12184,1,0,0:0:0:0:
494,2,12426,1,0,0:0:0:0:
494,2,12910,1,0,0:0:0:0:
415,161,13152,1,0,0:0:0:0:
281,51,13394,1,0,0:0:0:0:
150,117,13636,6,0,B|135:152|135:152|129:156|129:156|97:234,1,130
171,82,14120,1,0,0:0:0:0:
79,267,14362,1,0,0:0:0:0:
79,267,14845,1,0,0:0:0:0:
171,82,15087,1,0,0:0:0:0:
79,267,15329,6,0,B|99:288|104:322|104:322|123:326|141:338|141:338|170:369|170:369|200:376|224:369,1,195.00000743866
302,249,16055,1,0,0:0:0:0:
20,326,16297,1,0,0:0:0:0:
20,326,16781,1,0,0:0:0:0:
192,235,17023,1,0,0:0:0:0:
17,179,17265,1,0,0:0:0:0:
122,74,17507,6,0,B|160:62|160:62|202:69,3,77.999997619629
300,215,17991,2,0,B|338:227|338:227|375:220,3,77.999997619629
465,92,18475,2,0,P|493:68|500:19,2,77.999997619629
375,219,18837,2,0,P|377:258|403:306,2,77.999997619629
512,191,19200,1,0,0:0:0:0:
335,367,19442,5,0,0:0:0:0:
116,270,19684,6,0,P|85:255|30:257,2,77.999997619629
315,187,20047,2,0,P|334:221|339:260,2,77.999997619629
223,235,20410,2,0,P|201:204|168:184,2,77.999997619629
451,261,20773,2,0,P|451:299|435:335,2,77.999997619629
221,368,21136,1,0,0:0:0:0:
296,65,21378,6,0,P|341:61|391:77,3,97.50000371933
512,200,21862,2,0,P|469:201|427:217,3,77.999997619629
326,329,22345,6,0,P|287:326|251:310,2,77.999997619629
192,167,22708,2,0,P|153:170|117:186,2,77.999997619629
86,277,23071,1,0,0:0:0:0:
134,49,23313,5,0,0:0:0:0:
345,22,23555,6,0,B|384:16|384:16|423:21,2,77.999997619629
372,315,23918,2,0,B|357:278|357:278|333:248,2,77.999997619629
373,134,24281,2,0,B|409:148|409:148|441:172,1,77.999997619629
425,384,24523,5,0,0:0:0:0:
130,256,24765,5,0,0:0:0:0:
315,285,25007,1,0,0:0:0:0:
92,357,25249,6,0,B|56:346|56:346|30:278,3,97.50000371933
81,155,25733,2,0,B|102:120|102:120|105:63,3,77.999997619629
244,101,26216,2,0,P|272:126|288:162,1,77.999997619629
219,305,26458,1,0,0:0:0:0:
183,9,26700,1,0,0:0:0:0:
337,152,26942,1,0,0:0:0:0:
43,261,27184,1,0,0:0:0:0:
111,121,27426,6,0,B|97:78|97:78|112:13,2,97.50000371933
150,279,27789,2,0,B|136:322|136:322|151:387,2,97.50000371933
264,180,28152,6,0,B|250:137|250:137|265:72,1,97.50000371933
410,106,28394,1,0,0:0:0:0:
224,325,28636,1,0,0:0:0:0:
183,46,28878,1,0,0:0:0:0:
300,298,29120,5,0,0:0:0:0:
401,300,29240,1,0,0:0:0:0:
478,233,29361,1,0,0:0:0:0:
489,132,29482,1,0,0:0:0:0:
429,49,29603,1,0,0:0:0:0:
329,29,29724,1,0,0:0:0:0:
242,82,29845,1,0,0:0:0:0:
213,179,29966,1,0,0:0:0:0:
190,280,30087,6,0,B|175:309|175:309|92:329,1,97.50000371933
242,82,30329,2,0,B|244:50|244:50|196:5,1,97.50000371933
152,229,30571,2,0,B|124:246|124:246|43:217,1,97.50000371933
304,93,30813,2,0,B|323:66|323:66|307:3,1,97.50000371933
435,27,31055,5,0,0:0:0:0:
388,326,31216,1,0,0:0:0:0:
506,193,31378,1,0,0:0:0:0:
211,97,31539,1,0,0:0:0:0:
214,360,31700,1,0,0:0:0:0:
385,310,31862,1,0,0:0:0:0:
33,246,32023,1,0,0:0:0:0:
33,246,32265,5,0,0:0:0:0:
92,323,32507,2,0,P|123:276|118:207,1,97.50000371933
0,78,32991,6,0,B|-28:45|-102:98|-39:148|42:121|42:121|78:73|141:74|141:74|169:110|226:114,1,390
508,77,33475,6,0,B|531:61|574:62|574:62|529:44|475:47|475:47|464:111|495:166,1,260
506,345,33958,6,0,B|522:337|535:319|535:319|490:291|433:302,1,130
54,338,34442,6,0,B|12:320|-33:329|-33:329|11:301|51:250,1,130
256,87,34684,2,0,P|246:35|171:1,1,130
227,246,34926,6,0,B|300:268|287:221|360:242,1,130
512,190,35289,1,0,0:0:0:0:
502,134,35410,6,0,B|477:111|452:99|452:99|419:102|387:117,1,130
338,327,35652,2,0,P|271:348|218:304,1,130
174,88,35894,6,0,B|123:37|123:37|88:35|51:52,1,130
65,221,36378,6,0,P|109:182|53:161,1,130
52,344,36620,2,0,P|118:339|182:293,1,130
245,112,36862,6,0,B|251:77|277:33|277:33|289:57|291:86,1,130
299,282,37225,1,0,0:0:0:0:
312,336,37345,6,0,B|366:367|366:367|406:375|446:347,1,130
479,88,37587,2,0,B|479:46|465:12|465:12|443:37|432:79,1,130
476,224,37829,6,0,B|492:235|510:226|510:226|476:204|430:245|394:219,1,130
90,230,38313,6,0,B|35:248|-34:205|-34:205|35:222|95:177,1,260
8,39,38797,6,0,P|-19:103|38:99,1,130
363,147,39160,1,0,0:0:0:0:
405,109,39281,6,0,B|433:81|472:83|472:83|430:74|382:125|278:91,1,260
112,51,39765,6,0,B|84:77|71:106|71:106|75:139|103:168,1,130
222,145,40007,2,0,B|256:164|256:164|261:271,1,130
20,248,40249,2,0,B|19:209|19:209|109:151,1,130
197,353,40491,2,0,B|163:372|163:372|68:323,1,130
222,145,40733,6,0,B|292:132|277:179|365:147,1,130
465,95,41216,6,0,B|475:47|455:20|455:20|431:94|493:136|451:218,1,260
499,353,41700,6,0,B|472:322|447:312|447:312|419:308|380:318,1,130
127,354,42184,6,0,B|92:362|64:358|64:358|39:348|12:317,1,130
0,53,42426,2,0,B|27:22|52:12|52:12|75:29|111:36,1,130
427,72,42668,6,0,B|443:67|456:56|456:56|409:52|414:98|338:83,1,130
125,169,43031,1,0,0:0:0:0:
75,219,43152,6,0,B|55:246|41:283|41:283|71:260|114:251,1,130
365,245,43394,2,0,P|410:268|417:352,1,130
225,344,43636,6,0,B|221:297|221:297|239:266|239:266|232:195,1,130
206,76,44120,6,0,B|201:50|210:27|210:27|257:24|314:60,1,130
91,256,44362,2,0,P|57:189|81:114,1,130
283,252,44604,6,0,B|301:293|301:293|284:386,1,130
41,378,44966,1,0,0:0:0:0:
66,337,45087,6,0,B|161:316|161:316|204:330,1,130
377,334,45329,2,0,P|414:338|495:267,1,130
402,112,45571,6,0,B|411:161|411:161|400:205|400:205|411:261,1,130
414,23,46055,6,0,P|342:43|306:122,1,130
223,200,46297,2,0,B|221:221|227:248|227:248|198:197|134:177,1,130
28,275,46539,6,0,B|23:300|29:322|29:322|87:352|158:352,1,162.5
310,328,46902,1,0,0:0:0:0:
423,188,47023,6,0,B|439:170|443:138|443:138|450:172|415:218|447:273,1,162.5
471,316,47265,2,0,B|457:265|436:245|436:245|425:203|447:166|442:136|442:136|369:81|298:137,1,325
104,328,47628,2,0,B|186:316|216:245|216:245|199:321|244:368|244:368|272:373|302:362,1,325
443,164,47991,6,0,B|443:136|443:136|371:87|305:131,1,162.5
216,245,48233,2,0,B|193:315|246:369|246:369|287:368,1,162.5
377,341,48475,6,0,B|368:297|368:297|374:256|374:256|353:165|353:165|333:82|333:82|258:79|192:147,1,390
179,306,48958,6,0,P|228:289|268:195,1,130
46,292,49200,1,0,0:0:0:0:
410,178,49442,6,0,B|444:141|493:151|493:151|493:210|441:272,1,130
205,356,49684,1,0,0:0:0:0:
78,61,49926,6,0,B|44:24|-5:34|-5:34|-5:93|47:155,1,130
339,160,50168,2,0,B|389:157|413:113|413:113|367:75|286:75,1,130
161,290,50410,6,0,B|166:326|143:368|143:368|194:336|288:322,1,130
314,273,50652,1,0,0:0:0:0:
395,293,50773,1,0,0:0:0:0:
444,325,50894,6,0,B|467:334|488:363|488:363|495:319|488:227,1,130
459,75,51136,2,0,P|409:58|324:89,1,130
174,155,51378,6,0,B|229:159|229:159|230:168|230:168|306:175,1,130
431,180,51620,1,0,0:0:0:0:
44,13,51862,6,0,P|20:76|50:156,1,130
88,348,52104,2,0,P|112:285|82:205,1,130
72,178,52345,6,0,B|146:172|146:172|206:186,1,130
341,228,52587,1,0,0:0:0:0:
442,263,52708,1,0,0:0:0:0:
504,285,52829,6,0,B|536:287|558:285|558:285|547:251|485:203,1,130
207,323,53071,2,0,P|262:358|341:364,1,130
470,91,53313,6,0,P|415:56|336:50,1,130
81,40,53555,1,0,0:0:0:0:
200,172,53797,6,0,P|196:261|191:314,1,130
44,384,54039,2,0,P|37:320|35:254,1,130
77,69,54281,6,0,B|114:24|166:26|166:26|233:61,1,130
273,97,54523,1,0,0:0:0:0:
360,144,54644,1,0,0:0:0:0:
420,157,54765,6,0,B|474:163|502:108|502:108|505:190|489:288,1,260
406,382,55249,5,0,0:0:0:0:
387,323,55370,2,0,B|387:222|387:222|370:148|370:148|365:44,1,260
239,63,55733,6,0,P|202:19|117:2,1,130
146,370,55975,2,0,P|208:354|250:306,1,130
146,175,56216,6,0,B|101:128|36:177|82:245|174:195|174:195|248:158|302:181|302:181|323:214|370:237,1,390
512,103,56700,6,0,P|430:109|382:147,1,130
347,321,56942,2,0,P|403:354|467:354,1,130
318,191,57184,6,0,P|256:208|194:191,1,130
105,157,57426,1,0,0:0:0:0:
33,30,57668,6,0,B|44:11|42:-4|42:-4|49:23|31:56|53:98,1,130
107,369,57910,2,0,B|109:298|109:298|105:297|105:297|105:243,1,130
173,62,58152,6,0,B|192:36|228:33|228:33|265:49|279:106,1,130
287,133,58394,1,0,0:0:0:0:
303,237,58515,1,0,0:0:0:0:
287,384,58636,6,0,P|248:324|268:252,1,130
391,109,58878,2,0,B|403:80|442:72|442:72|461:98|461:157,1,130
500,337,59120,6,0,B|494:363|494:363|383:375,1,130
342,227,59362,1,0,0:0:0:0:
181,214,59604,6,0,B|123:200|123:200|86:198|56:232,1,130
282,344,59845,2,0,B|312:341|312:341|365:364|424:348,1,130
394,132,60087,6,0,B|375:42|375:42|414:93,1,130
512,184,60329,1,0,0:0:0:0:
339,261,60450,1,0,0:0:0:0:
390,290,60571,6,0,B|432:312|432:312|535:281,1,130
262,181,60813,2,0,B|202:168|164:193|164:193|196:191|228:206,1,130
53,364,61055,6,0,B|19:370|-12:362|-12:362|-16:317|15:273,1,130
158,183,61297,1,0,0:0:0:0:
251,349,61539,6,0,P|313:365|379:344,1,130
451,62,61781,2,0,P|402:38|311:45,1,130
243,214,62023,6,0,B|225:238|194:258|194:258|188:231|193:165,1,130
212,0,62386,5,0,0:0:0:0:
146,216,62507,1,0,0:0:0:0:
187,23,62749,5,0,0:0:0:0:
253,239,62870,1,0,0:0:0:0:
102,155,63112,5,0,0:0:0:0:
345,93,63233,1,0,0:0:0:0:
370,112,63475,5,0,0:0:0:0:
416,308,63595,1,0,0:0:0:0:
414,136,63716,1,0,0:0:0:0:
372,326,63837,1,0,0:0:0:0:
440,171,63958,6,0,P|459:154|472:131,1,38.9999988098145
217,155,64321,2,0,P|200:136|177:123,1,38.9999988098145
421,225,64684,2,0,P|446:220|468:207,1,38.9999988098145
235,100,65047,2,0,P|230:75|217:52,1,38.9999988098145
250,306,65410,1,0,0:0:0:0:
403,42,65652,1,0,0:0:0:0:
154,170,65894,6,0,P|128:167|108:155,1,38.9999988098145
389,290,66257,2,0,P|405:310|410:333,1,38.9999988098145
199,119,66620,2,0,P|178:103|167:83,1,38.9999988098145
343,340,66983,2,0,P|347:366|340:389,1,38.9999988098145
319,66,67345,1,0,0:0:0:0:
213,347,67587,1,0,0:0:0:0:
31,248,67829,6,0,B|8:236|8:236|-4:221,1,38.9999988098145
247,73,68192,2,0,B|235:95|235:95|220:108,1,38.9999988098145
1,182,68555,2,0,B|-12:161|-12:161|-15:141,1,38.9999988098145
276,138,68918,2,0,B|255:152|255:152|235:156,1,38.9999988098145
118,30,69281,1,0,0:0:0:0:
121,354,69523,1,0,0:0:0:0:
132,45,69765,1,0,0:0:0:0:
165,50,70007,6,0,B|188:56|188:56|211:57,1,38.9999988098145
475,126,70370,2,0,B|452:132|452:132|429:133,1,38.9999988098145
197,0,70733,2,0,B|215:14|215:14|236:24,1,38.9999988098145
341,266,71216,1,0,0:0:0:0:
385,11,71458,1,0,0:0:0:0:
178,197,71700,6,0,B|163:217|163:217|159:242,1,38.9999988098145
458,176,72063,2,0,B|473:156|473:156|477:131,1,38.9999988098145
202,265,72426,2,0,B|199:290|199:290|208:314,1,38.9999988098145
433,107,72789,2,0,B|436:82|436:82|427:58,1,38.9999988098145
339,367,73152,1,0,0:0:0:0:
289,0,73394,1,0,0:0:0:0:
443,252,73636,6,0,P|449:222|448:198,1,38.9999988098145
204,101,73999,2,0,P|198:131|199:155,1,38.9999988098145
464,182,74362,2,0,P|454:153|442:132,1,38.9999988098145
182,170,74725,2,0,P|192:199|204:220,1,38.9999988098145
474,271,75087,1,0,0:0:0:0:
178,66,75329,1,0,0:0:0:0:
50,307,75571,6,0,B|52:332|52:332|61:357,1,38.9999988098145
251,132,75934,2,0,B|249:107|249:107|240:82,1,38.9999988098145
98,343,76297,2,0,B|112:363|112:363|132:380,1,38.9999988098145
202,95,76660,2,0,B|187:74|187:74|167:57,1,38.9999988098145
214,355,77023,1,0,0:0:0:0:
83,92,77265,1,0,0:0:0:0:
248,333,77507,1,0,0:0:0:0:
276,296,77749,6,0,B|283:251|283:251|300:217,2,65
178,109,78112,2,0,P|146:114|117:130,2,65
413,157,78475,2,0,P|439:176|458:203,2,65
299,0,78958,1,0,0:0:0:0:
256,192,79442,12,0,83313,0:0:0:0:
