osu file format v14

[General]
AudioFilename: audio.mp3
AudioLeadIn: 0
PreviewTime: 31055
Countdown: 0
SampleSet: None
StackLeniency: 0.7
Mode: 0
LetterboxInBreaks: 0
WidescreenStoryboard: 0

[Editor]
Bookmarks: 71700,89120
DistanceSpacing: 1.4
BeatDivisor: 4
GridSize: 16
TimelineZoom: 1

[Metadata]
Title:U Got That
TitleUnicode:U Got That
Artist:Halogen
ArtistUnicode:Halogen
Creator:MerinGD
Version:Insane
Source:
Tags:Chika
BeatmapID:1982034
BeatmapSetID:949162

[Difficulty]
HPDrainRate:7
CircleSize:3.8
OverallDifficulty:7
ApproachRate:8.5
SliderMultiplier:1.4
SliderTickRate:1

[Events]
//Background and Video events
Video,0,"A video edited by me.mp4"
0,0,"Kon.jpg",0,0
//Break Periods
//Storyboard Layer 0 (Background)
//Storyboard Layer 1 (Fail)
//Storyboard Layer 2 (Pass)
//Storyboard Layer 3 (Foreground)
//Storyboard Sound Samples

[TimingPoints]
2023.39395633821,483.870967741935,4,1,0,100,1,0
17507,-83.3333333333333,4,1,0,100,0,0
21378,-66.6666666666667,4,1,0,100,0,0
21862,-83.3333333333333,4,1,0,100,0,0
25249,-66.6666666666667,4,1,0,100,0,0
25733,-83.3333333333333,4,1,0,100,0,0
27184,-66.6666666666667,4,1,0,100,0,0
32991,-50,4,1,0,100,0,0

[Colours]
Combo1 : 255,236,236
Combo2 : 255,55,61

[HitObjects]
125,328,2023,6,0,B|155:254|155:254|133:178|133:178|154:124|154:124|223:118|248:168|248:168|225:118|246:75,1,420
346,119,3716,1,0,0:0:0:0:
346,119,4442,2,0,B|382:117|382:117|428:139,1,70
412,131,5168,2,0,B|381:116|381:116|345:118,1,70
249,169,5652,1,0,0:0:0:0:
245,304,5894,6,0,B|301:296|318:237|318:237|277:197|220:209|220:209|170:181|115:205|115:205|59:215|59:215|91:220|115:235,1,420
162,292,7587,1,0,0:0:0:0:
162,292,8313,2,0,B|175:255|175:255|163:205,1,70
167,225,9039,2,0,B|175:255|175:255|162:292,1,70
50,318,9523,1,0,0:0:0:0:
284,299,9765,6,0,B|344:289|344:289|407:310|407:310|437:320|466:339|466:339|436:319|415:296|415:296|401:260|410:227|410:227|462:220|486:174,1,420
446,74,11458,1,0,0:0:0:0:
446,74,12184,2,0,B|413:93|413:93|394:119,1,70
393,118,12910,2,0,B|413:93|413:93|446:74,1,70
482,180,13394,1,0,0:0:0:0:
310,89,13636,6,0,B|283:54|235:53|235:53|200:73|165:76|165:76|143:100|101:115|101:115|151:129|178:179|178:179|216:182|255:118,1,420
77,220,15329,1,0,0:0:0:0:
77,220,16055,2,0,B|112:212|112:212|166:218,1,70
145,215,16781,2,0,B|112:212|112:212|77:220,1,70
57,324,17265,1,0,0:0:0:0:
266,231,17507,6,0,P|255:177|229:125,1,83.9999974365235
147,46,17991,2,0,P|132:85|124:126,1,83.9999974365235
98,240,18475,2,0,P|144:231|196:243,1,83.9999974365235
296,319,18837,2,0,P|254:329|213:322,1,83.9999974365235
382,335,19200,1,0,0:0:0:0:
382,335,19684,6,0,P|424:339|467:322,1,83.9999974365235
385,159,20047,2,0,P|409:126|417:85,1,83.9999974365235
407,250,20410,2,0,P|445:232|472:200,1,83.9999974365235
325,94,20773,2,0,P|329:51|311:8,1,83.9999974365235
146,6,21136,1,0,0:0:0:0:
165,193,21378,6,0,B|173:209|166:232|166:232|138:177|177:164|150:104,1,157.500006008148
94,282,21862,2,0,P|120:309|182:317,1,83.9999974365235
339,295,22345,2,0,P|366:269|374:207,1,83.9999974365235
238,128,22708,2,0,P|270:156|317:168,1,83.9999974365235
315,74,23071,1,0,0:0:0:0:
315,74,23555,6,0,P|357:82|404:68,1,83.9999974365235
145,130,23918,2,0,P|158:169|186:199,1,83.9999974365235
238,128,24281,2,0,P|269:155|309:167,1,83.9999974365235
59,90,24644,2,0,P|50:132|64:179,1,83.9999974365235
164,3,25007,1,0,0:0:0:0:
160,252,25249,6,0,B|156:283|135:306|135:306|157:283|197:282|197:282|233:297,1,157.500006008148
312,338,25733,2,0,P|322:285|301:229,1,83.9999974365235
232,204,26216,2,0,P|222:151|243:95,1,83.9999974365235
323,4,26579,2,0,P|329:45|319:85,1,83.9999974365235
232,204,26942,1,0,0:0:0:0:
145,195,27184,6,0,P|116:213|97:237,1,52.5000020027161
175,57,27426,2,0,P|198:69|218:87,1,52.5000020027161
151,175,27668,6,0,P|126:180|103:193,1,52.5000020027161
207,47,27910,2,0,P|226:65|240:87,1,52.5000020027161
303,187,28152,6,0,P|324:205|363:212,1,52.5000020027161
473,163,28394,2,0,P|491:142|498:103,1,52.5000020027161
323,257,28636,6,0,P|350:257|385:237,1,52.5000020027161
437,129,28878,2,0,P|437:101|417:66,1,52.5000020027161
245,297,29120,6,0,B|229:309|229:309|225:349,1,52.5000020027161
362,265,29362,2,0,B|378:277|378:277|382:317,1,52.5000020027161
226,174,29604,2,0,B|210:186|210:186|206:226,1,52.5000020027161
353,137,29846,2,0,B|369:149|369:149|373:189,1,52.5000020027161
184,21,30087,6,0,B|174:53|174:53|178:92,1,52.5000020027161
349,265,30329,2,0,B|381:275|381:275|420:271,1,52.5000020027161
79,137,30571,2,0,B|97:165|97:165|130:187,1,52.5000020027161
372,167,30813,2,0,B|400:149|400:149|422:117,1,52.5000020027161
222,31,31055,5,0,0:0:0:0:
215,209,31216,1,0,0:0:0:0:
359,268,31378,1,0,0:0:0:0:
342,286,31539,5,0,0:0:0:0:
212,200,31701,1,0,0:0:0:0:
253,27,31862,1,0,0:0:0:0:
327,303,32023,2,0,B|330:316|330:334|330:334|292:301|243:300,1,105.000004005432
165,302,32507,2,0,P|106:324|77:363,1,105.000004005432
80,355,32991,6,0,B|63:310|63:310|74:186|74:186|106:148,1,210
345,77,33475,6,0,B|383:73|427:87|427:87|405:60|367:51,1,140
348,275,33958,6,0,P|387:279|430:271,1,70
204,68,34442,6,0,B|194:94|194:94|196:147,1,70
204,341,34684,1,0,0:0:0:0:
223,358,34926,6,0,B|213:332|213:332|225:139,1,210
376,59,35410,6,0,B|411:50|446:60|446:60|417:55|375:76,1,140
398,258,35894,6,0,P|434:261|478:248,1,70
126,59,36378,6,0,B|115:90|115:90|116:146,1,70
124,357,36620,1,0,0:0:0:0:
145,347,36862,6,0,B|158:211|158:211|184:178|224:174,1,210
326,320,37345,6,0,P|301:345|270:361,1,70
308,171,37587,1,0,0:0:0:0:
449,221,37829,6,0,L|453:291,1,70
387,188,38313,6,0,B|422:191|448:224|448:224|455:322,1,140
453,68,38797,6,0,B|488:65|514:32|514:32|518:-25,1,70
86,44,39160,5,0,0:0:0:0:
67,56,39281,2,0,B|40:84|40:84|49:204,1,140
118,341,39765,1,0,0:0:0:0:
378,194,40007,2,0,B|386:94|386:94|359:66,1,140
304,336,40491,1,0,0:0:0:0:
498,284,40733,6,0,B|539:209|539:209|569:152|522:97|463:113,1,210
240,200,41216,6,0,B|170:220|178:180|102:193,1,140
79,359,41700,6,0,P|104:336|125:286,1,70
120,79,42184,6,0,P|104:48|79:25,1,70
102,192,42426,1,0,0:0:0:0:
431,161,42668,6,0,B|477:134|482:68|482:68|432:34|375:46,1,210
369,240,43152,6,0,B|371:311|371:311|409:381,1,140
296,50,43636,6,0,B|277:17|277:17|247:-3,1,70
232,376,44120,6,0,B|258:358|258:358|277:325,1,70
210,63,44362,1,0,0:0:0:0:
138,308,44604,6,0,B|109:354|32:335|39:273|39:273|51:186,1,210
75,20,45087,6,0,B|93:29|93:29|110:104,1,70
138,308,45329,1,0,0:0:0:0:
199,96,45571,6,0,P|237:55|263:45,1,70
356,22,46055,6,0,P|385:40|405:69,1,70
410,343,46297,1,0,0:0:0:0:
291,381,46539,6,0,P|313:330|309:294,1,70
303,96,46902,5,0,0:0:0:0:
171,102,47023,2,0,P|120:127|100:156,1,70
157,331,47265,6,0,L|243:197,1,140
316,100,47628,6,0,L|240:217,1,140
241,218,47991,2,0,B|268:232|308:210|308:210|338:237|328:284,1,140
428,340,48475,6,0,P|361:331|329:272,1,140
341,31,48958,6,0,L|332:181,1,140
124,310,49442,6,0,P|190:300|223:241,1,140
212,1,49926,6,0,L|215:94,1,70
223,241,50168,1,0,0:0:0:0:
94,121,50410,6,0,P|149:73|225:74,1,140
247,93,50773,2,0,P|287:103|339:98,1,70
508,29,51136,1,0,0:0:0:0:
505,150,51378,6,0,L|500:253,1,70
390,369,51862,6,0,L|387:289,1,70
374,64,52104,1,0,0:0:0:0:
154,262,52345,6,0,B|126:282|118:318|118:318|113:260|86:220|86:220|93:189|112:164,1,210
136,79,52829,6,0,B|147:93|147:93|144:168,1,70
6,145,53071,1,0,0:0:0:0:
259,192,53313,6,0,B|257:244|257:244|237:284,1,70
85,29,53555,1,0,0:0:0:0:
120,318,53797,5,0,0:0:0:0:
220,0,54039,1,0,0:0:0:0:
6,145,54281,6,0,B|41:140|41:140|78:146,1,70
228,182,54644,2,0,B|265:191|265:191|305:182,2,70
392,70,55007,1,0,0:0:0:0:
357,269,55249,6,0,B|348:322|348:322|335:344,1,70
235,49,55491,5,0,0:0:0:0:
469,295,55733,1,0,0:0:0:0:
187,167,55975,1,0,0:0:0:0:
409,99,56216,6,0,B|435:97|454:83|454:83|439:104|423:157|442:260,1,210
454,350,56700,6,0,P|470:304|470:253,1,70
412,11,56942,1,0,0:0:0:0:
254,177,57184,6,0,P|287:212|333:235,1,70
512,143,57426,1,0,0:0:0:0:
344,32,57668,6,0,B|296:48|296:48|269:76,1,70
345,351,57910,1,0,0:0:0:0:
155,246,58152,6,0,B|123:222|78:218|78:218|129:205|172:208|172:208|196:198|219:175,1,210
207,152,58636,6,0,B|194:129|166:115|166:115|123:115,1,70
171,344,58878,1,0,0:0:0:0:
119,37,59120,6,0,B|95:24|64:28|64:28|28:51,1,70
262,290,59362,1,0,0:0:0:0:
222,68,59604,5,0,0:0:0:0:
66,355,59845,1,0,0:0:0:0:
259,258,60087,6,0,B|291:247|291:247|325:256|325:256|337:282|337:282|365:298|365:298|404:271|452:280,1,210
462,302,60571,6,0,B|471:279|471:279|471:213,1,70
394,35,60813,1,0,0:0:0:0:
320,362,61055,6,0,B|343:371|343:371|409:371,1,70
502,120,61297,1,0,0:0:0:0:
270,114,61539,6,0,B|246:137|246:137|251:200,1,70
490,366,61781,1,0,0:0:0:0:
160,326,62023,6,0,B|119:338|98:369|98:369|106:326|128:300|128:300|157:269|157:211,1,210
133,148,62507,6,0,P|129:189|139:254,1,70
370,233,62749,1,0,0:0:0:0:
393,223,63112,6,0,P|394:188|390:153,1,70
305,0,63475,1,0,0:0:0:0:
348,362,63716,1,0,0:0:0:0:
174,203,63958,6,0,B|153:237|153:237|141:339,1,140
155,192,64321,2,0,B|134:226|134:226|126:295,1,70
135,176,64684,2,0,B|114:210|114:210|102:312,1,140
122,161,65047,2,0,B|101:195|101:195|89:297,1,140
77,371,65410,5,0,0:0:0:0:
62,81,65652,1,0,0:0:0:0:
258,139,65894,6,0,P|331:156|383:119,1,140
254,109,66257,2,0,P|322:138|369:117,1,70
256,79,66620,2,0,P|318:119|380:102,1,140
262,50,66983,2,0,P|316:101|380:95,1,140
472,23,67345,5,0,0:0:0:0:
461,317,67587,1,0,0:0:0:0:
287,231,67829,6,0,B|252:216|252:216|149:249,1,140
301,201,68192,6,0,B|262:198|262:198|190:257,1,70
304,169,68555,6,0,B|267:180|267:180|209:271,1,140
296,137,68918,6,0,B|265:159|265:159|242:265,1,140
223,352,69281,5,0,0:0:0:0:
215,64,69523,1,0,0:0:0:0:
338,102,69765,6,0,P|331:140|403:220,1,140
421,135,70249,1,0,0:0:0:0:
421,135,70370,2,0,B|445:151|462:170|462:170|478:212|466:274,1,140
398,313,70733,2,0,P|362:272|275:266,1,140
314,346,71216,5,0,0:0:0:0:
297,64,71458,1,0,0:0:0:0:
267,274,71700,6,0,B|301:295|301:295|403:307,1,140
256,293,72063,2,0,B|290:314|290:314|359:322,1,70
240,313,72426,2,0,B|274:334|274:334|376:346,1,140
225,326,72789,2,0,B|259:347|259:347|361:359,1,140
435,371,73152,5,0,0:0:0:0:
144,371,73394,1,0,0:0:0:0:
203,190,73636,6,0,P|220:117|183:65,1,140
173,194,73999,2,0,P|202:125|181:79,1,70
143,192,74362,2,0,P|183:129|166:67,1,140
114,186,74725,2,0,P|165:131|159:67,1,140
87,0,75087,5,0,0:0:0:0:
381,0,75329,1,0,0:0:0:0:
295,161,75571,6,0,B|280:196|280:196|313:299,1,140
265,147,75934,6,0,B|262:185|262:185|321:258,1,70
233,144,76297,6,0,B|244:180|244:180|335:238,1,140
201,152,76660,6,0,B|223:182|223:182|329:205,1,140
416,225,77023,5,0,0:0:0:0:
128,233,77265,1,0,0:0:0:0:
389,115,77507,5,0,0:0:0:0:
357,132,77749,2,0,B|348:158|348:158|345:244,1,70
383,281,77991,2,0,B|373:255|373:255|374:190,1,70
397,66,78233,2,0,P|365:55|311:63,1,70
267,117,78475,2,0,P|235:128|181:120,1,70
218,44,78716,6,0,P|223:-1|220:44,1,140
256,192,79442,12,0,83313,0:0:0:0:
