osu file format v14

[General]
AudioFilename: audio.mp3
AudioLeadIn: 0
PreviewTime: 100636
Countdown: 0
SampleSet: Soft
StackLeniency: 0.7
Mode: 0
LetterboxInBreaks: 0
WidescreenStoryboard: 0

[Editor]
Bookmarks: 73084
DistanceSpacing: 1
BeatDivisor: 4
GridSize: 32
TimelineZoom: 1.2

[Metadata]
Title:U Got That (Camellia's Neurofunk Bootleg)
TitleUnicode:U Got That (かめりあ's Neurofunk Bootleg)
Artist:Halogen
ArtistUnicode:Halogen
Creator:Sotarks
Version:Reform's Insane
Source:
Tags:nikakis akitoshi corinn -laura- realazy reform kujinn cametek mix remix ricardo milos かめるかめりあ kamelcamellia
BeatmapID:1951094
BeatmapSetID:934144

[Difficulty]
HPDrainRate:6
CircleSize:4
OverallDifficulty:7.8
ApproachRate:9
SliderMultiplier:1.72
SliderTickRate:1

[Events]
//Background and Video events
0,0,"bg.jpg",0,0
//Break Periods
//Storyboard Layer 0 (Background)
//Storyboard Layer 1 (Fail)
//Storyboard Layer 2 (Pass)
//Storyboard Layer 3 (Foreground)
//Storyboard Sound Samples

[TimingPoints]
33,344.827586206897,4,2,22,52,1,0
12446,-117.647058823529,4,2,22,52,0,0
17964,-117.647058823529,4,2,22,62,0,0
20722,-117.647058823529,4,2,22,72,0,0
23481,-64.5161290322581,4,2,22,82,0,0
23998,-86.9565217391304,4,2,22,82,0,0
26239,-133.333333333333,4,2,22,82,0,0
26584,-86.9565217391303,4,2,22,82,0,0
28136,-74.0740740740741,4,2,22,82,0,0
28998,-64.5161290322581,4,2,22,82,0,0
29515,-86.9565217391304,4,2,22,82,0,0
31757,-133.333333333333,4,2,22,82,0,0
32101,-86.9565217391303,4,2,22,82,0,0
33136,-74.0740740740741,4,2,22,82,0,0
34515,-64.5161290322581,4,2,22,82,0,0
35033,-117.647058823529,4,2,22,82,0,0
35550,-86.9565217391304,4,2,22,82,0,0
37274,-133.333333333333,4,2,22,82,0,0
37619,-86.9565217391303,4,2,22,82,0,0
39170,-74.0740740740741,4,2,22,82,0,0
40033,-64.5161290322581,4,2,22,82,0,0
40550,-86.9565217391304,4,2,22,82,0,0
42791,-133.333333333333,4,2,22,82,0,0
43136,-86.9565217391303,4,2,22,82,0,0
44429,-86.9565217391303,4,2,22,72,0,0
45550,-64.5161290322581,4,2,22,82,0,0
46067,-86.9565217391304,4,2,22,82,0,0
46929,-64.5161290322581,4,2,22,82,0,0
47360,-86.9565217391304,4,2,22,82,0,0
51067,-64.5161290322581,4,2,22,82,0,0
51412,-86.9565217391304,4,2,22,82,0,0
56584,-64.5161290322581,4,2,22,82,0,0
56929,-86.9565217391304,4,2,22,82,0,0
67619,-238.095238095238,4,2,22,82,0,0
67705,-238.095238095238,4,2,22,52,0,0
78653,-153.846153846154,4,2,22,42,0,0
84170,-133.333333333334,4,2,22,42,0,0
86929,-133.333333333334,4,2,22,52,0,0
89688,-105.263157894737,4,2,22,62,0,0
90033,-105.263157894737,4,2,22,72,0,0
93826,-105.263157894737,4,2,22,82,0,0
103481,-64.5161290322581,4,2,22,92,0,0
103998,-86.9565217391304,4,2,22,92,0,0
105205,-74.0740740740741,4,2,22,92,0,0
106239,-64.5161290322581,4,2,22,92,0,0
106757,-86.9565217391304,4,2,22,92,0,0
108998,-133.333333333333,4,2,22,92,0,0
109343,-86.9565217391303,4,2,22,92,0,0
110377,-74.0740740740741,4,2,22,92,0,0
111757,-64.5161290322581,4,2,22,92,0,0
112275,-117.647058823529,4,2,22,92,0,0
112791,-86.9565217391304,4,2,22,92,0,0
114515,-133.333333333333,4,2,22,92,0,0
114860,-86.9565217391303,4,2,22,92,0,0
116411,-74.0740740740741,4,2,22,92,0,0
117274,-64.5161290322581,4,2,22,92,0,0
117791,-86.9565217391304,4,2,22,92,0,0
120032,-133.333333333333,4,2,22,92,0,0
120377,-86.9565217391303,4,2,22,92,0,0
121670,-86.9565217391303,4,2,22,82,0,0
122791,-64.5161290322581,4,2,22,92,0,0
123308,-86.9565217391304,4,2,22,92,0,0
124170,-64.5161290322581,4,2,22,92,0,0
124601,-86.9565217391304,4,2,22,92,0,0
128308,-64.5161290322581,4,2,22,92,0,0
128653,-86.9565217391304,4,2,22,92,0,0
131067,-64.5161290322581,4,2,22,92,0,0
131498,-86.9565217391304,4,2,22,92,0,0
133825,-64.5161290322581,4,2,22,92,0,0
134170,-86.9565217391304,4,2,22,92,0,0

[Colours]
Combo1 : 193,159,208
Combo2 : 143,143,143
Combo3 : 227,226,225
Combo4 : 255,26,26
Combo5 : 155,94,94
Combo6 : 147,16,197
SliderBorder : 255,255,255
SliderTrackOverride : 0,0,0

[HitObjects]
75,105,12446,6,0,P|156:109|221:145,1,146.200002788544,6|0,1:2|3:2,0:0:0:0:
356,48,12964,2,0,P|312:68|276:71,1,73.1000013942719,2|0,0:0|0:0,0:0:0:0:
180,141,13308,1,0,3:0:0:0:
180,141,13395,1,0,3:0:0:0:
180,141,13481,1,0,3:0:0:0:
311,254,13653,6,0,P|302:196|320:100,1,146.200002788544,2|0,0:0|0:0,0:0:0:0:
442,166,14170,1,0,3:0:0:0:
442,166,14257,2,0,P|416:196|382:205,1,73.1000013942719,2|0,0:0|0:0,0:0:0:0:
311,254,14515,2,0,P|285:224|251:215,1,73.1000013942719,2|0,0:0|3:0,0:0:0:0:
184,245,14774,1,0,3:0:0:0:
184,245,14860,2,0,P|182:293|181:326,1,73.1000013942719,2|2,3:0|0:0,0:0:0:0:
93,182,15205,70,0,L|54:172,3,36.5500006971359,0|0|0|0,0:0|0:0|0:0|0:0,0:0:0:0:
189,139,15550,2,0,L|228:129,3,36.5500006971359,2|0|0|0,3:0|0:0|0:0|0:0,0:0:0:0:
204,39,15895,2,0,P|247:37|284:56,1,73.1000013942719,2|0,0:0|0:0,0:0:0:0:
297,86,16153,2,0,P|330:98|367:95,1,73.1000013942719,2|0,0:0|0:0,0:0:0:0:
425,35,16412,6,0,P|408:94|416:182,1,146.200002788544,2|2,0:0|0:0,0:0:0:0:
485,288,16929,1,0,3:0:0:0:
485,288,17015,2,0,P|452:262|407:253,1,73.1000013942719,2|0,0:0|0:0,0:0:0:0:
354,302,17274,2,0,P|321:328|276:337,1,73.1000013942719,2|2,0:0|0:0,0:0:0:0:
228,283,17533,1,0,0:0:0:0:
228,283,17619,2,0,P|231:237|232:197,1,73.1000013942719,2|2,3:0|0:0,0:0:0:0:
124,68,17964,70,0,P|81:60|50:66,1,73.1000013942719,0|0,1:0|1:0,0:0:0:0:
124,77,18308,2,0,P|81:69|50:75,1,73.1000013942719,0|0,1:0|1:0,0:0:0:0:
295,123,18653,2,0,P|338:115|369:121,1,73.1000013942719,0|0,1:0|1:0,0:0:0:0:
295,132,18997,2,0,P|338:124|369:130,1,73.1000013942719,0|0,1:0|1:0,0:0:0:0:
125,203,19343,5,0,1:0:0:0:
125,203,19515,1,0,1:0:0:0:
224,28,19688,1,0,1:0:0:0:
224,28,19860,1,0,1:0:0:0:
247,219,20033,1,0,1:0:0:0:
247,219,20205,1,0,1:0:0:0:
123,52,20378,1,0,1:0:0:0:
123,52,20550,1,0,1:0:0:0:
351,132,20722,69,8,1:2:0:0:
351,132,20808,1,0,1:0:0:0:
351,132,20895,2,0,P|368:157|375:177,1,36.5500006971359,0|0,1:0|0:0,0:0:0:0:
332,251,21067,1,8,1:2:0:0:
332,251,21153,1,0,1:0:0:0:
332,251,21240,2,0,P|318:278|305:294,1,36.5500006971359,0|0,1:0|0:0,0:0:0:0:
215,284,21412,1,8,1:2:0:0:
215,284,21498,1,0,1:0:0:0:
215,284,21585,2,0,P|184:286|164:282,1,36.5500006971359,0|0,1:0|0:0,0:0:0:0:
155,202,21757,1,8,1:2:0:0:
155,202,21843,1,0,1:0:0:0:
155,202,21930,2,0,P|138:177|131:157,1,36.5500006971359,0|0,1:0|0:0,0:0:0:0:
201,71,22101,5,8,1:2:0:0:
201,71,22188,1,0,1:0:0:0:
201,71,22274,1,0,1:0:0:0:
201,71,22360,1,0,1:0:0:0:
201,71,22446,2,0,L|243:64,3,36.5500006971359,8|0|0|0,1:2|1:0|1:0|1:0,0:0:0:0:
321,119,22791,2,0,L|375:125,1,36.5500006971359,0|0,3:0|3:0,0:0:0:0:
237,176,22964,2,0,L|183:182,1,36.5500006971359,8|0,0:0|3:0,0:0:0:0:
324,253,23136,1,8,3:0:0:0:
324,253,23222,1,8,3:0:0:0:
324,253,23308,1,4,3:0:0:0:
324,253,23395,1,4,3:0:0:0:
324,253,23481,6,0,B|307:201|241:208|235:260|235:260|227:318|153:326|142:262,1,266.600002033997,6|10,1:2|0:2,0:0:0:0:
24,153,23998,6,0,P|84:158|114:109,1,98.9000018863678,0|2,0:2|0:2,0:0:0:0:
150,65,24257,2,0,P|188:35|235:45,1,98.9000018863678,0|0,1:2|0:2,0:0:0:0:
228,180,24515,2,0,P|181:189|143:159,1,98.9000018863678,10|0,0:2|0:2,0:0:0:0:
348,162,24860,70,0,P|336:228|326:278,1,98.9000018863678,2|0,0:2|1:2,0:0:0:0:
333,297,25119,1,0,0:2:0:0:
333,297,25205,1,10,0:2:0:0:
173,361,25377,2,0,P|176:307|199:252,1,98.9000018863678,0|2,0:2|0:2,0:0:0:0:
195,162,25636,2,0,P|211:208|213:257,1,98.9000018863678,0|0,1:2|0:2,0:0:0:0:
139,308,25895,2,0,P|114:321|43:313,1,98.9000018863678,10|2,0:2|0:2,0:0:0:0:
226,186,26239,6,0,P|251:173|321:184,1,96.7500036907198,2|0,1:2|0:2,0:0:0:0:
384,240,26584,70,0,P|427:257|453:257,1,49.4500009431839,10|0,0:2|0:2,0:0:0:0:
480,119,26757,2,0,P|425:105|372:163,1,98.9000018863678,0|2,0:2|0:2,0:0:0:0:
316,181,27015,2,0,P|272:201|226:185,1,98.9000018863678,0|0,1:2|0:2,0:0:0:0:
118,92,27274,2,0,P|132:147|126:203,1,98.9000018863678,8|0,0:2|0:2,0:0:0:0:
128,302,27619,5,2,0:2:0:0:
128,302,27705,1,2,0:2:0:0:
128,302,27791,1,2,1:2:0:0:
128,302,27877,1,2,0:2:0:0:
128,302,27964,2,0,P|169:282|216:284,1,49.4500009431839,8|0,0:2|0:2,0:0:0:0:
308,331,28136,70,0,P|373:359|449:338,1,116.100000442886,2|0,0:2|0:2,0:0:0:0:
422,185,28395,6,0,P|364:182|313:208,1,116.100000442886,2|0,1:2|0:2,0:0:0:0:
206,318,28653,70,2,P|220:275|221:239,1,58.0500002214432,10|0,0:2|0:2,0:0:0:0:
165,118,28826,2,0,P|169:146|180:173,1,58.0500002214432,2|0,0:2|0:2,0:0:0:0:
346,130,28998,6,0,P|359:49|279:81,1,199.950001525497,6|0,1:2|0:2,0:0:0:0:
271,115,29343,1,10,0:2:0:0:
403,235,29515,70,0,P|372:212|291:217,1,98.9000018863678,0|2,0:2|0:2,0:0:0:0:
254,268,29774,2,0,P|223:291|142:286,1,98.9000018863678,0|0,1:2|0:2,0:0:0:0:
78,189,30033,2,0,P|152:194|199:196,1,98.9000018863678,10|0,0:2|0:2,0:0:0:0:
123,43,30377,6,0,P|74:22|25:39,1,98.9000018863678,2|0,0:2|1:2,0:0:0:0:
2,62,30636,1,0,0:2:0:0:
2,62,30722,1,10,0:2:0:0:
49,245,30895,2,0,P|61:194|66:133,1,98.9000018863678,0|2,0:2|0:2,0:0:0:0:
176,140,31153,2,0,P|181:189|192:237,1,98.9000018863678,0|0,1:2|0:2,0:0:0:0:
310,297,31412,2,0,P|356:265|355:213,1,98.9000018863678,10|2,0:2|0:2,0:0:0:0:
273,101,31757,70,0,P|280:57|335:36,1,96.7500036907198,2|0,1:2|0:2,0:0:0:0:
431,73,32101,6,0,P|425:115|421:157,1,49.4500009431839,10|0,0:2|0:2,0:0:0:0:
356,235,32274,2,0,P|300:241|259:201,1,98.9000018863678,0|2,0:2|0:2,0:0:0:0:
234,140,32533,2,0,P|193:113|145:122,1,98.9000018863678,0|0,1:2|0:2,0:0:0:0:
89,192,32791,2,0,P|114:243|97:300,1,98.9000018863678,10|2,0:2|0:2,0:0:0:0:
18,360,33136,70,0,P|87:335|148:338,1,116.100000442886,2|0,0:2|0:0,0:0:0:0:
237,311,33395,1,0,0:2:0:0:
237,311,33481,2,0,P|306:336|367:333,1,116.100000442886,10|0,0:2|0:2,0:0:0:0:
428,265,33739,2,0,P|417:195|427:117,1,116.100000442886,2|0,0:2|1:2,0:0:0:0:
327,76,33998,2,0,P|336:36|337:9,1,58.0500002214432,0|0,3:2|3:2,0:0:0:0:
215,118,34170,1,8,3:2:0:0:
215,118,34257,1,8,3:0:0:0:
215,118,34343,1,4,3:0:0:0:
215,118,34429,1,4,3:0:0:0:
215,118,34515,6,0,B|243:67|313:92|305:149|305:149|300:197|378:223|405:143,1,266.600002033997,6|2,1:2|3:2,0:0:0:0:
218,239,35033,70,0,P|164:243|113:248,1,73.1000013942719,0|2,0:0|3:2,0:0:0:0:
104,252,35291,1,0,1:2:0:0:
374,262,35464,5,0,1:2:0:0:
374,262,35550,2,0,P|397:312|385:375,1,98.9000018863678,10|0,0:2|0:2,0:0:0:0:
273,158,35895,70,0,P|250:108|262:45,1,98.9000018863678,2|0,0:2|1:2,0:0:0:0:
327,19,36153,1,0,0:2:0:0:
327,19,36239,2,0,P|361:33|394:32,1,49.4500009431839,10|0,0:2|0:2,0:0:0:0:
501,122,36412,2,0,P|428:116|397:162,1,98.9000018863678,0|2,0:2|0:2,0:0:0:0:
346,185,36670,2,0,P|299:199|256:177,1,98.9000018863678,0|0,1:2|0:2,0:0:0:0:
159,67,36929,2,0,P|168:118|179:176,1,98.9000018863678,10|2,0:2|0:2,0:0:0:0:
146,267,37274,6,0,P|110:294|38:283,1,96.7500036907198,2|0,1:2|0:2,0:0:0:0:
8,220,37619,70,0,P|0:172|-6:150,1,49.4500009431839,10|0,0:2|0:2,0:0:0:0:
54,88,37791,2,0,P|114:82|157:129,1,98.9000018863678,0|2,0:2|0:2,0:0:0:0:
221,166,38050,2,0,P|262:189|311:177,1,98.9000018863678,0|0,1:2|0:2,0:0:0:0:
401,76,38308,2,0,P|394:126|413:193,1,98.9000018863678,10|0,0:2|0:2,0:0:0:0:
357,281,38653,5,2,0:2:0:0:
357,281,38739,1,2,0:2:0:0:
357,281,38826,1,2,1:2:0:0:
357,281,38912,1,2,0:2:0:0:
357,281,38998,2,0,P|321:295|289:294,1,49.4500009431839,8|0,0:2|0:2,0:0:0:0:
210,349,39170,70,0,P|160:305|158:211,1,116.100000442886,2|0,0:2|0:2,0:0:0:0:
55,207,39429,6,0,P|65:134|108:95,1,116.100000442886,2|0,1:2|0:2,0:0:0:0:
131,10,39688,70,0,P|203:9|252:112,1,174.15000066433,10|0,0:2|0:2,0:0:0:0:
248,174,40033,6,0,P|310:224|343:127,1,199.950001525497,6|0,1:2|0:2,0:0:0:0:
333,102,40377,1,10,0:2:0:0:
139,46,40550,70,0,P|151:103|139:159,1,98.9000018863678,0|2,0:2|0:2,0:0:0:0:
74,196,40808,2,0,P|68:244|80:292,1,98.9000018863678,0|0,1:2|0:2,0:0:0:0:
156,353,41067,2,0,P|232:343|298:336,1,98.9000018863678,10|0,0:2|0:2,0:0:0:0:
421,253,41412,6,0,P|372:274|311:244,1,98.9000018863678,2|0,0:2|1:2,0:0:0:0:
297,239,41670,1,0,0:2:0:0:
297,239,41757,1,10,0:2:0:0:
363,61,41929,2,0,P|364:126|375:178,1,98.9000018863678,0|2,0:2|0:2,0:0:0:0:
383,246,42188,2,0,P|390:197|389:147,1,98.9000018863678,0|0,1:2|0:2,0:0:0:0:
277,58,42446,2,0,P|221:54|178:118,1,98.9000018863678,10|2,0:2|0:2,0:0:0:0:
24,186,42791,70,0,P|74:190|143:194,1,96.7500036907198,2|0,1:2|0:2,0:0:0:0:
177,256,43136,6,0,L|238:252,1,49.4500009431839,10|0,0:2|0:2,0:0:0:0:
338,334,43308,2,0,P|288:323|263:256,1,98.9000018863678,0|2,0:2|0:2,0:0:0:0:
339,135,43567,2,0,P|354:183|308:238,1,98.9000018863678,0|0,1:2|0:2,0:0:0:0:
163,222,43826,2,0,P|194:185|242:181,1,98.9000018863678,10|2,0:2|0:2,0:0:0:0:
368,317,44170,69,2,1:2:0:0:
109,292,44429,70,0,L|54:296,1,49.4500009431839,0|2,3:2|3:2,0:0:0:0:
8,130,44688,70,0,L|63:134,1,49.4500009431839,0|0,3:2|3:2,0:0:0:0:
230,335,44946,5,0,3:2:0:0:
230,335,45032,1,0,3:2:0:0:
230,335,45119,1,0,3:2:0:0:
230,335,45205,2,0,L|237:274,3,49.4500009431839,0|0|0|0,0:0|0:0|3:2|3:2,0:0:0:0:
344,249,45550,38,0,B|348:194|285:175|259:220|259:220|229:270|158:249|172:186,1,266.600002033997,0|8,1:2|0:2,0:0:0:0:
75,62,46067,6,0,P|84:97|87:119,1,49.4500009431839,0|0,0:2|0:2,0:0:0:0:
30,198,46239,1,0,3:2:0:0:
30,198,46326,2,0,P|18:252|14:306,1,98.9000018863678,0|0,1:2|0:2,0:0:0:0:
76,345,46584,2,0,P|130:364|175:332,1,98.9000018863678,8|0,0:2|0:2,0:0:0:0:
212,162,46929,70,0,P|266:158|241:222,2,133.300001016998,2|0|8,3:2|1:2|0:2,0:0:0:0:
185,253,47360,6,0,P|240:253|315:272,1,98.9000018863678,0|0,3:2|0:2,0:0:0:0:
357,333,47619,1,0,3:2:0:0:
357,333,47705,2,0,P|407:328|430:323,1,49.4500009431839,0|0,1:2|0:0,0:0:0:0:
494,201,47877,1,0,0:2:0:0:
494,201,47963,2,0,P|440:182|376:184,1,98.9000018863678,8|0,0:2|0:2,0:0:0:0:
233,36,48308,70,0,P|252:80|252:145,1,98.9000018863678,2|0,3:2|1:2,0:0:0:0:
79,221,48653,1,8,0:2:0:0:
79,221,48739,2,0,P|129:221|185:209,1,98.9000018863678,0|0,3:2|0:2,0:0:0:0:
242,145,48998,1,0,3:2:0:0:
242,145,49084,2,0,P|292:145|348:157,1,98.9000018863678,0|0,1:2|0:2,0:0:0:0:
403,242,49343,2,0,P|359:273|308:259,1,98.9000018863678,8|0,0:2|0:2,0:0:0:0:
278,245,49601,1,0,0:2:0:0:
278,245,49688,1,0,3:2:0:0:
131,70,49860,6,0,P|143:130|145:194,1,98.9000018863678,0|8,1:2|0:2,0:0:0:0:
99,234,50119,1,0,3:2:0:0:
99,234,50205,2,0,P|111:291|174:301,1,98.9000018863678,0|0,0:0|3:2,0:0:0:0:
227,363,50464,1,0,1:2:0:0:
227,363,50550,2,0,L|238:291,1,49.4500009431839,0|0,0:0|0:2,0:0:0:0:
278,245,50722,2,0,L|272:202,6,24.725000471592,8|0|0|0|0|0|0,0:2|0:0|0:0|0:0|0:2|0:0|0:0,0:0:0:0:
202,142,51067,70,0,B|141:207|38:174|50:75|137:134,1,199.950001525497,0|0,1:2|0:2,0:0:0:0:
171,180,51412,6,0,P|184:237|184:291,1,98.9000018863678,8|0,0:2|0:2,0:0:0:0:
25,365,51757,1,0,3:2:0:0:
25,365,51843,2,0,P|29:306|81:284,1,98.9000018863678,0|0,3:2|0:2,0:0:0:0:
143,342,52101,2,0,P|213:369|258:363,1,98.9000018863678,8|0,0:2|0:2,0:0:0:0:
282,355,52360,1,0,0:2:0:0:
282,355,52446,1,2,3:2:0:0:
218,157,52619,70,0,P|207:196|199:226,1,49.4500009431839,0|2,1:2|0:2,0:0:0:0:
341,276,52791,1,8,0:2:0:0:
341,276,52877,2,0,P|337:209|274:185,1,98.9000018863678,0|0,3:2|0:2,0:0:0:0:
230,255,53136,1,0,3:2:0:0:
230,255,53222,2,0,P|163:266|114:270,1,98.9000018863678,0|0,1:2|0:2,0:0:0:0:
61,202,53481,2,0,P|65:135|128:111,1,98.9000018863678,8|0,0:2|0:2,0:0:0:0:
129,107,53739,1,0,0:2:0:0:
129,107,53826,1,2,1:2:0:0:
214,282,53998,6,0,P|257:288|276:286,1,49.4500009431839,0|2,3:2|0:2,0:0:0:0:
372,182,54170,1,8,0:2:0:0:
372,182,54257,2,0,P|345:234|351:308,1,98.9000018863678,0|0,3:2|0:2,0:0:0:0:
475,377,54515,1,0,3:2:0:0:
475,377,54601,2,0,P|509:328|475:275,1,98.9000018863678,0|0,1:2|0:2,0:0:0:0:
432,239,54860,2,0,P|371:271|336:273,1,98.9000018863678,8|0,0:2|0:2,0:0:0:0:
132,320,55205,70,0,P|191:305|244:299,1,98.9000018863678,8|0,0:2|1:2,0:0:0:0:
138,171,55550,2,0,P|89:163|41:151,1,98.9000018863678,8|0,0:2|0:0,0:0:0:0:
277,52,55895,1,0,3:2:0:0:
277,52,55981,1,0,3:2:0:0:
277,52,56067,2,0,P|289:93|297:108,1,49.4500009431839,8|0,3:2|3:2,0:0:0:0:
215,169,56239,2,0,P|203:210|195:225,1,49.4500009431839,0|8,3:2|3:2,0:0:0:0:
296,303,56412,1,0,3:2:0:0:
296,303,56498,1,0,3:2:0:0:
296,303,56584,6,0,B|378:355|465:336|421:243|353:308,1,199.950001525497,4|0,1:2|0:2,0:0:0:0:
312,347,56929,70,0,P|258:366|196:346,1,98.9000018863678,8|0,0:2|0:2,0:0:0:0:
41,211,57274,1,0,3:2:0:0:
41,211,57360,2,0,P|61:264|68:333,1,98.9000018863678,0|0,1:2|0:2,0:0:0:0:
166,261,57619,2,0,P|184:215|192:166,1,98.9000018863678,8|0,0:2|0:2,0:0:0:0:
193,122,57877,1,0,0:2:0:0:
193,122,57964,1,2,3:2:0:0:
359,262,58136,6,0,L|420:278,1,49.4500009431839,0|2,1:2|0:2,0:0:0:0:
385,136,58308,1,8,0:2:0:0:
385,136,58395,2,0,P|329:127|279:184,1,98.9000018863678,0|0,3:2|0:2,0:0:0:0:
277,282,58653,1,0,3:2:0:0:
277,282,58739,2,0,P|270:212|265:169,1,98.9000018863678,0|0,1:2|0:2,0:0:0:0:
253,60,58998,2,0,P|247:109|242:158,1,98.9000018863678,8|0,0:2|0:2,0:0:0:0:
237,200,59257,1,0,0:2:0:0:
237,200,59343,1,2,1:2:0:0:
32,307,59515,70,0,L|94:290,1,49.4500009431839,0|2,3:2|0:2,0:0:0:0:
191,351,59688,1,8,0:2:0:0:
191,351,59774,2,0,P|139:359|78:306,1,98.9000018863678,0|0,3:2|0:2,0:0:0:0:
92,212,60033,1,0,3:2:0:0:
92,212,60119,2,0,P|136:191|183:199,1,98.9000018863678,0|0,1:2|0:2,0:0:0:0:
276,271,60377,2,0,P|285:332|297:379,1,98.9000018863678,8|0,0:2|0:2,0:0:0:0:
328,383,60636,1,0,0:2:0:0:
328,383,60722,1,0,3:2:0:0:
471,245,60895,6,0,L|481:188,1,49.4500009431839,0|0,1:2|0:2,0:0:0:0:
398,85,61067,1,8,0:2:0:0:
398,85,61153,2,0,P|346:97|312:143,1,98.9000018863678,0|0,3:2|0:2,0:0:0:0:
212,201,61412,1,0,3:2:0:0:
212,201,61498,2,0,P|264:213|298:259,1,98.9000018863678,0|0,1:2|0:2,0:0:0:0:
340,333,61757,2,0,L|343:375,6,24.725000471592,8|0|0|0|0|0|0,0:2|0:0|0:0|0:0|0:2|0:0|0:0,0:0:0:0:
435,217,62101,70,0,L|448:116,1,98.9000018863678,0|0,1:2|1:2,0:0:0:0:
446,222,62446,2,0,L|459:121,1,98.9000018863678,8|0,1:2|1:2,0:0:0:0:
193,167,62791,6,0,L|206:268,1,98.9000018863678,0|0,1:2|1:2,0:0:0:0:
182,175,63136,2,0,L|195:276,1,98.9000018863678,8|0,1:2|1:2,0:0:0:0:
339,87,63481,70,0,L|238:74,1,98.9000018863678,0|0,1:2|1:2,0:0:0:0:
344,76,63826,2,0,L|243:63,1,98.9000018863678,8|0,1:2|1:2,0:0:0:0:
289,329,64171,6,0,L|390:316,1,98.9000018863678,0|0,1:2|1:2,0:0:0:0:
297,340,64516,2,0,L|398:327,1,98.9000018863678,8|0,1:2|1:2,0:0:0:0:
156,161,64860,69,8,1:2:0:0:
156,161,64946,1,0,1:2:0:0:
156,161,65033,2,0,P|145:196|144:232,1,49.4500009431839,0|0,1:2|1:2,0:0:0:0:
330,133,65205,1,8,1:2:0:0:
330,133,65291,1,0,1:2:0:0:
330,133,65377,2,0,P|326:108|317:85,1,49.4500009431839,0|0,1:2|1:2,0:0:0:0:
251,256,65550,1,8,1:2:0:0:
251,256,65636,1,0,1:2:0:0:
251,256,65722,2,0,P|275:252|298:243,1,49.4500009431839,0|0,1:2|1:2,0:0:0:0:
223,82,65895,1,8,1:2:0:0:
223,82,65981,1,0,1:2:0:0:
223,82,66068,2,0,P|188:71|152:70,1,49.4500009431839,0|0,1:2|1:2,0:0:0:0:
86,153,66239,5,8,1:2:0:0:
86,153,66326,1,0,1:2:0:0:
86,153,66412,1,0,1:2:0:0:
86,153,66498,1,0,1:2:0:0:
86,153,66584,2,0,L|77:218,3,49.4500009431839,8|0|0|0,1:2|1:2|1:2|1:2,0:0:0:0:
177,245,66929,2,0,L|184:306,1,49.4500009431839,8|0,1:2|1:2,0:0:0:0:
264,200,67101,2,0,L|269:150,1,49.4500009431839,0|0,3:2|3:2,0:0:0:0:
350,289,67274,1,0,3:2:0:0:
350,289,67360,1,0,3:2:0:0:
350,289,67446,1,0,3:0:0:0:
350,289,67533,1,0,3:0:0:0:
350,289,67619,6,0,B|317:225|368:144|368:144|410:83|375:15|259:18|260:125|308:155|374:165|374:165|448:207|465:292|428:381|349:425|270:317|270:317|234:386|132:416|78:357|63:266|155:240|187:300,1,1155.83996472656,6|0,1:2|0:2,0:0:0:0:
256,192,76067,12,0,78538,1:2:0:0:
188,265,78653,6,0,L|180:191,1,55.8999974411012,0|0,1:2|0:2,0:0:0:0:
177,170,78912,1,0,0:2:0:0:
177,170,78998,1,0,3:2:0:0:
279,254,79170,2,0,B|346:266|324:224|399:240,1,111.799994882202,2|0,0:2|0:2,0:0:0:0:
269,346,79688,2,0,L|221:352,1,27.9499987205506,2|0,3:2|0:2,0:0:0:0:
24,257,80033,70,0,P|11:207|35:162,1,83.8499961616518,0|0,1:2|0:2,0:0:0:0:
52,146,80377,2,0,P|88:155|138:156,1,83.8499961616518,2|0,3:2|0:0,0:0:0:0:
168,185,80722,2,0,P|208:175|250:174,1,83.8499961616518,2|0,3:2|0:2,0:0:0:0:
281,197,81067,2,0,L|326:207,1,27.9499987205506,2|0,3:2|3:2,0:0:0:0:
459,66,81412,6,0,P|419:78|390:85,1,55.8999974411012,2|0,3:2|0:0,0:0:0:0:
369,93,81670,1,0,1:2:0:0:
369,93,81757,1,0,3:2:0:0:
237,35,81929,2,0,P|196:28|117:23,1,111.799994882202,2|0,3:2|1:2,0:0:0:0:
32,151,82446,2,0,L|74:142,1,27.9499987205506,2|0,3:2|1:2,0:0:0:0:
199,349,82791,70,0,P|219:305|215:259,1,83.8499961616518,0|0,1:2|1:2,0:0:0:0:
208,228,83136,1,0,3:2:0:0:
21,266,83308,2,0,P|73:266|131:284,1,111.799994882202,0|2,1:2|1:2,0:0:0:0:
199,349,83826,1,2,3:2:0:0:
289,317,83998,1,2,3:2:0:0:
351,221,84170,6,0,P|346:171|329:143,1,64.5000024604798,2|0,1:2|0:2,0:0:0:0:
318,128,84429,1,0,1:2:0:0:
318,128,84515,1,0,3:2:0:0:
136,238,84688,2,0,P|183:241|263:210,1,129.00000492096,2|0,3:2|1:2,0:0:0:0:
136,83,85205,2,0,L|90:75,1,32.2500012302399,2|0,3:2|1:2,0:0:0:0:
34,295,85550,70,0,P|39:242|57:185,1,96.7500036907198,0|0,1:2|3:2,0:0:0:0:
79,172,85895,2,0,P|126:184|169:144,1,96.7500036907198,2|0,3:2|0:0,0:0:0:0:
182,119,86239,2,0,P|229:107|272:147,1,96.7500036907198,2|0,3:2|1:2,0:0:0:0:
292,172,86584,1,2,3:2:0:0:
232,233,86757,1,2,3:2:0:0:
306,306,86929,5,2,1:2:0:0:
306,306,87015,2,0,P|365:305|425:316,1,96.7500036907198,0|0,0:0|3:2,0:0:0:0:
498,190,87446,1,2,3:2:0:0:
498,190,87532,2,0,P|439:189|379:200,1,96.7500036907198,2|0,0:2|3:2,0:0:0:0:
302,71,87964,2,0,L|343:79,1,32.2500012302399,2|0,3:2|3:2,0:0:0:0:
222,216,88308,70,0,P|169:243|109:225,1,96.7500036907198,0|0,1:2|1:2,0:0:0:0:
92,227,88653,1,0,3:2:0:0:
141,55,88826,1,0,3:2:0:0:
141,55,88912,2,0,P|134:106|154:167,1,96.7500036907198,0|2,3:2|3:2,0:0:0:0:
223,244,89343,1,2,3:2:0:0:
319,144,89515,1,2,3:2:0:0:
112,102,89688,6,0,P|61:119|21:127,1,81.6999978183747,6|0,1:2|0:0,0:0:0:0:
113,114,90033,2,0,P|62:131|22:139,1,81.6999978183747,8|0,0:2|0:0,0:0:0:0:
224,232,90377,70,0,P|275:249|315:257,1,81.6999978183747,8|0,0:2|0:0,0:0:0:0:
223,244,90722,2,0,P|274:261|314:269,1,81.6999978183747,8|0,2:2|0:0,0:0:0:0:
80,367,91067,6,0,P|68:312|76:275,1,81.6999978183747,8|0,0:2|0:0,0:0:0:0:
70,365,91412,2,0,P|58:310|66:273,1,81.6999978183747,8|0,0:2|0:0,0:0:0:0:
214,164,91757,70,0,P|226:219|218:256,1,81.6999978183747,8|0,0:2|0:0,0:0:0:0:
224,166,92102,2,0,P|236:221|228:258,1,81.6999978183747,8|0,0:2|0:0,0:0:0:0:
181,352,92446,5,8,0:2:0:0:
180,363,92791,1,8,0:2:0:0:
56,212,93136,69,8,0:2:0:0:
58,230,93481,1,8,0:2:0:0:
247,68,93826,5,8,0:2:0:0:
245,88,94171,1,8,0:2:0:0:
410,237,94515,69,8,0:2:0:0:
413,265,94860,1,8,0:2:0:0:
157,236,95205,5,8,1:2:0:0:
157,236,95377,1,0,1:2:0:0:
286,143,95550,1,8,1:2:0:0:
286,143,95722,1,0,1:2:0:0:
379,271,95895,1,8,1:2:0:0:
379,271,96067,1,0,1:2:0:0:
250,364,96239,1,8,1:2:0:0:
250,364,96411,1,0,1:2:0:0:
247,159,96584,69,8,1:2:0:0:
247,159,96756,1,0,1:2:0:0:
391,223,96929,1,8,1:2:0:0:
391,223,97101,1,0,1:2:0:0:
327,368,97274,1,8,1:2:0:0:
327,368,97446,1,0,1:2:0:0:
182,302,97618,1,8,1:2:0:0:
182,302,97790,1,0,0:0:0:0:
355,141,97964,5,8,1:2:0:0:
355,141,98050,1,0,1:2:0:0:
355,141,98136,2,0,P|363:93|363:79,1,40.8499989091873,0|0,1:2|1:2,0:0:0:0:
281,62,98308,1,8,1:2:0:0:
281,62,98394,1,0,1:2:0:0:
281,62,98480,2,0,P|243:31|231:24,1,40.8499989091873,0|0,1:2|1:2,0:0:0:0:
166,94,98653,1,8,1:2:0:0:
166,94,98739,1,0,1:2:0:0:
166,94,98825,2,0,P|120:111|108:118,1,40.8499989091873,0|0,1:2|1:2,0:0:0:0:
151,207,98998,1,8,1:2:0:0:
151,207,99084,1,0,1:0:0:0:
151,207,99170,2,0,P|143:255|143:269,1,40.8499989091873,0|0,1:0|1:2,0:0:0:0:
262,362,99343,70,0,P|306:364|325:357,2,54.4666652122498,8|0|0,1:2|0:2|1:2,0:0:0:0:
340,262,99688,2,0,P|363:224|367:204,2,54.4666652122498,8|0|0,1:2|0:2|1:2,0:0:0:0:
276,156,100033,2,0,P|255:116|240:103,2,54.4666652122498,8|0|0,1:2|0:2|1:2,0:0:0:0:
158,176,100377,2,0,P|114:174|95:181,2,54.4666652122498,8|0|0,1:2|0:2|1:2,0:0:0:0:
62,275,100722,5,2,1:2:0:0:
286,195,101067,1,2,0:2:0:0:
56,103,101412,1,2,0:2:0:0:
207,312,101757,1,2,0:2:0:0:
207,312,101872,1,2,0:2:0:0:
161,133,102101,69,2,0:2:0:0:
103,353,102446,1,2,0:2:0:0:
277,83,102791,1,2,0:2:0:0:
339,164,102964,2,0,L|342:199,2,20.4249994545937,0|0|0,1:2|1:2|1:2,0:0:0:0:
395,104,103136,1,8,0:2:0:0:
395,104,103222,2,0,P|452:102|479:141,1,81.6999978183747,0|0,1:2|0:2,0:0:0:0:
462,252,103481,22,0,B|445:304|379:297|373:245|373:245|365:187|291:179|280:243,1,266.600002033997,6|10,1:2|0:2,0:0:0:0:
180,351,103998,6,0,P|199:298|173:241,1,98.9000018863678,0|2,0:2|0:2,0:0:0:0:
147,149,104257,2,0,P|135:196|154:241,1,98.9000018863678,0|0,1:2|0:2,0:0:0:0:
281,238,104515,2,0,P|292:190|273:145,1,98.9000018863678,10|0,0:2|0:2,0:0:0:0:
73,107,104860,70,0,P|129:116|181:93,1,98.9000018863678,2|0,0:2|1:2,0:0:0:0:
269,44,105119,1,0,0:2:0:0:
269,44,105205,2,0,P|302:52|334:80,1,58.0500002214432,10|0,0:2|0:0,0:0:0:0:
326,195,105377,6,0,P|340:270|293:328,1,116.100000442886,0|2,0:2|0:2,0:0:0:0:
208,295,105636,2,0,P|160:339|96:323,1,116.100000442886,0|0,1:2|0:0,0:0:0:0:
47,237,105895,2,0,P|28:204|24:160,1,58.0500002214432,10|0,0:2|0:0,0:0:0:0:
102,119,106067,2,0,P|112:83|146:50,1,58.0500002214432,2|0,0:2|0:0,0:0:0:0:
303,113,106239,70,0,P|299:197|222:139,1,199.950001525497,2|0,1:2|0:0,0:0:0:0:
210,120,106584,1,10,0:2:0:0:
317,21,106757,6,0,P|375:54|450:38,1,98.9000018863678,0|2,0:2|0:2,0:0:0:0:
508,52,107015,2,0,P|459:57|419:85,1,98.9000018863678,0|0,1:2|0:0,0:0:0:0:
356,168,107274,2,0,P|363:221|370:296,1,98.9000018863678,8|0,0:2|0:2,0:0:0:0:
245,347,107619,70,0,P|188:345|141:292,1,98.9000018863678,2|2,0:2|1:2,0:0:0:0:
134,294,107877,1,2,0:2:0:0:
134,294,107964,1,8,0:2:0:0:
235,218,108136,2,0,P|245:152|259:96,1,98.9000018863678,2|0,0:2|0:2,0:0:0:0:
206,48,108395,2,0,P|216:96|223:145,1,98.9000018863678,2|0,1:2|0:2,0:0:0:0:
131,227,108653,2,0,P|79:218|46:159,1,98.9000018863678,10|2,0:2|0:2,0:0:0:0:
109,56,108998,6,0,P|160:51|230:45,1,96.7500036907198,6|0,1:2|0:2,0:0:0:0:
314,133,109343,70,0,P|359:142|386:147,1,49.4500009431839,10|0,0:2|0:0,0:0:0:0:
479,236,109515,2,0,P|423:223|373:263,1,98.9000018863678,0|2,0:2|0:2,0:0:0:0:
332,302,109774,2,0,P|276:315|226:275,1,98.9000018863678,0|0,1:2|0:0,0:0:0:0:
131,207,110033,2,0,P|142:271|146:330,1,98.9000018863678,10|0,0:2|0:2,0:0:0:0:
226,163,110377,5,2,0:2:0:0:
226,163,110464,2,0,P|264:128|334:143,1,116.100000442886,0|0,0:0|0:2,0:0:0:0:
372,200,110723,2,0,P|410:235|480:220,1,116.100000442886,10|0,0:2|0:2,0:0:0:0:
470,98,110982,2,0,P|432:63|362:78,1,116.100000442886,0|0,0:0|0:0,0:0:0:0:
324,135,111239,2,0,P|286:170|216:155,1,116.100000442886,0|10,0:0|0:2,0:0:0:0:
160,94,111498,1,0,0:0:0:0:
160,94,111584,1,2,0:2:0:0:
160,94,111670,1,0,0:0:0:0:
160,94,111757,70,0,B|108:111|115:177|167:183|167:183|225:191|233:265|169:276,1,266.600002033997,2|10,1:2|0:2,0:0:0:0:
15,195,112274,5,0,0:0:0:0:
15,195,112360,2,0,P|23:253|29:293,1,73.1000013942719,0|0,0:0|1:2,0:0:0:0:
120,340,112619,2,0,L|126:288,1,36.5500006971359,0|0,0:0|0:0,0:0:0:0:
224,220,112791,2,0,P|274:205|350:243,1,98.9000018863678,10|2,0:2|0:2,0:0:0:0:
435,356,113136,70,0,P|426:290|416:241,1,98.9000018863678,2|0,0:2|0:0,0:0:0:0:
465,147,113395,1,0,0:0:0:0:
465,147,113481,2,0,L|458:206,1,49.4500009431839,10|0,0:2|0:0,0:0:0:0:
394,301,113653,2,0,P|344:316|268:278,1,98.9000018863678,0|0,0:0|0:0,0:0:0:0:
239,230,113912,2,0,P|189:215|113:253,1,98.9000018863678,0|0,0:0|3:2,0:0:0:0:
74,316,114170,2,0,P|63:257|46:202,1,98.9000018863678,8|4,3:2|3:0,0:0:0:0:
95,79,114515,6,0,P|143:73|183:119,1,96.7500036907198,6|0,1:2|0:0,0:0:0:0:
198,229,114860,70,0,P|199:179|207:151,1,49.4500009431839,2|0,3:2|0:0,0:0:0:0:
324,71,115033,2,0,P|332:119|334:169,1,98.9000018863678,0|2,0:0|3:2,0:0:0:0:
280,257,115291,2,0,P|232:262|195:199,1,98.9000018863678,0|0,1:2|1:2,0:0:0:0:
241,99,115550,2,0,P|275:65|323:70,1,98.9000018863678,10|0,0:2|0:2,0:0:0:0:
446,202,115895,5,2,0:2:0:0:
446,202,115981,1,0,0:0:0:0:
446,202,116067,1,0,1:2:0:0:
446,202,116153,1,0,0:2:0:0:
446,202,116239,2,0,P|441:241|435:260,1,49.4500009431839,10|0,0:2|0:0,0:0:0:0:
332,322,116412,70,0,P|275:283|201:289,1,116.100000442886,0|2,0:2|0:2,0:0:0:0:
121,345,116670,6,0,P|177:338|223:303,1,116.100000442886,0|0,1:2|0:0,0:0:0:0:
218,125,116929,70,0,P|146:160|173:277,1,174.15000066433,10|0,0:2|0:0,0:0:0:0:
324,375,117274,6,0,P|297:270|326:146,1,199.950001525497,2|0,1:2|0:0,0:0:0:0:
327,136,117619,1,10,0:2:0:0:
206,43,117791,70,0,P|144:39|112:94,1,98.9000018863678,0|0,0:2|0:0,0:0:0:0:
42,103,118050,2,0,P|104:99|136:154,1,98.9000018863678,0|0,1:2|0:0,0:0:0:0:
185,293,118308,2,0,P|181:222|173:173,1,98.9000018863678,10|0,0:2|0:2,0:0:0:0:
332,79,118653,6,0,P|325:128|324:177,1,98.9000018863678,2|2,0:2|1:2,0:0:0:0:
328,217,118912,1,0,0:0:0:0:
328,217,118998,1,8,0:2:0:0:
452,306,119170,2,0,P|396:288|346:309,1,98.9000018863678,2|0,0:2|0:0,0:0:0:0:
295,346,119429,2,0,P|239:364|189:343,1,98.9000018863678,2|0,1:2|0:2,0:0:0:0:
112,361,119688,2,0,P|123:309|121:246,1,98.9000018863678,10|0,0:2|0:2,0:0:0:0:
20,127,120033,70,0,P|27:173|82:184,1,96.7500036907198,6|0,1:2|0:2,0:0:0:0:
167,114,120377,6,0,L|177:51,1,49.4500009431839,10|0,0:2|0:0,0:0:0:0:
278,157,120550,2,0,P|286:218|292:274,1,98.9000018863678,0|0,0:2|0:0,0:0:0:0:
314,289,120808,2,0,P|356:320|411:313,1,98.9000018863678,0|0,1:2|0:0,0:0:0:0:
401,158,121067,2,0,P|352:156|314:186,1,98.9000018863678,10|0,0:2|0:2,0:0:0:0:
241,318,121412,37,2,1:2:0:0:
73,186,121670,6,0,L|69:121,1,49.4500009431839,0|2,3:2|3:2,0:0:0:0:
249,77,121929,70,0,L|245:126,1,49.4500009431839,0|0,3:2|3:2,0:0:0:0:
148,268,122188,5,0,3:2:0:0:
148,268,122275,1,0,3:2:0:0:
148,268,122361,1,0,3:2:0:0:
148,268,122446,2,0,L|152:337,3,49.4500009431839,0|0|0|0,0:0|3:2|3:2|3:2,0:0:0:0:
246,192,122791,38,0,B|265:132|338:147|337:202|337:202|336:259|405:273|430:208,1,266.600002033997,0|8,1:2|0:2,0:0:0:0:
483,61,123308,6,0,P|438:56|409:62,1,49.4500009431839,0|0,0:2|0:2,0:0:0:0:
342,115,123481,1,0,3:2:0:0:
342,115,123567,2,0,P|280:115|255:55,1,98.9000018863678,0|0,1:2|0:2,0:0:0:0:
206,23,123826,2,0,P|144:23|119:83,1,98.9000018863678,8|0,0:2|0:2,0:0:0:0:
104,205,124170,70,0,P|96:129|83:64,2,133.300001016998,2|0|8,3:2|1:2|0:2,0:0:0:0:
52,284,124601,6,0,P|94:247|162:263,1,98.9000018863678,0|0,3:2|0:2,0:0:0:0:
192,304,124860,1,0,3:2:0:0:
192,304,124946,2,0,P|234:341|302:325,1,98.9000018863678,0|0,1:2|0:2,0:0:0:0:
346,283,125205,2,0,P|341:218|344:159,1,98.9000018863678,8|0,0:2|0:2,0:0:0:0:
264,38,125550,70,0,P|205:32|166:75,1,98.9000018863678,2|0,3:2|1:2,0:0:0:0:
172,182,125895,1,8,0:2:0:0:
172,182,125981,2,0,P|160:107|141:52,1,98.9000018863678,0|0,3:2|0:2,0:0:0:0:
36,35,126239,1,0,3:2:0:0:
36,35,126326,2,0,P|23:82|17:131,1,98.9000018863678,0|0,1:2|0:2,0:0:0:0:
11,178,126584,1,8,0:2:0:0:
112,300,126757,6,0,B|236:298|159:235|314:236,1,197.800003772736,0|0,0:2|1:2,0:0:0:0:
410,350,127274,1,8,0:2:0:0:
410,350,127360,2,0,P|400:285|398:227,1,98.9000018863678,0|0,3:2|0:2,0:0:0:0:
456,191,127619,1,0,3:2:0:0:
456,191,127705,2,0,P|466:126|468:68,1,98.9000018863678,0|0,1:2|0:2,0:0:0:0:
408,25,127964,2,0,L|371:17,6,24.725000471592,8|0|0|0|0|0|0,0:2|0:0|0:0|0:0|0:2|0:0|0:0,0:0:0:0:
371,60,128308,70,0,P|268:72|148:87,1,199.950001525497,0|0,1:2|0:2,0:0:0:0:
142,168,128653,6,0,P|188:148|198:100,1,98.9000018863678,8|0,0:2|0:2,0:0:0:0:
60,29,128998,1,0,3:2:0:0:
60,29,129084,2,0,P|57:93|48:144,1,98.9000018863678,0|0,3:2|0:2,0:0:0:0:
40,164,129343,1,8,0:2:0:0:
191,334,129515,70,0,B|161:216|238:258|197:119,1,197.800003772736,0|0,0:2|1:2,0:0:0:0:
284,25,130033,1,8,0:2:0:0:
284,25,130119,2,0,P|339:28|366:98,1,98.9000018863678,0|0,3:2|0:2,0:0:0:0:
328,171,130377,1,0,3:2:0:0:
328,171,130463,2,0,P|273:168|246:98,1,98.9000018863678,0|0,1:2|0:2,0:0:0:0:
172,24,130722,2,0,P|161:86|152:162,1,98.9000018863678,8|0,0:2|0:2,0:0:0:0:
97,218,131067,6,0,P|105:158|164:206,2,133.300001016998,2|0|8,1:2|3:2|0:2,0:0:0:0:
167,261,131498,70,0,P|82:264|36:273,1,98.9000018863678,0|0,3:2|0:2,0:0:0:0:
134,354,131757,1,0,3:2:0:0:
134,354,131843,2,0,P|183:359|232:359,1,98.9000018863678,0|0,1:2|0:2,0:0:0:0:
312,272,132101,2,0,P|364:277|384:356,1,98.9000018863678,8|0,0:2|0:2,0:0:0:0:
446,177,132446,6,0,P|436:110|431:53,1,98.9000018863678,8|0,0:2|1:2,0:0:0:0:
190,193,132791,2,0,P|184:242|176:290,1,98.9000018863678,8|0,0:2|0:0,0:0:0:0:
342,354,133136,69,0,3:2:0:0:
342,354,133222,1,0,3:2:0:0:
342,354,133308,2,0,P|355:310|366:281,1,49.4500009431839,8|0,3:2|3:2,0:0:0:0:
270,203,133480,2,0,P|257:159|246:130,1,49.4500009431839,0|8,3:2|3:2,0:0:0:0:
363,57,133653,1,0,3:2:0:0:
363,57,133739,1,0,3:2:0:0:
363,57,133826,6,0,B|256:120|195:63|249:-5|300:59,1,199.950001525497,4|0,1:2|0:2,0:0:0:0:
351,103,134170,70,0,P|369:156|361:234,1,98.9000018863678,8|0,0:2|0:2,0:0:0:0:
237,292,134515,1,0,3:2:0:0:
237,292,134601,2,0,P|299:276|354:273,1,98.9000018863678,0|0,1:2|0:2,0:0:0:0:
370,273,134860,1,8,0:2:0:0:
429,360,135033,6,0,P|386:300|477:317,1,197.800003772736,0|0,0:2|1:2,0:0:0:0:
266,265,135550,1,8,0:2:0:0:
266,265,135636,2,0,P|250:204|256:155,1,98.9000018863678,0|0,3:2|0:2,0:0:0:0:
299,64,135895,1,0,3:2:0:0:
299,64,135981,2,0,P|300:113|285:160,1,98.9000018863678,0|0,1:2|0:2,0:0:0:0:
190,228,136239,2,0,P|143:204|81:219,1,98.9000018863678,8|0,0:2|0:2,0:0:0:0:
277,339,136584,70,0,P|325:343|368:320,1,98.9000018863678,2|0,1:2|3:2,0:0:0:0:
454,165,136929,1,8,0:2:0:0:
454,165,137015,2,0,P|445:236|438:308,1,98.9000018863678,0|0,3:2|0:2,0:0:0:0:
301,230,137274,1,0,3:2:0:0:
301,230,137360,2,0,P|295:180|289:131,1,98.9000018863678,0|0,1:2|0:2,0:0:0:0:
276,84,137619,1,8,0:2:0:0:
73,174,137791,6,0,P|137:213|112:120,1,197.800003772736,0|0,0:2|1:2,0:0:0:0:
15,91,138308,1,8,0:2:0:0:
15,91,138395,2,0,P|88:83|156:72,1,98.9000018863678,0|0,3:2|0:2,0:0:0:0:
278,50,138653,1,0,3:2:0:0:
278,50,138739,2,0,P|229:43|180:39,1,98.9000018863678,0|0,1:2|0:0,0:0:0:0:
103,114,138998,2,0,L|109:159,6,24.725000471592,8|0|0|0|0|0|0,0:2|0:0|0:0|0:0|0:2|0:0|0:0,0:0:0:0:
220,251,139343,70,0,P|287:260|331:254,1,98.9000018863678,0|0,1:2|1:2,0:0:0:0:
221,262,139688,2,0,P|288:271|332:265,1,98.9000018863678,8|0,1:2|1:2,0:0:0:0:
474,138,140033,6,0,P|424:135|376:143,1,98.9000018863678,0|0,1:2|1:2,0:0:0:0:
475,127,140377,2,0,P|425:124|377:132,1,98.9000018863678,8|0,1:2|1:2,0:0:0:0:
415,347,140722,70,0,P|422:278|431:216,1,98.9000018863678,0|0,1:2|1:2,0:0:0:0:
428,341,141067,2,0,P|435:272|444:210,1,98.9000018863678,8|0,1:2|1:2,0:0:0:0:
259,70,141412,6,0,P|265:119|270:169,1,98.9000018863678,0|0,1:2|1:2,0:0:0:0:
246,64,141757,2,0,P|252:113|257:163,1,98.9000018863678,8|0,1:2|1:2,0:0:0:0:
157,298,142101,69,8,1:2:0:0:
157,298,142188,1,0,1:2:0:0:
157,298,142274,2,0,P|118:316|100:318,1,49.4500009431839,0|0,1:0|0:0,0:0:0:0:
305,265,142446,1,8,1:2:0:0:
305,265,142533,1,0,1:2:0:0:
305,265,142619,2,0,P|344:283|362:285,1,49.4500009431839,0|0,1:2|1:2,0:0:0:0:
151,200,142791,1,8,1:2:0:0:
151,200,142877,1,0,1:2:0:0:
151,200,142964,2,0,P|116:191|93:180,1,49.4500009431839,0|0,1:0|0:0,0:0:0:0:
300,150,143136,1,8,1:2:0:0:
300,150,143222,1,0,1:2:0:0:
300,150,143309,2,0,P|335:141|358:130,1,49.4500009431839,0|0,1:2|1:2,0:0:0:0:
175,31,143481,5,8,1:2:0:0:
175,31,143567,1,0,1:2:0:0:
175,31,143653,1,0,1:2:0:0:
175,31,143739,1,0,1:0:0:0:
175,31,143826,2,0,L|169:92,3,49.4500009431839,8|0|0|0,1:2|1:2|1:2|1:0,0:0:0:0:
83,193,144170,2,0,L|78:143,1,49.4500009431839,8|0,0:2|1:2,0:0:0:0:
187,268,144343,2,0,L|182:317,1,49.4500009431839,0|0,3:2|3:2,0:0:0:0:
273,194,144515,1,0,3:2:0:0:
294,181,144601,1,0,3:2:0:0:
318,175,144687,1,0,3:2:0:0:
342,175,144773,1,0,3:0:0:0:
366,181,144859,1,0,1:2:0:0:
