osu file format v14

[General]
AudioFilename: audio.mp3
AudioLeadIn: 0
PreviewTime: 100636
Countdown: 0
SampleSet: Soft
StackLeniency: 0.2
Mode: 0
LetterboxInBreaks: 0
WidescreenStoryboard: 0

[Editor]
Bookmarks: 12394,23429,45498,67567,78601,89636,122739,144808
DistanceSpacing: 0.8
BeatDivisor: 4
GridSize: 32
TimelineZoom: 2.3

[Metadata]
Title:U Got That (Camellia's Neurofunk Bootleg)
TitleUnicode:U Got That (かめりあ's Neurofunk Bootleg)
Artist:Halogen
ArtistUnicode:Halogen
Creator:Sotarks
Version:Real's Extra
Source:
Tags:nikakis akitoshi corinn -laura- realazy reform kujinn cametek mix remix ricardo milos かめるかめりあ kamelcamellia
BeatmapID:1950959
BeatmapSetID:934144

[Difficulty]
HPDrainRate:5
CircleSize:4
OverallDifficulty:8.3
ApproachRate:9.3
SliderMultiplier:1.92
SliderTickRate:1

[Events]
//Background and Video events
0,0,"bg_real.jpg",0,0
//Break Periods
2,67819,78099
//Storyboard Layer 0 (Background)
//Storyboard Layer 1 (Fail)
//Storyboard Layer 2 (Pass)
//Storyboard Layer 3 (Foreground)
//Storyboard Sound Samples

[TimingPoints]
33,344.827586206897,4,2,22,52,1,0
12446,-80,4,2,22,52,0,0
13395,-133.333333333333,4,2,22,52,0,0
17964,-133.333333333333,4,2,22,62,0,0
20722,-100,4,2,22,72,0,0
22791,-66.6666666666667,4,2,22,72,0,0
23481,-44.4444444444445,4,2,22,82,0,0
23826,-57.1428571428571,4,2,22,82,0,0
23998,-66.6666666666667,4,2,22,82,0,0
24515,-57.1428571428571,4,2,22,82,0,0
24688,-66.6666666666667,4,2,22,82,0,0
24860,-80,4,2,22,82,0,0
25119,-62.5,4,2,22,82,0,0
25550,-51.2820512820513,4,2,22,82,0,0
25895,-57.1428571428571,4,2,22,82,0,0
26067,-66.6666666666667,4,2,22,82,0,0
26239,-80,4,2,22,82,0,0
26584,-66.6666666666667,4,2,22,82,0,0
26929,-57.1428571428571,4,2,22,82,0,0
27274,-80,4,2,22,82,0,0
27619,-66.6666666666667,4,2,22,82,0,0
28136,-57.1428571428571,4,2,22,82,0,0
28395,-50,4,2,22,82,0,0
28653,-44.4444444444445,4,2,22,82,0,0
28998,-50,4,2,22,82,0,0
29343,-57.1428571428571,4,2,22,82,0,0
29515,-66.6666666666667,4,2,22,82,0,0
30033,-57.1428571428571,4,2,22,82,0,0
30205,-66.6666666666667,4,2,22,82,0,0
30378,-80,4,2,22,82,0,0
30636,-62.5,4,2,22,82,0,0
31068,-51.2820512820513,4,2,22,82,0,0
31412,-57.1428571428571,4,2,22,82,0,0
31585,-66.6666666666667,4,2,22,82,0,0
31757,-80,4,2,22,82,0,0
32102,-64.5161290322581,4,2,22,82,0,0
32447,-54.054054054054,4,2,22,82,0,0
32791,-57.1428571428571,4,2,22,82,0,0
32964,-66.6666666666667,4,2,22,82,0,0
33136,-66.6666666666667,4,2,22,82,0,0
34515,-44.4444444444445,4,2,22,82,0,0
34860,-80,4,2,22,82,0,0
35033,-133.333333333333,4,2,22,82,0,0
35291,-66.6666666666667,4,2,22,82,0,0
35722,-100,4,2,22,82,0,0
35895,-80,4,2,22,82,0,0
36153,-62.5,4,2,22,82,0,0
36239,-51.2820512820513,4,2,22,82,0,0
36584,-57.1428571428571,4,2,22,82,0,0
36929,-57.1428571428571,4,2,22,82,0,0
37101,-66.6666666666667,4,2,22,82,0,0
37274,-80,4,2,22,82,0,0
37619,-66.6666666666667,4,2,22,82,0,0
37964,-57.1428571428571,4,2,22,82,0,0
38308,-80,4,2,22,82,0,0
38653,-66.6666666666667,4,2,22,82,0,0
39170,-57.1428571428571,4,2,22,82,0,0
39429,-50,4,2,22,82,0,0
39688,-44.4444444444445,4,2,22,82,0,0
40033,-50,4,2,22,82,0,0
40377,-57.1428571428571,4,2,22,82,0,0
40550,-66.6666666666667,4,2,22,82,0,0
41067,-57.1428571428571,4,2,22,82,0,0
41239,-66.6666666666667,4,2,22,82,0,0
41412,-80,4,2,22,82,0,0
41757,-62.5,4,2,22,82,0,0
42101,-51.2820512820513,4,2,22,82,0,0
42446,-57.1428571428571,4,2,22,82,0,0
42619,-66.6666666666667,4,2,22,82,0,0
42791,-80,4,2,22,82,0,0
43136,-66.6666666666667,4,2,22,82,0,0
43481,-57.1428571428571,4,2,22,82,0,0
43826,-80,4,2,22,82,0,0
44429,-100,4,2,22,72,0,0
45550,-55.5555555555556,4,2,22,82,0,0
45895,-62.5,4,2,22,82,0,0
46239,-76.9230769230769,4,2,22,82,0,0
46584,-100,4,2,22,82,0,0
47101,-66.6666666666667,4,2,22,82,0,0
47360,-57.1428571428571,4,2,22,82,0,0
47619,-66.6666666666667,4,2,22,82,0,0
47964,-100,4,2,22,82,0,0
48308,-66.6666666666667,4,2,22,82,0,0
48567,-76.9230769230769,4,2,22,82,0,0
48739,-57.1428571428571,4,2,22,82,0,0
48998,-66.6666666666667,4,2,22,82,0,0
49343,-76.9230769230769,4,2,22,82,0,0
50119,-66.6666666666667,4,2,22,82,0,0
50464,-57.1428571428571,4,2,22,82,0,0
50722,-44.4444444444445,4,2,22,82,0,0
51067,-55.5555555555556,4,2,22,82,0,0
51412,-62.5,4,2,22,82,0,0
51757,-76.9230769230769,4,2,22,82,0,0
52101,-100,4,2,22,82,0,0
52619,-66.6666666666667,4,2,22,82,0,0
52877,-57.1428571428571,4,2,22,82,0,0
53136,-66.6666666666667,4,2,22,82,0,0
53481,-100,4,2,22,82,0,0
53826,-66.6666666666667,4,2,22,82,0,0
54084,-76.9230769230769,4,2,22,82,0,0
54257,-57.1428571428571,4,2,22,82,0,0
54515,-66.6666666666667,4,2,22,82,0,0
54860,-76.9230769230769,4,2,22,82,0,0
55205,-55.5555555555556,4,2,22,82,0,0
55550,-66.6666666666667,4,2,22,82,0,0
56067,-100,4,2,22,82,0,0
56584,-55.5555555555556,4,2,22,82,0,0
56929,-62.5,4,2,22,82,0,0
57273,-76.9230769230769,4,2,22,82,0,0
57618,-100,4,2,22,82,0,0
58136,-66.6666666666667,4,2,22,82,0,0
58394,-57.1428571428571,4,2,22,82,0,0
58653,-66.6666666666667,4,2,22,82,0,0
58998,-100,4,2,22,82,0,0
59342,-66.6666666666667,4,2,22,82,0,0
59601,-76.9230769230769,4,2,22,82,0,0
59773,-57.1428571428571,4,2,22,82,0,0
60032,-66.6666666666667,4,2,22,82,0,0
60377,-76.9230769230769,4,2,22,82,0,0
61153,-66.6666666666667,4,2,22,82,0,0
61498,-57.1428571428571,4,2,22,82,0,0
61756,-44.4444444444445,4,2,22,82,0,0
62101,-100,4,2,22,82,0,0
64860,-83.3333333333333,4,2,22,82,0,0
65205,-76.9230769230769,4,2,22,82,0,0
65550,-71.4285714285714,4,2,22,82,0,0
65895,-66.6666666666667,4,2,22,82,0,0
67705,-66.6666666666667,4,2,22,52,0,0
78653,-133.333333333333,4,2,22,42,0,0
84170,-117.647058823529,4,2,22,42,0,0
86929,-117.647058823529,4,2,22,52,0,0
89688,-200,4,2,22,62,0,0
90033,-200,4,2,22,72,0,0
92446,-133.333333333333,4,2,22,72,0,0
93826,-133.333333333333,4,2,22,82,0,0
95205,-100,4,2,22,82,0,0
97964,-90.9090909090909,4,2,22,82,0,0
98308,-83.3333333333333,4,2,22,82,0,0
98653,-76.9230769230769,4,2,22,82,0,0
98998,-76.9230769230769,4,2,22,82,0,0
100722,-153.846153846153,4,2,22,82,0,0
101326,-153.846153846153,4,2,22,5,0,0
101412,-153.846153846153,4,2,22,82,0,0
101670,-153.846153846153,4,2,22,5,0,0
101756,-153.846153846153,4,2,22,82,0,0
102705,-153.846153846153,4,2,22,5,0,0
102791,-153.846153846153,4,2,22,82,0,0
102964,-66.6666666666667,4,2,22,82,0,0
103136,-55.5555555555556,4,2,22,82,0,0
103481,-50,4,2,22,92,0,0
103826,-57.1428571428571,4,2,22,92,0,0
103998,-66.6666666666667,4,2,22,92,0,0
104515,-57.1428571428571,4,2,22,92,0,0
104688,-66.6666666666667,4,2,22,92,0,0
104860,-80,4,2,22,92,0,0
105205,-57.1428571428571,4,2,22,92,0,0
105377,-57.1428571428571,4,2,22,92,0,0
105636,-50,4,2,22,92,0,0
105895,-44.4444444444445,4,2,22,92,0,0
106239,-50,4,2,22,92,0,0
106584,-57.1428571428571,4,2,22,92,0,0
106757,-66.6666666666667,4,2,22,92,0,0
107274,-57.1428571428571,4,2,22,92,0,0
107619,-80,4,2,22,92,0,0
107877,-62.5,4,2,22,92,0,0
108136,-66.6666666666667,4,2,22,92,0,0
108653,-57.1428571428571,4,2,22,92,0,0
108826,-66.6666666666667,4,2,22,92,0,0
108998,-80,4,2,22,92,0,0
109343,-66.6666666666667,4,2,22,92,0,0
109515,-57.1428571428571,4,2,22,92,0,0
110377,-66.6666666666667,4,2,22,92,0,0
110636,-57.1428571428571,4,2,22,92,0,0
111239,-66.6666666666667,4,2,22,92,0,0
111757,-50,4,2,22,92,0,0
112101,-100,4,2,22,92,0,0
112705,-57.1428571428571,4,2,22,92,0,0
112964,-66.6666666666667,4,2,22,92,0,0
113136,-80,4,2,22,92,0,0
113395,-62.5,4,2,22,92,0,0
113653,-66.6666666666667,4,2,22,92,0,0
114170,-57.1428571428571,4,2,22,92,0,0
114343,-66.6666666666667,4,2,22,92,0,0
114515,-80,4,2,22,92,0,0
114860,-57.1428571428571,4,2,22,92,0,0
115033,-66.6666666666667,4,2,22,92,0,0
115550,-57.1428571428571,4,2,22,92,0,0
115722,-66.6666666666667,4,2,22,92,0,0
116239,-57.1428571428571,4,2,22,92,0,0
116670,-50,4,2,22,92,0,0
116929,-44.4444444444445,4,2,22,92,0,0
117274,-50,4,2,22,92,0,0
117619,-57.1428571428571,4,2,22,92,0,0
117791,-66.6666666666667,4,2,22,92,0,0
118308,-57.1428571428571,4,2,22,92,0,0
118481,-66.6666666666667,4,2,22,92,0,0
118653,-80,4,2,22,92,0,0
118998,-57.1428571428571,4,2,22,92,0,0
119170,-66.6666666666667,4,2,22,92,0,0
119688,-57.1428571428571,4,2,22,92,0,0
119860,-66.6666666666667,4,2,22,92,0,0
120033,-80,4,2,22,92,0,0
120377,-57.1428571428571,4,2,22,92,0,0
120550,-66.6666666666667,4,2,22,92,0,0
121067,-57.1428571428571,4,2,22,92,0,0
121239,-66.6666666666667,4,2,22,92,0,0
121670,-133.333333333333,4,2,22,82,0,0
122791,-55.5555555555556,4,2,22,92,0,0
123136,-62.5,4,2,22,92,0,0
123481,-76.9230769230769,4,2,22,92,0,0
123826,-100,4,2,22,92,0,0
124343,-66.6666666666667,4,2,22,92,0,0
124601,-57.1428571428571,4,2,22,92,0,0
124860,-76.9230769230769,4,2,22,92,0,0
125205,-100,4,2,22,92,0,0
125550,-66.6666666666667,4,2,22,92,0,0
125808,-76.9230769230769,4,2,22,92,0,0
125981,-57.1428571428571,4,2,22,92,0,0
126239,-76.9230769230769,4,2,22,92,0,0
126584,-100,4,2,22,92,0,0
126929,-76.9230769230769,4,2,22,92,0,0
127360,-66.6666666666667,4,2,22,92,0,0
127705,-57.1428571428571,4,2,22,92,0,0
127964,-44.4444444444445,4,2,22,92,0,0
128308,-55.5555555555556,4,2,22,92,0,0
128653,-62.5,4,2,22,92,0,0
128998,-76.9230769230769,4,2,22,92,0,0
129343,-100,4,2,22,92,0,0
129860,-66.6666666666667,4,2,22,92,0,0
130119,-57.1428571428571,4,2,22,92,0,0
130377,-76.9230769230769,4,2,22,92,0,0
130722,-100,4,2,22,92,0,0
131067,-66.6666666666667,4,2,22,92,0,0
131326,-76.9230769230769,4,2,22,92,0,0
131498,-57.1428571428571,4,2,22,92,0,0
131757,-76.9230769230769,4,2,22,92,0,0
132101,-100,4,2,22,92,0,0
132791,-66.6666666666667,4,2,22,92,0,0
133308,-80,4,2,22,92,0,0
133826,-55.5555555555556,4,2,22,92,0,0
134170,-62.5,4,2,22,92,0,0
134515,-76.9230769230769,4,2,22,92,0,0
134860,-100,4,2,22,92,0,0
135377,-66.6666666666667,4,2,22,92,0,0
135636,-57.1428571428571,4,2,22,92,0,0
135895,-76.9230769230769,4,2,22,92,0,0
136239,-100,4,2,22,92,0,0
136584,-66.6666666666667,4,2,22,92,0,0
136843,-76.9230769230769,4,2,22,92,0,0
137015,-57.1428571428571,4,2,22,92,0,0
137274,-76.9230769230769,4,2,22,92,0,0
137619,-100,4,2,22,92,0,0
138136,-76.9230769230769,4,2,22,92,0,0
138395,-66.6666666666667,4,2,22,92,0,0
138739,-57.1428571428571,4,2,22,92,0,0
138998,-44.4444444444445,4,2,22,92,0,0
139343,-100,4,2,22,92,0,0
142446,-83.3333333333333,4,2,22,92,0,0
142791,-76.9230769230769,4,2,22,92,0,0
143136,-71.4285714285714,4,2,22,92,0,0
143481,-66.6666666666667,4,2,22,92,0,0

[Colours]
Combo1 : 234,81,181
Combo2 : 216,171,171
Combo3 : 125,89,89
Combo4 : 255,6,13
Combo5 : 208,64,64
Combo6 : 255,63,15
Combo7 : 252,241,31
Combo8 : 210,49,223

[HitObjects]
75,123,12446,6,0,B|138:104|186:148|186:148|235:193|297:175,1,240,6|0,1:2|3:2,0:0:0:0:
60,116,12964,1,2,0:1:0:0:
1,64,13395,5,0,3:0:0:0:
0,52,13481,1,0,3:0:0:0:
60,116,13653,1,2,0:0:0:0:
15,182,13826,102,0,P|28:235|22:288,2,108.000004119873,0|0|0,0:0|0:0|0:0,0:0:0:0:
170,82,14688,5,0,3:0:0:0:
171,92,14774,1,0,3:0:0:0:
172,102,14860,1,2,3:0:0:0:
162,2,15033,1,2,0:0:0:0:
264,71,15205,102,0,P|309:45|365:40,2,108.000004119873,0|0|0,0:0|0:0|0:0,0:0:0:0:
244,148,15895,2,0,P|254:182|254:218,1,72.0000027465821,2|0,0:0|0:0,0:0:0:0:
270,237,16153,2,0,P|259:271|259:307,1,72.0000027465821,2|0,0:0|0:0,0:0:0:0:
250,326,16412,1,2,0:0:0:0:
440,368,16757,6,0,P|429:335|427:299,1,72.0000027465821,2|0,0:0|3:0,0:0:0:0:
402,315,17015,2,0,P|408:279|424:247,1,72.0000027465821,2|0,0:0|0:0,0:0:0:0:
395,248,17274,1,2,0:0:0:0:
436,110,17446,101,2,0:0:0:0:
446,111,17532,1,0,0:0:0:0:
456,112,17618,1,2,3:0:0:0:
356,102,17791,1,2,0:0:0:0:
222,34,17964,5,0,1:0:0:0:
225,2,18136,1,0,1:0:0:0:
119,118,18308,21,0,1:0:0:0:
107,64,18480,1,0,1:0:0:0:
215,228,18653,85,0,1:0:0:0:
235,152,18826,21,0,1:0:0:0:
240,131,18912,1,0,0:0:0:0:
245,110,18998,1,0,1:0:0:0:
215,228,19170,1,0,1:0:0:0:
75,194,19343,85,0,1:0:0:0:
0,215,19515,1,0,1:0:0:0:
106,366,19688,21,0,1:0:0:0:
12,343,19860,1,0,1:0:0:0:
215,228,20033,85,0,1:0:0:0:
94,265,20205,21,0,1:0:0:0:
78,270,20291,1,0,0:0:0:0:
62,275,20377,1,0,1:0:0:0:
215,228,20550,1,0,1:0:0:0:
337,336,20722,5,8,1:2:0:0:
337,336,20808,1,0,1:0:0:0:
337,336,20895,2,0,L|342:288,1,48,0|0,1:0|1:0,0:0:0:0:
339,153,21067,101,8,1:2:0:0:
339,153,21153,1,0,1:0:0:0:
339,153,21239,2,0,L|344:200,1,48,0|0,1:0|1:0,0:0:0:0:
418,384,21412,5,8,1:2:0:0:
418,384,21498,1,0,1:0:0:0:
418,384,21585,2,0,L|423:336,1,48,0|0,1:0|1:0,0:0:0:0:
420,105,21756,101,8,1:2:0:0:
420,105,21842,1,0,1:0:0:0:
420,105,21929,2,0,L|425:152,1,48,0|0,1:0|1:0,0:0:0:0:
500,249,22101,5,8,1:2:0:0:
456,238,22187,1,0,1:0:0:0:
414,241,22273,1,0,1:0:0:0:
375,259,22359,1,0,1:0:0:0:
342,288,22445,1,8,1:2:0:0:
312,318,22532,1,0,1:0:0:0:
275,339,22618,1,0,1:0:0:0:
231,346,22704,1,0,1:0:0:0:
188,339,22791,2,0,P|153:333|118:337,1,72.0000027465821,8|0,3:2|3:0,0:0:0:0:
9,249,22964,101,8,0:0:0:0:
83,233,23050,1,0,3:0:0:0:
156,218,23136,69,8,3:0:0:0:
158,203,23222,1,8,3:0:0:0:
114,145,23308,5,4,3:0:0:0:
116,130,23394,1,4,3:0:0:0:
168,65,23481,54,2,B|202:16|155:-49|86:-51|34:15|47:102|113:144,1,324.00001235962,6|0,1:0|0:2,0:1:0:0:
247,188,23826,70,0,P|283:168|325:169,1,84.0000008010864,10|0,0:2|0:2,0:0:0:0:
283,381,23998,5,2,0:1:0:0:
283,381,24084,2,0,B|323:357|323:357|304:261,2,144.000005493164,0|0|0,0:0|1:2|0:2,0:0:0:0:
81,246,24515,102,0,P|120:231|161:234,1,84.0000008010864,10|2,0:2|0:2,0:0:0:0:
193,144,24688,2,0,P|225:161|248:189,1,72.0000027465821,0|0,0:2|0:2,0:0:0:0:
335,154,24860,6,0,P|337:213|305:262,1,120,2|0,0:2|1:2,0:0:0:0:
238,302,25119,1,0,0:2:0:0:
305,263,25205,2,0,P|373:174|347:66,1,230.4,10|0,0:2|0:0,0:0:0:0:
313,0,25550,1,2,0:2:0:0:
313,0,25636,2,0,B|364:-21|413:7|392:25|437:53|486:33,1,187.200000714111,0|0,1:2|0:2,0:0:0:0:
512,136,25895,102,0,L|429:120,1,84.0000008010864,10|0,0:2|0:2,0:0:0:0:
336,155,26067,2,0,L|265:141,1,72.0000027465821,2|0,0:2|0:2,0:0:0:0:
71,114,26239,6,0,B|78:179|78:179|106:210|106:210|115:283,1,180,2|0,1:2|0:2,0:0:0:0:
102,355,26584,1,10,0:2:0:0:
115,282,26670,2,0,B|121:231|121:231|143:206|143:206|150:148,1,144.000005493164,0|0,0:2|0:0,0:0:0:0:
223,85,26929,1,2,0:2:0:0:
223,85,27015,2,0,B|230:146|230:146|256:175|256:175|264:243,1,168.000001602173,0|0,1:2|0:2,0:0:0:0:
361,366,27274,102,0,P|380:344|386:315,1,60,8|0,0:2|0:2,0:0:0:0:
482,226,27446,2,0,P|479:197|464:171,1,60,0|0,0:2|0:2,0:0:0:0:
342,61,27619,5,2,0:2:0:0:
349,43,27705,2,0,L|362:113,2,72.0000027465821,2|2|2,0:2|1:2|0:2,0:0:0:0:
295,202,27964,101,8,0:2:0:0:
283,212,28050,1,0,0:2:0:0:
272,219,28136,54,2,P|196:253|113:247,1,168.000001602173,2|0,0:2|0:2,0:1:0:0:
114,248,28395,2,2,P|190:303|285:304,1,192,2|0,1:2|0:2,0:1:0:0:
285,303,28653,6,2,P|254:347|207:374,1,108.000004119873,10|0,0:2|0:2,0:1:0:0:
207,374,28826,2,2,P|153:381|102:365,1,108.000004119873,2|0,0:2|0:2,0:1:0:0:
59,165,28998,86,2,B|156:155|156:155|214:226|214:226|312:218,1,288,6|0,1:0|0:2,0:1:0:0:
296,145,29343,70,0,B|268:112|268:112|227:116,1,84.0000008010864,10|0,0:2|0:2,0:0:0:0:
135,253,29515,5,2,0:1:0:0:
135,253,29601,2,0,B|182:305|182:305|255:299,2,144.000005493164,0|0|0,0:0|1:2|0:2,0:0:0:0:
144,127,30033,102,0,L|227:115,1,84.0000008010864,10|2,0:2|0:2,0:0:0:0:
268,19,30205,2,0,L|334:46,1,72.0000027465821,0|0,0:2|0:2,0:0:0:0:
418,0,30377,6,0,B|458:53|458:53|437:128,1,144.000005493164,2|0,0:2|1:2,0:0:0:0:
495,183,30636,1,0,0:2:0:0:
437,127,30722,2,0,B|282:76|282:76|226:115,1,230.4,10|0,0:2|0:0,0:0:0:0:
248,192,31067,1,2,0:2:0:0:
248,192,31153,2,0,B|294:158|294:158|417:198,1,187.200000714111,0|0,1:2|0:2,0:0:0:0:
468,371,31412,102,0,P|438:342|397:332,1,84.0000008010864,10|0,0:2|0:2,0:0:0:0:
314,266,31584,2,0,P|273:274|244:303,1,84.0000008010864,2|0,0:2|0:2,0:0:0:0:
40,368,31757,6,0,P|93:298|74:212,1,180,2|0,1:2|0:2,0:0:0:0:
11,260,32101,1,10,0:2:0:0:
74,213,32188,2,0,P|134:170|207:170,1,148.800001135254,0|0,0:2|0:0,0:0:0:0:
284,136,32446,1,2,0:2:0:0:
283,136,32533,2,0,P|197:134|131:77,1,177.59999932251,0|0,1:2|0:2,0:0:0:0:
209,0,32791,102,0,P|242:24|283:26,1,84.0000008010864,10|0,0:2|0:2,0:0:0:0:
372,73,32964,2,0,P|401:53|436:50,1,72.0000027465821,2|0,0:2|0:2,0:0:0:0:
512,231,33136,54,2,P|478:171|409:158,1,144.000005493164,2|0,0:2|0:0,0:1:0:0:
413,307,33395,5,0,0:2:0:0:
413,307,33481,2,0,P|427:274|431:239,1,72.0000027465821,10|0,0:2|0:0,0:0:0:0:
291,384,33653,1,0,0:2:0:0:
291,384,33739,2,0,P|326:379|358:365,1,72.0000027465821,2|0,0:2|0:0,0:0:0:0:
162,313,33912,101,0,1:2:0:0:
196,280,33998,1,0,3:2:0:0:
202,233,34084,1,0,3:2:0:0:
179,191,34170,1,8,3:2:0:0:
134,172,34256,1,8,3:0:0:0:
88,185,34343,1,4,3:0:0:0:
59,222,34429,1,4,3:0:0:0:
131,247,34515,102,2,B|206:234|206:234|259:277|259:277|347:263|347:263|279:205,1,324.00001235962,6|0,1:0|0:0,0:1:0:0:
343,51,34860,70,0,B|338:79|338:79|349:108,1,60,2|0,3:2|0:0,0:0:0:0:
418,163,35033,86,2,L|488:147,1,72.0000027465821,2|2,0:1|3:2,0:1:0:0:
494,281,35291,38,0,P|464:261|428:256,1,72.0000027465821,0|0,1:2|0:2,0:0:0:0:
278,312,35464,1,0,1:2:0:0:
278,312,35550,2,0,P|302:286|335:272,1,72.0000027465821,10|2,0:2|0:2,0:0:0:0:
409,384,35722,2,0,L|398:337,1,48,0|0,0:2|0:2,0:0:0:0:
383,125,35895,102,0,P|431:158|488:148,1,120,2|0,0:2|1:2,0:0:0:0:
448,81,36153,1,0,0:2:0:0:
488,147,36239,2,0,P|463:273|334:270,1,280.800001071167,10|0,0:2|0:0,0:0:0:0:
280,205,36584,1,2,0:2:0:0:
280,205,36670,2,0,L|302:371,1,168.000001602173,0|0,1:2|0:2,0:0:0:0:
132,384,36929,6,0,B|149:346|149:346|146:303,1,84.0000008010864,10|0,0:2|0:2,0:0:0:0:
198,234,37101,2,0,B|187:199|187:199|159:176,1,72.0000027465821,2|0,0:2|0:2,0:0:0:0:
100,92,37274,102,0,B|150:133|150:133|264:116,1,180,2|0,1:2|0:2,0:0:0:0:
315,178,37619,1,10,0:2:0:0:
264,116,37705,2,0,B|291:72|291:72|381:58,1,144.000005493164,0|0,0:2|0:0,0:0:0:0:
452,103,37964,1,2,0:2:0:0:
452,103,38050,2,0,B|451:167|451:167|473:194|473:194|473:262,1,168.000001602173,0|0,1:2|0:2,0:0:0:0:
401,357,38308,6,0,L|341:367,1,60,10|0,0:2|0:2,0:0:0:0:
262,303,38481,2,0,L|202:292,1,60,0|0,0:2|0:2,0:0:0:0:
215,116,38653,101,2,0:2:0:0:
226,129,38739,2,0,P|237:163|234:198,2,72.0000027465821,2|2|2,0:2|1:2|0:2,0:0:0:0:
175,0,38998,5,8,0:2:0:0:
184,10,39084,1,0,0:2:0:0:
193,17,39170,38,2,L|31:63,1,168.000001602173,2|0,0:2|0:2,0:1:0:0:
31,63,39429,2,2,L|215:116,1,192,2|0,1:2|0:2,0:1:0:0:
215,116,39688,6,2,L|111:145,1,108.000004119873,10|0,0:2|0:0,0:1:0:0:
111,145,39860,2,2,L|7:174,1,108.000004119873,0|0,0:2|0:2,0:1:0:0:
115,267,40033,86,2,B|181:312|266:260|227:230|297:173|371:208,1,288,6|0,1:0|0:2,0:1:0:0:
326,380,40377,70,0,P|320:338|328:297,1,84.0000008010864,10|0,0:2|0:2,0:0:0:0:
504,146,40550,5,2,0:1:0:0:
504,146,40636,2,0,P|445:184|375:173,2,144.000005493164,0|0|0,0:0|1:2|0:2,0:0:0:0:
395,0,41067,102,0,B|387:40|387:40|406:78,1,84.0000008010864,10|2,0:2|0:2,0:0:0:0:
257,66,41239,2,0,B|282:88|282:88|319:91,1,72.0000027465821,0|0,0:2|0:2,0:0:0:0:
193,246,41412,6,0,B|249:224|249:224|274:170,1,120,2|0,0:2|1:2,0:0:0:0:
342,206,41670,1,0,0:2:0:0:
274,170,41757,2,0,L|47:212,1,230.4,10|0,0:2|0:0,0:0:0:0:
42,290,42101,1,2,0:2:0:0:
42,290,42188,2,0,B|114:278|114:278|156:296|156:296|223:283,1,187.200000714111,0|0,1:2|0:2,0:0:0:0:
352,367,42446,102,0,P|370:330|361:289,1,84.0000008010864,10|2,0:2|0:2,0:0:0:0:
477,223,42619,2,0,P|458:192|425:179,1,72.0000027465821,2|2,0:2|0:2,0:0:0:0:
408,36,42791,6,0,P|337:88|249:81,1,180,2|0,1:2|0:2,0:0:0:0:
202,17,43136,1,10,0:2:0:0:
249,81,43222,2,0,P|280:144|264:212,1,144.000005493164,0|0,0:2|0:0,0:0:0:0:
191,238,43481,1,2,0:2:0:0:
191,238,43567,2,0,P|147:169|171:91,1,168.000001602173,0|0,1:2|0:2,0:0:0:0:
300,13,43826,102,0,L|290:72,1,60,10|2,0:2|0:2,0:0:0:0:
356,147,43998,2,0,L|307:182,1,60,2|2,0:2|0:2,0:0:0:0:
284,291,44170,101,2,1:2:0:0:
284,291,44429,102,0,P|242:270|194:262,1,96,0|0,3:2|0:0,0:0:0:0:
284,301,44688,2,0,P|241:279|193:271,1,96,0|0,3:2|0:0,0:0:0:0:
283,310,44946,85,0,3:2:0:0:
327,324,45032,1,0,3:2:0:0:
372,309,45118,1,0,3:2:0:0:
399,270,45205,2,0,L|393:222,1,48,0|0,0:0|0:0,0:0:0:0:
427,82,45377,1,0,3:2:0:0:
422,96,45464,1,0,3:2:0:0:
448,170,45550,102,0,P|405:172|367:152,1,86.3999973632813,6|0,1:0|0:0,0:0:0:0:
402,8,45722,2,0,P|444:5|482:25,1,86.3999973632813,0|0,0:0|0:2,0:0:0:0:
333,69,45895,102,0,P|297:54|259:53,1,76.8,8|0,0:2|0:0,0:0:0:0:
182,73,46067,2,0,P|151:96|131:128,1,76.8,0|0,0:2|0:2,0:0:0:0:
104,241,46239,101,0,3:2:0:0:
83,214,46326,2,0,L|206:229,1,124.79999428711,0|0,1:2|0:2,0:0:0:0:
266,334,46584,70,0,B|257:287,1,48,8|0,0:2|0:2,0:0:0:0:
185,301,46757,2,0,B|194:347,1,48,0|0,0:2|0:2,0:0:0:0:
344,192,46929,5,2,3:2:0:0:
344,192,47101,22,0,P|414:195|470:239,1,144.000005493164,0|8,1:2|0:2,0:0:0:0:
512,176,47360,2,0,P|447:132|351:117,1,168.000001602173,0|0,3:2|0:2,0:0:0:0:
228,161,47619,69,0,3:2:0:0:
240,143,47705,2,0,L|256:286,1,144.000005493164,0|0,1:2|0:2,0:0:0:0:
177,383,47964,38,0,P|163:363|156:340,1,48,8|0,0:2|0:0,0:0:0:0:
83,315,48136,2,0,P|92:293|107:274,1,48,0|0,0:2|0:2,0:0:0:0:
45,216,48308,70,0,L|187:238,1,144.000005493164,2|0,3:2|1:2,0:0:0:0:
213,166,48567,2,0,L|151:156,1,62.3999971435548,2|8,0:2|0:2,0:0:0:0:
18,87,48739,2,0,B|40:138|40:138|150:155,1,168.000001602173,0|0,3:2|0:2,0:0:0:0:
294,26,48998,37,0,3:2:0:0:
277,9,49084,2,0,P|276:78|331:121,1,144.000005493164,0|0,1:2|0:2,0:0:0:0:
466,94,49343,70,0,P|435:90|404:97,1,62.3999971435548,8|0,0:2|0:0,0:0:0:0:
331,121,49515,2,0,P|310:144|298:173,1,62.3999971435548,0|0,0:2|0:2,0:0:0:0:
346,260,49688,5,0,3:2:0:0:
346,260,49860,22,0,P|285:272|230:245,1,124.79999428711,0|8,1:2|0:2,0:0:0:0:
68,303,50119,2,0,P|131:222|231:245,1,216.000008239746,0|0,3:2|3:2,0:0:0:0:
343,378,50464,69,0,1:2:0:0:
332,360,50550,2,0,L|345:277,1,84.0000008010864,0|0,0:0|0:2,0:0:0:0:
490,177,50722,22,0,L|499:230,6,54.0000020599366,8|0|0|0|0|0|0,0:2|0:0|0:0|0:0|0:2|0:0|0:0,0:0:0:0:
512,332,51067,38,0,P|475:353|432:353,1,86.3999973632813,6|0,1:0|0:0,0:0:0:0:
419,252,51239,2,0,P|455:230|498:230,1,86.3999973632813,0|0,0:0|0:2,0:0:0:0:
332,360,51412,102,0,L|256:346,1,76.8,8|0,0:2|0:0,0:0:0:0:
179,332,51584,2,0,L|103:318,1,76.8,0|0,0:2|0:2,0:0:0:0:
87,196,51757,101,0,3:2:0:0:
71,209,51843,2,0,B|117:203|117:203|141:177|141:177|183:171,1,124.79999428711,0|0,3:2|0:2,0:0:0:0:
264,301,52101,70,0,B|266:323|266:323|256:345,1,48,8|0,0:2|0:2,0:0:0:0:
179,332,52274,2,0,B|176:309|176:309|186:287,1,48,0|0,0:2|0:2,0:0:0:0:
355,208,52446,5,2,3:2:0:0:
355,208,52619,22,0,B|424:194|424:194|485:233,1,144.000005493164,0|8,1:2|0:2,0:0:0:0:
511,163,52877,2,0,B|439:116|439:116|359:132,1,168.000001602173,0|0,3:2|0:2,0:0:0:0:
236,220,53136,69,0,3:2:0:0:
245,202,53222,2,0,L|255:346,1,144.000005493164,0|0,1:2|0:2,0:0:0:0:
126,276,53481,38,0,L|173:273,1,48,8|0,0:2|0:0,0:0:0:0:
177,347,53653,2,0,L|129:351,1,48,0|0,0:2|0:2,0:0:0:0:
116,130,53826,70,0,P|69:182|-1:192,1,144.000005493164,2|0,1:2|3:2,0:0:0:0:
0,272,54085,2,0,P|31:273|62:268,1,62.3999971435548,2|0,0:2|0:0,0:0:0:0:
189,167,54257,2,0,P|137:232|61:269,1,168.000001602173,0|0,3:2|0:2,0:0:0:0:
9,377,54515,37,0,3:2:0:0:
9,377,54601,2,0,L|151:354,1,144.000005493164,0|0,1:2|0:2,0:0:0:0:
283,381,54860,70,0,P|253:371|227:353,1,62.3999971435548,8|0,0:2|0:0,0:0:0:0:
186,288,55033,2,0,P|179:257|181:226,1,62.3999971435548,0|0,0:2|0:2,0:0:0:0:
235,119,55205,38,0,L|319:130,1,86.3999973632813,8|0,0:2|0:0,0:0:0:0:
463,148,55377,1,0,1:2:0:0:
225,103,55550,38,2,L|367:121,1,144.000005493164,8|0,0:2|0:0,0:1:0:0:
501,124,55808,2,2,L|357:106,1,144.000005493164,0|0,0:2|3:2,0:1:0:0:
215,88,56067,5,8,3:2:0:0:
204,101,56153,2,0,L|212:149,1,48,0|0,3:2|3:2,0:0:0:0:
264,217,56326,1,8,3:2:0:0:
275,230,56412,2,0,L|267:278,1,48,0|0,3:2|3:2,0:0:0:0:
229,368,56584,86,0,P|192:345|150:338,1,86.3999973632813,6|0,1:0|0:0,0:0:0:0:
99,252,56757,2,0,P|56:258|20:281,1,86.3999973632813,0|0,0:0|0:2,0:0:0:0:
206,192,56929,102,0,L|214:115,1,76.8,8|0,0:2|0:0,0:0:0:0:
110,114,57101,2,0,L|102:37,1,76.8,0|0,0:2|0:2,0:0:0:0:
0,197,57274,101,0,3:2:0:0:
0,197,57360,2,0,P|59:204|99:251,1,124.79999428711,0|0,1:2|0:2,0:0:0:0:
147,384,57619,70,0,L|150:336,1,48,8|0,0:2|0:2,0:0:0:0:
191,271,57791,2,0,L|187:223,1,48,0|0,0:2|0:2,0:0:0:0:
290,214,57964,5,2,3:2:0:0:
290,214,58136,22,0,L|313:357,1,144.000005493164,0|8,1:2|0:2,0:0:0:0:
441,383,58395,2,0,B|390:361|390:361|373:250,1,168.000001602173,0|0,3:2|0:2,0:0:0:0:
453,86,58653,69,0,3:2:0:0:
465,73,58739,2,0,P|454:141|390:167,1,144.000005493164,0|0,1:2|0:2,0:0:0:0:
233,103,58998,38,0,L|225:56,1,48,8|0,0:2|0:0,0:0:0:0:
296,34,59170,2,0,L|305:82,1,48,0|0,0:2|0:2,0:0:0:0:
257,227,59343,70,0,B|164:232|164:232|122:202,1,144.000005493164,2|0,1:2|3:2,0:0:0:0:
90,273,59601,2,0,L|140:309,1,62.3999971435548,2|8,0:2|0:2,0:0:0:0:
307,299,59774,2,0,L|140:309,1,168.000001602173,0|0,3:2|0:2,0:0:0:0:
6,348,60033,37,0,3:2:0:0:
21,356,60119,2,0,P|44:289|34:219,1,144.000005493164,0|0,1:2|0:2,0:0:0:0:
62,109,60377,70,0,L|123:119,1,62.3999971435548,8|0,0:2|0:0,0:0:0:0:
197,133,60550,2,0,L|258:143,1,62.3999971435548,0|0,0:2|0:2,0:0:0:0:
350,103,60722,5,0,3:2:0:0:
350,102,60895,22,0,P|333:161|359:216,1,124.79999428711,0|8,1:2|0:2,0:0:0:0:
492,317,61153,2,0,P|460:221|359:216,1,216.000008239746,0|0,3:2|3:2,0:0:0:0:
191,313,61498,69,0,1:2:0:0:
201,294,61584,2,0,P|214:254|209:212,1,84.0000008010864,0|0,0:0|0:2,0:0:0:0:
107,134,61757,22,0,L|53:144,6,54.0000020599366,8|0|0|0|0|0|0,0:2|0:0|0:0|0:0|0:2|0:0|0:0,0:0:0:0:
189,78,62101,101,6,1:0:0:0:
187,61,62274,1,0,1:2:0:0:
300,119,62446,22,0,L|346:108,1,48,8|0,1:2|0:2,0:0:0:0:
298,102,62619,2,0,L|344:91,1,48,0|0,1:2|0:2,0:0:0:0:
209,213,62791,85,0,1:2:0:0:
208,204,62878,1,0,0:2:0:0:
207,195,62964,1,0,1:2:0:0:
320,253,63135,21,8,1:2:0:0:
318,236,63308,1,0,1:2:0:0:
201,350,63481,85,0,1:2:0:0:
177,344,63653,1,0,1:2:0:0:
96,277,63826,21,8,1:2:0:0:
96,277,63912,2,0,P|72:275|48:279,1,48,0|0,0:0|1:2,0:0:0:0:
207,195,64170,85,0,1:2:0:0:
194,191,64257,1,0,0:2:0:0:
182,187,64343,1,0,1:2:0:0:
101,120,64515,21,8,1:2:0:0:
77,114,64687,1,0,1:2:0:0:
198,4,64860,5,8,1:2:0:0:
198,4,64946,1,0,1:2:0:0:
198,4,65033,2,0,L|255:10,1,57.5999982421876,0|0,1:2|1:2,0:0:0:0:
363,77,65205,101,8,1:2:0:0:
363,77,65291,1,0,1:2:0:0:
363,77,65377,2,0,L|300:70,1,62.3999971435548,0|0,1:2|1:2,0:0:0:0:
136,78,65550,5,8,1:2:0:0:
136,78,65636,1,0,1:2:0:0:
136,78,65723,2,0,L|202:86,1,67.1999979492188,0|0,1:2|1:2,0:0:0:0:
397,167,65895,101,8,1:2:0:0:
397,167,65981,1,0,1:2:0:0:
397,167,66068,2,0,L|325:156,1,72.0000027465821,0|0,1:2|1:2,0:0:0:0:
118,175,66239,5,8,1:2:0:0:
104,220,66325,1,0,1:2:0:0:
119,265,66411,1,0,1:2:0:0:
157,293,66497,1,0,1:0:0:0:
205,294,66583,1,8,1:2:0:0:
247,268,66670,1,0,1:2:0:0:
286,243,66756,1,0,1:2:0:0:
333,239,66842,1,0,1:0:0:0:
377,257,66928,1,8,1:2:0:0:
409,292,67014,1,0,1:2:0:0:
422,338,67101,101,0,3:2:0:0:
404,342,67188,1,0,3:2:0:0:
353,354,67274,69,0,3:2:0:0:
335,357,67361,1,0,3:2:0:0:
284,369,67446,5,0,3:0:0:0:
266,372,67533,1,0,3:0:0:0:
215,384,67619,53,6,1:0:0:0:
453,101,78653,38,0,P|400:101|349:84,1,108.000004119873,0|0,1:2|0:2,0:0:0:0:
337,76,78998,1,0,3:2:0:0:
275,145,79170,2,0,L|297:287,1,144.000005493164,2|0,0:1|0:2,0:0:0:0:
243,344,79688,2,0,L|208:336,2,36.0000013732911,2|0|0,3:2|0:2|0:0,0:0:0:0:
470,373,80291,5,0,0:2:0:0:
470,373,80378,2,0,P|444:325|434:272,1,108.000004119873,2|0,3:2|0:0,0:0:0:0:
434,272,80722,2,0,P|405:317|364:352,1,108.000004119873,2|0,3:2|0:2,0:0:0:0:
364,352,81067,1,2,3:2:0:0:
273,185,81412,101,2,3:2:0:0:
273,185,81498,2,0,P|326:178|380:180,1,108.000004119873,0|0,0:2|3:2,0:0:0:0:
433,85,81929,1,2,3:2:0:0:
433,85,82015,2,0,P|379:91|325:89,1,108.000004119873,0|0,0:0|1:2,0:0:0:0:
243,31,82446,1,2,3:2:0:0:
243,31,82533,1,0,1:2:0:0:
35,10,83653,5,2,1:2:0:0:
37,24,83739,1,0,3:2:0:0:
39,38,83826,1,2,3:2:0:0:
56,116,83998,1,2,3:2:0:0:
22,188,84170,102,0,P|74:158|135:148,1,122.400002334595,2|0,1:2|1:2,0:0:0:0:
153,149,84515,1,0,3:2:0:0:
242,288,84688,2,0,P|171:251|90:245,1,163.200003112793,2|0,3:1|1:2,0:0:0:0:
0,273,85205,1,2,3:2:0:0:
0,273,85291,1,0,1:2:0:0:
190,384,85895,5,2,3:2:0:0:
190,383,85981,2,0,P|200:322|202:261,1,122.400002334595,2|2,0:2|3:2,0:0:0:0:
105,364,86412,1,2,1:2:0:0:
105,364,86498,1,0,1:2:0:0:
105,364,86584,2,0,P|113:324|117:283,1,81.6000015563965,2|2,3:2|3:2,0:0:0:0:
237,130,86929,101,2,1:2:0:0:
237,130,87015,2,0,P|295:152|355:157,1,122.400002334595,0|0,0:0|3:2,0:0:0:0:
463,222,87446,1,2,3:2:0:0:
463,222,87532,2,0,P|405:243|345:248,1,122.400002334595,2|0,0:2|3:2,0:0:0:0:
246,302,87964,1,2,3:2:0:0:
246,302,88050,1,0,3:2:0:0:
487,376,89170,5,2,3:2:0:0:
485,359,89257,1,0,3:2:0:0:
483,342,89343,1,2,3:2:0:0:
471,249,89515,1,2,3:2:0:0:
319,327,89688,22,0,P|364:312|411:303,3,96,6|8|8|8,1:0|0:2|0:2|2:2,0:0:0:0:
353,205,91067,2,0,P|398:220|445:229,2,96,8|8|8,0:2|0:2|0:2,0:0:0:0:
416,129,91929,1,0,0:0:0:0:
416,129,92015,1,0,0:2:0:0:
416,129,92101,2,0,P|439:132|463:132,1,48,8|0,0:2|0:0,0:0:0:0:
265,26,92446,70,0,L|281:169,3,144.000005493164,8|8|8|8,0:2|0:2|0:2|0:2,0:0:0:0:
158,71,93653,1,0,0:0:0:0:
193,187,93826,2,0,L|176:43,2,144.000005493164,8|8|8,0:2|0:2|0:2,0:0:0:0:
123,264,94688,1,0,0:0:0:0:
123,264,94774,1,0,0:2:0:0:
123,264,94860,2,0,L|52:248,1,72.0000027465821,8|0,0:2|0:0,0:0:0:0:
255,340,95205,5,12,1:2:0:0:
259,344,95377,1,0,1:2:0:0:
392,297,95550,21,8,1:2:0:0:
396,301,95722,1,0,1:2:0:0:
350,159,95895,85,8,1:2:0:0:
354,163,96067,1,0,1:2:0:0:
212,201,96239,21,8,1:2:0:0:
216,205,96412,1,0,1:2:0:0:
320,70,96584,85,8,1:2:0:0:
345,60,96757,1,0,1:2:0:0:
202,113,96929,21,8,1:2:0:0:
177,103,97102,1,0,1:2:0:0:
354,163,97274,85,8,1:2:0:0:
379,153,97447,1,0,1:2:0:0:
216,205,97619,21,8,1:2:0:0:
191,195,97792,1,0,1:2:0:0:
383,324,97964,5,8,1:2:0:0:
383,324,98050,1,0,1:2:0:0:
383,324,98136,2,0,L|433:309,1,52.8000016113282,0|0,1:2|1:2,0:0:0:0:
280,275,98308,101,8,1:2:0:0:
280,275,98394,1,0,1:2:0:0:
280,275,98480,2,0,L|224:259,1,57.5999982421876,0|0,1:2|1:2,0:0:0:0:
424,217,98653,5,8,1:2:0:0:
424,217,98739,1,0,1:2:0:0:
424,217,98825,2,0,L|484:200,1,62.3999971435548,0|0,1:2|1:2,0:0:0:0:
261,148,98998,101,8,1:2:0:0:
261,148,99084,1,0,1:0:0:0:
261,148,99170,2,0,L|200:131,1,62.3999971435548,0|0,1:0|1:2,0:0:0:0:
368,0,99343,37,8,1:2:0:0:
372,40,99458,1,0,1:2:0:0:
376,81,99573,1,0,1:2:0:0:
432,136,99688,5,8,1:2:0:0:
428,176,99803,1,0,1:2:0:0:
424,217,99918,1,0,1:2:0:0:
373,280,100033,101,8,1:2:0:0:
315,229,100147,1,0,1:2:0:0:
248,269,100262,1,0,1:2:0:0:
182,207,100377,5,8,1:2:0:0:
245,281,100492,1,0,1:2:0:0:
318,215,100607,1,0,1:2:0:0:
384,291,100722,85,2,1:0:0:0:
459,88,101067,38,0,P|475:131|470:177,1,93.5999957153322,2|0,0:2|0:0,0:0:0:0:
460,188,101412,2,0,P|418:183|372:152,1,93.5999957153322,2|0,0:2|0:0,0:0:0:0:
325,94,101757,1,2,0:2:0:0:
326,77,101872,1,0,0:0:0:0:
328,60,101987,1,0,0:0:0:0:
259,10,102101,6,0,P|214:18|175:43,1,93.5999957153322,2|0,0:2|0:0,0:0:0:0:
155,4,102446,2,0,P|118:34|96:75,1,93.5999957153322,2|0,0:2|0:0,0:0:0:0:
64,71,102791,1,2,0:2:0:0:
96,192,102964,6,0,L|91:157,2,36.0000013732911,0|0|0,1:2|1:2|1:2,0:0:0:0:
49,296,103136,21,8,0:2:0:0:
20,224,103222,2,0,B|67:204|112:230|92:247|134:272|179:254,1,172.799994726563,0|0,1:2|0:2,0:0:0:0:
337,198,103481,6,2,B|296:146|296:146|316:251|316:251|337:274|337:274|351:358,1,288,6|0,1:0|0:0,0:1:0:0:
179,334,103826,70,0,B|220:340|220:340|259:323,1,84.0000008010864,10|0,0:2|0:2,0:0:0:0:
447,254,103998,5,0,0:2:0:0:
430,276,104084,2,0,L|418:204,1,72.0000027465821,0|2,0:0|0:2,0:0:0:0:
423,111,104257,2,0,L|446:253,1,144.000005493164,0|0,1:2|0:2,0:0:0:0:
373,375,104515,102,0,P|336:355|294:354,1,84.0000008010864,10|2,0:2|0:2,0:0:0:0:
196,255,104688,2,0,P|162:264|135:287,1,72.0000027465821,0|0,0:2|0:2,0:0:0:0:
13,373,104860,5,2,0:2:0:0:
21,347,104946,2,0,P|18:317|3:292,2,60,0|0|0,0:0|1:2|0:2,0:0:0:0:
115,378,105205,102,0,L|196:358,1,84.0000008010864,10|0,0:2|0:0,0:0:0:0:
347,304,105377,54,2,B|290:298|290:298|253:260|253:260|195:254,1,168.000001602173,0|2,0:2|0:2,0:1:0:0:
195,254,105636,2,2,B|260:247|260:247|302:203|302:203|368:196,1,192,0|0,1:2|0:0,0:1:0:0:
367,196,105895,6,2,B|293:188|293:188|269:164,1,108.000004119873,10|0,0:2|0:0,0:1:0:0:
269,164,106067,2,2,B|245:140|245:140|171:132,1,108.000004119873,2|0,0:2|0:0,0:1:0:0:
43,7,106239,86,2,B|-2:73|50:158|80:119|137:189|102:263,1,288,2|0,1:0|0:0,0:1:0:0:
19,384,106584,70,0,P|7:344|16:303,1,84.0000008010864,10|0,0:2|0:0,0:0:0:0:
171,132,106757,5,0,0:2:0:0:
187,147,106843,2,0,P|152:156|116:153,1,72.0000027465821,0|2,0:0|0:2,0:0:0:0:
32,147,107015,2,0,P|100:123|171:132,1,144.000005493164,0|0,1:2|0:0,0:0:0:0:
256,218,107274,102,0,L|336:194,1,84.0000008010864,8|0,0:2|0:0,0:0:0:0:
415,271,107446,1,0,0:2:0:0:
433,257,107532,1,0,0:0:0:0:
451,243,107619,6,0,L|336:274,1,120,2|2,0:2|1:2,0:0:0:0:
362,348,107877,1,2,0:2:0:0:
335,274,107964,2,0,L|260:293,1,76.8,8|0,0:2|0:0,0:0:0:0:
154,227,108136,101,2,0:2:0:0:
171,213,108222,2,0,L|99:201,1,72.0000027465821,0|0,0:0|0:2,0:0:0:0:
13,203,108395,2,0,L|155:226,1,144.000005493164,2|0,1:2|0:2,0:0:0:0:
73,44,108653,6,0,P|69:85|46:120,1,84.0000008010864,10|0,0:2|0:0,0:0:0:0:
170,61,108826,2,0,P|192:89|202:124,1,72.0000027465821,2|0,0:2|0:0,0:0:0:0:
267,8,108998,102,0,P|351:36|410:103,1,180,6|0,1:2|0:2,0:0:0:0:
467,173,109343,2,0,P|463:208|451:242,1,72.0000027465821,10|0,0:2|0:0,0:0:0:0:
327,354,109515,5,0,0:2:0:0:
305,331,109601,2,0,P|346:338|387:331,1,84.0000008010864,0|2,0:0|0:2,0:0:0:0:
480,319,109774,2,0,P|409:361|326:354,1,168.000001602173,0|0,1:2|0:0,0:0:0:0:
156,371,110033,102,0,L|172:288,1,84.0000008010864,10|0,0:2|0:0,0:0:0:0:
107,197,110205,1,0,0:2:0:0:
95,170,110291,1,0,0:0:0:0:
83,142,110377,54,2,P|140:182|210:173,1,144.000005493164,2|0,0:2|0:0,0:1:0:0:
410,126,110636,5,0,0:2:0:0:
410,126,110722,2,2,P|340:82|260:100,1,168.000001602173,10|0,0:2|0:2,0:1:0:0:
425,222,110981,2,2,P|406:141|337:97,1,168.000001602173,2|0,0:1|1:2,0:1:0:0:
141,227,111239,101,0,0:0:0:0:
122,181,111325,1,0,0:0:0:0:
131,132,111411,1,10,0:2:0:0:
165,96,111497,1,0,0:0:0:0:
214,84,111583,1,2,0:2:0:0:
261,100,111670,1,0,0:0:0:0:
211,173,111757,102,2,B|141:160|141:160|98:90|98:90|4:75|4:75|23:110,1,288,6|0,1:0|0:0,0:1:0:0:
118,242,112101,70,0,L|165:250,1,48,10|0,0:2|0:0,0:0:0:0:
286,199,112274,85,0,0:0:0:0:
286,199,112360,2,0,L|291:151,1,48,0|2,0:0|0:2,0:0:0:0:
216,125,112533,2,0,L|211:172,1,48,0|0,1:2|0:0,0:0:0:0:
327,280,112705,37,0,0:0:0:0:
327,280,112791,2,0,P|358:253|371:213,1,84.0000008010864,10|0,0:2|0:0,0:0:0:0:
467,173,112964,2,0,P|468:137|453:104,1,72.0000027465821,2|0,0:2|0:0,0:0:0:0:
367,26,113136,102,0,P|320:61|261:64,1,120,2|0,0:2|0:0,0:0:0:0:
217,0,113395,1,0,0:0:0:0:
261,64,113481,2,0,P|271:101|265:139,1,76.8,10|0,0:2|0:0,0:0:0:0:
201,311,113653,5,0,0:0:0:0:
184,294,113739,2,0,L|255:288,1,72.0000027465821,2|0,0:2|0:0,0:0:0:0:
345,299,113912,2,0,L|201:310,1,144.000005493164,0|0,0:0|3:2,0:0:0:0:
44,379,114170,102,0,P|43:337|24:300,1,84.0000008010864,8|8,3:2|3:0,0:0:0:0:
100,231,114343,2,0,P|82:199|54:176,1,72.0000027465821,4|4,3:0|3:0,0:0:0:0:
0,104,114515,6,0,B|37:140|37:140|163:121,1,180,6|0,1:2|0:0,0:0:0:0:
207,20,114860,2,0,L|123:32,1,84.0000008010864,2|0,3:2|0:0,0:0:0:0:
239,218,115033,101,0,0:0:0:0:
251,236,115119,2,0,P|216:226|180:225,1,72.0000027465821,0|2,0:0|3:2,0:0:0:0:
100,231,115291,2,0,P|168:210|239:218,1,144.000005493164,0|0,1:2|1:2,0:0:0:0:
368,290,115550,6,0,P|391:255|394:214,1,84.0000008010864,10|0,0:2|0:0,0:0:0:0:
484,158,115722,2,0,P|470:126|444:101,1,72.0000027465821,0|0,0:2|0:0,0:0:0:0:
356,28,115895,101,2,0:2:0:0:
365,45,115981,2,0,P|366:80|353:114,2,72.0000027465821,0|0|0,0:0|1:2|0:2,0:0:0:0:
269,224,116239,5,10,0:2:0:0:
254,221,116326,1,0,0:0:0:0:
239,218,116412,38,2,P|229:299|169:355,1,168.000001602173,0|2,0:2|0:2,0:1:0:0:
168,355,116670,2,2,P|172:261|113:188,1,192,0|0,1:2|0:0,0:1:0:0:
113,188,116929,6,2,P|117:241|98:291,1,108.000004119873,10|0,0:2|0:0,0:1:0:0:
97,292,117101,2,2,P|61:331|12:352,1,108.000004119873,2|0,0:2|0:0,0:1:0:0:
6,232,117274,86,2,P|129:303|271:315,1,288,6|0,1:0|0:0,0:1:0:0:
343,217,117619,70,0,P|302:228|260:231,1,84.0000008010864,10|0,0:2|0:0,0:0:0:0:
433,321,117791,5,0,0:2:0:0:
454,338,117877,2,0,L|446:266,1,72.0000027465821,0|0,0:0|0:0,0:0:0:0:
418,177,118050,2,0,L|432:320,1,144.000005493164,0|0,1:2|0:0,0:0:0:0:
295,384,118308,102,0,L|306:300,1,84.0000008010864,10|0,0:2|0:0,0:0:0:0:
238,231,118481,2,0,L|262:163,1,72.0000027465821,0|0,0:2|0:0,0:0:0:0:
304,65,118653,6,0,P|354:95|414:99,1,120,2|2,0:2|1:2,0:0:0:0:
457,37,118912,1,0,0:0:0:0:
414,99,118998,2,0,L|426:182,1,84.0000008010864,8|0,0:2|0:0,0:0:0:0:
471,305,119170,101,2,0:2:0:0:
481,326,119257,2,0,L|409:319,1,72.0000027465821,0|0,0:0|0:0,0:0:0:0:
327,292,119429,2,0,L|470:304,1,144.000005493164,2|0,1:2|0:2,0:0:0:0:
220,384,119688,6,0,P|240:347|242:305,1,84.0000008010864,10|0,0:2|0:0,0:0:0:0:
310,213,119860,2,0,P|291:182|261:162,1,72.0000027465821,0|0,0:2|0:2,0:0:0:0:
291,73,120033,102,0,P|223:129|136:118,1,180,6|0,1:2|0:2,0:0:0:0:
52,0,120377,2,0,P|67:38|69:80,1,84.0000008010864,10|0,0:2|0:0,0:0:0:0:
51,178,120550,5,0,0:2:0:0:
69,158,120637,2,0,L|77:229,1,72.0000027465821,0|0,0:0|0:0,0:0:0:0:
67,321,120809,2,0,L|50:177,1,144.000005493164,0|0,1:2|0:0,0:0:0:0:
166,322,121067,102,0,P|199:298|214:259,1,84.0000008010864,10|0,0:2|0:0,0:0:0:0:
316,260,121239,2,0,P|313:225|295:194,1,72.0000027465821,0|0,0:2|0:0,0:0:0:0:
338,112,121412,101,2,1:2:0:0:
338,112,121670,102,0,P|371:99|407:95,1,72.0000027465821,0|0,3:2|0:0,0:0:0:0:
334,104,121929,2,0,P|367:90|403:86,1,72.0000027465821,0|0,3:2|0:0,0:0:0:0:
329,96,122188,85,0,3:2:0:0:
285,111,122274,1,0,3:2:0:0:
240,100,122360,1,0,3:2:0:0:
207,68,122446,2,0,L|210:32,1,36.0000013732911,0|0,0:0|3:2,0:0:0:0:
131,131,122619,1,0,3:2:0:0:
132,148,122705,1,0,3:2:0:0:
61,202,122791,102,0,L|52:116,1,86.3999973632813,6|0,1:0|0:0,0:0:0:0:
204,177,122964,2,0,L|195:262,1,86.3999973632813,0|0,0:0|0:2,0:0:0:0:
86,362,123136,102,0,P|117:339|154:329,1,76.8,8|0,0:2|0:0,0:0:0:0:
231,334,123308,2,0,P|266:347|295:372,1,76.8,0|0,0:2|0:2,0:0:0:0:
433,299,123481,101,0,3:2:0:0:
420,331,123567,2,0,L|407:206,1,124.79999428711,0|0,1:2|0:2,0:0:0:0:
407,82,123826,70,0,L|394:129,1,48,8|0,0:2|0:2,0:0:0:0:
469,157,123998,2,0,L|483:111,1,48,0|0,0:2|0:2,0:0:0:0:
484,0,124170,5,2,3:2:0:0:
483,0,124343,22,0,P|430:45|359:44,1,144.000005493164,0|8,1:2|0:2,0:0:0:0:
394,128,124601,2,0,P|345:61|265:46,1,168.000001602173,0|0,3:2|0:2,0:0:0:0:
107,72,124860,69,0,3:2:0:0:
128,53,124946,2,0,L|109:176,1,124.79999428711,0|0,1:2|0:2,0:0:0:0:
178,302,125205,38,0,B|225:293,1,48,8|0,0:2|0:0,0:0:0:0:
215,220,125377,2,0,B|167:228,1,48,0|0,0:2|0:2,0:0:0:0:
0,363,125550,70,0,B|91:346|91:346|132:376,1,144.000005493164,2|0,3:2|1:2,0:0:0:0:
215,220,125808,2,0,L|153:233,1,62.3999971435548,2|8,0:2|0:2,0:0:0:0:
0,222,125981,2,0,B|37:254|37:254|153:233,1,168.000001602173,0|0,3:2|0:2,0:0:0:0:
283,276,126239,37,0,3:2:0:0:
282,276,126326,2,0,P|343:282|385:327,1,124.79999428711,0|0,1:2|0:2,0:0:0:0:
466,383,126584,70,0,P|478:363|484:340,1,48,8|0,0:2|0:0,0:0:0:0:
493,263,126757,2,0,P|487:239|475:219,1,48,0|0,0:2|0:0,0:0:0:0:
412,159,126929,5,0,3:2:0:0:
412,159,127101,22,0,P|350:158|302:121,1,124.79999428711,0|8,1:2|0:2,0:0:0:0:
178,244,127360,2,0,P|278:220|302:121,1,216.000008239746,0|0,3:2|3:2,0:0:0:0:
205,44,127705,69,0,1:2:0:0:
195,67,127791,2,0,L|209:150,1,84.0000008010864,0|0,0:0|0:2,0:0:0:0:
69,269,127964,22,0,L|15:260,6,54.0000020599366,8|0|0|0|0|0|0,0:2|0:0|0:0|0:0|0:2|0:0|0:0,0:0:0:0:
164,326,128308,38,0,P|177:285|177:242,1,86.3999973632813,6|0,1:0|0:0,0:0:0:0:
290,368,128481,2,0,P|276:327|276:284,1,86.3999973632813,0|0,0:0|0:2,0:0:0:0:
374,207,128653,102,0,L|450:217,1,76.8,8|0,0:2|0:0,0:0:0:0:
463,142,128826,2,0,L|386:131,1,76.8,0|0,0:2|0:2,0:0:0:0:
284,58,128998,101,0,3:2:0:0:
303,30,129084,2,0,L|314:154,1,124.79999428711,0|0,3:2|0:2,0:0:0:0:
177,232,129343,70,0,P|169:209|170:185,1,48,8|0,0:2|0:2,0:0:0:0:
245,177,129515,2,0,P|252:199|251:223,1,48,0|0,0:2|0:2,0:0:0:0:
223,290,129688,5,2,3:2:0:0:
223,290,129860,22,0,L|81:263,1,144.000005493164,0|8,1:2|0:2,0:0:0:0:
0,384,130119,2,0,L|165:352,1,168.000001602173,0|0,3:2|0:2,0:0:0:0:
330,330,130377,69,0,3:2:0:0:
313,356,130464,2,0,L|289:234,1,124.79999428711,0|0,1:2|0:2,0:0:0:0:
349,150,130722,38,0,P|372:146|396:149,1,48,8|0,0:2|0:0,0:0:0:0:
464,184,130895,2,0,P|479:202|488:224,1,48,0|0,0:2|0:0,0:0:0:0:
461,367,131067,70,0,P|400:329|329:329,1,144.000005493164,2|0,1:2|3:2,0:0:0:0:
181,284,131326,2,0,P|203:306|231:320,1,62.3999971435548,2|0,0:2|0:0,0:0:0:0:
363,249,131498,2,0,P|313:313|231:320,1,168.000001602173,0|0,3:2|0:2,0:0:0:0:
46,281,131757,37,0,3:2:0:0:
64,307,131843,2,0,L|78:183,1,124.79999428711,0|0,1:2|0:2,0:0:0:0:
148,58,132101,70,0,L|152:105,1,48,8|0,0:2|0:0,0:0:0:0:
168,182,132274,2,0,L|172:229,1,48,0|0,0:2|0:2,0:0:0:0:
245,89,132446,22,0,L|249:136,1,48,8|0,0:2|0:0,0:0:0:0:
269,260,132619,2,0,L|265:213,1,48,0|0,1:2|0:0,0:0:0:0:
339,68,132791,54,2,P|391:115|461:117,1,144.000005493164,8|0,0:2|0:0,0:1:0:0:
461,118,133050,2,2,P|408:165|338:167,1,144.000005493164,0|0,0:2|3:2,0:1:0:0:
264,212,133308,6,2,P|310:248|369:256,1,120,8|0,3:2|3:2,0:1:0:0:
369,257,133567,2,2,P|322:293|263:301,1,120,8|0,3:2|3:2,0:1:0:0:
151,384,133826,86,0,P|140:342|151:300,1,86.3999973632813,6|0,1:0|0:0,0:0:0:0:
264,212,133998,2,0,P|274:253|263:295,1,86.3999973632813,0|0,0:0|0:2,0:0:0:0:
141,161,134170,102,0,L|217:150,1,76.8,8|0,0:2|0:0,0:0:0:0:
293,139,134343,2,0,L|369:128,1,76.8,0|0,0:2|0:2,0:0:0:0:
486,33,134515,101,0,3:2:0:0:
464,14,134601,2,0,L|480:137,1,124.79999428711,0|0,1:2|0:2,0:0:0:0:
422,236,134860,70,0,P|404:219|382:209,1,48,8|0,0:2|0:2,0:0:0:0:
310,202,135033,2,0,P|286:203|263:211,1,48,0|0,0:2|0:2,0:0:0:0:
187,261,135205,5,2,3:2:0:0:
187,261,135377,22,0,B|222:226|222:226|211:132,1,144.000005493164,0|8,1:2|0:2,0:0:0:0:
108,36,135636,2,0,B|96:145|96:145|137:186,1,168.000001602173,0|0,3:2|0:2,0:0:0:0:
311,174,135895,69,0,3:2:0:0:
334,151,135981,2,0,L|211:131,1,124.79999428711,0|0,1:2|0:2,0:0:0:0:
199,52,136239,38,0,L|246:59,1,48,8|0,0:2|0:0,0:0:0:0:
321,73,136412,2,0,L|368:80,1,48,0|0,0:2|0:2,0:0:0:0:
480,24,136584,70,0,B|449:65|449:65|462:156,1,144.000005493164,2|0,1:2|3:2,0:0:0:0:
401,307,136843,2,0,B|392:246,1,62.3999971435548,2|8,0:2|0:2,0:0:0:0:
368,80,137015,2,0,B|392:246,1,168.000001602173,0|0,3:2|0:2,0:0:0:0:
297,321,137274,37,0,3:2:0:0:
312,344,137360,2,0,L|294:220,1,124.79999428711,0|0,1:2|0:2,0:0:0:0:
153,136,137619,70,0,P|152:163|159:183,1,48,8|0,0:2|0:0,0:0:0:0:
237,170,137791,2,0,P|238:143|230:122,1,48,0|0,0:2|0:2,0:0:0:0:
183,62,137964,5,0,3:2:0:0:
183,62,138136,22,0,P|237:90|298:85,1,124.79999428711,0|8,1:2|0:2,0:0:0:0:
498,124,138395,2,0,B|438:149|381:116|406:94|353:63|297:85,1,216.000008239746,0|0,3:2|3:2,0:0:0:0:
311,260,138739,69,0,1:2:0:0:
322,246,138826,2,0,P|337:208|332:166,1,84.0000008010864,0|0,0:0|0:0,0:0:0:0:
205,262,138998,22,0,L|214:315,6,54.0000020599366,8|0|0|0|0|0|0,0:2|0:0|0:0|0:0|0:2|0:0|0:0,0:0:0:0:
137,208,139343,101,6,1:0:0:0:
119,209,139515,1,0,1:2:0:0:
133,366,139688,22,0,L|140:318,1,48,8|0,1:2|0:0,0:0:0:0:
116,364,139860,2,0,L|123:316,1,48,0|0,1:2|0:0,0:0:0:0:
255,190,140033,85,0,1:2:0:0:
246,190,140119,1,0,0:2:0:0:
237,191,140205,1,0,1:2:0:0:
255,384,140377,21,8,1:2:0:0:
238,382,140550,1,0,1:2:0:0:
376,292,140722,85,0,1:2:0:0:
373,265,140895,1,0,1:2:0:0:
237,191,141067,21,8,1:2:0:0:
238,191,141153,2,0,L|242:143,1,48,0|0,0:0|1:2,0:0:0:0:
437,167,141411,85,0,1:2:0:0:
435,153,141498,1,0,0:2:0:0:
434,140,141584,1,0,1:2:0:0:
298,66,141757,21,8,1:2:0:0:
301,39,141930,1,0,1:2:0:0:
345,213,142101,5,8,1:2:0:0:
345,213,142188,1,0,1:2:0:0:
345,213,142274,2,0,L|299:199,1,48,0|0,1:0|1:0,0:0:0:0:
156,255,142446,101,8,1:2:0:0:
156,255,142533,1,0,1:2:0:0:
156,255,142619,2,0,L|211:238,1,57.5999982421876,0|0,1:2|1:2,0:0:0:0:
368,300,142791,5,8,1:2:0:0:
368,300,142878,1,0,1:2:0:0:
368,300,142964,2,0,L|308:282,1,62.3999971435548,0|0,1:0|1:0,0:0:0:0:
137,348,143136,101,8,1:2:0:0:
137,348,143223,1,0,1:2:0:0:
137,348,143309,2,0,L|202:328,1,67.1999979492188,0|0,1:2|1:2,0:0:0:0:
418,368,143481,5,8,1:2:0:0:
446,319,143567,1,0,1:2:0:0:
440,263,143653,1,0,1:2:0:0:
400,222,143739,1,0,1:0:0:0:
345,213,143825,1,8,1:2:0:0:
295,239,143912,1,0,1:2:0:0:
245,266,143999,1,0,1:2:0:0:
188,258,144085,1,0,1:0:0:0:
149,217,144170,2,0,L|157:145,1,72.0000027465821,8|0,0:2|1:2,0:0:0:0:
229,37,144343,101,0,3:2:0:0:
249,34,144429,1,0,3:2:0:0:
294,48,144515,69,0,3:2:0:0:
304,46,144601,1,0,3:2:0:0:
354,59,144688,5,0,3:2:0:0:
359,57,144774,1,0,3:0:0:0:
388,65,144860,5,0,1:2:0:0:
