osu file format v14

[General]
AudioFilename: audio.mp3
AudioLeadIn: 0
PreviewTime: 100636
Countdown: 0
SampleSet: Soft
StackLeniency: 0.7
Mode: 0
LetterboxInBreaks: 0
WidescreenStoryboard: 0

[Editor]
Bookmarks: 29722,45498,62049,67567,78601,103429,122739
DistanceSpacing: 1.4
BeatDivisor: 4
GridSize: 8
TimelineZoom: 2.999999

[Metadata]
Title:U Got That (Camellia's Neurofunk Bootleg)
TitleUnicode:U Got That (かめりあ's Neurofunk Bootleg)
Artist:Halogen
ArtistUnicode:Halogen
Creator:Sotarks
Version:Nikakis' Hard
Source:
Tags:nikakis akitoshi corinn -laura- realazy reform kujinn cametek mix remix ricardo milos かめるかめりあ kamelcamellia
BeatmapID:1950958
BeatmapSetID:934144

[Difficulty]
HPDrainRate:5
CircleSize:3.6
OverallDifficulty:6.2
ApproachRate:8
SliderMultiplier:1.5
SliderTickRate:1

[Events]
//Background and Video events
0,0,"bg.jpg",0,0
//Break Periods
2,67819,77701
//Storyboard Layer 0 (Background)
//Storyboard Layer 1 (Fail)
//Storyboard Layer 2 (Pass)
//Storyboard Layer 3 (Foreground)
//Storyboard Sound Samples

[TimingPoints]
33,344.827586206897,4,2,22,52,1,0
12446,-117.647058823529,4,2,22,52,0,0
17964,-117.647058823529,4,2,22,62,0,0
20722,-100,4,2,22,72,0,0
23481,-83.3333333333333,4,2,22,82,0,0
23998,-100,4,2,22,82,0,0
28136,-83.3333333333333,4,2,22,82,0,0
29515,-100,4,2,22,82,0,0
34515,-83.3333333333333,4,2,22,82,0,0
35033,-100,4,2,22,82,0,0
39170,-83.3333333333333,4,2,22,82,0,0
40550,-100,4,2,22,82,0,0
44429,-100,4,2,22,72,0,0
45550,-83.3333333333333,4,2,22,82,0,0
46067,-100,4,2,22,82,0,0
51067,-83.3333333333333,4,2,22,82,0,0
51584,-100,4,2,22,82,0,0
56584,-83.3333333333333,4,2,22,82,0,0
57101,-100,4,2,22,82,0,0
67705,-83.3333333333333,4,2,22,52,0,0
78653,-117.647058823529,4,2,22,42,0,0
86929,-117.647058823529,4,2,22,52,0,0
89688,-117.647058823529,4,2,22,62,0,0
90033,-117.647058823529,4,2,22,72,0,0
93826,-117.647058823529,4,2,22,82,0,0
97964,-100,4,2,22,82,0,0
103481,-83.3333333333333,4,2,22,92,0,0
103998,-100,4,2,22,92,0,0
105377,-83.3333333333333,4,2,22,92,0,0
106757,-100,4,2,22,92,0,0
111757,-83.3333333333333,4,2,22,92,0,0
112274,-100,4,2,22,92,0,0
116412,-83.3333333333333,4,2,22,92,0,0
117791,-100,4,2,22,92,0,0
121670,-100,4,2,22,82,0,0
122791,-83.3333333333333,4,2,22,92,0,0
123308,-100,4,2,22,92,0,0
128308,-83.3333333333333,4,2,22,92,0,0
128826,-100,4,2,22,92,0,0
129343,-100,4,2,22,92,0,0
133826,-83.3333333333333,4,2,22,92,0,0
134343,-100,4,2,22,92,0,0

[Colours]
Combo1 : 193,159,208
Combo2 : 143,143,143
Combo3 : 227,226,225
Combo4 : 255,26,26
Combo5 : 155,94,94
Combo6 : 147,16,197
SliderBorder : 255,255,255
SliderTrackOverride : 0,0,0

[HitObjects]
40,83,12446,6,0,B|23:146|23:146|32:221,1,127.50000243187,6|0,1:2|3:2,0:0:0:0:
71,288,12964,2,0,P|122:292|153:276,1,63.7500012159348,2|0,0:0|0:0,0:0:0:0:
209,242,13308,2,0,L|268:246,2,31.8750006079674,0|0|0,3:0|3:0|3:0,0:0:0:0:
151,173,13653,2,0,P|128:131|146:71,1,95.6250018239021,2|0,0:0|0:0,0:0:0:0:
165,51,13998,6,0,L|279:43,2,95.6250018239022,2|2|2,0:0|0:0|0:0,0:0:0:0:
94,106,14688,2,0,L|37:100,2,31.8750006079674,0|0|0,3:0|3:0|3:0,0:0:0:0:
140,182,15033,1,2,0:0:0:0:
226,160,15205,70,0,P|256:152|288:157,1,63.7500012159348
346,224,15550,2,0,L|340:300,1,63.7500012159348,2|0,3:0|0:0,0:0:0:0:
286,359,15895,2,0,P|231:374|180:349,1,95.6250018239022,2|2,0:0|0:0,0:0:0:0:
159,336,16239,1,0,0:0:0:0:
235,287,16412,2,0,L|303:281,1,63.7500012159348,2|0,0:0|0:0,0:0:0:0:
364,220,16757,6,0,P|375:177|355:124,2,95.6250018239022,2|2|2,0:0|0:0|0:0,0:0:0:0:
302,284,17446,2,0,L|299:335,2,31.8750006079674,0|0|0,3:0|3:0|3:0,0:0:0:0:
257,206,17791,1,2,0:0:0:0:
283,120,17964,69,0,1:0:0:0:
283,120,18136,1,0,1:0:0:0:
241,41,18308,2,0,L|177:36,1,63.7500012159348,0|0,1:0|1:0,0:0:0:0:
95,66,18653,1,0,1:0:0:0:
95,66,18825,1,0,1:0:0:0:
147,138,18998,2,0,L|210:133,1,63.7500012159348,0|0,1:0|1:0,0:0:0:0:
280,199,19343,5,0,1:0:0:0:
280,199,19515,1,0,1:0:0:0:
213,257,19688,2,0,L|127:251,1,63.7500012159348,0|0,1:0|1:0,0:0:0:0:
85,316,20033,1,0,1:0:0:0:
85,316,20205,1,0,1:0:0:0:
152,374,20377,2,0,P|185:380|225:368,1,63.7500012159348,0|0,1:0|1:0,0:0:0:0:
275,306,20722,70,0,L|270:259,3,37.5,8|0|0|0,1:2|1:0|1:0|1:0,0:0:0:0:
237,238,21067,2,0,L|200:241,3,37.5,8|0|0|0,1:2|1:0|1:0|1:0,0:0:0:0:
170,206,21412,2,0,L|167:169,3,37.5,8|0|0|0,1:2|1:0|1:0|1:0,0:0:0:0:
199,136,21757,2,0,L|236:133,3,37.5,8|0|0|0,1:2|1:0|1:0|1:0,0:0:0:0:
267,100,22101,6,0,L|264:63,3,37.5,8|0|0|0,1:2|1:0|1:0|1:0,0:0:0:0:
230,31,22446,2,0,L|193:34,3,37.5,8|0|0|0,1:2|1:0|1:0|1:0,0:0:0:0:
147,34,22791,1,0,3:0:0:0:
141,124,22964,70,0,L|138:161,1,37.5,8|0,0:0|3:0,0:0:0:0:
155,202,23136,2,0,L|192:199,1,37.5,8|8,3:0|3:0,0:0:0:0:
236,208,23308,2,0,L|239:245,1,37.5,4|4,3:0|3:0,0:0:0:0:
225,288,23481,22,0,B|188:309|188:309|92:300,1,134.999995880127,6|0,1:2|0:2,0:0:0:0:
55,292,23826,1,10,0:2:0:0:
87,208,23998,2,0,B|101:167|101:167|84:84,2,112.5,0|0|10,0:2|1:2|0:2,0:0:0:0:
55,292,24688,1,0,0:2:0:0:
128,343,24860,6,0,L|214:335,1,75,2|0,0:2|1:2,0:0:0:0:
248,335,25119,1,0,0:2:0:0:
248,335,25205,1,10,0:2:0:0:
337,324,25377,2,0,B|398:315|390:370|474:351,2,112.5,0|0|10,0:2|1:2|0:2,0:0:0:0:
275,258,26067,1,2,0:2:0:0:
325,183,26239,70,0,P|336:137|322:100,1,75,2|0,1:2|0:0,0:0:0:0:
315,75,26498,1,0,0:2:0:0:
315,75,26584,1,10,0:2:0:0:
230,107,26757,2,0,B|194:122|194:122|98:108,2,112.5,0|0|8,0:2|1:2|0:2,0:0:0:0:
315,75,27446,1,0,0:2:0:0:
347,159,27619,6,0,L|340:269,1,75,2|2,0:2|1:2,0:0:0:0:
339,278,27877,1,2,0:2:0:0:
339,278,27964,1,8,0:2:0:0:
380,359,28136,2,0,B|429:366|429:366|472:343|472:343|531:349,2,134.999995880127,2|2|10,0:2|1:2|0:2,0:0:0:0:
339,278,28826,1,2,0:2:0:0:
378,197,28998,70,0,B|366:164|378:138|378:138|368:126|368:126|386:88|360:55,1,134.999995880127,6|0,1:2|0:2,0:0:0:0:
358,25,29343,1,10,0:2:0:0:
275,61,29515,2,0,B|239:73|239:73|150:56,2,112.5,0|0|10,0:2|1:2|0:2,0:0:0:0:
358,25,30205,1,0,0:2:0:0:
384,110,30377,6,0,L|378:192,1,75,2|0,0:2|1:2,0:0:0:0:
380,230,30636,1,0,0:2:0:0:
380,230,30722,1,10,0:2:0:0:
400,317,30894,2,0,B|461:305|450:364|536:339,2,112.5,0|0|10,0:2|1:2|0:2,0:0:0:0:
309,312,31584,1,2,0:2:0:0:
228,351,31756,70,0,P|184:362|151:353,1,75,2|0,1:2|0:0,0:0:0:0:
114,336,32015,1,0,0:2:0:0:
114,336,32101,1,10,0:2:0:0:
153,254,32274,2,0,B|169:218|169:218|155:128,2,112.5,0|0|10,0:2|1:2|0:2,0:0:0:0:
114,336,32963,1,2,0:2:0:0:
47,274,33136,6,0,B|37:232|37:232|47:181,1,75,2|0,0:2|0:0,0:0:0:0:
60,158,33395,1,0,0:2:0:0:
60,158,33481,1,10,0:2:0:0:
145,184,33653,2,0,B|187:192|187:192|228:178,1,75,0|0,0:2|0:0,0:0:0:0:
258,162,33912,1,0,1:2:0:0:
258,162,33998,70,0,L|252:111,2,37.5,0|0|8,3:2|3:2|3:2,0:0:0:0:
288,195,34257,2,0,L|331:201,2,37.5,8|4|4,3:0|3:0|3:0,0:0:0:0:
244,208,34516,6,0,B|225:248|225:248|234:338,1,134.999995880127,6|0,1:2|0:0,0:0:0:0:
238,382,34860,1,2,3:2:0:0:
313,332,35033,2,0,P|355:320|388:328,1,75,0|2,0:0|3:2,0:0:0:0:
422,351,35291,1,0,1:2:0:0:
472,276,35464,1,0,1:2:0:0:
472,276,35550,70,0,L|480:172,1,75,10|0,0:2|0:2,0:0:0:0:
433,122,35895,2,0,L|349:128,1,75,2|0,0:2|1:2,0:0:0:0:
313,133,36154,1,0,0:2:0:0:
313,133,36240,1,10,0:2:0:0:
226,107,36412,2,0,B|165:91|173:153|86:115,2,112.5,0|0|10,0:2|1:2|0:2,0:0:0:0:
313,133,37102,1,2,0:2:0:0:
272,213,37274,6,0,P|261:257|273:295,1,75,2|0,1:2|0:0,0:0:0:0:
287,326,37533,1,0,0:2:0:0:
287,326,37619,1,10,0:2:0:0:
369,362,37791,2,0,B|411:379|411:379|499:363,2,112.5,0|0|10,0:2|1:2|0:2,0:0:0:0:
287,326,38481,1,0,0:2:0:0:
202,354,38653,70,0,L|105:349,1,75,2|2,0:2|1:2,0:0:0:0:
81,351,38912,1,2,0:2:0:0:
81,351,38999,1,8,0:2:0:0:
66,262,39171,2,0,B|59:216|59:216|83:169|83:169|77:117,1,134.999995880127,2|2,0:2|1:2,0:0:0:0:
72,89,39515,1,0,0:0:0:0:
157,116,39688,2,0,P|215:128|257:104,1,89.9999972534181,10|0,0:2|0:2,0:0:0:0:
327,88,40033,6,0,B|338:120|326:146|326:146|336:158|336:158|318:196|344:229,1,134.999995880127,6|0,1:2|0:2,0:0:0:0:
346,259,40378,1,10,0:2:0:0:
270,307,40550,2,0,B|234:323|234:323|144:307,2,112.5,0|0|10,0:2|1:2|0:2,0:0:0:0:
346,259,41240,1,0,0:2:0:0:
284,193,41412,70,0,L|193:187,1,75,2|0,0:2|1:2,0:0:0:0:
163,186,41671,1,0,0:2:0:0:
163,186,41757,1,10,0:2:0:0:
87,233,41929,2,0,B|115:299|62:297|98:368,2,112.5,0|0|10,0:2|1:2|0:2,0:0:0:0:
60,146,42619,1,2,0:2:0:0:
130,92,42791,6,0,P|172:78|208:86,1,75,2|0,1:2|0:0,0:0:0:0:
239,107,43050,1,0,0:2:0:0:
239,107,43136,1,10,0:2:0:0:
285,182,43309,2,0,B|301:224|301:224|285:317,2,112.5,0|0|10,0:2|1:2|0:2,0:0:0:0:
239,107,43998,1,2,0:2:0:0:
160,150,44171,70,0,B|119:165|119:165|66:154,1,75,2|0,1:2|0:0,0:0:0:0:
48,152,44430,1,0,3:2:0:0:
48,152,44516,1,2,3:2:0:0:
94,77,44688,2,0,B|133:61|133:61|178:70,1,75,0|0,3:2|0:0,0:0:0:0:
208,88,44946,6,0,L|254:84,2,37.5,0|0|0,3:2|3:2|3:0,0:0:0:0:
174,170,45291,2,0,L|135:165,2,37.5,0|0|0,3:2|3:2|3:2,0:0:0:0:
208,201,45550,6,0,B|245:223|245:223|356:213,1,134.999995880127,0|0,1:2|0:2,0:0:0:0:
382,208,45895,1,8,0:2:0:0:
457,155,46067,2,0,P|468:110|451:64,1,75,0|0,0:2|3:2,0:0:0:0:
438,42,46326,1,0,1:2:0:0:
349,55,46498,1,0,0:2:0:0:
349,55,46584,2,0,L|248:63,1,75,8|0,0:2|0:2,0:0:0:0:
192,99,46929,5,2,3:2:0:0:
217,185,47101,2,0,L|208:269,1,75,0|8,1:2|0:2,0:0:0:0:
192,301,47360,2,0,P|123:322|70:303,1,112.5,0|0,3:2|3:2,0:0:0:0:
61,274,47705,2,0,L|50:180,1,75,0|0,1:2|0:2,0:0:0:0:
47,154,47964,1,8,0:2:0:0:
135,138,48136,2,0,L|214:145,1,75,0|2,0:2|3:2,0:0:0:0:
294,114,48481,70,0,P|304:70|292:27,1,75,0|8,1:2|0:2,0:0:0:0:
261,15,48739,2,0,L|142:21,1,112.5,0|0,3:2|3:2,0:0:0:0:
103,23,49084,1,0,1:2:0:0:
69,106,49257,1,0,0:2:0:0:
69,106,49343,2,0,P|56:156|74:210,1,75,8|0,0:2|0:2,0:0:0:0:
75,220,49601,1,0,0:0:0:0:
75,220,49688,5,0,3:2:0:0:
149,269,49860,2,0,B|193:276|193:276|241:264,1,75,0|8,1:2|0:2,0:0:0:0:
307,238,50205,2,0,B|318:200|318:200|306:165,1,75,0|0,0:0|3:2,0:0:0:0:
293,122,50464,1,0,1:2:0:0:
293,122,50550,1,0,0:0:0:0:
336,43,50722,1,8,0:2:0:0:
423,20,50895,1,0,0:2:0:0:
477,94,51067,70,0,B|499:136|499:136|488:242,1,134.999995880127,0|0,1:2|0:2,0:0:0:0:
484,270,51412,1,8,0:2:0:0:
401,235,51584,2,0,P|363:225|324:237,1,75,0|0,0:2|3:2,0:0:0:0:
291,258,51843,1,0,3:2:0:0:
227,321,52015,1,0,0:2:0:0:
227,321,52101,2,0,P|186:332|154:323,1,75,8|0,0:2|0:2,0:0:0:0:
87,264,52446,5,2,3:2:0:0:
154,204,52619,2,0,L|235:197,1,75,0|8,1:2|0:2,0:0:0:0:
267,178,52877,2,0,P|285:125|263:61,1,112.5,0|0,3:2|3:2,0:0:0:0:
238,40,53222,2,0,L|143:33,1,75,0|0,1:2|0:2,0:0:0:0:
118,29,53481,1,8,0:2:0:0:
56,95,53653,2,0,L|62:177,1,75,0|2,0:2|1:2,0:0:0:0:
117,240,53998,70,0,P|161:251|199:239,1,75,0|8,3:2|0:2,0:0:0:0:
228,223,54256,2,0,L|238:110,1,112.5,0|0,3:2|0:2,0:0:0:0:
244,66,54601,1,0,1:2:0:0:
324,25,54774,1,0,0:2:0:0:
324,25,54860,2,0,P|364:13|404:22,1,75,8|0,0:2|0:2,0:0:0:0:
432,44,55118,1,0,0:2:0:0:
432,44,55205,6,0,L|438:126,1,75,8|0,0:2|1:2,0:0:0:0:
399,200,55550,2,0,B|358:212|358:212|314:199,1,75,8|0,0:2|0:0,0:0:0:0:
283,190,55808,2,0,B|244:180|244:180|203:190,1,75,0|0,0:2|3:2,0:0:0:0:
169,207,56067,1,8,3:2:0:0:
169,207,56153,1,0,3:2:0:0:
105,271,56326,2,0,L|100:312,2,37.5,8|0|0,3:2|3:2|3:2,0:0:0:0:
77,234,56584,70,0,B|67:192|67:192|88:80,1,134.999995880127,4|0,1:2|0:2,0:0:0:0:
94,59,56929,1,8,0:2:0:0:
176,23,57101,2,0,P|221:12|265:28,1,75,0|0,0:2|3:2,0:0:0:0:
284,45,57360,1,0,1:2:0:0:
259,131,57532,1,0,0:2:0:0:
259,131,57618,2,0,L|162:136,1,75,8|0,0:2|0:2,0:0:0:0:
118,196,57963,5,2,3:2:0:0:
186,254,58135,2,0,P|196:298|179:348,1,75,0|8,1:2|0:2,0:0:0:0:
151,350,58394,2,0,L|34:342,1,112.5,0|0,3:2|0:2,0:0:0:0:
26,298,58739,2,0,L|19:189,1,75,0|0,1:2|0:2,0:0:0:0:
18,177,58998,1,8,0:2:0:0:
102,208,59170,2,0,P|149:216|191:201,1,75,0|2,0:2|1:2,0:0:0:0:
255,168,59515,70,0,L|263:91,1,75,0|8,3:2|0:2,0:0:0:0:
244,52,59774,2,0,P|185:35|122:61,1,112.5,0|0,3:2|3:2,0:0:0:0:
98,73,60119,1,0,1:2:0:0:
127,157,60291,1,0,0:2:0:0:
127,157,60377,2,0,P|171:168|208:154,1,75,8|0,0:2|0:2,0:0:0:0:
240,143,60635,1,0,0:2:0:0:
240,143,60722,5,0,3:2:0:0:
264,229,60894,2,0,B|274:272|274:272|260:312,1,75,0|8,1:2|0:2,0:0:0:0:
187,349,61239,2,0,B|145:358|145:358|86:342,1,75,0|0,0:0|3:2,0:0:0:0:
73,339,61498,1,0,1:2:0:0:
73,339,61584,1,0,0:0:0:0:
31,259,61756,1,8,0:2:0:0:
43,169,61929,1,0,0:2:0:0:
112,112,62101,69,0,1:2:0:0:
112,112,62274,1,0,1:2:0:0:
177,175,62446,2,0,L|264:168,1,75,8|0,1:2|1:2,0:0:0:0:
335,219,62791,1,0,1:2:0:0:
335,219,62964,1,0,1:2:0:0:
284,293,63136,2,0,L|199:286,1,75,8|0,1:2|1:2,0:0:0:0:
138,236,63481,5,0,1:2:0:0:
138,236,63654,1,0,1:2:0:0:
175,153,63826,2,0,P|187:102|169:62,1,75,8|0,1:2|1:2,0:0:0:0:
117,22,64170,1,0,1:2:0:0:
117,22,64343,1,0,1:2:0:0:
49,79,64515,2,0,P|39:126|55:165,1,75,8|0,1:2|1:2,0:0:0:0:
94,227,64860,70,0,L|163:221,3,37.5,8|0|0|0,1:2|1:2|1:2|1:2,0:0:0:0:
173,207,65205,2,0,L|178:164,3,37.5,8|0|0|0,1:2|1:2|1:2|1:2,0:0:0:0:
181,124,65550,2,0,L|173:60,3,37.5,8|0|0|0,1:2|1:2|1:2|1:2,0:0:0:0:
198,47,65895,2,0,L|240:51,3,37.5,8|0|0|0,1:2|1:2|1:2|1:2,0:0:0:0:
278,38,66239,6,0,L|320:33,3,37.5,8|0|0|0,1:2|1:2|1:2|1:2,0:0:0:0:
358,21,66584,2,0,L|399:25,3,37.5,8|0|0|0,1:2|1:2|1:2|1:2,0:0:0:0:
437,7,66929,1,8,1:2:0:0:
455,94,67101,2,0,L|462:151,1,37.5,0|0,3:2|3:2,0:0:0:0:
465,176,67274,2,0,L|461:231,1,37.5,0|0,3:2|3:2,0:0:0:0:
460,258,67446,2,0,L|466:316,1,37.5,0|0,3:0|3:0,0:0:0:0:
468,340,67619,5,6,1:2:0:0:
53,66,78653,6,0,L|47:175,1,95.6250018239022,0|0,1:2|0:2,0:0:0:0:
46,208,78998,1,0,3:2:0:0:
132,180,79170,2,0,P|205:162|261:191,1,127.50000243187,2|0,0:2|0:2,0:0:0:0:
321,237,79688,1,2,3:2:0:0:
321,237,79774,70,0,L|327:346,2,95.6250018239022,0|0|0,0:2|1:2|0:2,0:0:0:0:
317,192,80377,2,0,L|323:117,1,63.7500012159348,2|0,3:2|0:2,0:0:0:0:
278,49,80722,1,2,3:2:0:0:
278,49,80808,2,0,P|234:42|199:57,1,63.7500012159348,0|0,3:2|0:2,0:0:0:0:
179,72,81067,2,0,L|185:140,1,63.7500012159348,2|0,3:2|0:0,0:0:0:0:
182,225,81412,6,0,L|172:341,1,95.6250018239022,2|0,3:2|1:2,0:0:0:0:
170,365,81757,1,0,3:2:0:0:
89,327,81929,2,0,P|67:286|73:245,1,63.7500012159348,2|0,3:2|0:0,0:0:0:0:
85,182,82274,1,0,1:2:0:0:
167,147,82446,1,2,3:2:0:0:
167,147,82533,70,0,L|270:161,2,95.6250018239022,0|0|0,1:2|1:2|1:2,0:0:0:0:
136,114,83136,1,0,3:2:0:0:
199,52,83308,1,0,1:2:0:0:
199,52,83395,2,0,L|262:47,1,63.7500012159348,0|0,1:2|1:2,0:0:0:0:
307,47,83653,1,2,1:2:0:0:
392,19,83826,1,2,3:2:0:0:
441,92,83998,1,2,3:2:0:0:
381,158,84170,6,0,P|328:173|282:156,1,95.6250018239022,2|0,1:2|1:2,0:0:0:0:
247,147,84515,1,0,3:2:0:0:
242,236,84688,2,0,L|234:333,1,95.6250018239022,2|0,3:2|0:0,0:0:0:0:
232,377,85033,1,0,1:2:0:0:
150,340,85205,1,2,3:2:0:0:
150,340,85291,2,0,L|142:243,2,95.6250018239022,0|0|0,1:2|1:2|3:2,0:0:0:0:
189,358,85895,70,0,L|253:363,1,63.7500012159348,2|0,3:2|0:2,0:0:0:0:
325,311,86240,1,2,3:2:0:0:
325,311,86326,2,0,P|332:267|317:232,1,63.7500012159348,0|0,0:0|1:2,0:0:0:0:
302,211,86585,2,0,L|234:217,1,63.7500012159348,2|2,3:2|3:2,0:0:0:0:
165,165,86930,6,0,L|175:49,1,95.6250018239022,2|0,1:2|1:2,0:0:0:0:
181,26,87275,1,0,3:2:0:0:
268,10,87447,2,0,P|314:0|360:10,1,95.6250018239022,2|0,3:2|0:0,0:0:0:0:
402,27,87792,1,0,3:2:0:0:
416,114,87964,1,2,3:2:0:0:
416,114,88051,70,0,L|425:235,2,95.6250018239022,0|0|0,3:2|0:0|0:0,0:0:0:0:
411,70,88653,1,0,3:2:0:0:
326,98,88826,1,0,3:2:0:0:
326,98,88913,2,0,L|233:91,1,63.7500012159348,0|0,3:2|0:2,0:0:0:0:
217,95,89171,1,2,3:2:0:0:
169,171,89344,1,2,0:0:0:0:
92,124,89516,1,2,0:0:0:0:
137,47,89688,6,0,P|84:32|-4:65,3,127.50000243187,6|8|8|8,1:2|0:2|0:2|2:2,0:0:0:0:
13,226,91067,70,0,L|21:379,3,127.50000243187,8|8|8|8,0:2|0:2|0:2|0:2,0:0:0:0:
179,273,92446,6,0,B|241:245|241:245|322:267,3,127.50000243187,8|8|8|8,0:2|0:2|0:2|0:2,0:0:0:0:
428,138,93826,70,0,P|404:104|307:106,3,127.50000243187,8|8|8|8,0:2|0:2|0:2|0:2,0:0:0:0:
174,193,95205,5,8,1:2:0:0:
174,193,95377,1,0,1:2:0:0:
171,281,95549,2,0,L|166:345,1,63.7500012159348,8|0,1:2|1:2,0:0:0:0:
256,380,95894,1,8,1:2:0:0:
256,380,96066,1,0,1:2:0:0:
308,307,96239,2,0,L|303:243,1,63.7500012159348,8|0,1:2|1:2,0:0:0:0:
297,154,96584,69,8,1:2:0:0:
297,154,96756,1,0,1:2:0:0:
221,202,96929,2,0,L|135:196,1,63.7500012159348,8|0,1:2|1:2,0:0:0:0:
94,133,97274,1,8,1:2:0:0:
94,133,97446,1,0,1:2:0:0:
150,63,97618,2,0,P|181:56|212:62,1,63.7500012159348,8|0,1:2|1:2,0:0:0:0:
291,104,97963,6,0,L|297:153,3,31.8750006079674,8|0|0|0,1:2|1:2|1:2|1:2,0:0:0:0:
324,169,98308,2,0,L|361:166,3,37.5,8|0|0|0,1:2|1:2|1:2|1:2,0:0:0:0:
402,145,98653,2,0,L|405:108,3,37.5,8|0|0|0,1:2|1:2|1:2|1:2,0:0:0:0:
388,65,98998,2,0,L|351:62,3,37.5,8|0|0|0,1:2|1:0|1:0|1:2,0:0:0:0:
306,85,99343,70,0,L|311:137,2,50,8|0|0,1:2|0:2|1:2,0:0:0:0:
269,56,99688,2,0,L|270:2,2,50,8|0|0,1:2|0:2|1:2,0:0:0:0:
230,90,100033,2,0,L|235:142,2,50,8|0|0,1:2|0:2|1:2,0:0:0:0:
190,59,100377,2,0,L|191:5,2,50,8|0|0,1:2|0:2|1:2,0:0:0:0:
137,136,100722,6,0,B|118:176|118:176|126:259,1,112.5,2|0,1:2|0:0,0:0:0:0:
135,287,101067,2,0,L|241:297,1,75,2|0,0:2|0:0,0:0:0:0:
290,252,101412,1,2,0:2:0:0:
265,73,101757,2,0,L|259:23,2,50,2|0|0,0:2|0:0|0:0,0:0:0:0:
273,121,102101,69,2,0:2:0:0:
415,158,102446,1,2,0:2:0:0:
418,305,102791,1,2,0:2:0:0:
324,336,102964,2,0,L|319:302,2,18.75,0|0|0,1:2|1:2|1:2,0:0:0:0:
302,365,103136,1,8,0:2:0:0:
302,365,103222,2,0,B|263:375|263:375|208:368,1,75,0|0,1:2|0:2,0:0:0:0:
202,338,103481,22,0,B|183:298|183:298|192:208,1,134.999995880127,6|0,1:2|0:0,0:0:0:0:
201,163,103826,1,10,0:2:0:0:
119,125,103998,2,0,B|79:114|79:114|-14:131,2,112.5,0|0|10,0:2|1:2|0:2,0:0:0:0:
203,157,104688,1,0,0:2:0:0:
263,91,104860,6,0,L|349:84,1,75,2|0,0:2|1:2,0:0:0:0:
383,86,105119,1,0,0:2:0:0:
383,86,105205,1,10,0:2:0:0:
439,155,105377,2,0,B|422:226|482:211|440:320,2,134.999995880127,0|0|10,0:2|1:2|0:2,0:0:0:0:
455,66,106067,1,2,0:2:0:0:
373,103,106239,70,0,P|307:131|227:80,1,134.999995880127,2|0,1:2|0:0,0:0:0:0:
217,78,106584,1,10,0:2:0:0:
172,155,106757,2,0,B|156:196|156:196|172:290,2,112.5,0|0|8,0:2|1:2|0:2,0:0:0:0:
217,78,107446,1,0,0:2:0:0:
270,150,107619,6,0,L|263:257,1,75,2|2,0:2|1:2,0:0:0:0:
265,269,107877,1,2,0:2:0:0:
265,269,107964,1,8,0:2:0:0:
324,335,108136,2,0,B|378:347|378:347|408:318|463:325,2,112.5,2|2|10,0:2|1:2|0:2,0:0:0:0:
265,269,108826,1,2,0:2:0:0:
199,331,108998,70,0,L|89:322,1,75,6|0,1:2|0:0,0:0:0:0:
79,322,109256,1,0,0:2:0:0:
79,322,109343,1,10,0:2:0:0:
30,246,109515,2,0,L|23:99,2,112.5,0|0|10,0:2|1:2|0:2,0:0:0:0:
79,322,110205,1,0,0:2:0:0:
133,250,110377,6,0,P|146:198|131:164,1,75,2|0,0:2|0:0,0:0:0:0:
130,138,110636,1,0,0:2:0:0:
130,138,110722,1,10,0:2:0:0:
217,156,110894,2,0,B|259:164|259:164|298:150,1,75,0|0,0:2|0:0,0:0:0:0:
333,134,111153,1,0,1:2:0:0:
333,134,111239,70,0,L|325:89,2,37.5,0|0|10,0:0|0:0|0:2,0:0:0:0:
368,162,111498,2,0,L|405:166,2,37.5,0|2|0,0:0|0:2|0:0,0:0:0:0:
332,185,111757,6,0,B|313:225|313:225|322:315,1,134.999995880127,2|0,1:2|0:0,0:0:0:0:
324,360,112101,1,10,0:2:0:0:
240,324,112274,2,0,P|198:312|157:328,1,75,0|2,0:0|0:2,0:0:0:0:
130,342,112532,1,0,1:2:0:0:
59,295,112705,1,0,0:0:0:0:
59,295,112791,70,0,L|48:188,1,75,10|2,0:2|0:2,0:0:0:0:
92,138,113136,2,0,L|175:146,1,75,2|0,0:2|0:0,0:0:0:0:
210,155,113395,1,0,0:0:0:0:
210,155,113481,1,10,0:2:0:0:
290,115,113653,2,0,B|343:104|343:161|430:121,2,112.5,0|0|8,0:0|0:0|3:2,0:0:0:0:
210,155,114343,1,4,3:0:0:0:
146,91,114515,6,0,P|102:80|57:97,1,75,6|0,1:2|0:0,0:0:0:0:
39,116,114774,1,0,0:0:0:0:
39,116,114860,1,2,3:2:0:0:
12,202,115033,2,0,B|-3:248|-3:248|11:333,2,112.5,0|0|10,0:0|1:2|0:2,0:0:0:0:
39,116,115722,1,0,0:2:0:0:
102,179,115895,70,0,L|108:282,1,75,2|0,0:2|1:2,0:0:0:0:
112,298,116153,1,0,0:2:0:0:
112,298,116240,1,10,0:2:0:0:
193,341,116412,2,0,B|234:336|234:336|285:357|285:357|341:350,1,134.999995880127,0|0,0:2|1:2,0:0:0:0:
367,346,116756,1,0,0:0:0:0:
438,290,116929,2,0,P|449:225|434:191,1,89.9999972534181,10|2,0:2|0:2,0:0:0:0:
393,127,117274,6,0,B|364:141|333:128|333:128|317:135|317:135|284:117|242:143,1,134.999995880127,2|0,1:2|0:0,0:0:0:0:
219,142,117619,1,10,0:2:0:0:
193,229,117791,2,0,B|180:267|180:267|199:362,2,112.5,0|0|10,0:2|1:2|0:2,0:0:0:0:
219,142,118481,1,0,0:2:0:0:
291,194,118653,70,0,L|298:283,1,75,2|2,0:2|1:2,0:0:0:0:
305,314,118912,1,0,0:0:0:0:
305,314,118998,1,8,0:2:0:0:
225,355,119170,2,0,B|160:385|173:331|86:370,2,112.5,2|2|10,0:2|1:2|0:2,0:0:0:0:
305,314,119860,1,0,0:2:0:0:
244,247,120032,6,0,P|201:235|158:250,1,75,6|0,1:2|0:0,0:0:0:0:
131,262,120291,1,0,0:2:0:0:
131,262,120377,1,10,0:2:0:0:
82,186,120550,2,0,B|63:145|63:145|79:61,2,112.5,0|0|10,0:2|1:2|0:2,0:0:0:0:
131,262,121239,1,0,0:2:0:0:
194,198,121412,70,0,B|209:159|209:159|200:106,1,75,2|0,1:2|0:0,0:0:0:0:
200,88,121671,1,0,3:2:0:0:
200,88,121757,1,2,3:2:0:0:
274,38,121929,2,0,B|312:22|312:22|357:31,1,75,0|0,3:2|0:0,0:0:0:0:
384,51,122188,6,0,L|433:44,2,37.5,0|0|0,3:2|3:2|3:0,0:0:0:0:
365,140,122532,2,0,L|326:135,2,37.5,0|0|0,3:2|3:2|3:2,0:0:0:0:
406,159,122791,6,0,B|426:196|426:196|418:293,1,134.999995880127,0|0,1:2|0:2,0:0:0:0:
415,332,123136,1,8,0:2:0:0:
336,288,123308,2,0,P|291:277|245:294,1,75,0|0,0:2|3:2,0:0:0:0:
220,296,123567,1,0,1:2:0:0:
230,206,123739,1,0,0:2:0:0:
230,206,123825,2,0,L|238:105,1,75,8|0,0:2|0:2,0:0:0:0:
245,41,124170,5,2,3:2:0:0:
157,22,124342,2,0,P|117:12|72:27,1,75,0|8,1:2|0:2,0:0:0:0:
45,41,124601,2,0,L|52:164,1,112.5,0|0,3:2|3:2,0:0:0:0:
57,198,124946,2,0,L|46:292,1,75,0|0,1:2|0:2,0:0:0:0:
42,317,125205,1,8,0:2:0:0:
119,361,125377,2,0,P|154:371|192:362,1,75,0|2,0:2|3:2,0:0:0:0:
265,312,125722,70,0,L|258:225,1,75,0|8,1:2|0:2,0:0:0:0:
253,192,125980,2,0,L|259:73,1,112.5,0|0,3:2|3:2,0:0:0:0:
260,34,126325,1,0,1:2:0:0:
348,14,126498,1,0,0:2:0:0:
348,14,126584,2,0,P|399:3|441:25,1,75,8|0,0:2|0:2,0:0:0:0:
455,37,126842,1,0,0:0:0:0:
455,37,126929,5,0,3:2:0:0:
403,110,127101,2,0,B|359:117|359:117|311:105,1,75,0|8,1:2|0:2,0:0:0:0:
255,58,127446,2,0,B|217:47|217:47|182:59,1,75,0|0,0:0|3:2,0:0:0:0:
146,84,127705,2,0,B|135:122|135:122|147:157,1,75,0|0,1:0|3:2,0:0:0:0:
163,197,127963,1,8,0:2:0:0:
236,144,128136,1,0,0:2:0:0:
289,215,128308,70,0,B|311:257|311:257|300:363,1,134.999995880127,0|0,1:2|0:2,0:0:0:0:
278,382,128653,1,8,0:2:0:0:
203,331,128826,2,0,L|104:339,1,75,0|0,0:2|3:2,0:2:0:0:
83,339,129084,1,0,3:2:0:0:
41,265,129256,1,0,0:2:0:0:
41,265,129342,2,0,P|32:228|43:193,1,75,8|0,0:2|0:2,0:0:0:0:
97,120,129687,5,2,3:2:0:0:
177,161,129860,2,0,L|258:154,1,75,0|8,1:2|0:2,0:0:0:0:
296,147,130118,2,0,P|314:94|292:30,1,112.5,0|0,3:2|3:2,0:0:0:0:
256,26,130463,2,0,L|161:19,1,75,0|0,1:2|0:2,0:0:0:0:
135,18,130722,1,8,0:2:0:0:
104,102,130894,2,0,L|107:186,1,75,0|2,0:2|1:2,0:0:0:0:
158,250,131239,70,0,P|202:261|240:244,1,75,0|8,3:2|0:2,0:0:0:0:
267,228,131498,2,0,P|325:210|380:228,1,112.5,0|0,3:2|0:2,0:0:0:0:
410,250,131842,1,0,1:2:0:0:
378,334,132015,1,0,0:2:0:0:
378,334,132101,2,0,P|338:346|298:337,1,75,8|0,0:2|0:2,0:0:0:0:
269,325,132359,1,0,0:2:0:0:
269,325,132446,6,0,L|263:243,1,75,8|0,0:2|1:2,0:0:0:0:
207,179,132791,2,0,B|166:167|166:167|122:180,1,75,8|0,0:2|0:0,0:0:0:0:
97,201,133049,2,0,B|87:240|87:240|97:281,1,75,0|0,0:2|3:2,0:0:0:0:
107,317,133308,1,8,3:2:0:0:
107,317,133394,1,0,3:2:0:0:
195,297,133567,2,0,L|190:256,2,37.5,8|0|0,3:2|3:2|3:2,0:0:0:0:
224,330,133825,70,0,B|266:340|266:340|369:321,1,112.5,4|0,1:2|0:2,0:0:0:0:
378,318,134170,1,8,0:2:0:0:
343,234,134343,2,0,L|259:228,1,75,0|0,0:0|3:0,0:0:0:0:
223,223,134601,1,0,1:2:0:0:
162,156,134773,1,0,0:2:0:0:
162,156,134860,2,0,P|151:106|171:58,1,75,8|0,0:2|0:2,0:0:0:0:
222,22,135204,5,2,3:2:0:0:
284,86,135377,2,0,P|328:96|378:79,1,75,0|8,1:2|0:2,0:0:0:0:
398,73,135636,2,0,L|406:190,1,112.5,0|0,3:2|0:2,0:0:0:0:
413,229,135980,2,0,L|408:303,1,75,0|0,1:2|0:2,0:0:0:0:
405,349,136239,1,8,0:2:0:0:
323,311,136411,2,0,P|276:303|234:318,1,75,0|2,0:2|1:2,0:0:0:0:
170,351,136756,70,0,P|131:363|92:354,1,75,0|8,3:2|0:2,0:0:0:0:
66,324,137015,2,0,L|75:202,1,112.5,0|0,3:2|3:2,0:0:0:0:
82,166,137360,1,0,1:2:0:0:
168,209,137532,1,0,0:2:0:0:
168,209,137618,2,0,P|212:220|249:206,1,75,8|0,0:2|0:2,0:0:0:0:
281,195,137876,1,0,0:2:0:0:
281,195,137963,5,0,3:2:0:0:
253,109,138135,2,0,B|243:66|243:66|257:26,1,75,0|8,1:2|0:2,0:0:0:0:
339,10,138480,2,0,B|381:1|381:1|440:17,1,75,0|0,0:0|3:2,0:0:0:0:
453,26,138739,1,0,1:2:0:0:
453,26,138825,1,0,0:0:0:0:
480,111,138997,1,8,0:2:0:0:
445,194,139170,1,0,0:2:0:0:
390,122,139342,69,0,1:2:0:0:
390,122,139515,1,0,1:2:0:0:
319,178,139687,2,0,L|232:171,1,75,8|0,1:2|1:2,0:0:0:0:
166,218,140032,1,0,1:2:0:0:
166,218,140205,1,0,1:2:0:0:
217,291,140377,2,0,L|302:284,1,75,8|0,1:2|1:2,0:0:0:0:
374,247,140722,5,0,1:2:0:0:
374,247,140895,1,0,1:2:0:0:
333,166,141067,2,0,P|321:115|339:75,1,75,8|0,1:2|1:2,0:0:0:0:
389,30,141411,1,0,1:2:0:0:
389,30,141584,1,0,1:2:0:0:
456,89,141756,2,0,P|466:136|450:175,1,75,8|0,1:2|1:2,0:0:0:0:
401,231,142101,70,0,L|332:225,3,37.5,8|0|0|0,1:2|1:2|1:2|1:2,0:0:0:0:
327,200,142446,2,0,L|322:157,3,37.5,8|0|0|0,1:2|1:2|1:2|1:2,0:0:0:0:
330,118,142791,2,0,L|338:54,3,37.5,8|0|0|0,1:2|1:2|1:2|1:2,0:0:0:0:
311,41,143136,2,0,L|269:45,3,37.5,8|0|0|0,1:2|1:2|1:2|1:2,0:0:0:0:
230,34,143481,6,0,L|188:29,3,37.5,8|0|0|0,1:2|1:2|1:2|1:2,0:0:0:0:
148,19,143825,2,0,L|107:23,3,37.5,8|0|0|0,1:2|1:2|1:2|1:2,0:0:0:0:
68,5,144170,1,8,1:2:0:0:
57,94,144342,2,0,L|50:151,1,37.5,0|0,3:2|3:2,0:0:0:0:
47,176,144515,2,0,L|51:231,1,37.5,0|0,3:2|3:2,0:0:0:0:
52,258,144687,2,0,L|46:316,1,37.5,0|0,3:0|3:0,0:0:0:0:
44,340,144860,5,6,1:2:0:0:
