osu file format v14

[General]
AudioFilename: audio.mp3
AudioLeadIn: 0
PreviewTime: -1
Countdown: 0
SampleSet: Normal
StackLeniency: 0.7
Mode: 3
LetterboxInBreaks: 0
SpecialStyle: 0
WidescreenStoryboard: 0

[Editor]
DistanceSpacing: 1.8
BeatDivisor: 4
GridSize: 8
TimelineZoom: 1

[Metadata]
Title:-v--4+3!_.7-6r263W_8.%j
TitleUnicode:-v--4+3!_.7-6r263W_8.%j
Artist:Halley Labs
ArtistUnicode:Halley Labs
Creator:Hlimak
Version:%d)_4hC.-8nv_R?#
Source:
Tags:
BeatmapID:1911153
BeatmapSetID:915113

[Difficulty]
HPDrainRate:10
CircleSize:4
OverallDifficulty:10
ApproachRate:5
SliderMultiplier:1.4
SliderTickRate:1

[Events]
//Background and Video events
0,0,"^;ZoVV^94%V+5=L5~~A-~V+V!U.jpg",0,0
//Break Periods
//Storyboard Layer 0 (Background)
//Storyboard Layer 1 (Fail)
//Storyboard Layer 2 (Pass)
//Storyboard Layer 3 (Foreground)
//Storyboard Sound Samples

[TimingPoints]
-0.136363636363512,600,4,1,0,30,1,0

[HitObjects]
64,192,0,5,0,0:0:0:0:
192,192,599,1,0,0:0:0:0:
448,192,1199,128,0,2999:0:0:0:0:
320,192,2999,1,0,0:0:0:0:
64,192,3449,1,0,0:0:0:0:
192,192,3599,128,0,5399:0:0:0:0:
64,192,5399,1,0,0:0:0:0:
192,192,5699,1,0,0:0:0:0:
448,192,5999,1,0,0:0:0:0:
320,192,5999,128,0,7799:0:0:0:0:
192,192,7799,1,0,0:0:0:0:
448,192,8099,1,0,0:0:0:0:
64,192,8399,128,0,10199:0:0:0:0:
192,192,10199,1,0,0:0:0:0:
320,192,10199,1,0,0:0:0:0:
192,192,10499,1,0,0:0:0:0:
448,192,10499,1,0,0:0:0:0:
320,192,10799,1,0,0:0:0:0:
448,192,10799,128,0,12599:0:0:0:0:
64,192,11999,1,0,0:0:0:0:
320,192,12599,1,0,0:0:0:0:
192,192,12599,1,0,0:0:0:0:
448,192,12899,1,0,0:0:0:0:
320,192,12899,1,0,0:0:0:0:
64,192,13199,1,0,0:0:0:0:
192,192,13199,128,0,15599:0:0:0:0:
320,192,15599,128,0,17699:0:0:0:0:
448,192,15599,1,0,0:0:0:0:
448,192,17699,1,0,0:0:0:0:
192,192,17999,1,0,0:0:0:0:
64,192,17999,128,0,19799:0:0:0:0:
192,192,19799,1,0,0:0:0:0:
320,192,19799,1,0,0:0:0:0:
192,192,20099,1,0,0:0:0:0:
448,192,20099,1,0,0:0:0:0:
448,192,20399,1,0,0:0:0:0:
320,192,20399,128,0,22199:0:0:0:0:
448,192,22199,1,0,0:0:0:0:
192,192,22499,1,0,0:0:0:0:
320,192,22499,1,0,0:0:0:0:
64,192,22799,1,0,0:0:0:0:
192,192,22799,128,0,24599:0:0:0:0:
64,192,24599,1,0,0:0:0:0:
320,192,24899,1,0,0:0:0:0:
64,192,25199,128,0,26999:0:0:0:0:
320,192,26999,128,0,27449:0:0:0:0:
192,192,27449,1,0,0:0:0:0:
448,192,27599,128,0,29999:0:0:0:0:
320,192,29999,1,0,0:0:0:0:
448,192,30599,1,0,0:0:0:0:
64,192,30599,1,0,0:0:0:0:
320,192,30899,1,0,0:0:0:0:
192,192,30899,1,0,0:0:0:0:
192,192,31199,1,0,0:0:0:0:
64,192,31199,1,0,0:0:0:0:
64,192,31799,128,0,32699:0:0:0:0:
448,192,32699,1,0,0:0:0:0:
192,192,32699,1,0,0:0:0:0:
320,192,32999,1,0,0:0:0:0:
192,192,32999,1,0,0:0:0:0:
192,192,33299,1,0,0:0:0:0:
64,192,33299,1,0,0:0:0:0:
448,192,33599,1,0,0:0:0:0:
64,192,33599,1,0,0:0:0:0:
192,192,34199,128,0,34799:0:0:0:0:
320,192,34799,128,0,36599:0:0:0:0:
192,192,36599,1,0,0:0:0:0:
448,192,36749,1,0,0:0:0:0:
320,192,36899,1,0,0:0:0:0:
64,192,37049,1,0,0:0:0:0:
192,192,37199,128,0,40799:0:0:0:0:
192,192,37199,128,0,40799:0:0:0:0:
192,192,37199,128,0,40799:0:0:0:0:
192,192,37199,128,0,40799:0:0:0:0:
192,192,37199,128,0,40799:0:0:0:0:
192,192,37199,128,0,40799:0:0:0:0:
192,192,37199,128,0,40799:0:0:0:0:
192,192,37199,128,0,40799:0:0:0:0:
192,192,37199,128,0,40799:0:0:0:0:
192,192,37199,128,0,40799:0:0:0:0:
192,192,37199,128,0,40799:0:0:0:0:
192,192,37199,128,0,40799:0:0:0:0:
192,192,37199,128,0,40799:0:0:0:0:
