osu file format v14

[General]
AudioFilename: audio.mp3
AudioLeadIn: 0
PreviewTime: -1
Countdown: 0
SampleSet: Normal
StackLeniency: 0.7
Mode: 0
LetterboxInBreaks: 0
WidescreenStoryboard: 0

[Editor]
DistanceSpacing: 1
BeatDivisor: 4
GridSize: 16
TimelineZoom: 1.5

[Metadata]
Title:See the Sky
TitleUnicode:See the Sky
Artist:Haliene
ArtistUnicode:Haliene
Creator:Fuseka
Version:Insane
Source:
Tags:
BeatmapID:1294383
BeatmapSetID:613509

[Difficulty]
HPDrainRate:6
CircleSize:5
OverallDifficulty:8
ApproachRate:9.5
SliderMultiplier:1.4
SliderTickRate:1

[Events]
//Background and Video events
//Break Periods
2,118713,124388
//Storyboard Layer 0 (Background)
//Storyboard Layer 1 (Fail)
//Storyboard Layer 2 (Pass)
//Storyboard Layer 3 (Foreground)
//Storyboard Sound Samples

[TimingPoints]
3713,400.0004004004,4,1,0,100,1,0
16535,-100,4,1,0,100,0,0
34513,-133.333333333333,4,1,0,100,0,0
34517,-200,4,1,0,100,0,0
35313,-133.333333333333,4,1,0,100,0,0
36920,-100,4,1,0,100,0,0
41741,-100,4,1,0,100,0,0
54513,-100,4,1,0,100,0,1
80163,-100,4,1,0,100,0,0
92087,-200,4,1,0,100,0,0
93012,-100,4,1,0,100,0,0
105825,-100,4,1,0,100,0,0
124713,-133.333333333333,4,1,0,100,0,0
131113,-100,4,1,0,100,0,0
142425,-200,4,1,0,100,0,0
144113,-66.6666666666667,4,1,0,100,0,1
156113,-133.333333333333,4,1,0,100,0,0
156913,-66.6666666666667,4,1,0,100,0,0
168913,-133.333333333333,4,1,0,100,0,0
169713,-200,4,1,0,100,0,0

[HitObjects]
128,224,3712,6,0,P|176:208|208:208,1,70
288,144,4113,2,0,P|304:176|304:224,1,70
192,304,4513,1,0,0:0:0:0:
352,240,4713,1,0,0:0:0:0:
176,192,4913,2,0,P|176:144|176:112,1,70
288,48,5313,1,0,0:0:0:0:
288,48,5513,2,0,L|288:192,1,140
288,288,6513,6,0,P|256:272|208:272,1,70
64,304,6913,1,0,0:0:0:0:
64,304,7113,2,0,P|80:240|128:176,1,140
400,256,7913,6,0,P|368:224|368:176,1,70
384,48,8313,2,0,P|352:80|336:112,1,70
272,176,8713,2,0,L|128:144,1,140
112,272,9513,2,0,P|192:240|256:224,1,140
240,64,10113,6,0,L|288:128,1,70
160,160,10513,2,0,L|96:224,1,70
240,272,10913,1,0,0:0:0:0:
272,128,11113,1,0,0:0:0:0:
400,240,11313,2,0,L|304:240,1,70
272,240,11613,1,0,0:0:0:0:
224,240,11713,6,0,P|96:224|96:144,1,210
208,80,12513,1,0,0:0:0:0:
208,80,12713,2,0,P|192:176|96:256,1,210
272,80,13513,2,0,P|256:144|128:240,1,210
384,272,14313,2,0,P|336:288|224:272,1,140
256,192,14913,12,0,16313,0:0:0:0:
336,80,16513,6,0,L|320:160,1,70
320,256,16913,2,0,P|272:240|240:224,1,70
160,144,17313,1,0,0:0:0:0:
80,272,17513,1,0,0:0:0:0:
224,288,17713,6,0,L|256:224,1,70
352,80,18113,1,0,0:0:0:0:
352,80,18313,2,0,P|352:160|320:224,1,140
336,320,18913,2,0,P|288:320|256:304,1,70
96,240,19313,5,0,0:0:0:0:
96,240,19513,2,0,B|144:240|144:240|160:224,1,70
272,96,19913,2,0,P|304:144|272:240,1,140
192,320,20513,1,0,0:0:0:0:
288,224,20713,1,0,0:0:0:0:
112,192,20913,2,0,P|80:144|144:80,1,140
288,48,21513,1,0,0:0:0:0:
288,48,21713,6,0,P|288:112|240:192,1,140
128,288,22313,2,0,P|160:272|272:288,1,140
384,160,22913,6,0,L|304:160,1,70
272,160,23213,1,0,0:0:0:0:
224,160,23313,2,0,P|176:192|96:176,1,140
144,64,23913,1,0,0:0:0:0:
144,64,24113,2,0,L|144:160,2,70
160,288,24713,2,0,P|192:224|320:192,1,210
416,112,25513,5,0,0:0:0:0:
416,112,25713,2,0,L|288:192,1,140
240,256,26313,2,0,P|176:240|128:176,1,140
320,160,26913,1,0,0:0:0:0:
304,304,27113,2,0,L|320:160,2,140
96,160,28113,6,0,L|128:144,1,35
240,64,28313,2,0,P|256:112|208:224,1,175
112,240,28913,2,0,L|192:224,1,70
336,192,29313,5,0,0:0:0:0:
192,224,29513,1,0,0:0:0:0:
336,192,29713,1,0,0:0:0:0:
192,160,29913,1,0,0:0:0:0:
336,128,30113,1,0,0:0:0:0:
240,256,30313,5,0,0:0:0:0:
144,144,30513,1,0,0:0:0:0:
112,272,30713,1,0,0:0:0:0:
224,176,30913,1,0,0:0:0:0:
64,208,31113,1,0,0:0:0:0:
208,272,31313,5,0,0:0:0:0:
176,128,31513,1,0,0:0:0:0:
336,208,31713,1,0,0:0:0:0:
304,64,31913,1,0,0:0:0:0:
256,192,32113,6,0,P|208:240|192:256,1,70
96,224,32513,1,0,0:0:0:0:
96,224,32713,2,0,P|64:176|112:96,1,140
176,64,33313,1,0,0:0:0:0:
176,64,33513,2,0,L|208:144,1,70
288,256,33913,2,0,P|352:240|352:160,1,140
192,64,34513,5,0,0:0:0:0:
192,64,34713,2,0,L|192:144,1,70
160,336,35313,2,0,P|160:288|176:208,1,105.000004005432
224,96,35913,2,0,P|208:144|256:192,1,105.000004005432
352,208,36513,6,0,B|384:224|384:224|368:256|288:304,1,157.500006008148
48,208,37313,2,0,L|144:192,1,70
304,176,37713,1,0,0:0:0:0:
208,64,37913,2,0,L|176:128,1,70
208,304,38313,2,0,L|304:288,1,70
416,256,38713,5,0,0:0:0:0:
304,160,38913,1,0,0:0:0:0:
304,272,39113,1,0,0:0:0:0:
416,160,39313,1,0,0:0:0:0:
208,96,39513,1,0,0:0:0:0:
160,320,39713,1,0,0:0:0:0:
416,64,39913,1,0,0:0:0:0:
256,192,40113,12,0,41513,0:0:0:0:
160,128,41713,6,0,L|144:208,1,70
240,272,42113,2,0,L|256:192,1,70
128,96,42513,2,0,L|112:176,1,70
320,272,42913,2,0,L|304:176,1,70
144,96,43313,1,0,0:0:0:0:
224,240,43513,1,0,0:0:0:0:
416,192,43713,6,0,L|352:160,1,70
192,320,44113,2,0,L|256:256,1,70
192,48,44513,2,0,L|176:128,1,70
128,272,44913,1,0,0:0:0:0:
304,240,45113,1,0,0:0:0:0:
144,192,45313,1,0,0:0:0:0:
320,160,45513,1,0,0:0:0:0:
192,320,45713,1,0,0:0:0:0:
160,128,45913,1,0,0:0:0:0:
320,320,46113,5,0,0:0:0:0:
240,96,46313,1,0,0:0:0:0:
224,288,46513,5,0,0:0:0:0:
336,160,46713,1,0,0:0:0:0:
80,224,46913,1,0,0:0:0:0:
336,96,47113,1,0,0:0:0:0:
336,320,47313,1,0,0:0:0:0:
112,96,47513,1,0,0:0:0:0:
192,320,47713,1,0,0:0:0:0:
304,80,47913,1,0,0:0:0:0:
144,176,48113,5,0,0:0:0:0:
208,240,48313,1,0,0:0:0:0:
80,160,48513,1,0,0:0:0:0:
304,208,48713,1,0,0:0:0:0:
96,240,48913,1,0,0:0:0:0:
352,112,49113,1,0,0:0:0:0:
160,320,49313,1,0,0:0:0:0:
256,48,49513,1,0,0:0:0:0:
400,240,49713,1,0,0:0:0:0:
96,256,49913,1,0,0:0:0:0:
432,80,50113,1,0,0:0:0:0:
48,160,50313,1,0,0:0:0:0:
448,272,50513,1,0,0:0:0:0:
96,32,50713,1,0,0:0:0:0:
352,336,50913,1,0,0:0:0:0:
368,32,51113,1,0,0:0:0:0:
48,208,51313,5,0,0:0:0:0:
32,240,51413,1,0,0:0:0:0:
32,272,51513,1,0,0:0:0:0:
48,304,51613,1,0,0:0:0:0:
80,320,51713,1,0,0:0:0:0:
112,304,51813,1,0,0:0:0:0:
144,288,51913,1,0,0:0:0:0:
160,256,52013,1,0,0:0:0:0:
160,224,52113,1,0,0:0:0:0:
160,192,52213,1,0,0:0:0:0:
176,160,52313,1,0,0:0:0:0:
208,144,52413,1,0,0:0:0:0:
240,144,52513,1,0,0:0:0:0:
272,160,52613,1,0,0:0:0:0:
304,176,52713,1,0,0:0:0:0:
320,208,52813,1,0,0:0:0:0:
336,240,52913,1,0,0:0:0:0:
368,224,54513,6,0,B|304:192|304:192|272:224|240:224,1,140
96,256,55113,1,0,0:0:0:0:
112,128,55313,2,0,L|144:160,1,35
272,288,55513,1,0,0:0:0:0:
192,224,55713,2,0,B|208:176|208:176|240:192|288:144,1,140
352,64,56313,5,0,0:0:0:0:
384,240,56513,1,0,0:0:0:0:
224,144,56713,1,0,0:0:0:0:
416,144,56913,2,0,L|384:176,1,35
256,304,57113,1,0,0:0:0:0:
160,96,57313,1,0,0:0:0:0:
80,288,57513,1,0,0:0:0:0:
272,192,57713,6,0,B|208:192|192:160|192:160|160:208,1,140
144,336,58313,1,0,0:0:0:0:
368,240,58513,2,0,L|336:224,1,35
160,112,58713,1,0,0:0:0:0:
416,112,58913,2,0,B|368:144|320:128|320:128|272:160,1,140
128,256,59513,5,0,0:0:0:0:
368,256,59713,1,0,0:0:0:0:
224,144,59913,1,0,0:0:0:0:
64,304,60113,2,0,L|80:256,1,35
112,48,60313,1,0,0:0:0:0:
208,288,60513,1,0,0:0:0:0:
416,96,60713,1,0,0:0:0:0:
192,112,60913,5,0,0:0:0:0:
192,112,61013,1,0,0:0:0:0:
192,112,61113,2,0,B|192:160|192:160|224:176,1,70
352,240,61513,1,0,0:0:0:0:
352,144,61713,1,0,0:0:0:0:
144,272,61913,1,0,0:0:0:0:
272,320,62113,2,0,B|256:272|288:256|288:256|256:192,1,140
192,80,62713,5,0,0:0:0:0:
128,160,62913,1,0,0:0:0:0:
352,144,63113,1,0,0:0:0:0:
240,320,63313,2,0,L|240:272,1,35
240,144,63513,1,0,0:0:0:0:
416,256,63713,1,0,0:0:0:0:
160,208,63913,1,0,0:0:0:0:
352,80,64113,2,0,B|304:96|288:128|288:128|304:176|304:176|288:192,1,140
176,288,64713,5,0,0:0:0:0:
80,176,64913,2,0,B|128:160|144:160|144:160|160:160,1,70
320,288,65313,6,0,B|240:320|240:320|208:272|224:240,1,140
208,112,65913,5,0,0:0:0:0:
288,96,66313,1,0,0:0:0:0:
384,64,66713,5,0,0:0:0:0:
384,80,66813,1,0,0:0:0:0:
384,96,66913,1,0,0:0:0:0:
384,112,67013,1,0,0:0:0:0:
384,128,67113,1,0,0:0:0:0:
384,144,67213,1,0,0:0:0:0:
384,160,67313,6,0,B|368:208|368:208|320:224|288:272,1,140
160,320,67913,1,0,0:0:0:0:
160,160,68113,2,0,L|128:144,1,35
352,272,68313,1,0,0:0:0:0:
288,96,68513,6,0,B|352:64|352:64|384:96|432:96,1,140
144,96,69113,1,0,0:0:0:0:
272,256,69313,1,0,0:0:0:0:
304,128,69513,2,0,L|352:112,1,35
32,176,69713,1,0,0:0:0:0:
272,256,69913,1,0,0:0:0:0:
176,64,70113,1,0,0:0:0:0:
144,304,70313,1,0,0:0:0:0:
320,112,70513,6,0,B|288:144|288:144|288:176|288:176|208:208,1,140
48,224,71113,1,0,0:0:0:0:
304,272,71313,2,0,L|352:288,1,35
160,240,71513,1,0,0:0:0:0:
416,192,71713,6,0,P|448:176|400:96,1,140
432,288,72313,1,0,0:0:0:0:
320,160,72513,1,0,0:0:0:0:
320,304,72713,2,0,L|304:272,1,35
192,96,72913,1,0,0:0:0:0:
208,304,73113,1,0,0:0:0:0:
80,48,73313,1,0,0:0:0:0:
112,336,73513,1,0,0:0:0:0:
64,176,73713,6,0,B|128:176|144:160|144:160|128:208|176:176,1,140
384,192,74313,1,0,0:0:0:0:
192,64,74513,1,0,0:0:0:0:
192,64,74613,1,0,0:0:0:0:
192,64,74713,1,0,0:0:0:0:
208,256,74913,2,0,B|208:304|240:336|240:336|288:320|304:320,1,140
448,256,75513,5,0,0:0:0:0:
289,321,75713,1,0,0:0:0:0:
368,80,75913,1,0,0:0:0:0:
368,80,76013,1,0,0:0:0:0:
368,80,76113,1,0,0:0:0:0:
288,320,76313,1,0,0:0:0:0:
64,288,76513,1,0,0:0:0:0:
256,128,76713,1,0,0:0:0:0:
288,320,76913,2,0,B|288:272|272:240|272:240|208:224,1,140
80,160,77513,5,0,0:0:0:0:
224,224,77713,1,0,0:0:0:0:
224,224,77813,1,0,0:0:0:0:
224,224,77913,1,0,0:0:0:0:
208,48,78113,2,0,B|144:128|144:128|160:176|128:304,1,280
128,303,79313,1,0,0:0:0:0:
176,240,80113,5,0,0:0:0:0:
176,240,80513,2,0,P|224:192|240:176,1,70
352,64,80913,1,0,0:0:0:0:
352,64,81313,6,0,B|368:112|368:112|352:128|352:224,2,140
384,288,82513,2,0,B|320:288|320:288|272:320|224:288,1,140
80,288,83313,2,0,P|64:240|128:176,1,140
128,176,84113,1,0,0:0:0:0:
192,80,84513,6,0,B|256:112|256:112|160:224|272:288,1,280
144,288,85513,1,0,0:0:0:0:
320,192,85713,1,0,0:0:0:0:
320,192,85913,2,0,P|384:208|400:288,1,140
320,192,86513,2,0,P|256:192|192:144,1,140
128,64,87113,1,0,0:0:0:0:
288,112,87313,6,0,L|192:240,1,140
208,224,87913,2,0,P|256:224|400:304,1,210
208,224,88713,1,0,0:0:0:0:
208,224,88913,2,0,P|128:208|160:160,1,140
208,64,89513,6,0,L|240:96,1,35
336,192,89713,1,0,0:0:0:0:
352,80,89913,2,0,P|400:128|416:144,1,70
272,288,90313,2,0,L|352:256,1,70
448,192,90713,1,0,0:0:0:0:
352,320,90913,6,0,P|304:240|448:192,1,280
416,272,91913,1,0,0:0:0:0:
416,272,92113,6,0,L|320:224,1,105
224,176,92913,1,0,0:0:0:0:
320,224,93113,1,0,0:0:0:0:
208,208,93313,1,0,0:0:0:0:
320,176,93513,1,0,0:0:0:0:
224,256,93713,1,0,0:0:0:0:
272,128,93913,1,0,0:0:0:0:
288,256,94113,6,0,L|320:320,2,70
240,176,94713,1,0,0:0:0:0:
176,256,94913,1,0,0:0:0:0:
304,272,95113,1,0,0:0:0:0:
176,192,95313,1,0,0:0:0:0:
256,320,95513,1,0,0:0:0:0:
304,208,95713,1,0,0:0:0:0:
304,208,95913,1,0,0:0:0:0:
160,288,96113,6,0,P|112:272|96:256,1,70
208,96,96513,1,0,0:0:0:0:
208,96,96713,2,0,P|224:144|192:240,1,140
112,160,97313,1,0,0:0:0:0:
112,160,97513,2,0,P|160:160|192:176,1,70
352,272,97913,2,0,P|320:224|320:144,1,140
192,80,98513,5,0,0:0:0:0:
192,80,98713,2,0,L|192:224,1,140
368,288,99313,6,0,P|320:256|208:224,1,175
256,320,99913,2,0,P|288:224|288:144,1,175
368,176,100513,2,0,P|352:80|208:192,1,350
288,272,101713,5,0,0:0:0:0:
288,272,101913,2,0,L|192:256,1,70
64,256,102313,2,0,P|112:224|144:144,1,140
176,240,102913,1,0,0:0:0:0:
144,160,103113,1,0,0:0:0:0:
272,208,103313,1,0,0:0:0:0:
224,144,103513,1,0,0:0:0:0:
336,176,103713,1,0,0:0:0:0:
304,80,103913,5,0,0:0:0:0:
304,80,104013,1,0,0:0:0:0:
304,80,104113,2,0,L|304:160,1,70
304,272,104513,1,0,0:0:0:0:
304,272,104613,1,0,0:0:0:0:
304,272,104713,2,0,P|224:304|160:272,1,140
160,80,105313,1,0,0:0:0:0:
160,80,105513,1,0,0:0:0:0:
176,208,105713,6,0,L|256:192,1,70
384,160,106113,1,0,0:0:0:0:
384,160,106313,2,0,L|288:288,1,140
128,304,106913,1,0,0:0:0:0:
128,304,107113,2,0,L|144:224,1,70
208,112,107513,1,0,0:0:0:0:
368,256,107713,6,0,P|368:192|320:112,1,140
208,64,108313,2,0,P|208:128|240:208,1,140
304,304,108913,1,0,0:0:0:0:
304,304,109113,2,0,L|208:288,1,70
96,208,109513,1,0,0:0:0:0:
224,288,109713,1,0,0:0:0:0:
208,80,109913,1,0,0:0:0:0:
176,176,110113,1,0,0:0:0:0:
176,176,110213,1,0,0:0:0:0:
176,176,110313,1,0,0:0:0:0:
352,224,110513,5,0,0:0:0:0:
352,224,110713,2,0,L|384:160,1,70
320,96,111113,2,0,L|288:160,1,70
192,288,111513,6,0,P|160:272|144:240,1,70
96,144,111913,1,0,0:0:0:0:
240,144,112113,5,0,0:0:0:0:
240,144,112213,1,0,0:0:0:0:
240,144,112313,2,0,L|208:64,1,70
368,224,112713,2,0,L|400:320,1,70
480,272,113113,1,0,0:0:0:0:
320,336,113313,2,0,P|256:320|240:304,1,70
208,176,113713,2,0,P|256:192|288:224,1,70
112,304,114113,6,0,P|80:240|112:176,1,140
208,112,114713,1,0,0:0:0:0:
208,240,114913,1,0,0:0:0:0:
208,240,115013,1,0,0:0:0:0:
208,240,115113,2,0,L|288:208,1,70
368,112,115513,2,0,L|288:128,1,70
176,64,115913,5,0,0:0:0:0:
256,160,116113,1,0,0:0:0:0:
256,160,116213,1,0,0:0:0:0:
256,160,116313,2,0,L|272:256,1,70
304,320,116713,5,0,0:0:0:0:
304,320,116913,2,0,L|224:304,1,70
160,112,117313,2,0,L|160:256,1,140
256,320,117913,1,0,0:0:0:0:
272,64,118113,2,0,L|272:160,2,70
240,192,124913,6,0,B|256:160|256:160|288:224|288:224|208:224,2,183.750007009506
256,192,126513,12,0,130913,0:0:0:0:
128,128,131113,5,0,0:0:0:0:
128,128,131213,1,0,0:0:0:0:
128,128,131313,2,0,L|160:160,1,26.2500010013581
256,256,131513,2,0,P|272:224|275:211,1,26.2500010013581
304,112,131713,1,0,0:0:0:0:
336,96,131813,1,0,0:0:0:0:
368,112,131913,1,0,0:0:0:0:
384,144,132013,1,0,0:0:0:0:
384,176,132113,6,0,L|384:224,1,26.2500010013581
368,336,132313,2,0,L|336:320,1,26.2500010013581
224,256,132513,2,0,L|176:272,1,26.2500010013581
80,176,132713,1,0,0:0:0:0:
112,160,132813,1,0,0:0:0:0:
144,160,132913,2,0,L|192:160,1,26.2500010013581
304,176,133113,2,0,L|336:176,1,26.2500010013581
256,64,133313,6,0,L|240:96,1,26.2500010013581
208,256,133513,2,0,L|240:224,1,26.2500010013581
352,176,133713,1,0,0:0:0:0:
384,160,133813,1,0,0:0:0:0:
384,128,133913,1,0,0:0:0:0:
368,96,134013,1,0,0:0:0:0:
336,80,134113,6,0,L|288:96,1,26.2500010013581
208,208,134313,2,0,L|240:192,1,26.2500010013581
112,96,134513,2,0,L|128:128,1,26.2500010013581
144,160,134713,1,0,0:0:0:0:
160,192,134813,1,0,0:0:0:0:
160,240,134913,1,0,0:0:0:0:
144,288,135013,1,0,0:0:0:0:
112,320,135113,6,0,L|80:336,1,26.2500010013581
240,272,135313,2,0,L|272:288,1,26.2500010013581
192,96,135513,2,0,L|192:128,1,26.2500010013581
336,208,135713,2,0,L|368:208,1,26.2500010013581
160,240,135913,2,0,L|192:208,1,26.2500010013581
272,128,136113,1,0,0:0:0:0:
304,112,136213,1,0,0:0:0:0:
352,112,136313,1,0,0:0:0:0:
400,144,136413,1,0,0:0:0:0:
416,192,136513,6,0,L|400:240,1,26.2500010013581
224,304,136713,1,0,0:0:0:0:
208,256,136813,1,0,0:0:0:0:
224,208,136913,1,0,0:0:0:0:
224,144,137013,1,0,0:0:0:0:
192,96,137113,2,0,L|144:96,1,26.2500010013581
336,256,137313,2,0,L|384:272,1,26.2500010013581
304,80,137513,2,0,L|288:112,1,26.2500010013581
160,336,137713,2,0,L|128:304,1,26.2500010013581
64,224,137913,5,0,0:0:0:0:
208,208,138113,1,0,0:0:0:0:
48,272,138313,1,0,0:0:0:0:
224,144,138513,1,0,0:0:0:0:
48,192,138713,1,0,0:0:0:0:
304,256,138913,1,0,0:0:0:0:
64,288,139113,1,0,0:0:0:0:
336,144,139313,1,0,0:0:0:0:
80,144,139513,1,0,0:0:0:0:
416,272,139713,1,0,0:0:0:0:
64,288,139913,1,0,0:0:0:0:
416,176,140113,1,0,0:0:0:0:
48,208,140313,1,0,0:0:0:0:
464,112,140513,1,0,0:0:0:0:
32,128,140713,1,0,0:0:0:0:
448,256,140913,5,0,0:0:0:0:
432,240,141013,1,0,0:0:0:0:
416,224,141113,1,0,0:0:0:0:
384,224,141213,1,0,0:0:0:0:
352,256,141313,1,0,0:0:0:0:
304,272,141413,1,0,0:0:0:0:
240,272,141513,1,0,0:0:0:0:
192,240,141613,1,0,0:0:0:0:
176,192,141713,1,0,0:0:0:0:
176,144,141813,1,0,0:0:0:0:
224,96,141913,1,0,0:0:0:0:
288,96,142013,1,0,0:0:0:0:
336,128,142113,1,0,0:0:0:0:
352,192,142213,1,0,0:0:0:0:
320,256,142313,1,0,0:0:0:0:
256,304,142413,1,0,0:0:0:0:
176,320,142513,6,0,L|128:320,1,35
80,192,142913,1,0,0:0:0:0:
80,192,143113,2,0,L|192:208,1,105
432,256,143913,1,0,0:0:0:0:
256,224,144113,6,0,P|224:272|240:176,1,315.000012016297
384,176,144813,1,0,0:0:0:0:
384,176,144913,2,0,L|272:112,1,105.000004005432
128,64,145313,6,0,B|112:128|112:128|160:128|192:256,1,210.000008010865
96,320,145913,1,0,0:0:0:0:
352,144,146113,1,0,0:0:0:0:
320,304,146313,1,0,0:0:0:0:
208,64,146513,1,0,0:0:0:0:
208,64,146613,1,0,0:0:0:0:
208,64,146713,1,0,0:0:0:0:
112,192,146913,1,0,0:0:0:0:
400,160,147113,1,0,0:0:0:0:
320,304,147313,6,0,B|272:256|272:256|240:320|128:320|112:304,1,210.000008010865
320,128,147913,1,0,0:0:0:0:
112,192,148113,1,0,0:0:0:0:
112,192,148213,1,0,0:0:0:0:
112,192,148313,1,0,0:0:0:0:
224,80,148513,6,0,B|224:192|224:192|272:176|336:256,1,210.000008010865
368,272,149113,1,0,0:0:0:0:
224,240,149313,1,0,0:0:0:0:
384,112,149513,1,0,0:0:0:0:
128,304,149713,2,0,L|192:288,1,52.5000020027161
448,272,149913,1,0,0:0:0:0:
144,128,150113,1,0,0:0:0:0:
480,192,150313,1,0,0:0:0:0:
272,48,150513,6,0,B|240:112|256:144|256:144|304:144|272:256,1,210.000008010865
384,96,151113,1,0,0:0:0:0:
160,256,151313,1,0,0:0:0:0:
160,256,151413,1,0,0:0:0:0:
160,256,151513,1,0,0:0:0:0:
160,48,151713,6,0,B|224:64|224:128|224:128|304:208,1,210.000008010865
432,304,152313,2,0,L|400:240,1,52.5000020027161
336,128,152513,1,0,0:0:0:0:
288,288,152713,1,0,0:0:0:0:
448,208,152913,1,0,0:0:0:0:
448,208,153013,1,0,0:0:0:0:
448,208,153113,1,0,0:0:0:0:
208,192,153313,1,0,0:0:0:0:
320,80,153513,1,0,0:0:0:0:
320,304,153713,6,0,B|288:256|288:256|256:288|160:320|128:240,1,210.000008010865
128,96,154313,1,0,0:0:0:0:
240,208,154513,1,0,0:0:0:0:
240,208,154613,1,0,0:0:0:0:
240,208,154713,2,0,L|288:160,1,52.5000020027161
416,48,154913,6,0,B|384:96|368:96|368:96|432:192|368:240,1,210.000008010865
224,304,155513,1,0,0:0:0:0:
368,224,155713,1,0,0:0:0:0:
144,208,155913,1,0,0:0:0:0:
368,224,156113,6,0,P|400:224|352:160,1,157.500006008148
240,144,156913,6,0,P|176:144|256:96,1,210.000008010865
432,160,157513,1,0,0:0:0:0:
256,256,157713,1,0,0:0:0:0:
144,64,157913,1,0,0:0:0:0:
256,256,158113,2,0,B|288:304|288:304|320:256,1,105.000004005432
400,80,158513,1,0,0:0:0:0:
128,192,158713,1,0,0:0:0:0:
448,176,158913,1,0,0:0:0:0:
96,96,159113,1,0,0:0:0:0:
464,64,159313,6,0,L|432:112,1,52.5000020027161
272,288,159513,1,0,0:0:0:0:
240,80,159713,1,0,0:0:0:0:
352,288,159913,1,0,0:0:0:0:
96,112,160113,6,0,B|144:144|144:208|144:208|208:192|240:192,1,210.000008010865
432,160,160713,2,0,L|400:208,1,52.5000020027161
320,320,160913,1,0,0:0:0:0:
320,320,161013,1,0,0:0:0:0:
320,320,161113,1,0,0:0:0:0:
256,64,161313,6,0,B|256:128|224:144|224:144|256:176|256:176|192:256,1,210.000008010865
112,288,161913,1,0,0:0:0:0:
160,192,162113,1,0,0:0:0:0:
224,272,162313,1,0,0:0:0:0:
64,192,162513,1,0,0:0:0:0:
256,32,162713,2,0,L|272:96,1,52.5000020027161
336,352,162913,1,0,0:0:0:0:
128,96,163113,1,0,0:0:0:0:
448,176,163313,5,0,0:0:0:0:
448,176,163413,1,0,0:0:0:0:
448,176,163513,2,0,B|464:240|480:256|480:256|416:256,1,105.000004005432
256,288,163913,1,0,0:0:0:0:
112,128,164113,2,0,L|160:96,1,52.5000020027161
288,32,164313,1,0,0:0:0:0:
288,32,164413,1,0,0:0:0:0:
288,32,164513,6,0,B|320:80|320:80|320:128|240:224,1,210.000008010865
144,320,165113,2,0,L|128:256,1,52.5000020027161
80,128,165313,1,0,0:0:0:0:
256,112,165513,1,0,0:0:0:0:
400,208,165713,2,0,L|416:272,1,52.5000020027161
224,288,165913,2,0,L|256:240,1,52.5000020027161
352,80,166113,5,0,0:0:0:0:
352,80,166213,1,0,0:0:0:0:
352,80,166313,2,0,L|288:80,1,52.5000020027161
80,112,166513,6,0,B|80:192|128:208|128:208|176:192|256:208,1,210.000008010865
400,208,167113,1,0,0:0:0:0:
96,320,167313,1,0,0:0:0:0:
224,64,167513,1,0,0:0:0:0:
352,304,167713,1,0,0:0:0:0:
352,304,167813,1,0,0:0:0:0:
352,304,167913,6,0,B|304:272|304:224|304:224|272:224|336:128,2,210.000008010865
400,192,168913,5,0,0:0:0:0:
400,192,169113,2,0,L|288:192,1,105.000004005432
128,272,169713,6,0,P|112:224|112:192,1,70
160,64,170313,2,0,L|176:80,1,17.5
272,176,170513,1,0,0:0:0:0:
272,176,170913,6,0,P|336:176|304:128,1,140
320,128,172113,1,0,0:0:0:0:
320,128,172913,6,0,B|288:192|288:192|320:192|320:256,1,140
208,288,174113,2,0,P|160:256|192:192,1,140
400,192,175313,5,0,0:0:0:0:
400,192,175513,2,0,B|368:192|352:208|352:208|320:208,1,70
128,96,176113,2,0,P|176:112|192:192,1,140
160,336,177313,2,0,B|224:320|208:304|208:304|240:224,1,140
256,176,178513,1,0,0:0:0:0:
416,208,179313,6,0,P|368:240|304:192,1,140
320,112,180513,2,0,P|224:96|224:192,1,210
384,272,182513,2,0,P|368:240|272:192,1,140
336,80,183713,2,0,B|336:128|336:128|352:144|352:160|336:224,1,140
336,224,184913,5,0,0:0:0:0:
176,256,185113,1,0,0:0:0:0:
288,320,185313,1,0,0:0:0:0:
240,64,185513,1,0,0:0:0:0:
64,240,185713,2,0,B|96:224|96:224|144:224,1,70
368,224,186313,1,0,0:0:0:0:
368,224,186413,1,0,0:0:0:0:
368,224,186513,2,0,L|320:240,1,35
160,336,186913,6,0,B|176:288|224:256|224:256|176:240|192:192,1,175
208,96,188113,1,0,0:0:0:0:
272,208,188313,1,0,0:0:0:0:
128,272,188513,1,0,0:0:0:0:
368,96,188713,1,0,0:0:0:0:
368,320,188913,6,0,B|352:288|384:256|384:256|336:192,1,140
176,112,190113,2,0,P|160:160|176:224,1,105
384,256,190913,2,0,L|352:240,1,35
176,160,191313,5,0,0:0:0:0:
336,224,191513,1,0,0:0:0:0:
80,272,191713,1,0,0:0:0:0:
384,80,191913,1,0,0:0:0:0:
384,80,192013,1,0,0:0:0:0:
384,80,192113,2,0,P|336:96|256:160,1,140
160,304,193313,6,0,P|192:272|288:256,1,140
416,272,194513,1,0,0:0:0:0:
112,112,195313,5,0,0:0:0:0:
