osu file format v14

[General]
AudioFilename: audio.mp3
AudioLeadIn: 0
PreviewTime: -1
Countdown: 1
SampleSet: Normal
StackLeniency: 0.7
Mode: 0
LetterboxInBreaks: 0
WidescreenStoryboard: 0

[Editor]
DistanceSpacing: 1
BeatDivisor: 4
GridSize: 8
TimelineZoom: 1

[Metadata]
Title:Budi budi uvijek srecna
TitleUnicode:Budi budi uvijek srecna
Artist:Halid Beslic
ArtistUnicode:Халид бешлић
Creator:Skum
Version:de me nadje
Source:
Tags:
BeatmapID:926628
BeatmapSetID:429457

[Difficulty]
HPDrainRate:5
CircleSize:5
OverallDifficulty:7
ApproachRate:9
SliderMultiplier:1.3
SliderTickRate:2

[Events]
//Background and Video events
//Break Periods
2,28120,32167
//Storyboard Layer 0 (Background)
//Storyboard Layer 1 (Fail)
//Storyboard Layer 2 (Pass)
//Storyboard Layer 3 (Foreground)
//Storyboard Sound Samples

[TimingPoints]
13377.5853658537,365.853658536585,4,1,0,100,1,0

[HitObjects]
96,112,13117,5,0,0:0:0:0:
184,144,13302,1,0,0:0:0:0:
184,144,13395,1,0,0:0:0:0:
184,144,13487,1,0,0:0:0:0:
328,152,13673,1,0,0:0:0:0:
328,152,13765,1,0,0:0:0:0:
328,152,13858,1,0,0:0:0:0:
312,48,14043,2,0,P|200:144|240:232,1,260
304,264,14930,1,0,0:0:0:0:
128,160,15082,1,0,0:0:0:0:
128,160,15175,1,0,0:0:0:0:
128,160,15267,1,0,0:0:0:0:
208,96,15436,1,0,0:0:0:0:
256,184,15689,2,0,B|160:288|24:200|32:208,1,227.5
248,64,16543,2,0,B|344:248|248:200|272:216,1,162.5
256,248,17099,1,0,0:0:0:0:
128,216,17284,1,0,0:0:0:0:
128,216,17376,1,0,0:0:0:0:
128,216,17469,1,0,0:0:0:0:
344,80,17654,1,0,0:0:0:0:
264,144,17839,1,0,0:0:0:0:
352,208,18025,1,0,0:0:0:0:
256,304,18210,2,0,L|224:264,1,32.5
184,216,18395,5,0,0:0:0:0:
176,184,18580,1,0,0:0:0:0:
168,160,18765,1,0,0:0:0:0:
160,136,18950,1,0,0:0:0:0:
144,152,19876,1,0,0:0:0:0:
240,96,20062,1,0,0:0:0:0:
240,96,20155,1,0,0:0:0:0:
240,96,20247,1,0,0:0:0:0:
296,200,20408,1,0,0:0:0:0:
368,288,20576,1,0,0:0:0:0:
432,208,20745,1,0,0:0:0:0:
376,136,20914,1,0,0:0:0:0:
32,184,21503,2,0,B|88:136|104:120|96:128,1,65
168,136,21841,2,0,L|224:208,1,65
304,200,22178,2,0,L|352:128,1,65
344,104,22515,5,0,0:0:0:0:
240,80,22753,1,0,0:0:0:0:
240,80,22837,1,0,0:0:0:0:
240,80,22922,1,0,0:0:0:0:
96,88,23089,2,0,B|128:256|112:216,1,130
168,264,23595,1,0,0:0:0:0:
272,312,23804,1,0,0:0:0:0:
240,152,23987,1,0,0:0:0:0:
360,264,24170,1,0,0:0:0:0:
256,56,24353,1,0,0:0:0:0:
256,56,24444,1,0,0:0:0:0:
256,56,24536,1,0,0:0:0:0:
80,144,24719,2,0,L|120:216,1,65
200,208,25084,2,0,L|248:144,1,65
328,152,25450,2,0,L|368:224,1,65
344,296,25816,1,0,0:0:0:0:
256,192,26548,12,0,27920,0:0:0:0:
112,88,32767,5,0,0:0:0:0:
136,200,32950,1,0,0:0:0:0:
136,200,33041,1,0,0:0:0:0:
136,200,33133,1,0,0:0:0:0:
208,88,33316,1,0,0:0:0:0:
240,200,33499,1,0,0:0:0:0:
240,200,33590,1,0,0:0:0:0:
240,200,33682,1,0,0:0:0:0:
336,96,33865,1,0,0:0:0:0:
368,216,34231,1,0,0:0:0:0:
176,280,34414,1,0,0:0:0:0:
168,264,34505,1,0,0:0:0:0:
160,248,34597,1,0,0:0:0:0:
152,232,34688,1,0,0:0:0:0:
144,216,34780,1,0,0:0:0:0:
136,200,34871,1,0,0:0:0:0:
128,184,34962,1,0,0:0:0:0:
128,96,35145,1,0,0:0:0:0:
272,80,35420,2,0,B|352:192|264:264|304:240,1,162.5
184,288,36060,2,0,B|64:200|64:144|72:144,1,162.5
144,104,36700,1,0,0:0:0:0:
256,72,36883,5,0,0:0:0:0:
256,72,36974,1,0,0:0:0:0:
256,72,37066,1,0,0:0:0:0:
280,192,37249,1,0,0:0:0:0:
376,136,37432,1,0,0:0:0:0:
344,272,37615,1,0,0:0:0:0:
240,328,37981,2,0,P|48:240|40:160,1,292.5
232,184,39261,1,0,0:0:0:0:
232,184,39352,1,0,0:0:0:0:
232,184,39444,1,0,0:0:0:0:
136,112,39628,1,0,0:0:0:0:
320,256,39810,1,0,0:0:0:0:
312,104,39993,1,0,0:0:0:0:
136,256,40176,1,0,0:0:0:0:
144,80,40633,1,0,0:0:0:0:
144,80,40725,1,0,0:0:0:0:
144,80,40816,1,0,0:0:0:0:
216,160,40999,1,0,0:0:0:0:
216,160,41091,1,0,0:0:0:0:
216,160,41182,1,0,0:0:0:0:
296,80,41365,1,0,0:0:0:0:
312,104,41548,1,0,0:0:0:0:
328,128,41731,1,0,0:0:0:0:
344,160,41914,1,0,0:0:0:0:
360,192,42097,1,0,0:0:0:0:
352,304,42462,2,0,B|248:336|272:328,1,65
248,320,42828,2,0,L|192:288,1,65
112,240,43194,1,0,0:0:0:0:
64,160,43377,1,0,0:0:0:0:
64,160,43468,1,0,0:0:0:0:
64,168,43560,1,0,0:0:0:0:
