osu file format v14

[General]
AudioFilename: Halford - Silent Screams.mp3
AudioLeadIn: 0
PreviewTime: 0
Countdown: 1
SampleSet: Normal
StackLeniency: 0.2
Mode: 0
LetterboxInBreaks: 0
WidescreenStoryboard: 0

[Editor]
DistanceSpacing: 1.6
BeatDivisor: 8
GridSize: 8
TimelineZoom: 2.799999

[Metadata]
Title:TAGSilent Screams
TitleUnicode:TAGSilent Screams
Artist:Halford
ArtistUnicode:Halford
Creator:Pereusmams
Version:Insane
Source:
Tags:
BeatmapID:1590233
BeatmapSetID:755509

[Difficulty]
HPDrainRate:6
CircleSize:4
OverallDifficulty:6
ApproachRate:8
SliderMultiplier:1.4
SliderTickRate:1

[Events]
//Background and Video events
0,0,"art-yuumei-devushka-lenta-ruki.jpg",0,0
//Break Periods
//Storyboard Layer 0 (Background)
//Storyboard Layer 1 (Fail)
//Storyboard Layer 2 (Pass)
//Storyboard Layer 3 (Foreground)
//Storyboard Sound Samples

[TimingPoints]
387,535.714285714286,4,1,0,65,1,0
85029,-66.6666666666667,4,1,0,65,0,0
86101,535.714285714286,4,1,0,65,1,1
86101,-66.6666666666667,4,1,0,65,0,1
123065,-100,4,1,0,65,0,0
184672,-66.6666666666667,4,1,0,65,0,1
223244,375,4,1,0,65,1,0
229244,-76.9230769230769,4,1,0,65,0,0
235278,375,4,1,0,65,1,0
259295,375,4,1,0,65,1,1
262295,-100,4,1,0,65,0,0
265295,-100,4,1,0,65,0,1
268295,-100,4,1,0,65,0,0
289295,-100,4,1,0,65,0,1
292295,-100,4,1,0,65,0,0
307295,-100,4,1,0,65,0,1
308795,-66.6666666666667,4,1,0,65,0,1
313295,-50,4,1,0,65,0,1
316295,-40,4,1,0,65,0,1
318545,-55.5555555555556,4,1,0,65,0,1
319295,-100,4,1,0,65,0,0
319333,535.714285714286,4,1,0,65,1,0
328975,-76.9230769230769,4,1,0,65,0,0
330047,-62.5,4,1,0,65,0,0
332190,-55.5555555555556,4,1,0,65,0,0
333261,-52.6315789473684,4,1,0,65,0,0
334333,-50,4,1,0,65,0,0
336475,-66.6666666666667,4,1,0,65,0,0
339958,-40,4,1,0,65,0,0
340761,-66.6666666666667,4,1,0,65,0,0
344243,-40,4,1,0,65,0,0
345047,-66.6666666666667,4,1,0,65,0,0
348261,-40,4,1,0,65,0,0
349065,-66.6666666666667,4,1,0,65,0,0
357636,-66.6666666666667,4,1,0,65,0,0
361654,-66.6666666666667,4,1,0,65,0,0
365404,-40,4,1,0,65,0,0
365940,-66.6666666666667,4,1,0,65,0,0
382547,-66.6666666666667,4,1,0,65,0,0
387904,-222.222222222221,4,1,0,65,0,0
396475,-100,4,1,0,65,0,0
400761,-100,4,1,0,50,0,0
405047,-100,4,1,0,35,0,0
409333,-100,4,1,0,25,0,0
417904,-100,4,1,0,15,0,0
419779,-100,4,1,0,5,0,0

[Colours]
Combo1 : 197,102,56
Combo2 : 176,174,72

[HitObjects]
82,113,387,6,0,P|121:80|164:77,1,70,0|0,0:0|0:0,0:0:0:0:
232,101,922,1,0,0:0:0:0:
150,155,1190,1,0,0:0:0:0:
207,34,1458,2,0,P|268:38|305:105,1,140,0|0,0:0|0:0,0:0:0:0:
187,148,2262,1,0,0:0:0:0:
187,148,2529,6,0,P|138:163|112:206,1,70,0|0,0:0|0:0,0:0:0:0:
45,233,3065,2,0,P|82:267|132:268,1,70,0|0,0:0|0:0,0:0:0:0:
187,316,3601,2,0,P|198:266|174:222,2,70,0|0|0,0:0|0:0|0:0,0:0:0:0:
99,272,4404,1,0,0:0:0:0:
99,272,4672,6,0,L|172:244,1,70,0|0,0:0|0:0,0:0:0:0:
253,204,5208,1,0,0:0:0:0:
225,298,5476,1,0,0:0:0:0:
188,170,5744,2,0,P|240:130|310:156,1,140,0|0,0:0|0:0,0:0:0:0:
338,276,6547,1,0,0:0:0:0:
338,276,6815,6,0,P|373:235|377:203,1,70,0|0,0:0|0:0,0:0:0:0:
474,206,7351,2,0,P|455:155|430:135,1,70,0|0,0:0|0:0,0:0:0:0:
381,69,7887,2,0,P|420:48|476:58,2,70,0|0|0,0:0|0:0|0:0,0:0:0:0:
348,161,8690,1,0,0:0:0:0:
348,161,8958,5,0,0:0:0:0:
274,95,9226,1,0,0:0:0:0:
259,191,9494,1,0,0:0:0:0:
322,56,9762,1,0,0:0:0:0:
192,85,10029,2,0,P|206:142|278:178,1,140,0|0,0:0|0:0,0:0:0:0:
322,56,10833,1,0,0:0:0:0:
322,56,11101,6,0,L|224:41,1,70,0|0,0:0|0:0,0:0:0:0:
203,130,11637,1,0,0:0:0:0:
300,130,11904,1,0,0:0:0:0:
225,46,12172,2,0,L|144:61,1,70,0|0,0:0|0:0,0:0:0:0:
85,127,12708,1,0,0:0:0:0:
85,127,12976,5,0,0:0:0:0:
176,161,13244,2,0,P|149:197|112:214,1,70,0|0,0:0|0:0,0:0:0:0:
32,232,13779,2,0,P|50:273|96:298,1,70,0|0,0:0|0:0,0:0:0:0:
136,360,14315,2,0,B|181:343|181:343|154:280|200:232,1,140,0|0,0:0|0:0,0:0:0:0:
256,297,15119,1,0,0:0:0:0:
256,297,15387,6,0,P|271:250|259:203,1,70,0|0,0:0|0:0,0:0:0:0:
191,167,15922,1,0,0:0:0:0:
194,249,16190,1,0,0:0:0:0:
250,117,16458,2,0,P|192:90|127:127,1,140,0|0,0:0|0:0,0:0:0:0:
199,210,17262,1,0,0:0:0:0:
199,210,17529,6,0,P|252:197|274:180,1,70,0|0,0:0|0:0,0:0:0:0:
216,121,18065,1,0,0:0:0:0:
216,121,18601,6,0,P|135:146|112:220,1,140,0|0,0:0|0:0,0:0:0:0:
119,333,19404,2,0,B|210:207,1,140,0|0,0:0|0:0,0:0:0:0:
330,254,20208,1,0,0:0:0:0:
456,228,20476,2,0,P|479:168|441:96,2,140,0|0|0,0:0|0:0|0:0,0:0:0:0:
381,292,21815,6,0,P|359:243|380:208,1,70,0|0,0:0|0:0,0:0:0:0:
456,228,22351,1,0,0:0:0:0:
362,230,22619,2,0,P|366:182|347:144,1,70,0|0,0:0|0:0,0:0:0:0:
268,203,23154,1,0,0:0:0:0:
362,230,23422,2,0,P|359:162|291:108,2,140,0|0|0,0:0|0:0|0:0,0:0:0:0:
267,256,24762,1,0,0:0:0:0:
267,256,25029,6,0,L|182:234,1,70,0|0,0:0|0:0,0:0:0:0:
256,158,25565,1,0,0:0:0:0:
354,158,25833,1,0,0:0:0:0:
415,234,26101,1,0,0:0:0:0:
415,234,26369,5,0,0:0:0:0:
372,322,26637,2,0,P|327:287|316:255,1,70,0|0,0:0|0:0,0:0:0:0:
326,178,27172,2,0,P|363:201|378:247,1,70,0|0,0:0|0:0,0:0:0:0:
282,258,27708,1,0,0:0:0:0:
187,230,27976,2,0,B|204:170|269:160|269:160|254:119,1,140,0|0,0:0|0:0,0:0:0:0:
230,44,28779,1,0,0:0:0:0:
140,84,29047,2,0,P|87:75|31:0,2,140,0|0|0,0:0|0:0|0:0,0:0:0:0:
140,84,30387,6,0,P|166:114|169:171,1,70,0|0,0:0|0:0,0:0:0:0:
79,172,30922,1,0,0:0:0:0:
37,260,31190,2,0,P|64:308|160:280,1,140,0|0,0:0|0:0,0:0:0:0:
147,206,31994,1,0,0:0:0:0:
140,108,32262,2,0,P|177:65|248:88,1,140,0|0,0:0|0:0,0:0:0:0:
215,180,33065,5,0,0:0:0:0:
174,90,33333,1,0,0:0:0:0:
271,99,33601,1,0,0:0:0:0:
186,219,33869,1,0,0:0:0:0:
184,120,34137,1,0,0:0:0:0:
265,206,34404,6,0,P|242:277|172:297,1,140,0|0,0:0|0:0,0:0:0:0:
199,183,35208,1,0,0:0:0:0:
287,141,35476,1,0,0:0:0:0:
380,169,35744,2,0,P|348:217|319:229,1,70,0|0,0:0|0:0,0:0:0:0:
242,190,36279,2,0,P|258:159|292:139,1,70,0|0,0:0|0:0,0:0:0:0:
332,227,36815,5,0,0:0:0:0:
258,291,37083,1,0,0:0:0:0:
280,195,37351,1,0,0:0:0:0:
389,235,37619,1,0,0:0:0:0:
365,330,37887,2,0,L|304:289,1,70,0|0,0:0|0:0,0:0:0:0:
211,312,38422,1,0,0:0:0:0:
94,363,38690,6,0,P|59:305|93:234,1,140,0|0,0:0|0:0,0:0:0:0:
207,229,39494,1,0,0:0:0:0:
137,298,39762,1,0,0:0:0:0:
108,172,40029,1,0,0:0:0:0:
178,103,40297,1,0,0:0:0:0:
220,191,40565,1,0,0:0:0:0:
274,109,40833,1,0,0:0:0:0:
289,236,41101,6,0,P|229:274|162:249,1,140,0|0,0:0|0:0,0:0:0:0:
226,143,41904,1,0,0:0:0:0:
307,88,42172,2,0,P|348:129|354:171,1,70,0|0,0:0|0:0,0:0:0:0:
284,211,42708,1,0,0:0:0:0:
288,308,42976,2,0,P|236:303|184:222,1,140,0|0,0:0|0:0,0:0:0:0:
246,160,43779,5,0,0:0:0:0:
318,94,44047,1,0,0:0:0:0:
296,189,44315,1,0,0:0:0:0:
257,68,44583,1,0,0:0:0:0:
381,98,44851,1,0,0:0:0:0:
296,189,45119,1,0,0:0:0:0:
315,57,45387,2,0,P|369:20|449:63,1,140,0|0,0:0|0:0,0:0:0:0:
386,144,46190,5,0,0:0:0:0:
272,179,46458,2,0,L|200:156,1,70,0|0,0:0|0:0,0:0:0:0:
355,208,46994,1,0,0:0:0:0:
247,246,47262,2,0,L|111:201,1,140,0|0,0:0|0:0,0:0:0:0:
256,57,48065,1,0,0:0:0:0:
256,57,48333,5,0,0:0:0:0:
394,85,48601,2,0,L|327:107,1,70,0|0,0:0|0:0,0:0:0:0:
288,207,49137,2,0,L|354:184,2,70,0|0|0,0:0|0:0|0:0,0:0:0:0:
399,318,51547,1,0,0:0:0:0:
399,318,51815,6,0,L|240:303,1,140,0|0,0:0|0:0,0:0:0:0:
198,227,52619,1,0,0:0:0:0:
289,191,52887,2,0,P|293:235|271:283,1,70,0|0,0:0|0:0,0:0:0:0:
194,295,53422,1,0,0:0:0:0:
102,259,53690,2,0,P|98:215|120:167,1,70,0|0,0:0|0:0,0:0:0:0:
198,227,54226,1,0,0:0:0:0:
129,328,54494,6,0,P|65:325|27:256,2,140,0|0|0,0:0|0:0|0:0,0:0:0:0:
196,225,55833,1,0,0:0:0:0:
116,167,56101,2,0,P|94:198|93:239,1,70,0|0,0:0|0:0,0:0:0:0:
165,293,56637,1,0,0:0:0:0:
262,302,56904,2,0,P|296:249|272:165,1,140,0|0,0:0|0:0,0:0:0:0:
208,111,57708,1,0,0:0:0:0:
111,125,57976,6,0,P|149:188|237:198,2,140,0|0|0,0:0|0:0|0:0,0:0:0:0:
208,110,59315,1,0,0:0:0:0:
209,204,59583,1,0,0:0:0:0:
121,159,59851,1,0,0:0:0:0:
294,135,60119,1,0,0:0:0:0:
294,135,60387,6,0,L|299:230,1,70,0|0,0:0|0:0,0:0:0:0:
209,161,60922,1,0,0:0:0:0:
291,74,61190,1,0,0:0:0:0:
285,189,61458,2,0,P|247:234|167:231,1,140,0|0,0:0|0:0,0:0:0:0:
127,116,62262,2,0,P|173:66|241:71,1,140,0|0,0:0|0:0,0:0:0:0:
209,164,63065,1,0,0:0:0:0:
242,72,63333,2,0,P|298:93|327:82,1,70,0|0,0:0|0:0,0:0:0:0:
292,7,63869,5,0,0:0:0:0:
215,68,64137,1,0,0:0:0:0:
291,194,64404,1,0,0:0:0:0:
286,96,64672,5,0,0:0:0:0:
209,157,64940,1,0,0:0:0:0:
285,283,65208,1,0,0:0:0:0:
356,215,65476,1,0,0:0:0:0:
228,224,65744,2,0,P|205:295|244:354,1,140,0|0,0:0|0:0,0:0:0:0:
363,339,66547,2,0,P|386:268|347:209,1,140,0|0,0:0|0:0,0:0:0:0:
285,283,67351,5,0,0:0:0:0:
361,327,67619,1,0,0:0:0:0:
354,214,67887,2,0,P|307:189|280:188,2,70,0|0|0,0:0|0:0|0:0,0:0:0:0:
283,281,68690,1,0,0:0:0:0:
283,281,68958,5,0,0:0:0:0:
210,214,69226,1,0,0:0:0:0:
250,124,69494,1,0,0:0:0:0:
273,219,69762,1,0,0:0:0:0:
311,129,70029,1,0,0:0:0:0:
333,225,70297,1,0,0:0:0:0:
370,134,70565,1,0,0:0:0:0:
394,230,70833,1,0,0:0:0:0:
431,139,71101,6,0,L|460:71,2,70,0|0|0,0:0|0:0|0:0,0:0:0:0:
399,231,71904,1,0,0:0:0:0:
319,288,72172,1,0,0:0:0:0:
221,279,72440,1,0,0:0:0:0:
169,195,72708,1,0,0:0:0:0:
218,110,72976,1,0,0:0:0:0:
218,110,73244,6,0,B|249:75|249:75|256:31,2,70,0|0|0,0:0|0:0|0:0,0:0:0:0:
156,33,74047,1,0,0:0:0:0:
252,52,74315,1,0,0:0:0:0:
194,179,74583,1,0,0:0:0:0:
197,81,74851,5,0,0:0:0:0:
293,100,75119,1,0,0:0:0:0:
243,239,75387,2,0,L|212:319,1,70,0|0,0:0|0:0,0:0:0:0:
124,335,75922,1,0,0:0:0:0:
156,242,76190,1,0,0:0:0:0:
252,223,76458,1,0,0:0:0:0:
172,281,76726,5,0,0:0:0:0:
204,188,76994,1,0,0:0:0:0:
300,169,77262,1,0,0:0:0:0:
371,235,77529,2,0,L|427:188,2,70,0|0|0,0:0|0:0|0:0,0:0:0:0:
295,298,78333,2,0,L|363:322,2,70,0|0|0,0:0|0:0|0:0,0:0:0:0:
255,224,79137,2,0,L|255:141,1,70,0|0,0:0|0:0,0:0:0:0:
217,86,79672,2,0,L|148:61,2,70,0|0|0,0:0|0:0|0:0,0:0:0:0:
141,149,80476,2,0,L|85:196,2,70,0|0|0,0:0|0:0|0:0,0:0:0:0:
256,192,81279,12,0,83422,0:0:0:0:
256,192,83690,5,0,0:0:0:0:
345,103,83958,1,0,0:0:0:0:
396,218,84226,1,0,0:0:0:0:
262,131,84494,1,0,0:0:0:0:
430,58,84762,1,0,0:0:0:0:
396,218,85029,6,0,L|420:232,4,26.2500010013581,0|0|0|0|0,0:0|0:0|0:0|0:0|0:0,0:0:0:0:
233,276,85565,2,0,L|233:312,4,26.2500010013581,0|0|0|0|0,0:0|0:0|0:0|0:0|0:0,0:0:0:0:
124,121,86101,2,0,B|168:83|221:90|262:159|255:210|212:209|153:231|147:262|150:303|171:347|235:364|269:330|287:301,1,420.000016021729,0|0,0:0|0:0,0:0:0:0:
286,117,87440,1,0,0:0:0:0:
164,164,87708,1,0,0:0:0:0:
164,164,87976,6,0,B|122:123|122:123|155:312|155:312|183:235,1,315.000012016297,0|0,0:0|0:0,0:0:0:0:
243,74,89047,1,0,0:0:0:0:
372,211,89315,1,0,0:0:0:0:
296,376,89583,2,0,B|319:321|295:273|295:273|335:321|386:307,1,210.000008010865,0|0,0:0|0:0,0:0:0:0:
303,133,90386,6,0,P|321:83|314:172,1,420.000016021729,0|0,0:0|0:0,0:0:0:0:
218,42,91726,1,0,0:0:0:0:
69,62,91993,5,0,0:0:0:0:
69,62,92261,2,0,B|45:115|45:115|106:91|106:91|121:148|187:175|231:166|253:149|274:132,1,315.000012016297,0|0,0:0|0:0,0:0:0:0:
199,67,93333,1,0,0:0:0:0:
71,185,93601,1,0,0:0:0:0:
246,195,93868,2,0,P|270:275|398:251,1,210.000008010865,0|0,0:0|0:0,0:0:0:0:
340,128,94672,6,0,B|316:125|338:21|471:44|458:236|382:189|304:192|287:217|281:290|313:364|400:344,1,420.000016021729,0|0,0:0|0:0,0:0:0:0:
340,128,96011,1,0,0:0:0:0:
202,290,96279,1,0,0:0:0:0:
202,290,96547,6,0,B|154:329|154:329|209:310|297:310|349:327|349:327|296:289,1,315.000012016297,0|0,0:0|0:0,0:0:0:0:
156,203,97618,1,0,0:0:0:0:
94,28,97886,2,0,B|135:45|185:27|185:27|131:70|137:157,1,210.000008010865,0|0,0:0|0:0,0:0:0:0:
226,200,98690,1,0,0:0:0:0:
335,143,98958,2,0,P|251:142|317:171,2,210.000008010865,0|0|0,0:0|0:0|0:0,0:0:0:0:
260,249,100297,1,0,0:0:0:0:
181,77,100565,1,0,0:0:0:0:
367,48,100833,1,0,0:0:0:0:
296,185,101101,1,0,0:0:0:0:
266,44,101368,5,0,0:0:0:0:
266,44,101636,1,0,0:0:0:0:
402,175,101904,1,0,0:0:0:0:
402,175,102038,1,0,0:0:0:0:
402,175,102172,2,0,P|376:222|319:249,2,105.000004005432,0|0|0,0:0|0:0|0:0,0:0:0:0:
351,100,102976,1,0,0:0:0:0:
369,319,103243,2,0,P|296:321|412:255,1,420.000016021729,0|0,0:0|0:0,0:0:0:0:
331,248,104583,1,0,0:0:0:0:
210,101,104851,1,0,0:0:0:0:
396,73,105118,2,0,B|358:135|302:139|302:139|278:193|278:193|201:198|171:278,1,315.000012016297,0|0,0:0|0:0,0:0:0:0:
325,298,106190,5,0,0:0:0:0:
309,50,106458,1,0,0:0:0:0:
246,187,106726,2,0,P|311:222|387:112,1,210.000008010865,0|0,0:0|0:0,0:0:0:0:
183,142,107529,2,0,P|320:206|170:202,1,420.000016021729,0|0,0:0|0:0,0:0:0:0:
202,330,108868,1,0,0:0:0:0:
245,188,109136,1,0,0:0:0:0:
170,175,109404,6,0,P|197:129|302:128,1,157.500006008148,0|0,0:0|0:0,0:0:0:0:
325,148,109940,1,0,0:0:0:0:
333,227,110208,1,0,0:0:0:0:
338,303,110476,1,0,0:0:0:0:
319,42,110743,5,0,0:0:0:0:
335,262,111011,2,0,P|220:268|149:186,1,210.000008010865,0|0,0:0|0:0,0:0:0:0:
286,47,111815,2,0,B|310:131|247:165|247:165|268:202|268:202|193:247|242:347,1,315.000012016297,0|0,0:0|0:0,0:0:0:0:
369,153,112886,5,0,0:0:0:0:
147,213,113154,1,0,0:0:0:0:
261,321,113422,1,0,0:0:0:0:
341,170,113690,6,0,B|284:172|259:217|259:217|241:170|198:152,1,157.500006008148,0|0,0:0|0:0,0:0:0:0:
193,144,114226,1,0,0:0:0:0:
193,144,114493,1,0,0:0:0:0:
339,279,114761,1,0,0:0:0:0:
265,85,115029,2,0,P|282:159|249:209,1,105.000004005432,0|0,0:0|0:0,0:0:0:0:
175,281,115565,5,0,0:0:0:0:
175,281,115833,1,0,0:0:0:0:
172,84,116101,6,0,P|87:148|88:278,1,210.000008010865,0|0,0:0|0:0,0:0:0:0:
252,197,116904,6,0,P|178:172|235:251,2,210.000008010865,0|0|0,0:0|0:0|0:0,0:0:0:0:
333,300,118243,5,0,0:0:0:0:
333,100,118511,1,0,0:0:0:0:
333,100,118779,1,0,0:0:0:0:
410,283,119047,1,0,0:0:0:0:
410,283,119181,1,0,0:0:0:0:
410,283,119315,2,0,L|410:173,3,105.000004005432,0|0|0|0,0:0|0:0|0:0|0:0,0:0:0:0:
256,192,120386,12,0,123065,0:0:0:0:
384,104,123333,6,0,L|408:80,4,17.5,0|0|0|0|0,0:0|0:0|0:0|0:0|0:0,0:0:0:0:
288,200,123868,1,0,0:0:0:0:
192,104,124136,2,0,P|152:168|152:240,1,140,0|0,0:0|0:0,0:0:0:0:
288,200,124940,5,0,0:0:0:0:
344,80,125208,1,0,0:0:0:0:
208,72,125476,1,0,0:0:0:0:
208,72,125743,6,0,P|168:112|152:144,1,70,0|0,0:0|0:0,0:0:0:0:
264,208,126279,1,0,0:0:0:0:
166,253,126547,2,0,P|142:189|169:112,1,140,0|0,0:0|0:0,0:0:0:0:
56,40,127351,1,0,0:0:0:0:
161,122,127618,2,0,P|192:142|245:146,2,70,0|0|0,0:0|0:0|0:0,0:0:0:0:
310,83,128422,1,0,0:0:0:0:
384,184,128690,1,0,0:0:0:0:
384,184,128958,6,0,P|352:224|352:264,1,70,0|0,0:0|0:0,0:0:0:0:
464,176,129493,1,0,0:0:0:0:
406,294,129761,2,0,P|371:321|318:317,2,70,0|0|0,0:0|0:0|0:0,0:0:0:0:
295,313,130565,2,0,P|305:279|298:246,1,70,0|0,0:0|0:0,0:0:0:0:
300,211,131101,1,0,0:0:0:0:
233,325,131368,1,0,0:0:0:0:
163,211,131636,1,0,0:0:0:0:
233,325,131904,1,0,0:0:0:0:
300,211,132172,2,0,B|340:141,2,70,0|0|0,0:0|0:0|0:0,0:0:0:0:
277,99,132976,1,0,0:0:0:0:
277,99,133243,6,0,P|341:72|405:116,1,140,0|0,0:0|0:0,0:0:0:0:
300,211,134047,1,0,0:0:0:0:
197,126,134315,2,0,L|128:67,1,70,0|0,0:0|0:0,0:0:0:0:
22,23,134851,1,0,0:0:0:0:
83,140,135118,2,0,P|149:182|196:246,2,140,0|0|0,0:0|0:0|0:0,0:0:0:0:
114,269,136458,1,0,0:0:0:0:
232,329,136726,1,0,0:0:0:0:
356,283,136993,1,0,0:0:0:0:
235,225,137261,1,0,0:0:0:0:
235,225,137529,6,0,P|208:186|201:151,1,70,0|0,0:0|0:0,0:0:0:0:
329,125,138065,1,0,0:0:0:0:
219,97,138333,2,0,P|196:132|200:180,2,70,0|0|0,0:0|0:0|0:0,0:0:0:0:
115,176,139136,2,0,P|133:213|177:233,1,70,0|0,0:0|0:0,0:0:0:0:
341,149,139672,1,0,0:0:0:0:
274,264,139940,1,0,0:0:0:0:
206,149,140208,1,0,0:0:0:0:
341,149,140476,1,0,0:0:0:0:
341,149,140743,6,0,P|387:194|422:193,2,70,0|0|0,0:0|0:0|0:0,0:0:0:0:
117,293,141815,2,0,P|65:263|174:278,1,420,0|0,0:0|0:0,0:0:0:0:
128,216,143690,1,0,0:0:0:0:
128,216,143958,5,0,0:0:0:0:
223,123,144226,2,0,P|240:75|236:49,2,70,0|0|0,0:0|0:0|0:0,0:0:0:0:
280,243,145029,2,0,P|293:204|315:178,1,70,0|0,0:0|0:0,0:0:0:0:
403,277,145565,1,0,0:0:0:0:
274,312,145833,1,0,0:0:0:0:
274,312,146101,6,0,P|276:250|319:174,1,140,0|0,0:0|0:0,0:0:0:0:
266,56,146904,1,0,0:0:0:0:
132,57,147172,2,0,P|152:111|145:153,1,70,0|0,0:0|0:0,0:0:0:0:
36,190,147708,2,0,P|44:231|74:264,2,70,0|0|0,0:0|0:0|0:0,0:0:0:0:
167,212,148511,1,0,0:0:0:0:
238,324,148779,1,0,0:0:0:0:
304,208,149047,1,0,0:0:0:0:
238,324,149315,6,0,L|238:367,2,35,0|0|0,0:0|0:0|0:0,0:0:0:0:
238,190,149851,1,0,0:0:0:0:
238,190,150118,6,0,L|238:139,2,35,0|0|0,0:0|0:0|0:0,0:0:0:0:
146,288,150654,1,0,0:0:0:0:
86,91,151190,1,0,0:0:0:0:
86,91,151458,1,0,0:0:0:0:
216,288,151993,5,0,0:0:0:0:
216,288,152261,1,0,0:0:0:0:
156,91,152529,1,0,0:0:0:0:
156,91,152797,1,0,0:0:0:0:
287,290,153333,5,0,0:0:0:0:
287,290,153601,1,0,0:0:0:0:
299,91,154136,5,0,0:0:0:0:
299,91,154404,1,0,0:0:0:0:
359,288,154672,1,0,0:0:0:0:
359,288,154940,1,0,0:0:0:0:
426,91,155476,1,0,0:0:0:0:
426,91,155743,1,0,0:0:0:0:
296,288,156279,5,0,0:0:0:0:
296,288,156547,1,0,0:0:0:0:
356,91,156815,1,0,0:0:0:0:
356,91,157083,1,0,0:0:0:0:
225,290,157618,5,0,0:0:0:0:
225,290,157886,1,0,0:0:0:0:
213,91,158422,5,0,0:0:0:0:
213,91,158690,1,0,0:0:0:0:
244,279,158958,1,0,0:0:0:0:
244,279,159226,1,0,0:0:0:0:
47,346,159761,1,0,0:0:0:0:
47,346,160029,1,0,0:0:0:0:
244,216,160565,5,0,0:0:0:0:
244,216,160833,1,0,0:0:0:0:
47,276,161101,1,0,0:0:0:0:
47,276,161368,1,0,0:0:0:0:
246,145,161904,5,0,0:0:0:0:
246,145,162172,1,0,0:0:0:0:
47,133,162708,5,0,0:0:0:0:
47,133,162976,1,0,0:0:0:0:
244,73,163243,1,0,0:0:0:0:
244,73,163511,1,0,0:0:0:0:
426,91,164047,1,0,0:0:0:0:
426,91,164315,1,0,0:0:0:0:
296,288,164851,5,0,0:0:0:0:
296,288,165118,1,0,0:0:0:0:
356,91,165386,1,0,0:0:0:0:
356,91,165654,1,0,0:0:0:0:
225,290,166190,5,0,0:0:0:0:
266,143,166458,1,0,0:0:0:0:
225,290,166726,1,0,0:0:0:0:
368,258,166993,1,0,0:0:0:0:
137,313,167261,5,0,0:0:0:0:
137,313,167395,1,0,0:0:0:0:
137,313,167529,2,0,P|176:212|291:223,1,210,0|0,0:0|0:0,0:0:0:0:
284,223,168467,1,0,0:0:0:0:
284,223,168601,1,0,0:0:0:0:
128,166,169136,1,0,0:0:0:0:
128,166,169404,2,0,L|201:151,1,70,0|0,0:0|0:0,0:0:0:0:
388,113,169940,1,0,0:0:0:0:
356,242,170208,1,0,0:0:0:0:
396,84,170476,1,0,0:0:0:0:
424,269,170743,6,0,P|393:306|347:314,1,70,0|0,0:0|0:0,0:0:0:0:
240,302,171279,2,0,P|271:265|317:257,1,70,0|0,0:0|0:0,0:0:0:0:
413,206,171815,2,0,P|442:165|327:97,1,210,0|0,0:0|0:0,0:0:0:0:
258,187,172886,1,0,0:0:0:0:
147,113,173154,1,0,0:0:0:0:
279,106,173422,1,0,0:0:0:0:
100,188,173690,1,0,0:0:0:0:
200,275,173958,6,0,L|171:326,2,46.6666666666667,0|0|0,0:0|0:0|0:0,0:0:0:0:
289,236,174493,2,0,L|286:282,2,46.6666666666667,0|0|0,0:0|0:0|0:0,0:0:0:0:
356,173,175029,2,0,L|373:216,2,46.6666666666667,0|0|0,0:0|0:0|0:0,0:0:0:0:
363,83,175565,2,0,L|405:102,2,46.6666666666667,0|0|0,0:0|0:0|0:0,0:0:0:0:
264,43,176101,2,0,B|233:117|233:117|241:174|241:174|206:254,1,210
99,303,177172,2,0,P|77:247|156:236,1,140,0|0,0:0|0:0,0:0:0:0:
241,305,177976,1,0,0:0:0:0:
241,305,178243,1,0,0:0:0:0:
347,222,178511,2,0,P|368:255|377:289,2,70,0|0|0,0:0|0:0|0:0,0:0:0:0:
216,171,179315,6,0,P|205:126|212:87,1,70,0|0,0:0|0:0,0:0:0:0:
303,10,179851,2,0,P|310:52|305:86,1,70,0|0,0:0|0:0,0:0:0:0:
230,188,180386,2,0,P|214:284|305:255,1,210,0|0,0:0|0:0,0:0:0:0:
330,144,181458,2,0,P|375:161|394:207,1,70,0|0,0:0|0:0,0:0:0:0:
342,302,181993,1,0,0:0:0:0:
342,302,182261,1,0,0:0:0:0:
128,312,182529,5,0,0:0:0:0:
115,136,182797,1,0,0:0:0:0:
252,37,183065,1,0,0:0:0:0:
423,116,183333,1,0,0:0:0:0:
423,116,183467,1,0,0:0:0:0:
423,116,183601,1,0,0:0:0:0:
290,338,183868,2,0,P|271:266|332:283,1,157.5
290,338,184672,6,0,B|397:377|437:264|429:180|319:228|260:179|317:40|440:67|434:126,1,420.000016021729
325,275,186011,1,0,0:0:0:0:
164,220,186279,1,0,0:0:0:0:
164,220,186547,6,0,B|150:262|150:262|97:267|97:267|80:241|54:165|152:94|220:157,1,315.000012016297
243,310,187618,1,0,0:0:0:0:
372,173,187886,1,0,0:0:0:0:
189,223,188154,1,0,0:0:0:0:
376,251,188422,1,0,0:0:0:0:
274,92,188690,1,0,0:0:0:0:
303,251,188958,6,0,P|321:301|314:212,1,420.000016021729,0|0,0:0|0:0,0:0:0:0:
218,342,190297,1,0,0:0:0:0:
69,322,190565,5,0,0:0:0:0:
69,322,190833,2,0,B|45:281|51:235|51:235|121:281|178:226,1,210.000008010865
112,179,191636,1,0,0:0:0:0:
199,317,191904,1,0,0:0:0:0:
134,140,192172,1,0,0:0:0:0:
319,172,192440,1,0,0:0:0:0:
147,251,192708,1,0,0:0:0:0:
340,256,192976,1,0,0:0:0:0:
340,256,193243,6,0,B|316:259|338:363|471:340|458:148|382:195|304:192|287:167|281:94|313:20|403:52,1,420.000016021729,0|0,0:0|0:0,0:0:0:0:
340,256,194583,1,0,0:0:0:0:
202,94,194851,1,0,0:0:0:0:
202,94,195118,6,0,B|154:55|154:55|209:74|297:74|349:57|349:57|296:95,1,315.000012016297,0|0,0:0|0:0,0:0:0:0:
156,181,196190,1,0,0:0:0:0:
94,356,196458,2,0,B|135:339|185:357|185:357|127:300|143:228,1,210.000008010865,0|0,0:0|0:0,0:0:0:0:
232,178,197261,1,0,0:0:0:0:
335,241,197529,2,0,P|251:242|317:213,1,210.000008010865,0|0,0:0|0:0,0:0:0:0:
369,347,198333,1,0,0:0:0:0:
225,271,198601,1,0,0:0:0:0:
260,135,198868,1,0,0:0:0:0:
181,307,199136,1,0,0:0:0:0:
367,336,199404,1,0,0:0:0:0:
296,199,199672,1,0,0:0:0:0:
266,340,199940,5,0,0:0:0:0:
266,340,200208,1,0,0:0:0:0:
402,209,200476,1,0,0:0:0:0:
402,209,200609,1,0,0:0:0:0:
402,209,200743,2,0,L|376:162,2,52.5000020027161,0|0|0,0:0|0:0|0:0,0:0:0:0:
188,189,201279,1,0,0:0:0:0:
329,138,201547,1,0,0:0:0:0:
369,65,201815,6,0,P|296:63|367:208,1,315.000012016297,0|0,0:0|0:0,0:0:0:0:
156,168,202886,1,0,0:0:0:0:
331,136,203154,1,0,0:0:0:0:
210,283,203422,1,0,0:0:0:0:
396,311,203690,2,0,B|374:262|317:261|317:261|280:237|278:191|278:191,1,157.500006008148
269,169,204226,1,0,0:0:0:0:
269,169,204493,1,0,0:0:0:0:
427,205,204761,5,0,0:0:0:0:
234,367,205029,1,0,0:0:0:0:
245,196,205297,1,0,0:0:0:0:
387,320,205565,1,0,0:0:0:0:
202,379,205833,1,0,0:0:0:0:
170,182,206101,6,0,P|197:136|177:230,1,420.000016021729,0|0,0:0|0:0,0:0:0:0:
202,54,207440,1,0,0:0:0:0:
245,196,207708,1,0,0:0:0:0:
170,209,207976,2,0,P|197:255|323:212,1,210.000008010865,0|0,0:0|0:0,0:0:0:0:
185,117,208779,1,0,0:0:0:0:
284,9,209047,1,0,0:0:0:0:
245,194,209315,5,0,0:0:0:0:
286,337,209583,1,0,0:0:0:0:
201,135,209851,1,0,0:0:0:0:
161,291,210118,1,0,0:0:0:0:
172,68,210386,2,0,P|266:58|217:206,1,315.000012016297,0|0,0:0|0:0,0:0:0:0:
314,245,211458,5,0,0:0:0:0:
179,110,211726,1,0,0:0:0:0:
335,128,211993,1,0,0:0:0:0:
341,214,212261,6,0,B|276:217|252:164|252:164|216:209|122:193,1,210.000008010865,0|0,0:0|0:0,0:0:0:0:
46,32,213065,1,0,0:0:0:0:
105,222,213333,1,0,0:0:0:0:
137,24,213601,1,0,0:0:0:0:
187,216,213868,1,0,0:0:0:0:
226,20,214136,5,0,0:0:0:0:
209,268,214404,1,0,0:0:0:0:
209,268,214538,1,0,0:0:0:0:
209,268,214672,6,0,B|182:205|113:201|113:201|75:156|87:107,1,210.000008010865
190,24,215476,2,0,B|172:56|202:96|188:132|188:132,1,105.000004005432
182,329,216011,1,0,0:0:0:0:
271,150,216279,5,0,0:0:0:0:
263,349,216547,1,0,0:0:0:0:
333,84,216815,5,0,0:0:0:0:
333,284,217083,1,0,0:0:0:0:
333,284,217351,1,0,0:0:0:0:
410,101,217618,1,0,0:0:0:0:
410,101,217752,1,0,0:0:0:0:
410,101,217886,2,0,L|410:211,3,105.000004005432,0|0|0|0,0:0|0:0|0:0|0:0,0:0:0:0:
256,192,218958,12,0,222842,0:0:0:0:
135,63,223243,6,0,P|116:105|125:147,1,70,0|0,0:0|0:0,0:0:0:0:
223,196,223619,1,0,0:0:0:0:
225,70,223806,1,0,0:0:0:0:
121,142,223994,1,0,0:0:0:0:
225,257,224181,1,0,0:0:0:0:
227,130,224369,1,0,0:0:0:0:
111,79,224556,6,0,P|80:96|61:150,1,70,0|0,0:0|0:0,0:0:0:0:
91,248,224931,2,0,P|122:231|141:177,1,70,0|0,0:0|0:0,0:0:0:0:
192,87,225306,1,0,0:0:0:0:
243,202,225494,1,0,0:0:0:0:
346,130,225681,1,0,0:0:0:0:
220,142,225869,1,0,0:0:0:0:
199,265,226056,6,0,L|283:286,1,70,0|0,0:0|0:0,0:0:0:0:
381,229,226431,2,0,L|297:208,1,70,0|0,0:0|0:0,0:0:0:0:
189,185,226806,1,0,0:0:0:0:
110,283,226994,1,0,0:0:0:0:
206,166,227181,1,0,0:0:0:0:
95,303,227369,1,0,0:0:0:0:
116,157,227556,2,0,L|145:234,1,70,0|0,0:0|0:0,0:0:0:0:
258,267,227931,2,0,L|229:190,1,70,0|0,0:0|0:0,0:0:0:0:
190,82,228306,2,0,B|211:134|211:134|259:114|300:158|300:158|324:221|324:221,1,210
303,320,229056,1,0,0:0:0:0:
176,342,229244,6,0,B|155:329|140:305|140:305|121:253,1,90.9999958343508,0|0,0:0|0:0,0:0:0:0:
200,105,229619,1,0,0:0:0:0:
256,258,229806,1,0,0:0:0:0:
315,104,229994,1,0,0:0:0:0:
256,258,230181,1,0,0:0:0:0:
200,105,230369,1,0,0:0:0:0:
347,33,230556,6,0,B|385:67|385:67|394:120,1,90.9999958343508,0|0,0:0|0:0,0:0:0:0:
367,268,230931,2,0,B|329:234|329:234|321:178,1,90.9999958343508,0|0,0:0|0:0,0:0:0:0:
481,148,231306,1,0,0:0:0:0:
323,194,231494,1,0,0:0:0:0:
462,256,231681,1,0,0:0:0:0:
385,110,231869,1,0,0:0:0:0:
367,268,232056,6,0,L|359:365,1,90.9999958343508,0|0,0:0|0:0,0:0:0:0:
378,199,232431,2,0,L|386:84,1,90.9999958343508,0|0,0:0|0:0,0:0:0:0:
291,254,232806,1,0,0:0:0:0:
255,84,232994,1,0,0:0:0:0:
224,256,233181,1,0,0:0:0:0:
255,84,233369,1,0,0:0:0:0:
256,312,233556,6,0,P|208:320|192:200,1,181.999991668702,0|0,0:0|0:0,0:0:0:0:
344,184,234119,1,0,0:0:0:0:
176,152,234306,1,0,0:0:0:0:
344,112,234494,5,0,0:0:0:0:
319,116,234587,1,0,0:0:0:0:
297,129,234681,1,0,0:0:0:0:
282,148,234775,1,0,0:0:0:0:
273,171,234869,1,0,0:0:0:0:
273,196,234962,1,0,0:0:0:0:
282,219,235056,1,0,0:0:0:0:
376,344,235244,5,0,0:0:0:0:
344,184,235465,1,0,0:0:0:0:
222,306,235653,1,0,0:0:0:0:
424,225,235840,1,0,0:0:0:0:
374,100,236028,1,0,0:0:0:0:
365,268,236215,1,0,0:0:0:0:
303,107,236403,1,0,0:0:0:0:
306,306,236590,6,0,L|377:259,1,70,0|0,0:0|0:0,0:0:0:0:
233,112,236965,2,0,L|311:106,1,70,0|0,0:0|0:0,0:0:0:0:
188,175,237340,5,0,0:0:0:0:
393,219,237528,1,0,0:0:0:0:
186,251,237715,1,0,0:0:0:0:
391,289,237903,1,0,0:0:0:0:
182,320,238090,6,0,L|186:240,1,70,0|0,0:0|0:0,0:0:0:0:
393,219,238465,2,0,L|390:310,1,70,0|0,0:0|0:0,0:0:0:0:
278,148,238840,5,0,0:0:0:0:
142,273,239028,1,0,0:0:0:0:
324,200,239215,1,0,0:0:0:0:
113,212,239403,1,0,0:0:0:0:
294,261,239590,6,0,P|314:233|324:190,1,70,0|0,0:0|0:0,0:0:0:0:
142,273,239965,2,0,P|122:245|112:202,1,70,0|0,0:0|0:0,0:0:0:0:
138,80,240340,2,0,B|198:90|210:161|210:161|236:103|287:80,1,210,0|0,0:0|0:0,0:0:0:0:
268,90,241090,1,0,0:0:0:0:
395,51,241278,6,0,P|423:79|434:137,1,70,0|0,0:0|0:0,0:0:0:0:
294,152,241653,1,0,0:0:0:0:
157,118,241840,1,0,0:0:0:0:
326,73,242028,1,0,0:0:0:0:
406,228,242215,1,0,0:0:0:0:
294,152,242403,1,0,0:0:0:0:
157,118,242590,6,0,P|168:173|182:191,1,70,0|0,0:0|0:0,0:0:0:0:
406,228,242965,2,0,P|363:244|309:236,1,70,0|0,0:0|0:0,0:0:0:0:
294,152,243340,5,0,0:0:0:0:
126,148,243528,1,0,0:0:0:0:
310,220,243715,1,0,0:0:0:0:
126,212,243903,1,0,0:0:0:0:
88,270,244090,6,0,P|112:239|133:192,1,70,0|0,0:0|0:0,0:0:0:0:
347,161,244465,6,0,P|323:192|302:239,1,70,0|0,0:0|0:0,0:0:0:0:
259,343,244840,5,0,0:0:0:0:
377,244,245028,1,0,0:0:0:0:
282,104,245215,1,0,0:0:0:0:
269,257,245403,1,0,0:0:0:0:
350,106,245590,6,0,P|294:107|254:90,1,70,0|0,0:0|0:0,0:0:0:0:
200,259,245965,2,0,P|234:253|269:257,1,70,0|0,0:0|0:0,0:0:0:0:
116,281,246340,2,0,B|101:216|160:174,1,105,0|0,0:0|0:0,0:0:0:0:
176,162,246715,5,0,0:0:0:0:
334,66,246903,1,0,0:0:0:0:
231,220,247090,1,0,0:0:0:0:
396,112,247278,6,0,B|362:141|362:141|338:186,1,70,0|0,0:0|0:0,0:0:0:0:
388,327,247653,1,0,0:0:0:0:
447,185,247840,1,0,0:0:0:0:
292,181,248028,1,0,0:0:0:0:
488,253,248215,1,0,0:0:0:0:
399,115,248403,1,0,0:0:0:0:
388,327,248590,6,0,L|344:255,1,70,0|0,0:0|0:0,0:0:0:0:
255,121,248965,2,0,L|291:180,1,70,0|0,0:0|0:0,0:0:0:0:
215,315,249340,5,0,0:0:0:0:
121,192,249528,1,0,0:0:0:0:
219,73,249715,1,0,0:0:0:0:
291,180,249903,1,0,0:0:0:0:
215,315,250090,6,0,L|266:258,1,70,0|0,0:0|0:0,0:0:0:0:
218,72,250465,2,0,L|172:125,1,70,0|0,0:0|0:0,0:0:0:0:
324,146,250840,5,0,0:0:0:0:
178,198,251028,1,0,0:0:0:0:
254,231,251215,1,0,0:0:0:0:
386,311,251403,1,0,0:0:0:0:
238,297,251590,6,0,P|244:248|268:215,1,70,0|0,0:0|0:0,0:0:0:0:
339,79,251965,2,0,P|337:113|323:145,1,70,0|0,0:0|0:0,0:0:0:0:
159,225,252340,6,0,P|174:151|238:101,1,140,0|0,0:0|0:0,0:0:0:0:
238,261,252903,1,0,0:0:0:0:
142,58,253090,1,0,0:0:0:0:
296,59,253278,6,0,B|299:103|299:103|331:135,1,70,0|0,0:0|0:0,0:0:0:0:
467,157,253653,1,0,0:0:0:0:
371,76,253840,1,0,0:0:0:0:
295,230,254028,1,0,0:0:0:0:
409,281,254215,1,0,0:0:0:0:
336,154,254403,1,0,0:0:0:0:
344,298,254590,6,0,B|382:299|382:299|411:279,1,70,0|0,0:0|0:0,0:0:0:0:
336,154,254965,6,0,B|298:153|298:153|269:173,1,70,0|0,0:0|0:0,0:0:0:0:
188,301,255340,5,0,0:0:0:0:
212,148,255528,1,0,0:0:0:0:
139,357,255715,1,0,0:0:0:0:
77,215,255903,1,0,0:0:0:0:
167,95,256090,6,0,B|198:122|198:122|218:161,1,70,0|0,0:0|0:0,0:0:0:0:
121,267,256465,2,0,B|90:240|90:240|76:214,1,70,0|0,0:0|0:0,0:0:0:0:
85,60,256840,5,0,0:0:0:0:
150,199,257028,1,0,0:0:0:0:
121,79,257215,1,0,0:0:0:0:
184,219,257403,1,0,0:0:0:0:
150,19,257590,6,0,B|143:56|143:56|115:84,1,70,0|0,0:0|0:0,0:0:0:0:
184,219,257965,6,0,B|191:182|191:182|219:154,1,70,0|0,0:0|0:0,0:0:0:0:
367,173,258340,2,0,L|323:215,1,35,0|0,0:0|0:0,0:0:0:0:
384,262,258528,5,0,0:0:0:0:
415,246,258621,1,0,0:0:0:0:
438,220,258715,1,0,0:0:0:0:
450,188,258809,1,0,0:0:0:0:
450,153,258903,1,0,0:0:0:0:
437,121,258996,1,0,0:0:0:0:
413,96,259090,1,0,0:0:0:0:
383,78,259184,1,0,0:0:0:0:
347,77,259278,6,0,L|294:86,3,35,0|0|0|0,0:0|0:0|0:0|0:0,0:0:0:0:
137,155,259670,2,0,L|257:136,1,105,0|0,0:0|0:0,0:0:0:0:
368,160,260045,2,0,L|333:165,3,35
168,249,260420,2,0,L|272:233,1,105
376,271,260795,2,0,L|341:276,3,35,0|0|0|0,0:0|0:0|0:0|0:0,0:0:0:0:
168,348,261170,2,0,L|214:339,1,35,0|0,0:0|0:0,0:0:0:0:
298,320,261357,2,0,L|259:329,1,35,0|0,0:0|0:0,0:0:0:0:
179,237,261545,2,0,L|225:252,1,35,0|0,0:0|0:0,0:0:0:0:
327,289,261732,2,0,L|286:275,1,35,0|0,0:0|0:0,0:0:0:0:
334,157,261920,5,0,0:0:0:0:
302,173,262013,1,0,0:0:0:0:
271,189,262107,1,0,0:0:0:0:
240,205,262201,1,0,0:0:0:0:
213,224,262295,2,0,L|126:274,1,70,0|0,0:0|0:0,0:0:0:0:
154,104,262670,5,0,0:0:0:0:
298,51,262857,1,0,0:0:0:0:
242,231,263045,1,0,0:0:0:0:
247,136,263232,1,0,0:0:0:0:
354,247,263420,1,0,0:0:0:0:
178,144,263607,6,0,B|219:144|219:144|262:131,1,70,0|0,0:0|0:0,0:0:0:0:
410,207,263982,2,0,B|389:227|389:227|353:246,1,70,0|0,0:0|0:0,0:0:0:0:
126,222,264357,5,0,0:0:0:0:
289,264,264545,1,0,0:0:0:0:
103,215,264732,1,0,0:0:0:0:
331,280,264920,5,0,0:0:0:0:
347,275,265013,1,0,0:0:0:0:
355,264,265107,1,0,0:0:0:0:
359,250,265201,1,0,0:0:0:0:
355,238,265295,2,0,L|325:210,3,35,0|0|0|0,0:0|0:0|0:0|0:0,0:0:0:0:
274,55,265670,2,0,L|359:142,1,105,0|0,0:0|0:0,0:0:0:0:
361,213,266045,2,0,L|393:245,3,35
196,121,266420,2,0,L|269:196,1,105
262,282,266795,2,0,L|287:307,3,35
127,252,267170,6,0,L|164:289,1,35,0|0,0:0|0:0,0:0:0:0:
154,137,267357,2,0,L|117:103,1,35,0|0,0:0|0:0,0:0:0:0:
237,259,267545,2,0,L|197:306,1,35,0|0,0:0|0:0,0:0:0:0:
327,154,267732,2,0,L|349:127,1,35,0|0,0:0|0:0,0:0:0:0:
281,317,267920,5,0,0:0:0:0:
249,331,268013,1,0,0:0:0:0:
214,329,268107,1,0,0:0:0:0:
185,311,268201,1,0,0:0:0:0:
167,282,268295,2,0,B|156:238|156:238|119:205,1,70,0|0,0:0|0:0,0:0:0:0:
31,110,268670,5,0,0:0:0:0:
166,36,268857,1,0,0:0:0:0:
207,184,269045,1,0,0:0:0:0:
346,118,269232,1,0,0:0:0:0:
184,109,269420,1,0,0:0:0:0:
389,169,269607,2,0,B|358:146|358:146|338:100,1,70,0|0,0:0|0:0,0:0:0:0:
184,109,269982,2,0,B|171:80|171:80|140:57,1,70,0|0,0:0|0:0,0:0:0:0:
138,211,270357,5,0,0:0:0:0:
138,211,270451,1,0,0:0:0:0:
138,211,270545,2,0,L|166:255,1,35,0|0,0:0|0:0,0:0:0:0:
324,250,270732,5,0,0:0:0:0:
324,250,270826,1,0,0:0:0:0:
324,250,270920,2,0,L|296:206,3,35,0|0|0|0,0:0|0:0|0:0|0:0,0:0:0:0:
212,56,271295,6,0,L|263:146,1,70,0|0,0:0|0:0,0:0:0:0:
324,250,271670,1,0,0:0:0:0:
190,174,271857,1,0,0:0:0:0:
254,314,272045,1,0,0:0:0:0:
122,234,272232,1,0,0:0:0:0:
182,376,272420,1,0,0:0:0:0:
70,280,272607,6,0,L|141:216,1,70,0|0,0:0|0:0,0:0:0:0:
305,267,272982,2,0,L|254:314,1,70,0|0,0:0|0:0,0:0:0:0:
285,118,273357,5,0,0:0:0:0:
212,254,273545,1,0,0:0:0:0:
349,185,273732,1,0,0:0:0:0:
269,317,273920,1,0,0:0:0:0:
285,118,274107,6,0,B|311:87|311:87|348:73,1,70,0|0,0:0|0:0,0:0:0:0:
212,254,274482,2,0,B|185:284|185:284|149:299,1,70,0|0,0:0|0:0,0:0:0:0:
228,55,274857,5,0,0:0:0:0:
155,191,275045,1,0,0:0:0:0:
292,122,275232,1,0,0:0:0:0:
212,254,275420,1,0,0:0:0:0:
228,55,275607,6,0,B|254:24|254:24|291:10,1,70,0|0,0:0|0:0,0:0:0:0:
155,191,275982,2,0,B|128:221|128:221|92:236,1,70,0|0,0:0|0:0,0:0:0:0:
302,83,276357,6,0,B|341:75|341:75|379:86,1,70,0|0,0:0|0:0,0:0:0:0:
393,236,276732,2,0,L|344:217,1,35,0|0,0:0|0:0,0:0:0:0:
288,193,276920,1,0,0:0:0:0:
428,255,277107,5,0,0:0:0:0:
436,275,277201,1,0,0:0:0:0:
434,296,277295,2,0,B|416:332|416:332|371:341,1,70,0|0,0:0|0:0,0:0:0:0:
256,254,277670,5,0,0:0:0:0:
118,322,277857,1,0,0:0:0:0:
271,177,278045,1,0,0:0:0:0:
410,241,278232,1,0,0:0:0:0:
254,107,278420,1,0,0:0:0:0:
103,254,278607,6,0,B|107:295|107:295|127:344,1,70,0|0,0:0|0:0,0:0:0:0:
271,177,278982,2,0,B|267:136|267:136|246:87,1,70,0|0,0:0|0:0,0:0:0:0:
212,265,279357,5,0,0:0:0:0:
354,340,279545,1,0,0:0:0:0:
375,180,279732,1,0,0:0:0:0:
230,108,279920,1,0,0:0:0:0:
212,265,280107,6,0,L|276:298,1,70,0|0,0:0|0:0,0:0:0:0:
375,180,280482,2,0,L|311:147,1,70,0|0,0:0|0:0,0:0:0:0:
162,87,280857,5,0,0:0:0:0:
71,220,281045,1,0,0:0:0:0:
171,180,281232,1,0,0:0:0:0:
188,340,281420,1,0,0:0:0:0:
208,139,281607,6,0,B|204:175|204:175|158:181,1,70,0|0,0:0|0:0,0:0:0:0:
150,380,281982,2,0,B|154:344|154:344|200:338,1,70,0|0,0:0|0:0,0:0:0:0:
330,265,282357,2,0,P|344:243|337:217,1,35,0|0,0:0|0:0,0:0:0:0:
336,193,282545,5,0,0:0:0:0:
303,184,282638,1,0,0:0:0:0:
272,167,282732,1,0,0:0:0:0:
257,136,282826,1,0,0:0:0:0:
262,102,282920,1,0,0:0:0:0:
286,78,283013,1,0,0:0:0:0:
320,72,283107,1,0,0:0:0:0:
351,86,283201,1,0,0:0:0:0:
371,111,283295,6,0,B|384:124|384:124|390:141,3,35,0|0|0|0,0:0|0:0|0:0|0:0,0:0:0:0:
386,268,283670,2,0,B|345:222|345:222|318:152,1,105
224,115,284045,2,0,B|240:136|240:136|246:172,3,35
259,304,284420,2,0,B|218:258|218:258|191:188,1,105
106,144,284795,2,0,B|122:165|122:165|128:201,3,35
352,202,285170,6,0,B|369:181|369:181|372:151,1,35,0|0,0:0|0:0,0:0:0:0:
227,221,285357,2,0,B|208:237|208:237|196:274,1,35,0|0,0:0|0:0,0:0:0:0:
347,249,285545,2,0,B|372:239|372:239|390:215,1,35,0|0,0:0|0:0,0:0:0:0:
197,184,285732,2,0,B|172:187|172:187|143:213,1,35,0|0,0:0|0:0,0:0:0:0:
364,297,285920,5,0,0:0:0:0:
391,279,286013,1,0,0:0:0:0:
418,298,286107,1,0,0:0:0:0:
410,329,286201,1,0,0:0:0:0:
373,330,286295,2,0,P|336:328|296:340,1,70,0|0,0:0|0:0,0:0:0:0:
145,305,286670,5,0,0:0:0:0:
296,251,286857,1,0,0:0:0:0:
89,245,287045,1,0,0:0:0:0:
266,320,287232,1,0,0:0:0:0:
312,135,287420,1,0,0:0:0:0:
107,178,287607,6,0,B|102:218|102:218|84:252,1,70,0|0,0:0|0:0,0:0:0:0:
312,135,287982,2,0,B|317:95|317:95|335:61,1,70,0|0,0:0|0:0,0:0:0:0:
424,200,288357,5,0,0:0:0:0:
342,339,288545,1,0,0:0:0:0:
413,223,288732,1,0,0:0:0:0:
338,79,288920,5,0,0:0:0:0:
318,105,289013,1,0,0:0:0:0:
282,123,289107,1,0,0:0:0:0:
251,124,289201,1,0,0:0:0:0:
216,103,289295,6,0,L|183:82,1,35,0|0,0:0|0:0,0:0:0:0:
71,83,289482,2,0,L|100:101,1,35
243,254,289670,2,0,L|138:175,1,105
25,158,290045,2,0,L|73:189,1,35
74,286,290232,2,0,L|45:268,1,35
247,365,290420,2,0,L|142:286,1,105
146,201,290795,6,0,L|109:229,1,35,0|0,0:0|0:0,0:0:0:0:
221,149,290982,2,0,L|256:126,1,35,0|0,0:0|0:0,0:0:0:0:
152,254,291170,2,0,L|119:280,1,35,0|0,0:0|0:0,0:0:0:0:
267,171,291357,2,0,L|300:148,1,35,0|0,0:0|0:0,0:0:0:0:
173,153,291545,2,0,L|147:120,1,35,0|0,0:0|0:0,0:0:0:0:
256,268,291732,2,0,L|279:301,1,35,0|0,0:0|0:0,0:0:0:0:
416,322,291920,5,0,0:0:0:0:
394,292,292013,1,0,0:0:0:0:
373,264,292107,1,0,0:0:0:0:
353,235,292201,1,0,0:0:0:0:
334,209,292295,2,0,L|287:141,1,70,0|0,0:0|0:0,0:0:0:0:
145,88,292670,5,0,0:0:0:0:
38,208,292857,1,0,0:0:0:0:
166,305,293045,1,0,0:0:0:0:
210,137,293232,1,0,0:0:0:0:
103,257,293420,1,0,0:0:0:0:
210,67,293607,6,0,L|210:143,1,70,0|0,0:0|0:0,0:0:0:0:
103,327,293982,2,0,L|103:257,1,70,0|0,0:0|0:0,0:0:0:0:
239,170,294357,5,0,0:0:0:0:
247,136,294451,1,0,0:0:0:0:
269,109,294545,2,0,P|291:95|321:93,1,35,0|0,0:0|0:0,0:0:0:0:
329,194,294732,5,0,0:0:0:0:
320,227,294826,1,0,0:0:0:0:
298,254,294920,1,0,0:0:0:0:
267,270,295013,1,0,0:0:0:0:
236,276,295107,1,0,0:0:0:0:
201,271,295201,1,0,0:0:0:0:
175,252,295295,5,0,0:0:0:0:
158,93,295482,1,0,0:0:0:0:
239,194,295670,1,0,0:0:0:0:
131,182,295857,1,0,0:0:0:0:
183,5,296045,1,0,0:0:0:0:
257,106,296232,1,0,0:0:0:0:
104,266,296420,1,0,0:0:0:0:
190,116,296607,6,0,B|230:119|230:119|273:98,1,70,0|0,0:0|0:0,0:0:0:0:
104,266,296982,2,0,B|64:263|64:263|37:276,1,70,0|0,0:0|0:0,0:0:0:0:
182,346,297357,5,0,0:0:0:0:
290,281,297545,1,0,0:0:0:0:
399,347,297732,1,0,0:0:0:0:
221,345,297920,1,0,0:0:0:0:
383,280,298107,6,0,P|399:316|396:354,1,70,0|0,0:0|0:0,0:0:0:0:
182,346,298482,2,0,P|166:310|169:272,1,70,0|0,0:0|0:0,0:0:0:0:
234,133,298857,5,0,0:0:0:0:
390,94,299045,1,0,0:0:0:0:
341,247,299232,1,0,0:0:0:0:
209,107,299420,1,0,0:0:0:0:
341,43,299607,6,0,L|399:103,1,70,0|0,0:0|0:0,0:0:0:0:
341,247,299982,2,0,L|292:196,1,70,0|0,0:0|0:0,0:0:0:0:
142,137,300357,6,0,P|169:167|169:167,1,35,0|0,0:0|0:0,0:0:0:0:
218,224,300545,1,0,0:0:0:0:
59,200,300732,1,0,0:0:0:0:
183,97,300920,1,0,0:0:0:0:
178,263,301107,6,0,L|146:294,2,35,0|0|0,0:0|0:0|0:0,0:0:0:0:
319,102,301482,5,0,0:0:0:0:
344,200,301670,1,0,0:0:0:0:
222,78,301857,1,0,0:0:0:0:
424,159,302045,1,0,0:0:0:0:
374,284,302232,1,0,0:0:0:0:
365,116,302420,1,0,0:0:0:0:
306,78,302607,6,0,L|377:125,1,70,0|0,0:0|0:0,0:0:0:0:
233,272,302982,2,0,L|311:278,1,70,0|0,0:0|0:0,0:0:0:0:
188,209,303357,5,0,0:0:0:0:
393,165,303545,1,0,0:0:0:0:
186,133,303732,1,0,0:0:0:0:
391,95,303920,1,0,0:0:0:0:
182,64,304107,6,0,L|186:144,1,70,0|0,0:0|0:0,0:0:0:0:
393,165,304482,2,0,L|390:74,1,70,0|0,0:0|0:0,0:0:0:0:
278,236,304857,5,0,0:0:0:0:
142,111,305045,1,0,0:0:0:0:
324,184,305232,1,0,0:0:0:0:
113,172,305420,1,0,0:0:0:0:
165,45,305607,1,0,0:0:0:0:
111,261,305795,1,0,0:0:0:0:
89,282,305888,5,0,0:0:0:0:
145,246,305982,2,0,P|162:244|179:248,1,35,0|0,0:0|0:0,0:0:0:0:
260,302,306170,5,0,0:0:0:0:
290,318,306263,1,0,0:0:0:0:
325,320,306357,1,0,0:0:0:0:
358,309,306451,1,0,0:0:0:0:
378,282,306545,2,0,P|390:264|390:239,1,35,0|0,0:0|0:0,0:0:0:0:
334,176,306732,5,0,0:0:0:0:
315,147,306826,1,0,0:0:0:0:
323,114,306920,1,0,0:0:0:0:
352,96,307013,1,0,0:0:0:0:
385,106,307107,2,0,P|410:134|414:158,1,35
408,247,307295,6,0,L|433:207,1,35,0|0,0:0|0:0,0:0:0:0:
339,298,307482,2,0,L|320:327,1,35
346,203,307670,2,0,L|377:167,1,35,0|0,0:0|0:0,0:0:0:0:
269,241,307857,2,0,L|245:267,1,35,0|0,0:0|0:0,0:0:0:0:
289,152,308045,2,0,L|326:122,1,35,0|0,0:0|0:0,0:0:0:0:
206,176,308232,2,0,L|178:197,1,35,0|0,0:0|0:0,0:0:0:0:
245,89,308420,2,0,L|286:66,1,35,0|0,0:0|0:0,0:0:0:0:
159,98,308607,2,0,L|128:114,1,35,0|0,0:0|0:0,0:0:0:0:
61,60,308795,6,0,L|32:111,1,52.5000020027161
59,186,308982,2,0,L|44:253,1,52.5000020027161
93,119,309170,2,0,L|73:174,1,52.5000020027161
112,243,309357,2,0,L|108:311,1,52.5000020027161
138,170,309545,2,0,L|128:227,1,52.5000020027161
178,288,309732,2,0,L|186:356,1,52.5000020027161
254,206,309920,6,0,B|248:231|248:231|254:264,1,52.5000020027161
206,114,310107,2,0,B|200:139|200:139|206:172,1,52.5000020027161
87,86,310295,6,0,P|95:49|122:14,1,52.5000020027161,0|0,0:0|0:0,0:0:0:0:
74,193,310482,2,0,P|82:230|109:265,1,52.5000020027161,0|0,0:0|0:0,0:0:0:0:
150,88,310670,2,0,P|158:51|185:16,1,52.5000020027161,0|0,0:0|0:0,0:0:0:0:
149,209,310857,2,0,P|157:246|184:281,1,52.5000020027161,0|0,0:0|0:0,0:0:0:0:
217,88,311045,2,0,P|225:51|252:16,1,52.5000020027161,0|0,0:0|0:0,0:0:0:0:
228,229,311232,2,0,P|236:266|263:301,1,52.5000020027161,0|0,0:0|0:0,0:0:0:0:
286,89,311420,2,0,P|294:52|321:17,1,52.5000020027161,0|0,0:0|0:0,0:0:0:0:
305,248,311607,2,0,P|313:285|340:320,1,52.5000020027161,0|0,0:0|0:0,0:0:0:0:
367,103,311795,6,0,P|411:101|450:123,1,52.5000020027161,0|0,0:0|0:0,0:0:0:0:
508,126,311982,2,0,P|487:165|449:187,1,52.5000020027161
417,229,312170,2,0,P|393:191|392:147,1,52.5000020027161
496,255,312357,2,0,P|475:294|437:316,1,52.5000020027161
335,323,312545,2,0,P|379:321|418:343,1,52.5000020027161
307,237,312732,2,0,P|333:202|375:186,1,52.5000020027161
218,223,312920,2,0,P|208:180|223:137,1,52.5000020027161
158,288,313107,2,0,P|123:261|107:219,1,52.5000020027161
21,161,313295,6,0,L|7:230,1,70
88,71,313482,2,0,L|104:-7,1,70
96,183,313670,2,0,B|91:218|91:218|88:255,1,70
163,93,313857,2,0,B|171:49|171:49|181:16,1,70
176,207,314045,2,0,B|169:239|169:239|169:286,1,70
243,117,314232,2,0,B|253:73|253:73|267:41,1,70
251,229,314420,2,0,B|243:263|243:263|250:302,1,70
318,139,314607,2,0,B|325:100|325:100|344:59,1,70
402,127,314795,6,0,B|407:86|407:86|439:54,1,70
417,233,314982,2,0,B|450:257|450:257|497:250,1,70
318,139,315170,2,0,B|306:99|306:99|335:54,1,70
329,245,315357,2,0,B|341:284|341:284|387:319,1,70
219,139,315545,2,0,B|194:110|194:110|200:63,1,70
239,279,315732,2,0,B|217:309|217:309|229:346,1,70
84,132,315920,6,0,B|59:103|59:103|84:59,1,70
73,301,316107,2,0,B|108:314|108:314|130:284,1,70
169,175,316295,6,0,B|181:126|181:126|166:89,1,87.5
343,175,316482,2,0,B|331:126|331:126|346:89,1,87.5
162,175,316670,2,0,B|160:124|160:124|136:92,1,87.5
350,175,316857,2,0,B|351:124|351:124|375:92,1,87.5
156,175,317045,2,0,B|141:126|141:126|110:102,1,87.5
357,175,317232,2,0,B|371:126|371:126|402:102,1,87.5
150,175,317420,2,0,B|123:131|123:131|87:116,1,87.5
363,175,317607,2,0,B|389:131|389:131|425:116,1,87.5
273,299,317795,6,0,B|316:325|316:325|331:361,1,87.5
149,209,317982,2,0,B|122:252|122:252|86:267,1,87.5
239,85,318170,2,0,B|195:58|195:58|180:22,1,87.5
363,175,318357,2,0,B|389:131|389:131|425:116,1,87.5
336,251,318545,5,0,0:0:0:0:
304,246,318638,1,0,0:0:0:0:
282,225,318732,1,0,0:0:0:0:
275,194,318826,1,0,0:0:0:0:
270,140,318920,5,0,0:0:0:0:
220,161,319013,1,0,0:0:0:0:
197,208,319107,1,0,0:0:0:0:
203,260,319201,1,0,0:0:0:0:
227,307,319295,6,0,B|81:330|59:202|59:202|129:197|136:263,1,332.5
240,232,320404,2,0,P|302:216|223:156,1,210
152,104,321475,2,0,P|209:60|301:59,1,140
386,84,322279,6,0,L|396:54,3,17.5,0|0|0|0,0:0|0:0|0:0|0:0,0:0:0:0:
381,102,322547,6,0,P|359:155|361:170,1,70,0|0,0:0|0:0,0:0:0:0:
417,262,323083,2,0,P|439:209|437:194,1,70,0|0,0:0|0:0,0:0:0:0:
341,214,323618,2,0,B|302:280|357:338|357:338|320:317|273:319,1,210,0|0,0:0|0:0,0:0:0:0:
177,346,324690,2,0,B|180:299|157:277|157:277|190:244|187:198,1,140,0|0,0:0|0:0,0:0:0:0:
224,114,325493,1,0,0:0:0:0:
327,72,325761,1,0,0:0:0:0:
327,198,326029,6,0,L|320:183,3,17.5,0|0|0|0,0:0|0:0|0:0|0:0,0:0:0:0:
255,211,326297,2,0,B|255:209|263:227,3,17.5,0|0|0|0,0:0|0:0|0:0|0:0,0:0:0:0:
197,256,326565,2,0,L|190:241,3,17.5,0|0|0|0,0:0|0:0|0:0|0:0,0:0:0:0:
125,269,326833,2,0,B|125:267|133:285,3,17.5,0|0|0|0,0:0|0:0|0:0|0:0,0:0:0:0:
72,328,327100,2,0,L|56:296,1,35,0|0,0:0|0:0,0:0:0:0:
44,220,327368,5,0,0:0:0:0:
70,143,327502,1,0,0:0:0:0:
152,161,327636,1,0,0:0:0:0:
180,82,327770,1,0,0:0:0:0:
261,114,327904,6,0,B|298:93|298:93|351:127|391:88|364:69,1,140
310,184,328708,1,0,0:0:0:0:
366,247,328975,2,0,P|389:273|296:280,1,181.999991668702,0|0,0:0|0:0,0:0:0:0:
256,212,329779,1,0,0:0:0:0:
100,254,330047,2,0,P|79:305|115:367,2,112
254,304,330850,2,0,P|283:287|291:246,1,56
297,142,331118,5,0,0:0:0:0:
220,69,331297,1,0,0:0:0:0:
154,146,331475,1,0,0:0:0:0:
83,77,331654,1,0,0:0:0:0:
138,288,331922,5,0,0:0:0:0:
219,211,332190,2,0,B|242:173|280:201|280:201|242:247|248:336|323:347,1,251.999992309571
338,264,332993,1,0,0:0:0:0:
188,130,333261,2,0,P|141:190|199:368,1,265.999992897034,0|0,0:0|0:0,0:0:0:0:
261,227,334065,1,0,0:0:0:0:
101,114,334333,2,0,P|65:178|60:254,1,140,0|0,0:0|0:0,0:0:0:0:
125,337,334868,5,0,0:0:0:0:
79,265,335136,1,0,0:0:0:0:
212,321,335404,5,0,0:0:0:0:
137,203,335672,2,0,L|115:172,3,35
294,302,335940,5,0,0:0:0:0:
154,86,336208,1,0,0:0:0:0:
405,127,336475,6,0,B|361:89|308:96|260:144|260:233|287:243|448:181|409:347|338:395|280:375,1,420.000016021729
208,235,337815,1,0,0:0:0:0:
297,300,338083,1,0,0:0:0:0:
247,65,338350,1,0,0:0:0:0:
348,164,338618,6,0,B|370:148|386:119|386:119|407:155|404:204|404:204|369:242|368:279,1,210.000008010865
330,344,339422,5,0,0:0:0:0:
289,257,339556,1,0,0:0:0:0:
248,174,339690,1,0,0:0:0:0:
341,54,339958,2,0,B|310:68|278:68|278:68|333:85|355:141,1,175
132,131,340493,1,0,0:0:0:0:
209,133,340761,6,0,P|191:83|198:172,1,420.000016021729,0|0,0:0|0:0,0:0:0:0:
294,42,342100,1,0,0:0:0:0:
443,62,342368,1,0,0:0:0:0:
342,196,342636,6,0,P|360:158|350:129,1,52.5000020027161
274,150,342904,2,0,B|260:121|212:108|212:108|127:193|186:225|219:211|196:188,1,210.000008010865
313,67,343708,5,0,0:0:0:0:
375,123,343841,1,0,0:0:0:0:
441,185,343975,1,0,0:0:0:0:
413,286,344243,2,0,B|402:334|323:348|365:308,1,87.5,0|0,0:0|0:0,0:0:0:0:
291,360,344511,5,0,0:0:0:0:
275,277,344645,1,0,0:0:0:0:
258,195,344779,1,0,0:0:0:0:
193,134,345047,6,0,B|217:131|184:46|77:70|53:215|193:269|267:185,1,315.000012016297,0|0,0:0|0:0,0:0:0:0:
169,46,346118,1,0,0:0:0:0:
325,65,346386,1,0,0:0:0:0:
194,209,346654,1,0,0:0:0:0:
396,232,346922,1,0,0:0:0:0:
310,290,347190,6,0,B|358:329|358:329|303:310|273:337|273:337|235:317|199:339,1,210.000008010865
356,203,347993,1,0,0:0:0:0:
418,28,348261,2,0,B|377:45|327:27|327:27|381:70|378:153,1,175,0|0,0:0|0:0,0:0:0:0:
420,258,348797,1,0,0:0:0:0:
286,200,349065,1,0,0:0:0:0:
177,143,349333,2,0,P|261:142|195:171,1,210.000008010865,0|0,0:0|0:0,0:0:0:0:
103,219,350136,5,0,0:0:0:0:
249,249,350404,1,0,0:0:0:0:
165,283,350672,1,0,0:0:0:0:
266,134,350940,1,0,0:0:0:0:
157,83,351208,5,0,0:0:0:0:
175,189,351475,1,0,0:0:0:0:
246,44,351743,5,0,0:0:0:0:
110,123,352011,1,0,0:0:0:0:
285,129,352279,5,0,0:0:0:0:
18,52,352547,2,0,P|33:86|56:109,1,52.5000020027161
353,46,352815,6,0,L|368:72,4,26.2500010013581
33,176,353350,1,0,0:0:0:0:
143,319,353618,6,0,P|216:321|163:159,1,315.000012016297
181,248,354690,5,0,0:0:0:0:
181,248,354958,1,0,0:0:0:0:
302,101,355225,1,0,0:0:0:0:
116,73,355493,1,0,0:0:0:0:
116,73,355761,6,0,B|245:14|266:114|233:157|155:148|173:78|216:89|216:89,1,210.000008010865
207,102,356565,5,0,0:0:0:0:
201,203,356699,1,0,0:0:0:0:
194,310,356833,1,0,0:0:0:0:
81,190,357100,2,0,P|86:247|112:293,2,105.000004005432
329,142,357904,2,0,P|192:206|342:202,1,420.000016021729,0|0,0:0|0:0,0:0:0:0:
310,330,359243,1,0,0:0:0:0:
186,215,359511,1,0,0:0:0:0:
342,175,359779,1,0,0:0:0:0:
342,175,360047,6,0,P|315:129|192:174,1,210.000008010865
268,187,360850,5,0,0:0:0:0:
230,268,360984,1,0,0:0:0:0:
189,348,361118,1,0,0:0:0:0:
73,226,361386,6,0,B|118:188|98:137,1,78.7500030040742
105,75,361654,6,0,B|109:41|109:41|132:25,2,52.5000020027161,0|0|0,0:0|0:0|0:0,0:0:0:0:
226,47,362190,2,0,B|202:131|265:165|265:165|244:202|244:202|319:247|270:347,1,315.000012016297,0|0,0:0|0:0,0:0:0:0:
99,185,363261,5,0,0:0:0:0:
352,207,363529,1,0,0:0:0:0:
216,274,363797,1,0,0:0:0:0:
99,185,364065,1,0,0:0:0:0:
190,124,364333,6,0,B|205:138|215:169|215:169|234:72|305:46|327:118|293:118,1,210.000008010865
144,27,365136,1,0,0:0:0:0:
138,186,365404,2,0,B|107:252|163:307|163:307|166:263|201:239,1,175
254,154,365940,5,0,0:0:0:0:
327,297,366208,1,0,0:0:0:0:
355,199,366475,6,0,P|423:276|390:376,1,210.000008010865
262,223,367279,6,0,P|309:193|364:204,2,105.000004005432
380,343,368083,1,0,0:0:0:0:
376,131,368350,1,0,0:0:0:0:
179,300,368618,5,0,0:0:0:0:
179,100,368886,1,0,0:0:0:0:
179,324,369154,1,0,0:0:0:0:
102,101,369422,1,0,0:0:0:0:
102,101,369556,1,0,0:0:0:0:
102,101,369690,6,0,L|99:144,3,26.2500010013581,0|0|0|0,0:0|0:0|0:0|0:0,0:0:0:0:
205,43,369958,6,0,L|202:86,3,26.2500010013581
276,202,370225,1,0,0:0:0:0:
388,81,370493,6,0,P|426:72|474:99,1,78.7500030040742
412,154,370761,6,0,B|340:187|345:309|472:289|463:223|427:218,1,210.000008010865,0|0,0:0|0:0,0:0:0:0:
293,244,371565,1,0,0:0:0:0:
321,78,371833,2,0,P|303:126|247:141,1,105.000004005432,0|0,0:0|0:0,0:0:0:0:
107,61,372368,1,0,0:0:0:0:
107,61,372636,2,0,B|146:117|146:117|128:164|128:164|188:184|182:246,1,210.000008010865,0|0,0:0|0:0,0:0:0:0:
74,359,373440,1,0,0:0:0:0:
98,222,373708,5,0,0:0:0:0:
176,193,373841,1,0,0:0:0:0:
255,167,373975,1,0,0:0:0:0:
168,311,374243,5,0,0:0:0:0:
323,247,374511,1,0,0:0:0:0:
240,384,374779,1,0,0:0:0:0:
275,152,375047,6,0,P|334:166|293:83,1,210.000008010865
216,233,375850,5,0,0:0:0:0:
216,233,376118,2,0,P|176:192|178:142,2,105.000004005432,0|0|0,0:0|0:0|0:0,0:0:0:0:
404,118,376922,1,0,0:0:0:0:
372,294,377190,6,0,B|416:253|401:200|401:200|323:187|321:99,1,210.000008010865
267,90,377993,5,0,0:0:0:0:
201,158,378127,1,0,0:0:0:0:
136,219,378261,1,0,0:0:0:0:
80,60,378529,5,0,0:0:0:0:
40,194,378797,1,0,0:0:0:0:
213,90,379065,1,0,0:0:0:0:
380,103,379333,6,0,B|338:144|352:189|352:189|432:256|360:314,1,210.000008010865,0|0,0:0|0:0,0:0:0:0:
270,163,380136,1,0,0:0:0:0:
300,328,380404,2,0,P|242:321|205:272,1,105.000004005432,0|0,0:0|0:0,0:0:0:0:
331,170,380940,1,0,0:0:0:0:
168,266,381208,1,0,0:0:0:0:
168,266,381475,6,0,P|212:295|105:293,1,315.000012016297
239,80,382547,1,0,0:0:0:0:
281,242,382815,1,0,0:0:0:0:
412,137,383083,1,0,0:0:0:0:
263,260,383350,1,0,0:0:0:0:
157,129,383618,6,0,P|108:183|110:235,2,105.000004005432,0|0|0,0:0|0:0|0:0,0:0:0:0:
230,321,384422,2,0,P|310:300|330:260,1,105.000004005432,0|0,0:0|0:0,0:0:0:0:
290,122,384958,2,0,P|239:172|270:265,1,157.500006008148,0|0,0:0|0:0,0:0:0:0:
271,268,385493,2,0,P|195:259|164:203,1,105.000004005432,0|0,0:0|0:0,0:0:0:0:
71,109,386029,1,0,0:0:0:0:
214,196,386297,1,0,0:0:0:0:
160,75,386565,6,0,L|145:45,3,26.2500010013581,0|0|0|0,0:0|0:0|0:0|0:0,0:0:0:0:
168,97,386833,6,0,P|201:47|263:43,1,105.000004005432
197,96,387167,2,0,P|285:57|344:117,1,183.750007009506
62,53,387904,6,0,B|147:355|147:355|156:389|222:371|216:342|216:342|181:216|181:216|266:192|266:192|341:142|303:13|201:24|201:24|133:41,1,944.99997116089
226,126,396208,5,0,0:0:0:0:
348,213,396475,6,0,P|308:255|283:261,1,70
185,236,397011,1,0,0:0:0:0:
267,182,397279,1,0,0:0:0:0:
305,350,397547,2,0,P|258:353|235:337,2,70
325,236,398350,1,0,0:0:0:0:
325,236,398618,6,0,P|374:221|400:178,1,70,0|0,0:0|0:0,0:0:0:0:
467,151,399154,2,0,P|430:117|380:116,1,70,0|0,0:0|0:0,0:0:0:0:
325,68,399690,2,0,P|314:118|338:162,2,70,0|0|0,0:0|0:0|0:0,0:0:0:0:
413,112,400493,1,0,0:0:0:0:
413,112,400761,6,0,L|340:140,1,70,0|0,0:0|0:0,0:0:0:0:
259,180,401297,1,0,0:0:0:0:
287,86,401565,1,0,0:0:0:0:
324,214,401833,2,0,P|293:254|261:259,2,70
174,108,402636,1,0,0:0:0:0:
174,108,402904,6,0,P|139:149|135:181,1,70,0|0,0:0|0:0,0:0:0:0:
38,178,403440,2,0,P|57:229|82:249,1,70,0|0,0:0|0:0,0:0:0:0:
131,315,403975,2,0,P|92:336|36:326,2,70,0|0|0,0:0|0:0|0:0,0:0:0:0:
164,223,404779,1,0,0:0:0:0:
164,223,405047,5,0,0:0:0:0:
238,289,405315,1,0,0:0:0:0:
253,193,405583,1,0,0:0:0:0:
190,328,405850,1,0,0:0:0:0:
320,299,406118,2,0,P|316:259|292:227,2,70
190,328,406922,1,0,0:0:0:0:
190,328,407190,6,0,L|288:343,1,70,0|0,0:0|0:0,0:0:0:0:
309,254,407725,1,0,0:0:0:0:
212,254,407993,1,0,0:0:0:0:
287,338,408261,2,0,L|368:323,1,70,0|0,0:0|0:0,0:0:0:0:
427,257,408797,1,0,0:0:0:0:
427,257,409065,5,0,0:0:0:0:
336,223,409333,2,0,P|363:187|400:170,1,70,0|0,0:0|0:0,0:0:0:0:
480,152,409868,2,0,P|462:111|416:86,1,70,0|0,0:0|0:0,0:0:0:0:
351,51,410404,2,0,P|372:23|404:10,2,70
256,87,411208,1,0,0:0:0:0:
256,87,411475,6,0,P|241:134|253:181,1,70,0|0,0:0|0:0,0:0:0:0:
321,217,412011,1,0,0:0:0:0:
318,135,412279,1,0,0:0:0:0:
262,267,412547,2,0,P|298:288|340:282,2,70
179,174,413350,5,0,0:0:0:0:
82,271,413618,6,0,P|121:304|164:307,1,70,0|0,0:0|0:0,0:0:0:0:
232,283,414154,1,0,0:0:0:0:
150,229,414422,1,0,0:0:0:0:
207,350,414690,2,0,P|268:346|282:334,2,70
187,236,415493,1,0,0:0:0:0:
187,236,415761,6,0,P|138:221|112:178,1,70,0|0,0:0|0:0,0:0:0:0:
45,151,416297,2,0,P|82:117|132:116,1,70,0|0,0:0|0:0,0:0:0:0:
187,68,416833,2,0,P|198:118|174:162,2,70,0|0|0,0:0|0:0|0:0,0:0:0:0:
99,112,417636,1,0,0:0:0:0:
99,112,417904,6,0,L|172:140,1,70,0|0,0:0|0:0,0:0:0:0:
253,180,418440,1,0,0:0:0:0:
225,86,418708,1,0,0:0:0:0:
188,214,418975,2,0,P|218:247|251:254,2,70
338,108,419779,1,0,0:0:0:0:
338,108,420047,2,0,P|360:148|351:189,1,70,0|0,0:0|0:0,0:0:0:0:
251,205,420583,2,0,P|246:250|262:288,1,70,0|0,0:0|0:0,0:0:0:0:
141,279,421118,2,0,P|104:310|56:307,1,70,0|0,0:0|0:0,0:0:0:0:
87,200,421654,2,0,P|123:165|157:163,1,70,0|0,0:0|0:0,0:0:0:0:
256,192,422190,5,0,0:0:0:0:
