osu file format v14

[General]
AudioFilename: audio.mp3
AudioLeadIn: 0
PreviewTime: 45187
Countdown: 1
SampleSet: Normal
StackLeniency: 0.7
Mode: 1
LetterboxInBreaks: 0
WidescreenStoryboard: 1

[Editor]
Bookmarks: 12273,23244,34130,56159,67130,89073,99987,121987
DistanceSpacing: 0.9
BeatDivisor: 4
GridSize: 32
TimelineZoom: 1.9

[Metadata]
Title:Hej Sokoly
TitleUnicode:Hej Sokoly
Artist:Half Polish
ArtistUnicode:Half Polish
Creator:Volta
Version:Muzukashii
Source:osu!
Tags:radio gosha x disko warp initial p pete ellison hey falcons poland ukraine ukrainian featured artist fa electronic dance music edm instrumental hardbass
BeatmapID:2208380
BeatmapSetID:1051396

[Difficulty]
HPDrainRate:5
CircleSize:6
OverallDifficulty:5
ApproachRate:6
SliderMultiplier:1.4
SliderTickRate:1

[Events]
//Background and Video events
0,0,"BG.png",0,-85
//Break Periods
//Storyboard Layer 0 (Background)
//Storyboard Layer 1 (Fail)
//Storyboard Layer 2 (Pass)
//Storyboard Layer 3 (Foreground)
//Storyboard Layer 4 (Overlay)
//Storyboard Sound Samples

[TimingPoints]
1315,342.857142857143,4,1,0,60,1,0
12286,-100,4,1,0,70,0,0
23257,-100,4,1,0,80,0,0
34229,-100,4,1,0,60,0,0
45200,-100,4,1,0,70,0,0
56172,-100,4,1,0,80,0,0
100057,-100,4,1,0,85,0,1
120629,-100,4,1,0,80,0,0
120800,-100,4,1,0,50,0,0
122000,-100,4,1,0,60,0,0
132972,-100,4,1,0,70,0,0
143943,-100,4,1,0,80,0,0
154572,352.941176470588,4,1,0,70,1,8
154572,-97.1400817119122,4,1,0,70,0,8
154924,358.208955223881,4,1,0,60,1,0
154924,-95.7142857145592,4,1,0,60,0,0
155192,-96.4028776974533,4,1,0,60,0,0
155282,352.941176470588,4,1,0,60,1,8
155282,-98.5507248662046,4,1,0,60,0,8
155458,-99.2700729923529,4,1,0,60,0,8
155634,363.636363636364,4,1,0,60,1,8
155634,-97.0588235579585,4,1,0,60,0,8
155906,-97.7777777784731,4,1,0,60,0,8
155997,-98.5074627012698,4,1,0,60,0,8
156179,-99.2481203574651,4,1,0,60,0,8
156361,366.412213740458,4,1,0,60,1,0
156361,-99.2424242420558,4,1,0,60,0,0
156544,-99.6197718634285,4,1,0,60,0,0
156635,-99.8095238091816,4,1,0,60,0,0
156727,369.230769230769,4,1,0,60,1,8
156727,-99.923136049216,4,1,0,60,0,8
156911,-99.6168582371662,4,1,0,60,0,8
157003,-99.808061420652,4,1,0,60,0,8
157096,-100,4,1,0,60,0,8
157280,-100.386100386488,4,1,0,60,0,8
157465,-100.775193798215,4,1,0,60,0,8
157557,-100.970873786878,4,1,0,60,0,8
157650,-101.167315175255,4,1,0,60,0,8
157834,384.615384615385,4,1,0,60,1,0
157834,-97.5009506343662,4,1,0,60,0,0
158122,-98.0746561882598,4,1,0,60,0,0
158218,-98.2677165352597,4,1,0,60,0,0
158410,-98.6561264823881,4,1,0,60,0,0
158603,394.736842105263,4,1,0,60,1,8
158603,-96.4492953360293,4,1,0,60,0,8
158899,-97.0858283431645,4,1,0,60,0,8
158997,-97.2799999996015,4,1,0,60,0,8
159195,-97.6706827309739,4,1,0,60,0,8
159392,405.405405405405,4,1,0,60,1,0
159392,-95.4838716330489,4,1,0,60,0,0
159594,-95.870445344527,4,1,0,60,0,0
159696,-96.06490872191,4,1,0,60,0,0
159797,-96.2601626017512,4,1,0,60,0,0
159898,-96.4562118130799,4,1,0,60,0,0
160000,-96.6530612243383,4,1,0,60,0,0
160202,408.163265306122,4,1,0,60,1,8
160202,-96.3934426226158,4,1,0,60,0,8
160406,-96.7901234564269,4,1,0,60,0,8
160508,-96.9896907222126,4,1,0,60,0,8
160610,-97.1900826442361,4,1,0,60,0,8
160814,-97.5933609954295,4,1,0,60,0,8
161018,413.793103448276,4,1,0,60,1,0
161018,-96.6666666667311,4,1,0,60,0,0
161638,-97.8902953584515,4,1,0,60,0,0
161845,425.531914893617,4,1,0,60,1,8
161845,-95.593220338996,4,1,0,60,0,8
162270,-96.4102599700495,4,1,0,60,0,8
162483,-96.8240343347373,4,1,0,60,0,8
162696,433.212996389892,4,1,0,60,1,0
162696,-95.5172421039239,4,1,0,60,0,0
163129,-96.3478260873386,4,1,0,60,0,0
163345,-96.7685589515019,4,1,0,60,0,0
163562,437.956204379562,4,1,0,60,1,8
163562,-96.1403508773279,4,1,0,60,0,8
163780,-96.5638766515944,4,1,0,60,0,8
163890,-96.7770419424203,4,1,0,60,0,8
163999,-96.9911504424985,4,1,0,60,0,8
164218,-97.4222222226587,4,1,0,60,0,8
164437,444.444444444444,4,1,0,60,1,0
164437,-96.4285714320153,4,1,0,60,0,0
164881,-97.2973046603366,4,1,0,60,0,0
165103,-97.7375565618643,4,1,0,60,0,0
165214,-97.9591837054561,4,1,0,60,0,0
165325,456.273764258555,4,1,0,60,1,8
165325,-95.6363636359846,4,1,0,60,0,8
165553,-96.0730616419174,4,1,0,60,0,8
165781,-96.5137614682441,4,1,0,60,0,8
166009,-96.9585253458831,4,1,0,60,0,8
166237,466.926070038911,4,1,0,60,1,0
166237,-95.2328015859559,4,1,0,60,0,0
166703,-96.0747663549929,4,1,0,60,0,0
166820,-96.2997658082981,4,1,0,60,0,0
166937,-96.0747663549929,4,1,0,60,0,0
167052,-96.7529411768494,4,1,0,60,0,0
167170,468.75,4,1,0,60,1,8
167170,-96.6037726516768,4,1,0,60,0,8
167404,-97.0616113744076,4,1,0,60,0,8
167521,-97.2921641824364,4,1,0,60,0,8
167638,-97.5238095238095,4,1,0,60,0,8
167755,-97.7565632458234,4,1,0,60,0,8
167873,-97.9904306220096,4,1,0,60,0,8
168107,468.75,4,1,0,60,1,0
168107,-98.4615384615385,4,1,0,60,0,0
183107,342.857142857143,4,1,0,75,1,0
194078,-100,4,1,0,85,0,1
205049,-100,4,1,0,75,0,0
214735,-100,4,1,0,55,0,0
216021,-100,4,1,0,35,0,0
216278,-100,4,1,0,25,0,0
216535,-100,4,1,0,5,0,0

[HitObjects]
279,165,1315,5,4,0:0:0:0:
173,140,1657,1,8,0:0:0:0:
15,129,2172,1,0,0:0:0:0:
293,144,2343,1,8,0:0:0:0:
76,109,2686,1,0,0:0:0:0:
293,144,3029,1,8,0:0:0:0:
138,76,3543,1,8,0:0:0:0:
293,144,3715,1,8,0:0:0:0:
168,109,4057,1,0,0:0:0:0:
110,140,4400,1,8,0:0:0:0:
138,76,4915,1,0,0:0:0:0:
293,144,5086,1,8,0:0:0:0:
138,76,5429,1,0,0:0:0:0:
293,144,5772,1,8,0:0:0:0:
224,110,6286,1,8,0:0:0:0:
293,144,6457,1,8,0:0:0:0:
138,76,6800,1,0,0:0:0:0:
293,144,7143,1,8,0:0:0:0:
138,76,7657,1,0,0:0:0:0:
293,144,7829,1,8,0:0:0:0:
138,76,8172,1,0,0:0:0:0:
293,144,8515,1,8,0:0:0:0:
197,109,9029,1,8,0:0:0:0:
293,144,9200,1,8,0:0:0:0:
138,76,9543,1,0,0:0:0:0:
293,144,9886,1,8,0:0:0:0:
138,76,10400,1,0,0:0:0:0:
293,144,10572,1,8,0:0:0:0:
214,98,10915,1,0,0:0:0:0:
335,170,11429,1,8,0:0:0:0:
335,170,11600,1,0,0:0:0:0:
335,170,11686,1,0,0:0:0:0:
335,170,11772,1,0,0:0:0:0:
186,108,11943,1,8,0:0:0:0:
186,108,12115,1,0,0:0:0:0:
186,108,12286,1,4,0:0:0:0:
69,151,12629,1,8,0:0:0:0:
175,70,12972,1,0,0:0:0:0:
101,132,13143,1,0,0:0:0:0:
186,175,13315,1,8,0:0:0:0:
187,170,13657,1,0,0:0:0:0:
186,175,14000,1,8,0:0:0:0:
187,170,14343,1,0,0:0:0:0:
369,133,14515,1,0,0:0:0:0:
187,170,14686,1,8,0:0:0:0:
206,146,14857,1,0,0:0:0:0:
206,146,15029,1,0,0:0:0:0:
206,146,15372,1,8,0:0:0:0:
62,135,15715,1,0,0:0:0:0:
132,150,15886,1,0,0:0:0:0:
62,135,16057,1,8,0:0:0:0:
62,135,16400,1,0,0:0:0:0:
70,134,17086,1,0,0:0:0:0:
78,133,17343,1,0,0:0:0:0:
78,133,17429,1,0,0:0:0:0:
78,133,17600,1,0,0:0:0:0:
78,133,17772,1,0,0:0:0:0:
78,133,18115,1,8,0:0:0:0:
162,136,18457,1,0,0:0:0:0:
132,150,18629,1,0,0:0:0:0:
169,122,18800,1,8,0:0:0:0:
169,122,19143,1,0,0:0:0:0:
169,122,19486,1,8,0:0:0:0:
189,61,19829,1,0,0:0:0:0:
269,125,20000,1,0,0:0:0:0:
169,122,20172,1,8,0:0:0:0:
183,114,20343,1,0,0:0:0:0:
169,122,20515,1,0,0:0:0:0:
183,114,20857,1,8,0:0:0:0:
183,114,21200,1,0,0:0:0:0:
183,114,21543,1,8,0:0:0:0:
269,125,21715,1,0,0:0:0:0:
70,156,21886,1,0,0:0:0:0:
194,140,22572,1,0,0:0:0:0:
194,140,22743,1,0,0:0:0:0:
194,140,23086,1,0,0:0:0:0:
194,140,23172,1,0,0:0:0:0:
194,140,23257,1,0,0:0:0:0:
218,119,23600,1,8,0:0:0:0:
248,111,23943,1,0,0:0:0:0:
267,73,24115,1,8,0:0:0:0:
267,73,24286,1,8,0:0:0:0:
267,73,24629,1,0,0:0:0:0:
267,73,24972,1,8,0:0:0:0:
264,103,25315,1,0,0:0:0:0:
264,103,25486,1,8,0:0:0:0:
121,145,25657,1,0,0:0:0:0:
181,108,25743,1,0,0:0:0:0:
264,103,25829,1,0,0:0:0:0:
264,103,26000,1,0,0:0:0:0:
152,127,26343,1,8,0:0:0:0:
152,127,26686,1,0,0:0:0:0:
239,129,26857,1,8,0:0:0:0:
239,129,27029,1,8,0:0:0:0:
239,129,27372,1,0,0:0:0:0:
239,129,28057,1,0,0:0:0:0:
239,129,28229,1,0,0:0:0:0:
239,129,28315,1,0,0:0:0:0:
239,129,28400,1,0,0:0:0:0:
239,129,28572,1,0,0:0:0:0:
239,129,28743,1,0,0:0:0:0:
239,129,29086,1,8,0:0:0:0:
239,129,29429,1,0,0:0:0:0:
204,89,29600,1,8,0:0:0:0:
272,67,29772,1,8,0:0:0:0:
228,84,29943,1,0,0:0:0:0:
275,58,30115,1,0,0:0:0:0:
293,37,30457,1,8,0:0:0:0:
292,50,30800,1,0,0:0:0:0:
84,122,30972,1,8,0:0:0:0:
292,50,31143,1,8,0:0:0:0:
292,50,31315,1,0,0:0:0:0:
292,50,31486,1,0,0:0:0:0:
267,62,31572,1,0,0:0:0:0:
235,78,31657,1,0,0:0:0:0:
21,126,31829,1,8,0:0:0:0:
279,156,32172,1,0,0:0:0:0:
279,156,32343,1,8,0:0:0:0:
270,156,32515,1,8,0:0:0:0:
308,151,32857,1,0,0:0:0:0:
260,149,33029,1,8,0:0:0:0:
236,148,33115,1,8,0:0:0:0:
138,75,33200,1,8,0:0:0:0:
223,140,33372,1,8,0:0:0:0:
223,140,33543,1,0,0:0:0:0:
223,140,33715,1,8,0:0:0:0:
223,140,33886,1,0,0:0:0:0:
292,133,33972,1,0,0:0:0:0:
152,86,34057,1,0,0:0:0:0:
235,98,34229,1,12,0:0:0:0:
69,187,34915,1,8,0:0:0:0:
69,187,35257,1,0,0:0:0:0:
30,141,35429,1,0,0:0:0:0:
69,187,35600,1,8,0:0:0:0:
119,131,35943,1,0,0:0:0:0:
70,140,36286,1,8,0:0:0:0:
17,146,36457,1,0,0:0:0:0:
112,157,36629,1,0,0:0:0:0:
133,140,36800,1,0,0:0:0:0:
112,157,36972,1,8,0:0:0:0:
64,148,37315,1,0,0:0:0:0:
172,90,37657,1,8,0:0:0:0:
172,90,38000,1,0,0:0:0:0:
121,112,38172,1,0,0:0:0:0:
172,90,38343,1,8,0:0:0:0:
172,90,38686,1,0,0:0:0:0:
172,90,39029,1,8,0:0:0:0:
172,90,39200,1,0,0:0:0:0:
172,90,39372,1,0,0:0:0:0:
208,94,39543,1,0,0:0:0:0:
82,131,39715,1,8,0:0:0:0:
82,131,40057,1,0,0:0:0:0:
82,131,40400,1,8,0:0:0:0:
10,138,40572,1,8,0:0:0:0:
82,131,40743,1,0,0:0:0:0:
82,131,41086,1,8,0:0:0:0:
82,131,41429,1,0,0:0:0:0:
76,112,41772,1,8,0:0:0:0:
98,143,41943,1,0,0:0:0:0:
6,160,42115,1,0,0:0:0:0:
76,112,42286,1,0,0:0:0:0:
76,112,42457,1,8,0:0:0:0:
202,130,42800,1,0,0:0:0:0:
156,128,43143,1,8,0:0:0:0:
91,120,43315,1,8,0:0:0:0:
156,128,43486,1,0,0:0:0:0:
322,198,43829,1,8,0:0:0:0:
268,187,44000,1,8,0:0:0:0:
126,93,44172,1,0,0:0:0:0:
145,161,44343,1,0,0:0:0:0:
136,129,44515,1,8,0:0:0:0:
154,85,44600,1,8,0:0:0:0:
136,129,44686,1,8,0:0:0:0:
136,129,44857,1,8,0:0:0:0:
216,105,45200,1,4,0:0:0:0:
195,152,45543,1,8,0:0:0:0:
277,127,45715,1,0,0:0:0:0:
199,144,45886,1,0,0:0:0:0:
199,144,46229,1,8,0:0:0:0:
278,119,46400,1,0,0:0:0:0:
199,144,46572,1,8,0:0:0:0:
278,119,47086,1,8,0:0:0:0:
278,119,47257,1,8,0:0:0:0:
278,119,47429,1,0,0:0:0:0:
278,119,47600,1,8,0:0:0:0:
115,145,47943,1,0,0:0:0:0:
115,145,48286,1,8,0:0:0:0:
158,133,48457,1,0,0:0:0:0:
162,142,48629,1,0,0:0:0:0:
162,142,48972,1,8,0:0:0:0:
162,142,49143,1,0,0:0:0:0:
162,142,49315,1,8,0:0:0:0:
278,119,49829,1,8,0:0:0:0:
278,119,50000,1,8,0:0:0:0:
278,119,50172,1,0,0:0:0:0:
278,119,50343,1,8,0:0:0:0:
115,145,50686,1,0,0:0:0:0:
115,145,51029,1,8,0:0:0:0:
158,133,51200,1,0,0:0:0:0:
162,142,51372,1,0,0:0:0:0:
162,142,51715,1,8,0:0:0:0:
162,142,51886,1,0,0:0:0:0:
162,142,52057,1,8,0:0:0:0:
278,119,52572,1,8,0:0:0:0:
278,119,52743,1,8,0:0:0:0:
278,119,52915,1,0,0:0:0:0:
278,119,53086,1,8,0:0:0:0:
163,159,53429,1,8,0:0:0:0:
240,137,53943,1,8,0:0:0:0:
240,137,54115,1,8,0:0:0:0:
240,137,54286,1,0,0:0:0:0:
240,137,54457,1,8,0:0:0:0:
240,137,54629,1,0,0:0:0:0:
240,137,54800,1,0,0:0:0:0:
31,157,55143,1,0,0:0:0:0:
167,125,55315,1,8,0:0:0:0:
167,125,55486,1,8,0:0:0:0:
100,122,55657,1,0,0:0:0:0:
101,137,55829,1,8,0:0:0:0:
144,131,56000,1,0,0:0:0:0:
144,131,56172,1,4,0:0:0:0:
195,152,56515,1,8,0:0:0:0:
199,144,56857,1,0,0:0:0:0:
134,170,57029,1,0,0:0:0:0:
199,144,57200,1,8,0:0:0:0:
278,119,57372,1,0,0:0:0:0:
199,144,57543,1,8,0:0:0:0:
278,119,58057,1,8,0:0:0:0:
278,119,58229,1,8,0:0:0:0:
409,219,58400,1,0,0:0:0:0:
278,119,58572,1,8,0:0:0:0:
115,145,58743,1,0,0:0:0:0:
115,145,58915,1,0,0:0:0:0:
115,145,59257,1,8,0:0:0:0:
162,142,59600,1,0,0:0:0:0:
185,189,59772,1,0,0:0:0:0:
162,142,59943,1,8,0:0:0:0:
162,142,60115,1,0,0:0:0:0:
162,142,60286,1,8,0:0:0:0:
278,119,60800,1,8,0:0:0:0:
278,119,60972,1,8,0:0:0:0:
278,119,61143,1,0,0:0:0:0:
278,119,61315,1,8,0:0:0:0:
115,145,61486,1,0,0:0:0:0:
115,145,61657,1,0,0:0:0:0:
115,145,62000,1,8,0:0:0:0:
162,142,62343,1,0,0:0:0:0:
205,95,62515,1,0,0:0:0:0:
162,142,62686,1,8,0:0:0:0:
162,142,62857,1,0,0:0:0:0:
162,142,63029,1,8,0:0:0:0:
278,119,63543,1,8,0:0:0:0:
278,119,63715,1,8,0:0:0:0:
278,119,63886,1,0,0:0:0:0:
263,73,64057,1,8,0:0:0:0:
201,82,64229,1,0,0:0:0:0:
163,159,64400,1,8,0:0:0:0:
90,96,64743,1,0,0:0:0:0:
241,88,64915,1,8,0:0:0:0:
182,126,65086,1,8,0:0:0:0:
147,98,65257,1,0,0:0:0:0:
172,110,65429,1,8,0:0:0:0:
141,119,65515,1,8,0:0:0:0:
157,123,65600,1,8,0:0:0:0:
187,117,65772,5,0,0:0:0:0:
131,134,66115,1,8,0:0:0:0:
216,90,66286,1,8,0:0:0:0:
221,90,66372,1,8,0:0:0:0:
131,134,66457,1,8,0:0:0:0:
336,80,66629,1,0,0:0:0:0:
162,115,66800,1,0,0:0:0:0:
143,103,66886,1,0,0:0:0:0:
108,83,66972,1,0,0:0:0:0:
197,116,67143,1,12,0:0:0:0:
168,117,67829,1,8,0:0:0:0:
172,118,68172,1,8,0:0:0:0:
168,117,68343,1,0,0:0:0:0:
168,117,68515,1,8,0:0:0:0:
46,102,68857,1,8,0:0:0:0:
61,120,69029,1,0,0:0:0:0:
61,120,69200,1,8,0:0:0:0:
61,120,69286,1,8,0:0:0:0:
89,138,69372,1,8,0:0:0:0:
168,117,69543,1,0,0:0:0:0:
209,135,69715,1,0,0:0:0:0:
195,105,69886,1,8,0:0:0:0:
116,129,70229,1,8,0:0:0:0:
150,128,70400,1,0,0:0:0:0:
240,118,70572,1,8,0:0:0:0:
113,105,70915,1,8,0:0:0:0:
113,105,71086,1,0,0:0:0:0:
113,105,71257,1,8,0:0:0:0:
126,102,71429,1,8,0:0:0:0:
126,102,71515,1,8,0:0:0:0:
126,102,71600,1,8,0:0:0:0:
126,102,71772,1,0,0:0:0:0:
195,86,71943,1,8,0:0:0:0:
195,86,72286,1,8,0:0:0:0:
154,107,72629,1,0,0:0:0:0:
154,107,72972,1,8,0:0:0:0:
100,114,73143,1,0,0:0:0:0:
154,107,73315,1,0,0:0:0:0:
154,107,73657,1,8,0:0:0:0:
100,114,73829,1,0,0:0:0:0:
154,107,74000,1,8,0:0:0:0:
23,186,74343,1,0,0:0:0:0:
132,145,74515,1,0,0:0:0:0:
132,145,74686,1,8,0:0:0:0:
132,145,74857,1,0,0:0:0:0:
132,145,75029,1,8,0:0:0:0:
91,116,75372,1,8,0:0:0:0:
359,112,75715,1,0,0:0:0:0:
359,112,75886,1,8,0:0:0:0:
359,112,76057,1,8,0:0:0:0:
359,112,76229,1,0,0:0:0:0:
359,112,76400,1,8,0:0:0:0:
359,112,76572,1,0,0:0:0:0:
106,105,76743,1,0,0:0:0:0:
106,105,77086,1,0,0:0:0:0:
106,105,77429,1,8,0:0:0:0:
106,105,77772,1,8,0:0:0:0:
152,107,78115,1,12,0:0:0:0:
168,117,78800,1,8,0:0:0:0:
172,118,79143,1,8,0:0:0:0:
168,117,79315,1,0,0:0:0:0:
168,117,79486,1,8,0:0:0:0:
61,120,79829,1,8,0:0:0:0:
61,120,80000,1,0,0:0:0:0:
61,120,80172,1,8,0:0:0:0:
61,120,80257,1,8,0:0:0:0:
89,138,80343,1,8,0:0:0:0:
168,117,80515,1,0,0:0:0:0:
209,135,80686,1,0,0:0:0:0:
195,105,80857,1,8,0:0:0:0:
204,100,81200,1,8,0:0:0:0:
150,128,81372,1,0,0:0:0:0:
240,118,81543,1,8,0:0:0:0:
113,105,81886,1,8,0:0:0:0:
113,105,82057,1,0,0:0:0:0:
113,105,82229,1,8,0:0:0:0:
126,102,82400,1,8,0:0:0:0:
126,102,82486,1,8,0:0:0:0:
126,102,82572,1,8,0:0:0:0:
126,102,82743,1,0,0:0:0:0:
195,86,82915,1,8,0:0:0:0:
202,138,83172,1,0,0:0:0:0:
202,138,83257,1,0,0:0:0:0:
158,152,83429,1,0,0:0:0:0:
154,107,83600,1,0,0:0:0:0:
154,107,83943,1,8,0:0:0:0:
154,107,84286,1,0,0:0:0:0:
39,151,84457,1,0,0:0:0:0:
154,107,84629,1,8,0:0:0:0:
100,114,84800,1,0,0:0:0:0:
154,107,84972,1,8,0:0:0:0:
88,145,85315,1,8,0:0:0:0:
69,156,85486,1,0,0:0:0:0:
69,156,85657,1,8,0:0:0:0:
247,38,86000,1,8,0:0:0:0:
63,132,86172,1,0,0:0:0:0:
63,132,86343,1,8,0:0:0:0:
49,143,86429,1,8,0:0:0:0:
26,164,86515,1,8,0:0:0:0:
165,111,86686,1,0,0:0:0:0:
227,135,86857,1,8,0:0:0:0:
242,138,87029,1,8,0:0:0:0:
260,99,87200,1,0,0:0:0:0:
182,78,87286,1,0,0:0:0:0:
203,103,87372,1,0,0:0:0:0:
201,109,87543,1,0,0:0:0:0:
148,149,87715,5,12,0:0:0:0:
148,149,88057,1,4,0:0:0:0:
148,149,88400,1,12,0:0:0:0:
280,108,89086,1,4,0:0:0:0:
195,146,89429,1,8,0:0:0:0:
261,69,89943,1,8,0:0:0:0:
186,135,90286,1,8,0:0:0:0:
208,160,90457,1,0,0:0:0:0:
222,125,90629,1,8,0:0:0:0:
222,125,90972,1,0,0:0:0:0:
343,116,91143,1,8,0:0:0:0:
343,116,91315,1,8,0:0:0:0:
90,129,91486,1,0,0:0:0:0:
314,76,91657,1,0,0:0:0:0:
314,76,91829,1,0,0:0:0:0:
223,140,92172,1,8,0:0:0:0:
278,76,92686,1,8,0:0:0:0:
123,145,93029,1,8,0:0:0:0:
206,130,93200,1,0,0:0:0:0:
206,130,93372,1,8,0:0:0:0:
92,118,93715,1,0,0:0:0:0:
92,118,93886,1,8,0:0:0:0:
92,148,93972,1,8,0:0:0:0:
305,203,94057,1,8,0:0:0:0:
140,143,94229,1,8,0:0:0:0:
140,143,94400,1,0,0:0:0:0:
140,143,94572,1,0,0:0:0:0:
195,146,94915,1,8,0:0:0:0:
195,146,95429,1,8,0:0:0:0:
186,135,95772,1,8,0:0:0:0:
208,160,95943,1,0,0:0:0:0:
222,125,96115,1,8,0:0:0:0:
222,125,96457,1,0,0:0:0:0:
343,116,96629,1,8,0:0:0:0:
343,116,96800,1,8,0:0:0:0:
90,129,96972,1,0,0:0:0:0:
314,76,97143,1,0,0:0:0:0:
314,76,97315,1,0,0:0:0:0:
291,83,97400,1,0,0:0:0:0:
271,86,97486,1,0,0:0:0:0:
194,85,97657,1,8,0:0:0:0:
136,120,98000,1,0,0:0:0:0:
136,120,98172,1,8,0:0:0:0:
136,120,98257,1,8,0:0:0:0:
264,122,98343,1,8,0:0:0:0:
153,110,98515,1,0,0:0:0:0:
117,108,98857,1,8,0:0:0:0:
121,62,99200,1,0,0:0:0:0:
121,62,99372,1,8,0:0:0:0:
121,62,99543,1,8,0:0:0:0:
121,62,99715,1,0,0:0:0:0:
232,88,100057,5,4,0:0:0:0:
170,110,100229,1,8,0:0:0:0:
233,81,100400,1,8,0:0:0:0:
84,146,100657,1,0,0:0:0:0:
87,136,100915,1,8,0:0:0:0:
87,136,101086,1,0,0:0:0:0:
34,152,101172,1,0,0:0:0:0:
70,141,101257,1,0,0:0:0:0:
80,138,101429,1,0,0:0:0:0:
87,136,101772,1,8,0:0:0:0:
154,115,102286,1,8,0:0:0:0:
91,122,102457,1,0,0:0:0:0:
154,115,102543,1,0,0:0:0:0:
131,104,102629,1,0,0:0:0:0:
142,134,102800,1,0,0:0:0:0:
100,85,102972,1,8,0:0:0:0:
87,122,103143,1,8,0:0:0:0:
178,123,103400,1,0,0:0:0:0:
210,132,103657,1,8,0:0:0:0:
35,142,103829,1,0,0:0:0:0:
132,98,103915,1,0,0:0:0:0:
101,113,104000,1,0,0:0:0:0:
67,89,104172,1,0,0:0:0:0:
305,156,104515,1,8,0:0:0:0:
187,94,104857,1,8,0:0:0:0:
242,156,105029,1,0,0:0:0:0:
305,156,105115,1,0,0:0:0:0:
305,156,105200,1,0,0:0:0:0:
211,116,105372,1,0,0:0:0:0:
211,116,105543,1,0,0:0:0:0:
161,115,105715,1,8,0:0:0:0:
294,124,105886,1,8,0:0:0:0:
189,117,106143,1,0,0:0:0:0:
305,124,106400,1,8,0:0:0:0:
305,124,106572,1,0,0:0:0:0:
61,138,106657,1,0,0:0:0:0:
47,182,106743,1,0,0:0:0:0:
172,133,106915,1,0,0:0:0:0:
211,65,107257,1,8,0:0:0:0:
58,125,107772,1,8,0:0:0:0:
58,125,107943,1,0,0:0:0:0:
58,125,108029,1,0,0:0:0:0:
227,105,108115,1,0,0:0:0:0:
227,105,108286,1,0,0:0:0:0:
164,122,108457,1,8,0:0:0:0:
185,132,108629,1,8,0:0:0:0:
102,135,108886,1,0,0:0:0:0:
151,151,109143,1,8,0:0:0:0:
108,155,109315,1,0,0:0:0:0:
106,140,109400,1,0,0:0:0:0:
137,144,109486,1,0,0:0:0:0:
106,140,109657,1,0,0:0:0:0:
66,85,109829,1,8,0:0:0:0:
299,118,110000,1,8,0:0:0:0:
141,129,110343,1,0,0:0:0:0:
197,81,110429,1,0,0:0:0:0:
85,134,110515,1,0,0:0:0:0:
179,119,110686,1,0,0:0:0:0:
85,134,110772,1,0,0:0:0:0:
85,134,110857,1,0,0:0:0:0:
28,122,111029,1,4,0:0:0:0:
96,108,111200,1,8,0:0:0:0:
233,81,111372,1,8,0:0:0:0:
165,147,111629,1,0,0:0:0:0:
235,82,111887,1,8,0:0:0:0:
78,123,112057,1,0,0:0:0:0:
50,137,112143,1,0,0:0:0:0:
50,137,112229,1,0,0:0:0:0:
147,139,112401,1,0,0:0:0:0:
87,136,112744,1,8,0:0:0:0:
154,115,113258,1,8,0:0:0:0:
154,115,113429,1,0,0:0:0:0:
148,119,113515,1,0,0:0:0:0:
142,134,113601,1,0,0:0:0:0:
142,134,113772,1,0,0:0:0:0:
79,142,113943,1,8,0:0:0:0:
87,122,114115,1,8,0:0:0:0:
62,149,114372,1,0,0:0:0:0:
210,132,114629,1,8,0:0:0:0:
35,142,114800,1,0,0:0:0:0:
10,146,114886,1,0,0:0:0:0:
42,135,114972,1,0,0:0:0:0:
10,146,115143,1,0,0:0:0:0:
305,156,115487,1,8,0:0:0:0:
305,156,115829,1,8,0:0:0:0:
239,107,116001,1,0,0:0:0:0:
305,156,116087,1,0,0:0:0:0:
305,156,116172,1,0,0:0:0:0:
211,116,116344,5,0,0:0:0:0:
211,116,116515,1,0,0:0:0:0:
294,124,116858,1,8,0:0:0:0:
225,69,117372,5,0,0:0:0:0:
232,153,117543,1,8,0:0:0:0:
152,110,117886,1,0,0:0:0:0:
89,119,118057,1,0,0:0:0:0:
193,113,118229,1,8,0:0:0:0:
125,120,118400,1,0,0:0:0:0:
61,118,118572,1,0,0:0:0:0:
61,118,118657,1,0,0:0:0:0:
61,118,118743,1,0,0:0:0:0:
106,140,118915,1,8,0:0:0:0:
218,133,119257,1,0,0:0:0:0:
100,155,119429,1,0,0:0:0:0:
144,122,119600,5,8,0:0:0:0:
86,147,119772,1,8,0:0:0:0:
65,156,119857,1,8,0:0:0:0:
49,163,119943,1,8,0:0:0:0:
94,123,120115,1,0,0:0:0:0:
164,104,120286,1,0,0:0:0:0:
134,113,120372,1,0,0:0:0:0:
102,123,120457,1,0,0:0:0:0:
258,120,120629,5,0,0:0:0:0:
256,192,120800,12,0,121829,0:0:0:0:
272,126,122000,5,12,0:0:0:0:
69,187,122686,1,8,0:0:0:0:
69,187,123028,1,0,0:0:0:0:
186,89,123200,1,0,0:0:0:0:
69,187,123371,1,8,0:0:0:0:
119,131,123714,1,0,0:0:0:0:
70,140,124057,1,8,0:0:0:0:
17,146,124228,1,0,0:0:0:0:
112,157,124400,1,0,0:0:0:0:
133,140,124571,1,0,0:0:0:0:
112,157,124743,1,8,0:0:0:0:
64,148,125086,1,0,0:0:0:0:
172,90,125428,1,8,0:0:0:0:
172,90,125771,1,0,0:0:0:0:
329,192,125943,1,0,0:0:0:0:
172,90,126114,1,8,0:0:0:0:
172,90,126457,1,0,0:0:0:0:
172,90,126800,1,8,0:0:0:0:
172,90,126971,1,0,0:0:0:0:
172,90,127143,1,0,0:0:0:0:
208,94,127314,1,0,0:0:0:0:
82,131,127486,1,0,0:0:0:0:
82,131,127657,1,8,0:0:0:0:
82,131,128000,1,8,0:0:0:0:
82,131,128343,1,8,0:0:0:0:
82,131,128686,1,8,0:0:0:0:
82,131,129029,1,8,0:0:0:0:
76,112,129372,1,8,0:0:0:0:
98,143,129714,1,8,0:0:0:0:
92,84,129886,1,0,0:0:0:0:
76,112,130057,1,0,0:0:0:0:
76,112,130229,1,0,0:0:0:0:
202,130,130400,1,8,0:0:0:0:
156,128,130743,1,8,0:0:0:0:
99,143,131086,1,8,0:0:0:0:
156,128,131429,1,8,0:0:0:0:
126,93,131772,1,8,0:0:0:0:
145,161,132114,1,8,0:0:0:0:
136,129,132457,1,8,0:0:0:0:
136,129,132629,1,0,0:0:0:0:
17,155,132800,1,0,0:0:0:0:
216,105,132971,1,4,0:0:0:0:
195,152,133314,1,8,0:0:0:0:
277,127,133486,1,0,0:0:0:0:
199,144,133657,1,0,0:0:0:0:
199,144,134000,1,8,0:0:0:0:
278,119,134171,1,0,0:0:0:0:
199,144,134343,1,8,0:0:0:0:
278,119,134857,1,8,0:0:0:0:
278,119,135028,1,8,0:0:0:0:
278,119,135200,1,0,0:0:0:0:
278,119,135371,1,8,0:0:0:0:
115,145,135714,1,0,0:0:0:0:
115,145,136057,1,8,0:0:0:0:
158,133,136228,1,0,0:0:0:0:
162,142,136400,1,0,0:0:0:0:
162,142,136743,1,8,0:0:0:0:
162,142,136914,1,0,0:0:0:0:
162,142,137086,1,8,0:0:0:0:
278,119,137600,1,8,0:0:0:0:
278,119,137771,1,8,0:0:0:0:
278,119,137943,1,0,0:0:0:0:
278,119,138114,1,8,0:0:0:0:
115,145,138457,1,0,0:0:0:0:
115,145,138800,1,8,0:0:0:0:
158,133,138971,1,0,0:0:0:0:
162,142,139143,1,0,0:0:0:0:
162,142,139486,1,8,0:0:0:0:
162,142,139657,1,0,0:0:0:0:
162,142,139828,1,8,0:0:0:0:
278,119,140343,1,8,0:0:0:0:
278,119,140514,1,8,0:0:0:0:
278,119,140686,1,0,0:0:0:0:
278,119,140857,1,8,0:0:0:0:
163,159,141200,1,8,0:0:0:0:
240,137,141714,1,8,0:0:0:0:
240,137,141886,1,8,0:0:0:0:
240,137,142057,1,0,0:0:0:0:
240,137,142228,1,8,0:0:0:0:
240,137,142400,1,0,0:0:0:0:
240,137,142571,1,0,0:0:0:0:
31,157,142914,1,0,0:0:0:0:
167,125,143086,1,8,0:0:0:0:
167,125,143257,1,8,0:0:0:0:
143,131,143428,1,0,0:0:0:0:
101,137,143600,1,8,0:0:0:0:
144,131,143771,1,0,0:0:0:0:
144,131,143943,1,4,0:0:0:0:
195,152,144286,1,8,0:0:0:0:
199,144,144628,1,0,0:0:0:0:
134,170,144800,1,0,0:0:0:0:
199,144,144971,1,8,0:0:0:0:
278,119,145143,1,0,0:0:0:0:
199,144,145314,1,8,0:0:0:0:
278,119,145828,1,8,0:0:0:0:
278,119,146000,1,8,0:0:0:0:
409,219,146171,1,0,0:0:0:0:
278,119,146343,1,8,0:0:0:0:
115,145,146514,1,0,0:0:0:0:
115,145,146686,1,0,0:0:0:0:
115,145,147028,1,8,0:0:0:0:
162,142,147371,1,0,0:0:0:0:
185,189,147543,1,0,0:0:0:0:
162,142,147714,1,8,0:0:0:0:
162,142,147886,1,0,0:0:0:0:
162,142,148057,1,8,0:0:0:0:
278,119,148571,1,8,0:0:0:0:
278,119,148743,1,8,0:0:0:0:
278,119,148914,1,0,0:0:0:0:
278,119,149086,1,8,0:0:0:0:
115,145,149257,1,0,0:0:0:0:
115,145,149428,1,0,0:0:0:0:
115,145,149771,1,8,0:0:0:0:
162,142,150114,1,0,0:0:0:0:
205,95,150286,1,0,0:0:0:0:
162,142,150457,1,8,0:0:0:0:
162,142,150628,1,0,0:0:0:0:
162,142,150800,1,8,0:0:0:0:
278,119,151314,1,8,0:0:0:0:
278,119,151486,1,8,0:0:0:0:
278,119,151657,1,0,0:0:0:0:
263,73,151828,1,8,0:0:0:0:
163,159,152000,1,0,0:0:0:0:
163,159,152171,1,8,0:0:0:0:
241,88,152514,1,0,0:0:0:0:
241,88,152686,1,8,0:0:0:0:
241,88,152857,1,8,0:0:0:0:
190,125,153028,1,0,0:0:0:0:
190,125,153200,1,8,0:0:0:0:
170,125,153286,1,8,0:0:0:0:
190,125,153371,1,8,0:0:0:0:
187,117,153543,5,0,0:0:0:0:
262,95,153886,1,8,0:0:0:0:
216,90,154057,1,8,0:0:0:0:
221,90,154143,1,8,0:0:0:0:
134,136,154229,5,8,0:0:0:0:
336,80,154400,1,0,0:0:0:0:
162,115,154572,1,0,0:0:0:0:
151,145,154660,1,0,0:0:0:0:
119,151,154748,1,0,0:0:0:0:
197,116,154924,1,12,0:0:0:0:
128,148,155634,1,8,0:0:0:0:
129,141,155997,1,8,0:0:0:0:
129,141,156179,1,0,0:0:0:0:
129,141,156361,1,8,0:0:0:0:
233,77,156727,1,8,0:0:0:0:
233,77,156911,1,0,0:0:0:0:
233,77,157096,1,8,0:0:0:0:
80,172,157280,1,8,0:0:0:0:
192,114,157465,1,0,0:0:0:0:
192,114,157650,1,0,0:0:0:0:
65,145,157834,1,8,0:0:0:0:
234,175,158218,5,8,0:0:0:0:
234,175,158410,1,0,0:0:0:0:
184,68,158603,1,8,0:0:0:0:
184,68,158997,1,8,0:0:0:0:
99,70,159195,1,0,0:0:0:0:
99,70,159392,1,8,0:0:0:0:
99,70,159594,1,0,0:0:0:0:
84,107,159797,1,8,0:0:0:0:
179,88,160000,1,8,0:0:0:0:
179,88,160202,1,0,0:0:0:0:
200,82,160508,1,0,0:0:0:0:
179,88,160610,1,0,0:0:0:0:
209,71,160814,1,0,0:0:0:0:
209,71,161018,1,0,0:0:0:0:
138,145,161431,1,8,0:0:0:0:
142,140,161845,1,0,0:0:0:0:
142,140,162270,1,8,0:0:0:0:
142,140,162483,1,0,0:0:0:0:
142,140,162696,1,8,0:0:0:0:
248,101,163129,1,8,0:0:0:0:
282,116,163345,1,0,0:0:0:0:
282,116,163562,1,8,0:0:0:0:
182,112,163780,1,8,0:0:0:0:
301,98,163999,1,0,0:0:0:0:
26,139,164218,1,0,0:0:0:0:
26,139,164437,1,8,0:0:0:0:
172,116,164881,1,8,0:0:0:0:
106,132,165103,1,0,0:0:0:0:
130,145,165325,1,8,0:0:0:0:
130,145,165553,1,0,0:0:0:0:
66,149,165781,1,8,0:0:0:0:
66,149,166009,1,8,0:0:0:0:
66,149,166237,1,0,0:0:0:0:
262,137,166703,1,8,0:0:0:0:
262,137,167170,1,0,0:0:0:0:
262,137,167404,1,0,0:0:0:0:
262,137,167638,1,8,0:0:0:0:
280,92,167755,1,8,0:0:0:0:
280,92,167873,1,8,0:0:0:0:
280,92,168107,1,4,0:0:0:0:
160,22,168575,1,0,0:0:0:0:
128,135,168810,1,8,0:0:0:0:
126,114,169044,1,0,0:0:0:0:
159,76,169278,1,8,0:0:0:0:
263,135,169513,1,8,0:0:0:0:
263,135,169747,1,8,0:0:0:0:
263,135,169982,1,0,0:0:0:0:
55,113,170450,1,0,0:0:0:0:
188,165,170685,1,8,0:0:0:0:
223,66,170919,1,0,0:0:0:0:
212,68,171388,1,8,0:0:0:0:
283,69,171857,1,0,0:0:0:0:
170,139,172325,1,0,0:0:0:0:
128,135,172560,1,8,0:0:0:0:
170,139,172794,1,0,0:0:0:0:
370,131,173028,1,8,0:0:0:0:
370,131,173263,1,8,0:0:0:0:
370,131,173497,1,8,0:0:0:0:
63,132,173732,1,0,0:0:0:0:
160,143,174200,1,8,0:0:0:0:
99,147,174435,1,0,0:0:0:0:
124,143,174669,1,8,0:0:0:0:
285,63,175138,1,0,0:0:0:0:
108,117,175372,1,0,0:0:0:0:
315,70,175607,1,0,0:0:0:0:
204,47,176075,1,8,0:0:0:0:
204,47,176544,1,0,0:0:0:0:
96,169,176778,1,8,0:0:0:0:
204,47,177013,1,8,0:0:0:0:
196,84,177247,1,0,0:0:0:0:
204,47,177482,1,8,0:0:0:0:
105,127,177950,1,0,0:0:0:0:
105,127,178185,1,0,0:0:0:0:
105,127,178419,1,8,0:0:0:0:
285,111,178888,1,0,0:0:0:0:
186,84,179357,1,8,0:0:0:0:
186,84,179825,1,8,0:0:0:0:
186,84,180060,1,0,0:0:0:0:
267,128,180294,1,8,0:0:0:0:
267,128,180528,1,0,0:0:0:0:
267,128,180763,1,0,0:0:0:0:
267,128,180997,1,0,0:0:0:0:
267,128,181232,1,8,0:0:0:0:
138,55,181700,1,8,0:0:0:0:
286,124,182169,5,8,0:0:0:0:
163,115,182521,1,0,0:0:0:0:
286,124,182638,1,0,0:0:0:0:
57,141,182872,1,0,0:0:0:0:
153,165,183107,5,12,0:0:0:0:
168,117,183792,1,8,0:0:0:0:
172,118,184135,1,8,0:0:0:0:
168,117,184307,1,0,0:0:0:0:
168,117,184478,1,8,0:0:0:0:
61,120,184821,1,8,0:0:0:0:
61,120,184992,1,0,0:0:0:0:
61,120,185164,1,8,0:0:0:0:
61,120,185249,1,8,0:0:0:0:
89,138,185335,1,8,0:0:0:0:
168,117,185507,1,0,0:0:0:0:
209,135,185678,1,0,0:0:0:0:
195,105,185849,1,8,0:0:0:0:
204,100,186192,1,8,0:0:0:0:
150,128,186364,1,0,0:0:0:0:
240,118,186535,1,8,0:0:0:0:
113,105,186878,1,8,0:0:0:0:
113,105,187049,1,0,0:0:0:0:
113,105,187221,1,8,0:0:0:0:
126,102,187392,1,8,0:0:0:0:
126,102,187478,1,8,0:0:0:0:
126,102,187564,1,8,0:0:0:0:
126,102,187735,1,0,0:0:0:0:
195,86,187907,1,8,0:0:0:0:
202,138,188164,1,0,0:0:0:0:
202,138,188249,1,0,0:0:0:0:
158,152,188421,1,0,0:0:0:0:
154,107,188592,1,0,0:0:0:0:
154,107,188935,1,8,0:0:0:0:
154,107,189278,1,0,0:0:0:0:
39,151,189449,1,0,0:0:0:0:
154,107,189621,1,8,0:0:0:0:
100,114,189792,1,0,0:0:0:0:
154,107,189964,1,8,0:0:0:0:
88,145,190307,1,8,0:0:0:0:
69,156,190478,1,0,0:0:0:0:
69,156,190649,1,8,0:0:0:0:
247,38,190992,1,8,0:0:0:0:
63,132,191164,1,0,0:0:0:0:
63,132,191335,1,8,0:0:0:0:
49,143,191421,1,8,0:0:0:0:
26,164,191507,1,8,0:0:0:0:
165,111,191678,1,0,0:0:0:0:
227,135,191849,1,8,0:0:0:0:
242,138,192021,1,8,0:0:0:0:
260,99,192192,1,0,0:0:0:0:
182,78,192278,1,0,0:0:0:0:
203,103,192364,1,0,0:0:0:0:
201,109,192535,1,0,0:0:0:0:
148,149,192707,5,12,0:0:0:0:
148,149,193049,5,4,0:0:0:0:
148,149,193392,1,12,0:0:0:0:
232,88,194078,5,4,0:0:0:0:
170,110,194250,1,8,0:0:0:0:
233,81,194421,1,8,0:0:0:0:
84,146,194678,1,0,0:0:0:0:
87,136,194936,1,8,0:0:0:0:
87,136,195107,1,0,0:0:0:0:
34,152,195193,1,0,0:0:0:0:
70,141,195278,1,0,0:0:0:0:
80,138,195450,1,0,0:0:0:0:
87,136,195793,1,8,0:0:0:0:
154,115,196307,1,8,0:0:0:0:
91,122,196478,1,0,0:0:0:0:
154,115,196564,1,0,0:0:0:0:
131,104,196650,1,0,0:0:0:0:
142,134,196821,1,0,0:0:0:0:
100,85,196993,1,8,0:0:0:0:
87,122,197164,1,8,0:0:0:0:
178,123,197421,1,0,0:0:0:0:
210,132,197678,1,8,0:0:0:0:
35,142,197850,1,0,0:0:0:0:
132,98,197936,1,0,0:0:0:0:
101,113,198021,1,0,0:0:0:0:
67,89,198193,1,0,0:0:0:0:
305,156,198536,1,8,0:0:0:0:
187,94,198878,1,8,0:0:0:0:
242,156,199050,1,0,0:0:0:0:
305,156,199136,1,0,0:0:0:0:
305,156,199221,1,0,0:0:0:0:
211,116,199393,1,0,0:0:0:0:
211,116,199564,1,0,0:0:0:0:
161,115,199736,1,8,0:0:0:0:
294,124,199907,1,8,0:0:0:0:
189,117,200164,1,0,0:0:0:0:
305,124,200421,1,8,0:0:0:0:
305,124,200593,1,0,0:0:0:0:
61,138,200678,1,0,0:0:0:0:
47,182,200764,1,0,0:0:0:0:
172,133,200936,1,0,0:0:0:0:
211,65,201278,1,8,0:0:0:0:
58,125,201793,1,8,0:0:0:0:
58,125,201964,1,0,0:0:0:0:
58,125,202050,1,0,0:0:0:0:
227,105,202136,5,0,0:0:0:0:
227,105,202307,1,0,0:0:0:0:
164,122,202478,1,8,0:0:0:0:
185,132,202650,1,8,0:0:0:0:
102,135,202907,1,0,0:0:0:0:
151,151,203164,1,8,0:0:0:0:
108,155,203336,1,0,0:0:0:0:
106,140,203421,1,0,0:0:0:0:
137,144,203507,1,0,0:0:0:0:
106,140,203678,1,0,0:0:0:0:
202,115,203850,1,8,0:0:0:0:
299,118,204021,1,8,0:0:0:0:
141,129,204364,5,0,0:0:0:0:
197,81,204450,1,0,0:0:0:0:
85,134,204536,1,0,0:0:0:0:
179,119,204707,1,0,0:0:0:0:
160,118,204793,1,0,0:0:0:0:
179,119,204878,1,0,0:0:0:0:
28,122,205049,1,4,0:0:0:0:
241,127,205392,5,8,0:0:0:0:
245,121,205907,1,0,0:0:0:0:
245,121,206078,1,8,0:0:0:0:
91,150,206421,1,0,0:0:0:0:
139,139,206592,1,0,0:0:0:0:
91,150,206764,1,8,0:0:0:0:
91,150,207107,1,0,0:0:0:0:
91,150,207278,1,8,0:0:0:0:
152,122,207449,1,8,0:0:0:0:
152,122,207621,1,0,0:0:0:0:
152,122,207792,1,0,0:0:0:0:
273,138,208135,1,8,0:0:0:0:
277,151,208649,1,0,0:0:0:0:
277,151,208821,1,8,0:0:0:0:
277,151,209164,1,0,0:0:0:0:
99,101,209335,1,0,0:0:0:0:
156,42,209507,1,8,0:0:0:0:
156,42,209849,1,8,0:0:0:0:
102,161,210021,1,0,0:0:0:0:
102,161,210192,1,8,0:0:0:0:
223,81,210364,1,8,0:0:0:0:
156,42,210535,1,0,0:0:0:0:
137,121,210878,1,8,0:0:0:0:
50,152,211392,1,0,0:0:0:0:
50,152,211564,1,8,0:0:0:0:
152,120,211907,1,0,0:0:0:0:
200,160,212078,1,0,0:0:0:0:
135,73,212249,1,8,0:0:0:0:
180,130,212421,1,0,0:0:0:0:
101,133,212592,1,0,0:0:0:0:
180,130,212678,1,0,0:0:0:0:
101,133,212764,1,0,0:0:0:0:
101,133,212935,1,8,0:0:0:0:
295,78,213278,1,0,0:0:0:0:
100,160,213449,1,0,0:0:0:0:
195,101,213621,1,8,0:0:0:0:
235,160,213792,1,8,0:0:0:0:
28,121,213878,1,8,0:0:0:0:
132,145,213964,1,8,0:0:0:0:
282,115,214135,1,0,0:0:0:0:
314,86,214307,1,0,0:0:0:0:
313,87,214392,1,0,0:0:0:0:
187,108,214478,1,0,0:0:0:0:
280,177,214649,5,0,0:0:0:0:
256,192,214821,12,0,215849,0:0:0:0:
