osu file format v14

[General]
AudioFilename: audio.mp3
AudioLeadIn: 0
PreviewTime: -1
Countdown: 3
SampleSet: None
StackLeniency: 0.7
Mode: 0
LetterboxInBreaks: 0
WidescreenStoryboard: 0

[Editor]
Bookmarks: 19200,28800,48000,57600,96000
DistanceSpacing: 1
BeatDivisor: 8
GridSize: 4
TimelineZoom: 1.1

[Metadata]
Title:TPF Trans
TitleUnicode:TPF Trans
Artist:Halcyonic Falcon X
ArtistUnicode:Halcyonic Falcon X
Creator:Saber404
Version:GODCAT
Source:Epic Battle Fantasy 4
Tags:Epic Battle Fantasy 4 Hard Jump
BeatmapID:1154650
BeatmapSetID:544919

[Difficulty]
HPDrainRate:7
CircleSize:4.4
OverallDifficulty:7
ApproachRate:10
SliderMultiplier:3.29999990463257
SliderTickRate:3

[Events]
//Background and Video events
//Break Periods
2,28850,37950
//Storyboard Layer 0 (Background)
//Storyboard Layer 1 (Fail)
//Storyboard Layer 2 (Pass)
//Storyboard Layer 3 (Foreground)
//Storyboard Sound Samples

[TimingPoints]
0,600,4,1,0,100,1,0
100,-83.3333333333333,4,1,0,100,0,0
57600,-111.111111111111,4,1,0,100,0,0

[HitObjects]
148,160,9600,5,0,0:0:0:0:
472,48,9900,1,0,0:0:0:0:
416,336,10200,1,0,0:0:0:0:
256,32,10500,1,0,0:0:0:0:
48,196,10800,1,0,0:0:0:0:
412,196,11100,1,0,0:0:0:0:
496,372,11400,6,0,L|336:248,1,197.999988235474
12,24,12000,2,0,L|176:152,1,197.999988235474
480,24,12600,2,0,L|320:144,1,197.999988235474
16,376,13200,2,0,L|180:240,1,197.999988235474
52,192,13800,5,0,0:0:0:0:
260,120,14100,1,0,0:0:0:0:
416,320,14400,5,0,0:0:0:0:
260,196,14550,1,0,0:0:0:0:
160,316,14700,1,0,0:0:0:0:
384,196,14850,1,0,0:0:0:0:
356,64,15000,6,0,L|156:88,1,197.999988235474
356,64,15600,2,0,L|392:272,1,197.999988235474
48,204,16200,1,0,0:0:0:0:
160,48,16500,1,0,0:0:0:0:
352,64,16800,5,0,0:0:0:0:
464,324,17400,1,0,0:0:0:0:
192,44,18000,1,0,0:0:0:0:
120,212,18300,1,0,0:0:0:0:
412,192,18600,5,0,0:0:0:0:
248,332,18750,1,0,0:0:0:0:
432,348,18900,2,0,L|392:252,1,98.999994117737
296,224,19200,5,0,0:0:0:0:
296,224,19350,1,0,0:0:0:0:
184,152,19500,1,0,0:0:0:0:
352,152,19650,5,0,0:0:0:0:
228,276,19800,1,0,0:0:0:0:
272,80,19950,1,0,0:0:0:0:
396,236,20100,1,0,0:0:0:0:
140,220,20250,1,0,0:0:0:0:
52,36,20400,6,0,L|136:108,1,98.999994117737
72,276,20700,1,0,0:0:0:0:
296,160,20850,1,0,0:0:0:0:
216,364,21000,5,0,0:0:0:0:
192,48,21150,1,0,0:0:0:0:
436,128,21300,1,0,0:0:0:0:
160,260,21450,1,0,0:0:0:0:
432,352,21600,5,0,0:0:0:0:
392,40,21750,1,0,0:0:0:0:
128,192,21900,1,0,0:0:0:0:
324,208,22050,1,0,0:0:0:0:
224,100,22200,5,0,0:0:0:0:
208,256,22350,1,0,0:0:0:0:
360,140,22500,1,0,0:0:0:0:
256,356,22650,1,0,0:0:0:0:
52,352,22800,6,0,L|104:264,1,98.999994117737
256,192,23100,1,0,0:0:0:0:
464,356,23250,2,0,L|396:276,1,98.999994117737
436,40,23550,5,0,0:0:0:0:
156,28,23700,1,0,0:0:0:0:
32,192,23850,1,0,0:0:0:0:
248,340,24000,5,0,0:0:0:0:
248,340,24150,1,0,0:0:0:0:
416,216,24300,1,0,0:0:0:0:
256,72,24450,1,0,0:0:0:0:
136,216,24600,5,0,0:0:0:0:
392,56,24750,1,0,0:0:0:0:
320,252,24900,1,0,0:0:0:0:
136,308,25050,1,0,0:0:0:0:
176,112,25200,5,0,0:0:0:0:
176,112,25350,1,0,0:0:0:0:
400,152,25500,1,0,0:0:0:0:
272,320,25650,1,0,0:0:0:0:
328,108,25800,5,0,0:0:0:0:
156,188,25950,1,0,0:0:0:0:
352,244,26100,1,0,0:0:0:0:
224,112,26250,1,0,0:0:0:0:
256,204,26400,5,0,0:0:0:0:
256,204,26550,1,0,0:0:0:0:
184,280,26700,1,0,0:0:0:0:
400,168,26850,1,0,0:0:0:0:
260,36,27000,5,0,0:0:0:0:
324,260,27150,1,0,0:0:0:0:
160,136,27300,1,0,0:0:0:0:
368,88,27450,1,0,0:0:0:0:
420,228,27600,6,0,P|424:276|392:324,1,98.999994117737
252,340,27900,1,0,0:0:0:0:
76,232,28050,2,0,P|60:272|92:328,1,98.999994117737
48,72,28350,5,0,0:0:0:0:
232,24,28500,1,0,0:0:0:0:
168,200,28650,1,0,0:0:0:0:
260,104,38400,5,0,0:0:0:0:
456,304,38550,2,0,P|420:332|360:320,1,98.999994117737
176,256,38850,1,0,0:0:0:0:
176,256,39000,6,0,P|184:200|152:164,1,98.999994117737
104,88,39300,2,0,P|164:80|204:112,1,98.999994117737
460,72,39600,2,0,L|460:176,1,98.999994117737
40,48,39900,2,0,L|40:152,1,98.999994117737
48,364,40200,2,0,L|120:292,1,98.999994117737
464,364,40500,2,0,L|396:288,1,98.999994117737
400,200,40800,5,0,0:0:0:0:
260,120,40950,1,0,0:0:0:0:
508,120,41100,1,0,0:0:0:0:
332,320,41250,1,0,0:0:0:0:
200,320,41400,6,0,P|188:264|164:228,1,98.999994117737
52,52,41700,2,0,P|104:52|160:80,1,98.999994117737
60,216,42000,5,0,0:0:0:0:
252,312,42150,1,0,0:0:0:0:
252,64,42300,1,0,0:0:0:0:
476,180,42450,1,0,0:0:0:0:
472,364,42600,6,0,L|400:288,1,98.999994117737
256,144,42900,2,0,L|136:108,1,98.999994117737
448,52,43200,6,0,P|476:116|472:196,1,98.999994117737
340,360,43500,1,0,0:0:0:0:
256,216,43650,1,0,0:0:0:0:
264,48,43800,2,0,P|216:44|168:80,1,98.999994117737
104,216,44100,5,0,0:0:0:0:
472,200,44250,2,0,P|480:260|440:304,1,98.999994117737
460,36,44550,2,0,P|396:40|364:92,1,98.999994117737
88,76,44850,6,0,P|124:108|144:172,1,98.999994117737
44,336,45150,1,0,0:0:0:0:
332,200,45300,1,0,0:0:0:0:
256,352,45450,1,0,0:0:0:0:
480,192,45600,6,0,P|472:144|436:96,1,98.999994117737
256,48,45900,1,0,0:0:0:0:
352,196,46050,1,0,0:0:0:0:
228,168,46200,1,0,0:0:0:0:
376,76,46350,1,0,0:0:0:0:
472,204,46500,6,0,P|472:256|448:296,1,98.999994117737
264,356,46800,2,0,P|220:336|200:284,1,98.999994117737
300,256,47100,2,0,L|232:340,1,98.999994117737
48,132,47400,6,0,P|88:104|140:104,1,98.999994117737
468,144,47700,2,0,P|428:108|360:96,1,98.999994117737
468,368,48000,5,0,0:0:0:0:
432,216,48150,1,0,0:0:0:0:
320,324,48300,1,0,0:0:0:0:
292,168,48450,1,0,0:0:0:0:
424,84,48600,5,0,0:0:0:0:
268,60,48750,1,0,0:0:0:0:
184,192,48900,1,0,0:0:0:0:
332,244,49050,1,0,0:0:0:0:
176,340,49200,5,0,0:0:0:0:
92,180,49350,1,0,0:0:0:0:
272,180,49500,1,0,0:0:0:0:
424,44,49650,1,0,0:0:0:0:
496,236,49800,5,0,0:0:0:0:
336,104,49950,1,0,0:0:0:0:
376,240,50100,1,0,0:0:0:0:
240,200,50250,1,0,0:0:0:0:
128,96,50400,5,0,0:0:0:0:
128,96,50550,1,0,0:0:0:0:
52,240,50700,1,0,0:0:0:0:
204,172,50850,1,0,0:0:0:0:
268,324,51000,5,0,0:0:0:0:
360,188,51150,1,0,0:0:0:0:
204,244,51300,1,0,0:0:0:0:
248,44,51450,1,0,0:0:0:0:
488,40,51600,6,0,L|472:148,1,98.999994117737
324,128,51900,1,0,0:0:0:0:
332,312,52050,2,0,L|320:208,1,98.999994117737
148,188,52350,1,0,0:0:0:0:
264,48,52500,1,0,0:0:0:0:
100,128,52650,1,0,0:0:0:0:
120,316,52800,5,0,0:0:0:0:
272,216,52950,1,0,0:0:0:0:
120,316,53100,1,0,0:0:0:0:
272,216,53250,1,0,0:0:0:0:
236,72,53400,5,0,0:0:0:0:
384,76,53550,1,0,0:0:0:0:
308,204,53700,1,0,0:0:0:0:
440,272,53850,5,0,0:0:0:0:
292,288,54000,1,0,0:0:0:0:
312,108,54150,1,0,0:0:0:0:
152,192,54300,1,0,0:0:0:0:
92,312,54450,6,0,L|172:248,1,98.999994117737
424,56,54750,2,0,L|344:124,1,98.999994117737
344,308,55050,1,0,0:0:0:0:
164,108,55200,1,0,0:0:0:0:
256,196,55350,5,0,0:0:0:0:
168,40,55500,1,0,0:0:0:0:
116,212,55650,1,0,0:0:0:0:
332,196,55800,1,0,0:0:0:0:
256,100,55950,5,0,0:0:0:0:
220,288,56100,1,0,0:0:0:0:
428,192,56250,1,0,0:0:0:0:
424,48,56400,6,0,L|352:120,1,98.999994117737
180,44,56700,1,0,0:0:0:0:
300,232,56850,1,0,0:0:0:0:
64,344,57000,2,0,L|152:288,1,98.999994117737
60,144,57300,5,0,0:0:0:0:
240,116,57450,1,0,0:0:0:0:
456,204,57600,6,0,P|464:260|448:292,1,74.2499955883028
320,68,57900,1,0,0:0:0:0:
320,68,58050,1,0,0:0:0:0:
320,68,58200,2,0,P|284:52|240:48,1,74.2499955883028
124,124,58500,5,0,0:0:0:0:
72,324,58650,1,0,0:0:0:0:
72,324,58800,1,0,0:0:0:0:
388,344,58950,6,0,P|416:312|416:264,1,74.2499955883028
260,188,59250,1,0,0:0:0:0:
412,76,59400,6,0,P|432:112|424:160,1,74.2499955883028
96,76,59700,2,0,P|72:112|72:148,1,74.2499955883028
220,344,60000,2,0,P|260:352|316:336,1,74.2499955883028
260,92,60300,5,0,0:0:0:0:
260,92,60450,1,0,0:0:0:0:
260,92,60600,2,0,P|296:96|332:120,1,74.2499955883028
424,280,60900,1,0,0:0:0:0:
424,280,61050,1,0,0:0:0:0:
424,280,61200,1,0,0:0:0:0:
256,344,61350,6,0,P|192:328|180:304,1,74.2499955883028
68,188,61650,1,0,0:0:0:0:
452,196,61800,6,0,P|456:160|420:120,1,74.2499955883028
112,32,62100,2,0,P|76:56|68:88,1,74.2499955883028
296,72,62400,2,0,L|248:140,1,74.2499955883028
72,244,62700,5,0,0:0:0:0:
256,208,62850,1,0,0:0:0:0:
388,332,63000,2,0,P|420:312|436:268,1,74.2499955883028
380,76,63300,1,0,0:0:0:0:
380,76,63450,1,0,0:0:0:0:
380,76,63600,1,0,0:0:0:0:
196,340,63750,6,0,P|148:312|148:276,1,74.2499955883028
56,184,64050,1,0,0:0:0:0:
356,324,64200,2,0,P|376:280|356:236,1,74.2499955883028
316,280,64500,2,0,L|248:248,1,74.2499955883028
432,84,64800,2,0,P|392:56|336:56,1,74.2499955883028
160,64,65100,2,0,P|112:60|88:80,1,74.2499955883028
88,200,65400,5,0,0:0:0:0:
216,200,65550,1,0,0:0:0:0:
344,200,65700,1,0,0:0:0:0:
472,200,65850,1,0,0:0:0:0:
456,340,66000,6,0,P|416:364|372:344,1,74.2499955883028
140,336,66300,1,0,0:0:0:0:
208,152,66450,1,0,0:0:0:0:
344,68,66600,2,0,P|380:100|404:148,1,74.2499955883028
136,72,66900,2,0,P|88:96|76:136,1,74.2499955883028
252,352,67200,6,0,P|248:288|264:264,1,74.2499955883028
448,312,67500,1,0,0:0:0:0:
360,76,67650,1,0,0:0:0:0:
152,64,67800,6,0,P|120:92|112:132,1,74.2499955883028
96,328,68100,1,0,0:0:0:0:
296,208,68250,1,0,0:0:0:0:
296,208,68400,1,0,0:0:0:0:
460,172,68550,6,0,P|464:124|440:92,1,74.2499955883028
140,64,68850,1,0,0:0:0:0:
272,296,69000,2,0,P|280:252|320:224,1,74.2499955883028
444,344,69300,1,0,0:0:0:0:
380,112,69450,1,0,0:0:0:0:
96,60,69600,6,0,P|76:96|80:152,1,74.2499955883028
164,312,69900,1,0,0:0:0:0:
72,316,70050,1,0,0:0:0:0:
396,324,70200,6,0,P|428:296|432:252,1,74.2499955883028
284,200,70500,1,0,0:0:0:0:
104,64,70650,1,0,0:0:0:0:
104,64,70800,1,0,0:0:0:0:
88,324,70950,5,0,0:0:0:0:
240,312,71100,1,0,0:0:0:0:
400,232,71250,1,0,0:0:0:0:
256,44,71400,6,0,P|212:68|200:108,1,74.2499955883028
232,348,71700,2,0,P|196:320|208:272,1,74.2499955883028
40,192,72000,2,0,L|120:188,1,74.2499955883028
380,320,72300,1,0,0:0:0:0:
376,96,72450,1,0,0:0:0:0:
468,208,72600,6,0,L|372:208,1,74.2499955883028
180,204,72900,1,0,0:0:0:0:
104,136,73050,1,0,0:0:0:0:
72,44,73200,1,0,0:0:0:0:
352,40,73350,6,0,P|376:80|376:132,1,74.2499955883028
348,344,73650,2,0,P|376:308|356:252,1,74.2499955883028
180,196,73950,1,0,0:0:0:0:
392,192,74100,1,0,0:0:0:0:
256,72,74250,1,0,0:0:0:0:
472,52,74400,6,0,P|416:72|404:104,1,74.2499955883028
376,320,74700,2,0,P|352:288|304:260,1,74.2499955883028
52,48,75000,2,0,P|40:92|60:120,1,74.2499955883028
60,348,75300,2,0,P|80:312|120:296,1,74.2499955883028
256,336,75600,5,0,0:0:0:0:
292,320,75675,1,0,0:0:0:0:
320,296,75750,1,0,0:0:0:0:
344,268,75825,1,0,0:0:0:0:
360,236,75900,1,0,0:0:0:0:
368,200,75975,1,0,0:0:0:0:
368,164,76050,5,0,0:0:0:0:
348,132,76125,1,0,0:0:0:0:
316,116,76200,1,0,0:0:0:0:
280,108,76275,1,0,0:0:0:0:
244,116,76350,1,0,0:0:0:0:
212,136,76425,5,0,0:0:0:0:
188,164,76500,1,0,0:0:0:0:
176,200,76575,1,0,0:0:0:0:
180,236,76650,1,0,0:0:0:0:
204,264,76725,1,0,0:0:0:0:
