osu file format v14

[General]
AudioFilename: audio.mp3
AudioLeadIn: 0
PreviewTime: -1
Countdown: 0
SampleSet: Soft
StackLeniency: 0.7
Mode: 0
LetterboxInBreaks: 0
WidescreenStoryboard: 1

[Editor]
Bookmarks: 16050,38100,82800,85800,92400
DistanceSpacing: 1.5
BeatDivisor: 4
GridSize: 16
TimelineZoom: 1.55

[Metadata]
Title:TPF Trans
TitleUnicode:TPF Trans
Artist:Halcyonic Falcon X
ArtistUnicode:Halcyonic Falcon X
Creator:Roberthin05
Version:Insane
Source:Epic Battle Fantasy 4
Tags:ebf ebf4 sound track soundtrack
BeatmapID:1878667
BeatmapSetID:899368

[Difficulty]
HPDrainRate:5
CircleSize:4
OverallDifficulty:7
ApproachRate:8.5
SliderMultiplier:1.4
SliderTickRate:1

[Events]
//Background and Video events
0,0,"aaaa.png",0,0
//Break Periods
//Storyboard Layer 0 (Background)
//Storyboard Layer 1 (Fail)
//Storyboard Layer 2 (Pass)
//Storyboard Layer 3 (Foreground)
//Storyboard Sound Samples

[TimingPoints]
0,300,4,2,0,70,1,0
9600,-100,4,2,0,70,0,0
19200,-100,4,2,0,70,0,0
28800,-100,4,2,0,70,0,0
48000,-100,4,2,0,70,0,0
57600,-100,4,2,0,70,0,0
76800,-100,4,2,0,70,0,1
96000,-100,4,2,0,70,0,1
105600,-100,4,2,0,70,0,0

[HitObjects]
48,160,0,5,0,0:0:0:0:
137,92,300,1,0,0:0:0:0:
248,81,600,1,0,0:0:0:0:
355,113,900,1,0,0:0:0:0:
401,214,1200,1,0,0:0:0:0:
313,284,1500,1,0,0:0:0:0:
217,226,1800,1,0,0:0:0:0:
121,284,2100,1,0,0:0:0:0:
38,84,2400,5,0,0:0:0:0:
43,195,2700,1,0,0:0:0:0:
88,297,3000,1,0,0:0:0:0:
195,330,3300,1,0,0:0:0:0:
275,252,3600,1,0,0:0:0:0:
192,176,3900,1,0,0:0:0:0:
272,96,4200,1,0,0:0:0:0:
352,176,4500,1,0,0:0:0:0:
480,32,4800,5,0,0:0:0:0:
381,85,5100,1,0,0:0:0:0:
283,30,5400,1,0,0:0:0:0:
186,86,5700,1,0,0:0:0:0:
241,183,6000,1,0,0:0:0:0:
151,250,6300,1,0,0:0:0:0:
239,318,6600,1,0,0:0:0:0:
327,249,6900,1,0,0:0:0:0:
145,63,7200,5,0,0:0:0:0:
234,130,7500,1,0,0:0:0:0:
326,66,7800,1,0,0:0:0:0:
418,129,8100,1,0,0:0:0:0:
446,237,8400,1,0,0:0:0:0:
368,318,8700,1,0,0:0:0:0:
268,266,9000,1,0,0:0:0:0:
171,322,9300,1,0,0:0:0:0:
119,111,9600,5,0,0:0:0:0:
245,50,9900,1,0,0:0:0:0:
371,109,10200,1,0,0:0:0:0:
389,247,10500,1,0,0:0:0:0:
466,130,10800,2,0,P|452:88|410:72,1,70
335,220,11100,2,0,P|308:198|301:164,1,70
356,50,11400,1,0,0:0:0:0:
104,50,11700,1,0,0:0:0:0:
127,258,12000,5,0,0:0:0:0:
251,322,12300,1,0,0:0:0:0:
361,236,12600,1,0,0:0:0:0:
289,115,12900,1,0,0:0:0:0:
398,242,13200,2,0,P|422:202|413:173,1,70
343,90,13500,1,0,0:0:0:0:
309,211,13650,2,0,P|256:226|238:196,2,70
343,90,14100,1,0,0:0:0:0:
91,90,14400,5,0,0:0:0:0:
229,72,14700,1,0,0:0:0:0:
304,189,15000,1,0,0:0:0:0:
177,249,15300,1,0,0:0:0:0:
214,85,15600,2,0,P|173:75|123:104,1,70
41,151,15900,1,0,0:0:0:0:
136,233,16050,1,0,0:0:0:0:
136,233,16200,2,0,P|148:247|151:272,2,35
181,93,16500,1,0,0:0:0:0:
318,290,16800,5,0,0:0:0:0:
277,304,17400,1,0,0:0:0:0:
235,304,18000,1,0,0:0:0:0:
195,289,18300,1,0,0:0:0:0:
320,227,18600,1,0,0:0:0:0:
342,214,18675,1,0,0:0:0:0:
360,195,18750,1,0,0:0:0:0:
371,171,18825,1,0,0:0:0:0:
376,145,18900,2,0,P|372:118|354:90,3,35
224,48,19200,6,0,L|144:44,1,70
48,43,19500,1,0,0:0:0:0:
129,109,19650,1,0,0:0:0:0:
44,171,19800,2,0,L|121:191,1,70
178,64,20100,2,0,L|255:44,1,70
303,173,20400,2,0,L|380:193,1,70
471,219,20700,1,0,0:0:0:0:
412,131,20850,1,0,0:0:0:0:
372,265,21000,2,0,L|348:339,1,70
303,173,21300,2,0,L|280:98,1,70
229,258,21600,6,0,L|205:332,1,70
133,250,21900,1,0,0:0:0:0:
218,189,22050,1,0,0:0:0:0:
135,123,22200,2,0,L|212:99,1,70
339,180,22500,2,0,L|263:191,1,70
114,256,22800,2,0,L|190:245,1,70
310,245,23100,1,0,0:0:0:0:
379,139,23250,1,0,0:0:0:0:
415,270,23400,1,0,0:0:0:0:
393,297,23475,1,0,0:0:0:0:
360,311,23550,1,0,0:0:0:0:
325,313,23625,1,0,0:0:0:0:
290,306,23700,2,0,P|260:294|250:273,2,35
415,270,24000,6,0,L|433:190,1,70
430,75,24300,1,0,0:0:0:0:
340,164,24450,1,0,0:0:0:0:
310,41,24600,2,0,L|231:54,1,70
179,193,24900,2,0,L|100:180,1,70
41,43,25200,2,0,L|120:56,1,70
240,52,25500,1,0,0:0:0:0:
150,141,25650,1,0,0:0:0:0:
83,33,25800,2,0,L|99:109,1,70
174,253,26100,2,0,L|187:157,1,70
259,33,26400,6,0,L|275:109,1,70
266,227,26700,1,0,0:0:0:0:
176,137,26850,1,0,0:0:0:0:
292,89,27000,2,0,L|369:74,1,70
503,150,27300,2,0,L|426:135,1,70
295,218,27600,2,0,L|372:203,1,70
489,204,27900,1,0,0:0:0:0:
399,293,28050,1,0,0:0:0:0:
317,227,28200,5,0,0:0:0:0:
292,201,28275,1,0,0:0:0:0:
280,167,28350,1,0,0:0:0:0:
285,132,28425,1,0,0:0:0:0:
301,101,28500,2,0,P|317:85|348:79,3,35
423,74,28800,5,0,0:0:0:0:
260,30,29100,1,0,0:0:0:0:
105,96,29400,1,0,0:0:0:0:
175,248,29700,1,0,0:0:0:0:
303,139,30000,1,0,0:0:0:0:
219,139,30150,1,0,0:0:0:0:
387,139,30300,2,0,P|429:168|442:195,1,70
446,309,30600,1,0,0:0:0:0:
219,139,30900,1,0,0:0:0:0:
105,81,31200,5,0,0:0:0:0:
148,152,31500,1,0,0:0:0:0:
226,181,31800,1,0,0:0:0:0:
301,145,32100,1,0,0:0:0:0:
365,91,32400,2,0,L|434:56,1,70
446,140,32700,1,0,0:0:0:0:
385,190,32850,2,0,L|412:268,1,70
265,160,33300,1,0,0:0:0:0:
296,232,33450,1,0,0:0:0:0:
105,81,33600,5,0,0:0:0:0:
148,152,33900,1,0,0:0:0:0:
226,181,34200,1,0,0:0:0:0:
301,145,34500,1,0,0:0:0:0:
325,83,34800,1,0,0:0:0:0:
429,65,34950,1,0,0:0:0:0:
380,137,35100,2,0,P|426:145|467:131,1,78.7500030040742
499,102,35400,1,0,0:0:0:0:
508,183,35550,1,0,0:0:0:0:
452,238,35700,1,0,0:0:0:0:
309,161,36000,5,0,0:0:0:0:
293,238,36150,1,0,0:0:0:0:
239,169,36300,1,0,0:0:0:0:
204,239,36450,1,0,0:0:0:0:
197,112,36600,1,0,0:0:0:0:
203,33,36750,1,0,0:0:0:0:
138,150,36900,1,0,0:0:0:0:
59,148,37050,1,0,0:0:0:0:
128,219,37200,5,0,0:0:0:0:
49,222,37350,1,0,0:0:0:0:
148,280,37500,1,0,0:0:0:0:
68,314,37650,1,0,0:0:0:0:
203,340,37800,1,0,0:0:0:0:
271,196,38100,1,0,0:0:0:0:
271,196,38175,1,0,0:0:0:0:
271,196,38250,1,0,0:0:0:0:
423,74,38400,5,0,0:0:0:0:
260,30,38700,1,0,0:0:0:0:
105,96,39000,1,0,0:0:0:0:
175,248,39300,1,0,0:0:0:0:
303,139,39600,1,0,0:0:0:0:
219,139,39750,1,0,0:0:0:0:
387,139,39900,2,0,P|429:168|442:195,1,70
446,309,40200,1,0,0:0:0:0:
219,139,40500,1,0,0:0:0:0:
105,81,40800,5,0,0:0:0:0:
148,152,41100,1,0,0:0:0:0:
226,181,41400,1,0,0:0:0:0:
301,145,41700,1,0,0:0:0:0:
365,91,42000,2,0,L|434:56,1,70
446,140,42300,1,0,0:0:0:0:
385,190,42450,2,0,L|412:268,1,70
265,160,42900,1,0,0:0:0:0:
296,232,43050,1,0,0:0:0:0:
105,81,43200,5,0,0:0:0:0:
148,152,43500,1,0,0:0:0:0:
226,181,43800,1,0,0:0:0:0:
301,145,44100,1,0,0:0:0:0:
325,83,44400,1,0,0:0:0:0:
429,65,44550,1,0,0:0:0:0:
380,137,44700,2,0,P|426:145|467:131,1,78.7500030040742
499,102,45000,5,0,0:0:0:0:
508,183,45150,1,0,0:0:0:0:
452,238,45300,1,0,0:0:0:0:
309,161,45600,5,0,0:0:0:0:
293,238,45750,1,0,0:0:0:0:
239,169,45900,1,0,0:0:0:0:
204,239,46050,1,0,0:0:0:0:
197,112,46200,1,0,0:0:0:0:
203,33,46350,1,0,0:0:0:0:
138,150,46500,1,0,0:0:0:0:
59,148,46650,1,0,0:0:0:0:
128,219,46800,5,0,0:0:0:0:
49,222,46950,1,0,0:0:0:0:
148,280,47100,1,0,0:0:0:0:
68,314,47250,1,0,0:0:0:0:
203,340,47400,1,0,0:0:0:0:
267,154,47475,1,0,0:0:0:0:
288,138,47550,1,0,0:0:0:0:
306,119,47625,1,0,0:0:0:0:
331,108,47700,2,0,L|363:92,3,26.2500010013581
224,48,48000,6,0,L|144:44,1,70
48,43,48300,1,0,0:0:0:0:
129,109,48450,1,0,0:0:0:0:
44,171,48600,2,0,L|121:191,1,70
178,64,48900,2,0,L|255:44,1,70
303,173,49200,2,0,L|380:193,1,70
471,219,49500,1,0,0:0:0:0:
412,131,49650,1,0,0:0:0:0:
372,265,49800,2,0,L|348:339,1,70
303,173,50100,2,0,L|280:98,1,70
229,258,50400,6,0,L|205:332,1,70
133,250,50700,1,0,0:0:0:0:
218,189,50850,1,0,0:0:0:0:
135,123,51000,2,0,L|212:99,1,70
339,180,51300,2,0,L|263:191,1,70
114,256,51600,2,0,L|190:245,1,70
310,245,51900,5,0,0:0:0:0:
379,139,52050,1,0,0:0:0:0:
415,270,52200,1,0,0:0:0:0:
393,297,52275,1,0,0:0:0:0:
360,311,52350,1,0,0:0:0:0:
325,313,52425,1,0,0:0:0:0:
290,306,52500,2,0,P|260:294|250:273,2,35
415,270,52800,6,0,L|433:190,1,70
430,75,53100,1,0,0:0:0:0:
340,164,53250,1,0,0:0:0:0:
310,41,53400,2,0,L|231:54,1,70
179,193,53700,2,0,L|100:180,1,70
41,43,54000,2,0,L|120:56,1,70
240,52,54300,1,0,0:0:0:0:
150,141,54450,1,0,0:0:0:0:
83,33,54600,2,0,L|99:109,1,70
174,253,54900,2,0,L|187:157,1,70
259,33,55200,6,0,L|275:109,1,70
266,227,55500,1,0,0:0:0:0:
176,137,55650,1,0,0:0:0:0:
292,89,55800,2,0,L|369:74,1,70
503,150,56100,2,0,L|426:135,1,70
295,218,56400,2,0,L|372:203,1,70
489,204,56700,1,0,0:0:0:0:
399,293,56850,1,0,0:0:0:0:
317,227,57000,5,0,0:0:0:0:
292,201,57075,1,0,0:0:0:0:
280,167,57150,1,0,0:0:0:0:
285,132,57225,1,0,0:0:0:0:
301,101,57300,2,0,P|317:85|348:79,3,35
121,74,57600,5,0,0:0:0:0:
259,91,58200,1,0,0:0:0:0:
319,125,58350,1,0,0:0:0:0:
362,179,58500,1,0,0:0:0:0:
332,242,58650,1,0,0:0:0:0:
262,253,58800,2,0,L|142:168,1,140
125,51,59400,1,0,0:0:0:0:
232,140,59700,1,0,0:0:0:0:
121,74,60000,5,0,0:0:0:0:
259,91,60600,1,0,0:0:0:0:
319,125,60750,1,0,0:0:0:0:
362,179,60900,1,0,0:0:0:0:
332,242,61050,1,0,0:0:0:0:
262,253,61200,2,0,L|133:185,1,140
125,51,61800,1,0,0:0:0:0:
232,140,62100,1,0,0:0:0:0:
121,74,62400,5,0,0:0:0:0:
259,91,63000,1,0,0:0:0:0:
319,125,63150,1,0,0:0:0:0:
362,179,63300,1,0,0:0:0:0:
332,242,63450,1,0,0:0:0:0:
262,253,63600,2,0,L|138:182,1,140
125,51,64200,1,0,0:0:0:0:
232,140,64500,1,0,0:0:0:0:
121,74,64800,5,0,0:0:0:0:
259,91,65400,1,0,0:0:0:0:
319,125,65550,1,0,0:0:0:0:
362,179,65700,1,0,0:0:0:0:
332,242,65850,1,0,0:0:0:0:
262,253,66000,2,0,L|187:228,3,70
125,51,66600,1,0,0:0:0:0:
232,140,66750,1,0,0:0:0:0:
125,51,66900,1,0,0:0:0:0:
232,140,67050,1,0,0:0:0:0:
121,74,67200,6,0,P|137:130|215:140,1,140
259,91,67800,1,0,0:0:0:0:
319,125,67950,1,0,0:0:0:0:
362,179,68100,1,0,0:0:0:0:
332,242,68250,1,0,0:0:0:0:
262,253,68400,2,0,L|180:205,3,70
125,51,69000,2,0,L|207:49,1,70
232,140,69300,2,0,L|303:141,1,70
121,74,69600,6,0,P|137:130|213:174,1,140
259,91,70200,1,0,0:0:0:0:
319,125,70350,1,0,0:0:0:0:
362,179,70500,1,0,0:0:0:0:
332,242,70650,1,0,0:0:0:0:
262,253,70800,2,0,L|181:202,3,70
125,51,71400,2,0,L|203:45,1,70
232,140,71700,2,0,L|303:142,1,70
121,74,72000,6,0,P|137:130|206:172,1,140
259,91,72600,1,0,0:0:0:0:
319,125,72750,1,0,0:0:0:0:
362,179,72900,1,0,0:0:0:0:
332,242,73050,1,0,0:0:0:0:
262,253,73200,2,0,L|173:201,3,70
125,51,73800,2,0,L|203:47,1,70
232,140,74100,2,0,L|305:144,1,70
121,74,74400,6,0,P|137:130|206:179,1,140
259,91,75000,1,0,0:0:0:0:
319,125,75150,1,0,0:0:0:0:
362,179,75300,1,0,0:0:0:0:
332,242,75450,1,0,0:0:0:0:
262,253,75600,2,0,L|135:187,1,140
125,51,76200,1,0,0:0:0:0:
232,140,76500,1,0,0:0:0:0:
105,81,76800,5,0,0:0:0:0:
74,164,76950,1,0,0:0:0:0:
119,252,77100,1,0,0:0:0:0:
180,191,77250,1,0,0:0:0:0:
223,90,77400,1,0,0:0:0:0:
336,191,77700,1,0,0:0:0:0:
365,91,78000,1,0,0:0:0:0:
446,52,78150,1,0,0:0:0:0:
404,173,78300,1,0,0:0:0:0:
488,226,78450,1,0,0:0:0:0:
379,264,78600,2,0,L|336:336,1,70
295,251,78900,2,0,L|225:278,1,70
105,81,79200,5,0,0:0:0:0:
74,164,79350,1,0,0:0:0:0:
119,252,79500,1,0,0:0:0:0:
180,191,79650,1,0,0:0:0:0:
223,90,79800,1,0,0:0:0:0:
336,191,80100,1,0,0:0:0:0:
365,91,80400,1,0,0:0:0:0:
446,52,80550,1,0,0:0:0:0:
404,173,80700,1,0,0:0:0:0:
488,226,80850,1,0,0:0:0:0:
348,269,81000,2,0,L|378:342,1,70
305,209,81300,1,0,0:0:0:0:
279,314,81450,1,0,0:0:0:0:
105,81,81600,5,0,0:0:0:0:
74,164,81750,1,0,0:0:0:0:
119,252,81900,1,0,0:0:0:0:
180,191,82050,1,0,0:0:0:0:
223,90,82200,1,0,0:0:0:0:
336,191,82500,1,0,0:0:0:0:
365,91,82800,1,0,0:0:0:0:
365,91,82950,1,0,0:0:0:0:
365,91,83100,2,0,P|423:101|447:148,1,105
421,223,83400,1,0,0:0:0:0:
421,223,83550,1,0,0:0:0:0:
421,223,83700,1,0,0:0:0:0:
309,161,84000,5,0,0:0:0:0:
293,238,84150,1,0,0:0:0:0:
239,169,84300,1,0,0:0:0:0:
204,239,84450,1,0,0:0:0:0:
197,112,84600,1,0,0:0:0:0:
203,33,84750,1,0,0:0:0:0:
138,150,84900,1,0,0:0:0:0:
59,148,85050,1,0,0:0:0:0:
128,219,85200,5,0,0:0:0:0:
49,222,85350,1,0,0:0:0:0:
148,280,85500,1,0,0:0:0:0:
68,314,85650,1,0,0:0:0:0:
256,178,85800,1,0,0:0:0:0:
256,178,85875,1,0,0:0:0:0:
256,178,85950,1,0,0:0:0:0:
325,299,86100,1,0,0:0:0:0:
325,299,86175,1,0,0:0:0:0:
325,299,86250,1,0,0:0:0:0:
105,81,86400,5,0,0:0:0:0:
74,164,86550,1,0,0:0:0:0:
119,252,86700,1,0,0:0:0:0:
180,191,86850,1,0,0:0:0:0:
223,90,87000,1,0,0:0:0:0:
336,191,87300,1,0,0:0:0:0:
365,91,87600,1,0,0:0:0:0:
446,52,87750,1,0,0:0:0:0:
404,173,87900,1,0,0:0:0:0:
488,226,88050,1,0,0:0:0:0:
379,264,88200,2,0,L|336:336,1,70
295,251,88500,2,0,L|225:278,1,70
105,81,88800,5,0,0:0:0:0:
74,164,88950,1,0,0:0:0:0:
119,252,89100,1,0,0:0:0:0:
180,191,89250,1,0,0:0:0:0:
223,90,89400,1,0,0:0:0:0:
336,191,89700,1,0,0:0:0:0:
365,91,90000,1,0,0:0:0:0:
446,52,90150,1,0,0:0:0:0:
404,173,90300,1,0,0:0:0:0:
488,226,90450,1,0,0:0:0:0:
348,269,90600,2,0,L|378:342,1,70
305,209,90900,1,0,0:0:0:0:
279,314,91050,1,0,0:0:0:0:
105,81,91200,5,0,0:0:0:0:
74,164,91350,1,0,0:0:0:0:
119,252,91500,1,0,0:0:0:0:
180,191,91650,1,0,0:0:0:0:
223,90,91800,1,0,0:0:0:0:
336,191,92100,1,0,0:0:0:0:
365,91,92400,1,0,0:0:0:0:
365,91,92550,1,0,0:0:0:0:
365,91,92700,2,0,P|424:88|449:127,1,105
421,223,93000,1,0,0:0:0:0:
421,223,93150,1,0,0:0:0:0:
421,223,93300,1,0,0:0:0:0:
309,161,93600,5,0,0:0:0:0:
293,238,93750,1,0,0:0:0:0:
239,169,93900,1,0,0:0:0:0:
204,239,94050,1,0,0:0:0:0:
197,112,94200,1,0,0:0:0:0:
203,33,94350,1,0,0:0:0:0:
138,150,94500,1,0,0:0:0:0:
59,148,94650,1,0,0:0:0:0:
128,219,94800,5,0,0:0:0:0:
49,222,94950,1,0,0:0:0:0:
148,280,95100,1,0,0:0:0:0:
68,314,95250,1,0,0:0:0:0:
256,178,95400,1,0,0:0:0:0:
290,181,95475,1,0,0:0:0:0:
321,195,95550,1,0,0:0:0:0:
353,208,95625,1,0,0:0:0:0:
378,231,95700,2,0,L|394:268,3,35
224,48,96000,6,0,L|144:44,1,70
48,43,96300,1,0,0:0:0:0:
129,109,96450,1,0,0:0:0:0:
44,171,96600,2,0,L|121:191,1,70
178,64,96900,2,0,L|255:44,1,70
303,173,97200,2,0,L|380:193,1,70
471,219,97500,1,0,0:0:0:0:
412,131,97650,1,0,0:0:0:0:
372,265,97800,2,0,L|348:339,1,70
303,173,98100,2,0,L|280:98,1,70
229,258,98400,6,0,L|205:332,1,70
133,250,98700,1,0,0:0:0:0:
218,189,98850,1,0,0:0:0:0:
135,123,99000,2,0,L|212:99,1,70
339,180,99300,2,0,L|263:191,1,70
114,256,99600,2,0,L|190:245,1,70
310,245,99900,5,0,0:0:0:0:
379,139,100050,1,0,0:0:0:0:
415,270,100200,1,0,0:0:0:0:
393,297,100275,1,0,0:0:0:0:
360,311,100350,1,0,0:0:0:0:
325,313,100425,1,0,0:0:0:0:
290,306,100500,2,0,P|260:294|250:273,2,35
415,270,100800,6,0,L|433:190,1,70
430,75,101100,1,0,0:0:0:0:
340,164,101250,1,0,0:0:0:0:
310,41,101400,2,0,L|231:54,1,70
179,193,101700,2,0,L|100:180,1,70
41,43,102000,2,0,L|120:56,1,70
240,52,102300,1,0,0:0:0:0:
150,141,102450,1,0,0:0:0:0:
83,33,102600,2,0,L|99:109,1,70
174,253,102900,2,0,L|187:157,1,70
259,33,103200,6,0,L|275:109,1,70
266,227,103500,1,0,0:0:0:0:
176,137,103650,1,0,0:0:0:0:
292,89,103800,2,0,L|369:74,1,70
503,150,104100,2,0,L|426:135,1,70
295,218,104400,2,0,L|372:203,1,70
489,204,104700,1,0,0:0:0:0:
399,293,104850,1,0,0:0:0:0:
317,227,105000,5,0,0:0:0:0:
292,201,105075,1,0,0:0:0:0:
280,167,105150,1,0,0:0:0:0:
285,132,105225,1,0,0:0:0:0:
301,101,105300,2,0,P|317:85|348:79,3,35
121,74,105600,6,0,L|82:70,3,35
259,91,106200,1,0,0:0:0:0:
319,125,106350,1,0,0:0:0:0:
362,179,106500,1,0,0:0:0:0:
332,242,106650,1,0,0:0:0:0:
262,253,106800,2,0,L|135:168,1,140
125,51,107400,1,0,0:0:0:0:
232,140,107700,1,0,0:0:0:0:
121,74,108000,6,0,P|137:130|210:163,1,140
259,91,108600,1,0,0:0:0:0:
319,125,108750,1,0,0:0:0:0:
362,179,108900,1,0,0:0:0:0:
332,242,109050,1,0,0:0:0:0:
262,253,109200,2,0,L|135:185,1,140
125,51,109800,1,0,0:0:0:0:
232,140,110100,1,0,0:0:0:0:
121,74,110400,6,0,P|137:130|214:152,1,140
259,91,111000,1,0,0:0:0:0:
319,125,111150,1,0,0:0:0:0:
362,179,111300,1,0,0:0:0:0:
332,242,111450,1,0,0:0:0:0:
262,253,111600,2,0,L|113:190,1,140
125,51,112200,1,0,0:0:0:0:
232,140,112500,1,0,0:0:0:0:
121,74,112800,6,0,P|137:130|213:188,1,140
259,91,113400,1,0,0:0:0:0:
319,125,113550,1,0,0:0:0:0:
362,179,113700,1,0,0:0:0:0:
332,242,113850,1,0,0:0:0:0:
262,253,114000,2,0,L|184:219,3,70
125,51,114600,1,0,0:0:0:0:
232,140,114750,1,0,0:0:0:0:
125,51,114900,1,0,0:0:0:0:
232,140,115050,1,0,0:0:0:0:
121,74,115200,6,0,P|137:130|194:196,1,140
259,91,115800,1,0,0:0:0:0:
319,125,115950,1,0,0:0:0:0:
362,179,116100,1,0,0:0:0:0:
332,242,116250,1,0,0:0:0:0:
262,253,116400,2,0,L|175:201,3,70
125,51,117000,1,0,0:0:0:0:
232,140,117300,1,0,0:0:0:0:
121,74,117600,6,0,P|137:130|208:190,1,140
259,91,118200,1,0,0:0:0:0:
319,125,118350,1,0,0:0:0:0:
362,179,118500,1,0,0:0:0:0:
332,242,118650,1,0,0:0:0:0:
262,253,118800,2,0,L|181:197,3,70
125,51,119400,1,0,0:0:0:0:
232,140,119700,1,0,0:0:0:0:
121,74,120000,6,0,P|137:130|198:199,1,140
259,91,120600,1,0,0:0:0:0:
319,125,120750,1,0,0:0:0:0:
362,179,120900,1,0,0:0:0:0:
332,242,121050,1,0,0:0:0:0:
262,253,121200,2,0,L|184:212,3,70
125,51,121800,1,0,0:0:0:0:
232,140,122100,1,0,0:0:0:0:
121,74,122400,6,0,P|137:130|212:181,1,140
259,91,123000,1,0,0:0:0:0:
319,125,123150,1,0,0:0:0:0:
362,179,123300,1,0,0:0:0:0:
332,242,123450,1,0,0:0:0:0:
262,253,123600,2,0,L|129:186,1,140
125,51,124200,1,0,0:0:0:0:
232,140,124500,1,0,0:0:0:0:
