osu file format v14

[General]
AudioFilename: audio.mp3
AudioLeadIn: 0
PreviewTime: 182864
Countdown: 0
SampleSet: Normal
StackLeniency: 0.7
Mode: 1
LetterboxInBreaks: 0
WidescreenStoryboard: 0

[Editor]
Bookmarks: 95364,104171,249492,260088
DistanceSpacing: 1.2
BeatDivisor: 12
GridSize: 4
TimelineZoom: 3.500004

[Metadata]
Title:Watashi o Mite
TitleUnicode:わたしをみて
Artist:Hakushi Hasegawa
ArtistUnicode:長谷川白紙
Creator:trollocat
Version:Look at Me
Source:アーティスウィッチ
Tags:japanese electronic glitch pop breakcore wo dnb drum n and & bass Artiswitch
BeatmapID:3158947
BeatmapSetID:1545496

[Difficulty]
HPDrainRate:6
CircleSize:5
OverallDifficulty:7.7
ApproachRate:5
SliderMultiplier:1.4
SliderTickRate:1

[Events]
//Background and Video events
0,0,"ed2636e190b477e782675905941b7729.jpg",0,123
//Break Periods
//Storyboard Layer 0 (Background)
//Storyboard Layer 1 (Fail)
//Storyboard Layer 2 (Pass)
//Storyboard Layer 3 (Foreground)
//Storyboard Layer 4 (Overlay)
//Storyboard Sound Samples

[TimingPoints]
135,275.229357798165,4,1,0,20,1,0
2199,-90.9090909090909,4,1,0,80,0,0
2703,-100,4,1,0,80,0,0
2887,-90.9090909090909,4,1,0,80,0,0
3254,-100,4,1,0,80,0,0
3437,-90.9090909090909,4,1,0,80,0,0
3988,-100,4,1,0,80,0,0
4079,-102.040816326531,4,1,0,80,0,0
4171,-104.166666666667,4,1,0,80,0,0
4355,-108.695652173913,4,1,0,80,0,0
4538,-90.9090909090909,4,1,0,80,0,0
4905,-97.0873786407767,4,1,0,80,0,0
4997,-94.3396226415094,4,1,0,80,0,0
5089,-90.9090909090909,4,1,0,80,0,0
5456,-97.0873786407767,4,1,0,80,0,0
5547,-94.3396226415094,4,1,0,80,0,0
5639,-90.9090909090909,4,1,0,80,0,0
5823,-99.009900990099,4,1,0,80,0,0
5914,-100,4,1,0,80,0,0
6006,-101.010101010101,4,1,0,80,0,0
6098,-102.040816326531,4,1,0,80,0,0
6190,-103.092783505155,4,1,0,80,0,0
6281,-104.166666666667,4,1,0,80,0,0
6373,-105.263157894737,4,1,0,80,0,0
6557,-108.695652173913,4,1,0,80,0,0
6740,-90.9090909090909,4,1,0,80,0,0
7015,-98.0392156862745,4,1,0,80,0,0
7107,-96.1538461538461,4,1,0,80,0,0
7199,-94.3396226415094,4,1,0,80,0,0
7290,-90.9090909090909,4,1,0,80,0,0
7657,-100,4,1,0,80,0,0
7841,-90.9090909090909,4,1,0,80,0,0
8208,-97.0873786407767,4,1,0,80,0,0
8391,-100,4,1,0,80,0,0
8483,-102.040816326531,4,1,0,80,0,0
8575,-104.166666666667,4,1,0,80,0,0
8758,-108.695652173913,4,1,0,80,0,0
8942,-90.9090909090909,4,1,0,80,0,0
9309,-97.0873786407767,4,1,0,80,0,0
9401,-94.3396226415094,4,1,0,80,0,0
9492,-90.9090909090909,4,1,0,80,0,0
9859,-97.0873786407767,4,1,0,80,0,0
9951,-94.3396226415094,4,1,0,80,0,0
10043,-90.9090909090909,4,1,0,80,0,0
10318,-100,4,1,0,80,0,0
10593,-98.0392156862745,4,1,0,80,0,0
10662,-97.0873786407767,4,1,0,80,0,0
10731,-96.1538461538461,4,1,0,80,0,0
10868,-94.3396226415094,4,1,0,80,0,0
11006,-92.5925925925926,4,1,0,80,0,0
11144,-86.9565217391304,4,1,0,80,0,0
11419,-103.092783505155,4,1,0,80,0,0
11694,-105.263157894737,4,1,0,80,0,0
12038,-111.111111111111,4,1,0,80,0,0
12245,-108.695652173913,4,1,0,80,0,0
12795,-117.647058823529,4,1,0,80,0,0
13346,-114.942528735632,4,1,0,80,0,0
13621,-117.647058823529,4,1,0,80,0,0
14446,-113.636363636364,4,1,0,80,0,0
14722,-108.695652173913,4,1,0,80,0,0
14997,-104.166666666667,4,1,0,80,0,0
15134,-101.010101010101,4,1,0,80,0,0
15272,-98.0392156862745,4,1,0,80,0,0
15341,-96.1538461538461,4,1,0,80,0,0
15410,-94.3396226415094,4,1,0,80,0,0
15547,-90.9090909090909,4,1,0,80,0,0
15731,-99.009900990099,4,1,0,80,0,0
15823,-97.0873786407767,4,1,0,80,0,0
15914,-95.2380952380952,4,1,0,80,0,0
16006,-93.4579439252336,4,1,0,80,0,0
16098,-90.9090909090909,4,1,0,80,0,0
16373,-97.0873786407767,4,1,0,80,0,0
16465,-95.2380952380952,4,1,0,80,0,0
16648,-90.9090909090909,4,1,0,80,0,0
16832,-93.4579439252336,4,1,0,80,0,0
17015,-90.9090909090909,4,1,0,80,0,0
17199,-93.4579439252336,4,1,0,80,0,0
17382,-90.9090909090909,4,1,0,80,0,0
17933,-97.0873786407767,4,1,0,80,0,0
18024,-95.2380952380952,4,1,0,80,0,0
18116,-93.4579439252336,4,1,0,80,0,0
18208,-91.743119266055,4,1,0,80,0,0
18300,-90.0900900900901,4,1,0,80,0,0
18368,-91.2075884713608,4,1,0,80,0,0
18437,-92.3702198411232,4,1,0,80,0,0
18506,-93.562874251497,4,1,0,80,0,0
18575,-94.7867298578199,4,1,0,80,0,0
18644,-96.0430272762197,4,1,0,80,0,0
18712,-97.3141300116777,4,1,0,80,0,0
18781,-98.6387847701716,4,1,0,80,0,0
18850,-100,4,1,0,80,0,0
19125,-111.111111111111,4,1,0,80,0,0
19401,-100,4,1,0,80,0,0
19492,-102.040816326531,4,1,0,80,0,0
19584,-104.166666666667,4,1,0,80,0,0
19676,-106.382978723404,4,1,0,80,0,0
19768,-108.695652173913,4,1,0,80,0,0
19951,-111.111111111111,4,1,0,80,0,0
21465,-108.695652173913,4,1,0,80,0,0
21602,-105.263157894737,4,1,0,80,0,0
21721,-105.263157894737,4,1,0,80,0,0
22153,-103.092783505155,4,1,0,60,0,0
22428,-100,4,1,0,40,0,0
22566,-99.009900990099,4,1,0,45,0,0
22703,-97.0873786407767,4,1,0,50,0,0
22841,-94.3396226415094,4,1,0,65,0,0
22979,-90.9090909090909,4,1,0,70,0,0
23116,-86.9565217391304,4,1,0,75,0,0
23254,-82.6446280991736,4,1,0,80,0,0
23529,-84.7457627118644,4,1,0,70,0,0
23667,-81.9672131147541,4,1,0,75,0,0
23804,-78.7401574803149,4,1,0,80,0,0
23942,-75.187969924812,4,1,0,85,0,0
24079,-71.4285714285714,4,1,0,90,0,0
24355,-66.6666666666667,4,1,0,100,0,1
24630,-80,4,1,0,100,0,1
31923,-82.6446280991736,4,1,0,100,0,1
32061,-84.0336134453781,4,1,0,100,0,1
32199,-85.4700854700855,4,1,0,100,0,1
32336,-86.9565217391304,4,1,0,100,0,1
32474,-88.4955752212389,4,1,0,100,0,1
32612,-90.0900900900901,4,1,0,100,0,1
32749,-91.743119266055,4,1,0,100,0,1
32887,-93.4579439252336,4,1,0,100,0,1
32956,-95.2380952380952,4,1,0,100,0,1
33024,-97.0873786407767,4,1,0,100,0,1
33093,-99.009900990099,4,1,0,100,0,1
33162,-100,4,1,0,80,0,0
37497,-96.1538461538461,4,1,0,80,0,0
37566,-95.2380952380952,4,1,0,80,0,0
38529,-98.0392156862745,4,1,0,80,0,0
38667,-100,4,1,0,80,0,0
39699,-96.1538461538461,4,1,0,80,0,0
39768,-95.2380952380952,4,1,0,80,0,0
40731,-98.0392156862745,4,1,0,80,0,0
40868,-100,4,1,0,80,0,0
76648,-99.009900990099,4,1,0,80,0,0
76717,-98.0392156862745,4,1,0,80,0,0
76786,-96.1538461538461,4,1,0,80,0,0
76855,-93.4579439252336,4,1,0,80,0,0
76923,-90.0900900900901,4,1,0,80,0,0
76992,-86.2068965517241,4,1,0,80,0,0
77061,-81.9672131147541,4,1,0,80,0,0
77130,-77.5193798449612,4,1,0,80,0,0
77199,-72.992700729927,4,1,0,80,0,0
77474,-80,4,1,0,60,0,0
77749,-90.9090909090909,4,1,0,60,0,0
78300,-100,4,1,0,60,0,0
78850,-104.166666666667,4,1,0,60,0,0
79401,-108.695652173913,4,1,0,60,0,0
79951,-113.636363636364,4,1,0,60,0,0
80501,-119.047619047619,4,1,0,60,0,0
81052,-125,4,1,0,60,0,0
81602,-131.578947368421,4,1,0,60,0,0
82153,-138.888888888889,4,1,0,60,0,0
82703,-147.058823529412,4,1,0,60,0,0
83254,-156.25,4,1,0,60,0,0
83804,-100,4,1,0,80,0,0
84079,-111.111111111111,4,1,0,80,0,0
84355,-117.647058823529,4,1,0,80,0,0
84630,-103.092783505155,4,1,0,80,0,0
84722,-108.695652173913,4,1,0,80,0,0
84813,-114.942528735632,4,1,0,80,0,0
84905,-100,4,1,0,80,0,0
85180,-111.111111111111,4,1,0,80,0,0
85456,-117.647058823529,4,1,0,80,0,0
85731,-103.092783505155,4,1,0,80,0,0
85823,-108.695652173913,4,1,0,80,0,0
85914,-114.942528735632,4,1,0,80,0,0
86006,-100,4,1,0,80,0,0
86281,-111.111111111111,4,1,0,80,0,0
87933,-108.695652173913,4,1,0,80,0,0
88024,-106.382978723404,4,1,0,80,0,0
88116,-104.166666666667,4,1,0,80,0,0
88208,-100,4,1,0,80,0,0
89859,-111.111111111111,4,1,0,80,0,0
89928,-109.89010989011,4,1,0,80,0,0
89997,-108.695652173913,4,1,0,80,0,0
90066,-107.52688172043,4,1,0,80,0,0
90134,-106.382978723404,4,1,0,80,0,0
90203,-105.263157894737,4,1,0,80,0,0
90272,-104.166666666667,4,1,0,80,0,0
90341,-103.092783505155,4,1,0,80,0,0
90410,-100,4,1,0,80,0,0
90731,-90.9090909090909,4,1,0,60,0,0
91511,-117.647058823529,4,1,0,60,0,0
91557,-83.3333333333333,4,1,0,60,0,0
92107,-66.6666666666667,4,1,0,60,0,0
92612,-142.857142857143,4,1,0,60,0,0
92657,-76.9230769230769,4,1,0,60,0,0
93208,-71.4285714285714,4,1,0,60,0,0
93575,-66.6666666666667,4,1,0,60,0,0
93712,-153.846153846154,4,1,0,60,0,0
93758,-62.5,4,1,0,60,0,0
94263,-66.6666666666667,4,1,0,60,0,0
94813,-125,4,1,0,100,0,1
94814,-25,4,1,0,100,0,1
95914,-166.666666666667,4,1,0,100,0,1
97015,-250,4,1,0,60,0,0
98116,-97.0873786407767,4,1,0,60,0,0
98185,-94.3396226415094,4,1,0,60,0,0
98219,-90.9090909090909,4,1,0,80,0,0
98391,-100,4,1,0,80,0,0
98667,-97.0873786407767,4,1,0,80,0,0
98804,-93.4579439252336,4,1,0,80,0,0
99011,-89.2857142857143,4,1,0,80,0,0
99217,-83.3333333333333,4,1,0,100,0,1
99630,-90.9090909090909,4,1,0,100,0,1
102382,-102.040816326531,4,1,0,100,0,1
102520,-105.263157894737,4,1,0,80,0,0
102864,-104.166666666667,4,1,0,80,0,0
103139,-103.092783505155,4,1,0,80,0,0
103414,-101.010101010101,4,1,0,80,0,0
103621,-100,4,1,0,100,0,1
103622,-25,4,1,0,100,0,1
104722,-125,4,1,0,100,0,1
105823,-166.666666666667,4,1,0,80,0,0
106373,-125,4,1,0,80,0,0
106923,-105.263157894737,4,1,0,80,0,0
107199,-102.040816326531,4,1,0,80,0,0
107336,-99.009900990099,4,1,0,80,0,0
107474,-96.1538461538461,4,1,0,80,0,0
107612,-91.743119266055,4,1,0,80,0,0
107818,-86.9565217391304,4,1,0,80,0,0
108024,-83.3333333333333,4,1,0,100,0,1
108300,-90.9090909090909,4,1,0,100,0,1
109401,-91.743119266055,4,1,0,100,0,1
109538,-92.5925925925926,4,1,0,100,0,1
109813,-94.3396226415094,4,1,0,100,0,1
109951,-96.1538461538461,4,1,0,100,0,1
110089,-98.0392156862745,4,1,0,100,0,1
110226,-100,4,1,0,80,0,0
112290,-101.010101010101,4,1,0,80,0,0
112359,-103.092783505155,4,1,0,80,0,0
112428,-105.263157894737,4,1,0,60,0,0
112772,-117.647058823529,4,1,0,60,0,0
114423,-102.040816326531,4,1,0,60,0,0
114630,-95.2380952380952,4,1,0,100,0,1
116419,-97.0873786407767,4,1,0,100,0,1
116625,-99.009900990099,4,1,0,100,0,1
116740,-100,4,1,0,100,0,1
116832,-101.010101010101,4,1,0,100,0,1
116923,-102.040816326531,4,1,0,100,0,1
117015,-103.092783505155,4,1,0,100,0,1
117199,-104.166666666667,4,1,0,100,0,0
117382,-111.111111111111,4,1,0,60,0,0
118208,-105.263157894737,4,1,0,100,0,0
118300,-104.166666666667,4,1,0,100,0,0
118483,-102.040816326531,4,1,0,100,0,0
118667,-99.009900990099,4,1,0,100,0,0
118758,-98.0392156862745,4,1,0,100,0,0
118850,-97.0873786407767,4,1,0,100,0,0
118942,-96.1538461538461,4,1,0,100,0,0
119034,-95.2380952380952,4,1,0,100,0,0
119584,-105.263157894737,4,1,0,60,0,0
120410,-80,4,1,0,100,0,0
120479,-81.0850656051894,4,1,0,100,0,0
120547,-82.1835931663097,4,1,0,100,0,0
120616,-83.3291247916772,4,1,0,100,0,0
120685,-84.5070422535211,4,1,0,100,0,0
120754,-85.7187386357733,4,1,0,100,0,0
120823,-86.9656880830654,4,1,0,100,0,0
120891,-88.2305759050318,4,1,0,100,0,0
120960,-89.5522388059701,4,1,0,100,0,0
121029,-90.9140999504105,4,1,0,100,0,0
121098,-92.318021596822,4,1,0,100,0,0
121167,-93.7659828379837,4,1,0,100,0,0
121235,-94.3396226415094,4,1,0,100,0,1
121373,-95.2380952380952,4,1,0,100,0,1
123162,-93.4579439252336,4,1,0,100,0,1
123231,-91.743119266055,4,1,0,100,0,1
123300,-89.2857142857143,4,1,0,100,0,1
123368,-86.9565217391304,4,1,0,100,0,1
123437,-83.3333333333333,4,1,0,100,0,0
125089,-86.2068965517241,4,1,0,100,0,0
125157,-87.719298245614,4,1,0,100,0,0
125226,-90.0900900900901,4,1,0,100,0,0
125433,-92.5925925925926,4,1,0,100,0,0
125639,-95.2380952380952,4,1,0,100,0,1
127566,-93.4579439252336,4,1,0,100,0,1
127634,-91.743119266055,4,1,0,100,0,1
127703,-89.2857142857143,4,1,0,100,0,1
127772,-86.9565217391304,4,1,0,100,0,1
127841,-83.3333333333333,4,1,0,100,0,0
129492,-86.9565217391304,4,1,0,100,0,0
129561,-89.2857142857143,4,1,0,100,0,0
129630,-91.743119266055,4,1,0,100,0,0
129836,-97.0873786407767,4,1,0,100,0,0
130043,-105.263157894737,4,1,0,80,0,0
130410,-107.52688172043,4,1,0,80,0,0
130593,-109.89010989011,4,1,0,80,0,0
130777,-112.359550561798,4,1,0,80,0,0
130960,-114.942528735632,4,1,0,80,0,0
131144,-117.647058823529,4,1,0,80,0,0
133346,-119.047619047619,4,1,0,80,0,0
133621,-133.333333333333,4,1,0,80,0,0
133896,-117.647058823529,4,1,0,100,0,0
133965,-111.088668955767,4,1,0,100,0,0
134034,-105.222881193801,4,1,0,100,0,0
134102,-100.018185124568,4,1,0,100,0,0
134171,-95.2380952380952,4,1,0,100,0,0
134240,-90.8940670963477,4,1,0,100,0,0
134309,-86.9290342974553,4,1,0,100,0,0
134378,-83.2954717552628,4,1,0,100,0,0
134446,-80,4,1,0,100,0,0
134630,-85.4700854700855,4,1,0,100,0,0
134813,-88.4955752212389,4,1,0,100,0,0
134997,-84.0336134453781,4,1,0,100,0,0
135180,-89.2857142857143,4,1,0,100,0,0
135364,-86.9565217391304,4,1,0,100,0,0
135547,-80,4,1,0,100,0,0
135914,-88.4955752212389,4,1,0,80,0,0
136098,-90.9090909090909,4,1,0,80,0,0
136373,-96.1538461538461,4,1,0,80,0,0
136648,-103.092783505155,4,1,0,60,0,0
136923,-100,4,1,0,50,0,0
137061,-99.009900990099,4,1,0,55,0,0
137199,-97.0873786407767,4,1,0,60,0,0
137336,-94.3396226415094,4,1,0,65,0,0
137474,-90.9090909090909,4,1,0,70,0,0
137612,-86.9565217391304,4,1,0,75,0,0
137749,-82.6446280991736,4,1,0,80,0,0
138024,-84.7457627118644,4,1,0,80,0,0
138162,-81.9672131147541,4,1,0,75,0,0
138300,-78.7401574803149,4,1,0,80,0,0
138437,-75.187969924812,4,1,0,85,0,0
138575,-71.4285714285714,4,1,0,90,0,0
138850,-68.9655172413793,4,1,0,100,0,1
139125,-86.9565217391304,4,1,0,100,0,1
155364,-76.9230769230769,4,1,0,100,0,1
155433,-89.2857142857143,4,1,0,5,0,1
155811,-68.9655172413793,4,1,0,100,0,1
155983,-80,4,1,0,5,0,1
156362,-86.9565217391304,4,1,0,100,0,1
156740,-90.9090909090909,4,1,0,100,0,1
174079,-83.3333333333333,4,1,0,100,0,1
174355,-100,4,1,0,100,0,1
174492,-103.092783505155,4,1,0,100,0,1
174630,-106.382978723404,4,1,0,100,0,1
174768,-97.0873786407767,4,1,0,100,0,1
174905,-100,4,1,0,100,0,1
175043,-103.092783505155,4,1,0,100,0,1
175180,-93.4579439252336,4,1,0,100,0,1
175318,-96.1538461538461,4,1,0,100,0,1
175456,-99.009900990099,4,1,0,100,0,1
175593,-89.2857142857143,4,1,0,100,0,1
175731,-91.743119266055,4,1,0,100,0,1
175868,-94.3396226415094,4,1,0,100,0,1
176006,-86.9565217391304,4,1,0,100,0,1
176281,-83.3333333333333,4,1,0,100,0,1
176557,-100,4,1,0,100,0,1
176694,-104.166666666667,4,1,0,100,0,1
176832,-108.695652173913,4,1,0,100,0,1
176969,-97.0873786407767,4,1,0,100,0,1
177107,-101.010101010101,4,1,0,100,0,1
177245,-105.263157894737,4,1,0,100,0,1
177382,-93.4579439252336,4,1,0,100,0,1
177520,-97.0873786407767,4,1,0,100,0,1
177657,-101.010101010101,4,1,0,100,0,1
177795,-89.2857142857143,4,1,0,100,0,1
177933,-92.5925925925926,4,1,0,100,0,1
178070,-96.1538461538461,4,1,0,100,0,1
178208,-86.9565217391304,4,1,0,100,0,1
178483,-83.3333333333333,4,1,0,100,0,1
178758,-100,4,1,0,100,0,1
178896,-105.263157894737,4,1,0,100,0,1
179034,-111.111111111111,4,1,0,100,0,1
179171,-97.0873786407767,4,1,0,100,0,1
179309,-102.040816326531,4,1,0,100,0,1
179446,-107.52688172043,4,1,0,100,0,1
179584,-93.4579439252336,4,1,0,100,0,1
179722,-98.0392156862745,4,1,0,100,0,1
179859,-103.092783505155,4,1,0,100,0,1
179997,-89.2857142857143,4,1,0,100,0,1
180134,-93.4579439252336,4,1,0,100,0,1
180272,-98.0392156862745,4,1,0,100,0,1
180410,-86.9565217391304,4,1,0,100,0,1
180685,-76.3358778625954,4,1,0,100,0,1
180823,-78.125,4,1,0,100,0,1
180960,-80,4,1,0,100,0,1
181098,-83.3333333333333,4,1,0,100,0,1
181235,-86.2068965517241,4,1,0,100,0,1
181373,-81.3008130081301,4,1,0,100,0,1
181510,-84.0336134453781,4,1,0,100,0,1
181648,-85.4700854700855,4,1,0,100,0,1
181786,-83.3333333333333,4,1,0,100,0,1
181923,-83.9132422410728,4,1,0,100,0,1
182061,-84.5056013095299,4,1,0,100,0,1
182199,-85.1063829787234,4,1,0,100,0,1
182336,-85.7113209505033,4,1,0,100,0,1
182474,-86.3294314381271,4,1,0,100,0,1
182612,-86.9565217391304,4,1,0,100,0,1
182887,-80,4,1,0,100,0,1
183162,-83.3333333333333,4,1,0,100,0,1
189492,-76.9230769230769,4,1,0,100,0,1
189561,-89.2857142857143,4,1,0,5,0,1
189940,-68.9655172413793,4,1,0,100,0,1
190112,-80,4,1,0,5,0,1
190490,-109.89010989011,4,1,0,50,0,0
190731,-108.695652173913,4,1,0,50,0,0
190868,-107.52688172043,4,1,0,50,0,0
191006,-106.382978723404,4,1,0,50,0,0
191144,-105.263157894737,4,1,0,50,0,0
191419,-105.263157894737,4,1,0,90,0,0
200364,-101.010101010101,4,1,0,90,0,0
200501,-100,4,1,0,90,0,0
202566,-104.166666666667,4,1,0,90,0,0
202703,-105.263157894737,4,1,0,90,0,0
204768,-97.0873786407767,4,1,0,90,0,0
204905,-95.2380952380952,4,1,0,90,0,0
206969,-98.0392156862745,4,1,0,90,0,0
207107,-100,4,1,0,90,0,0
209171,-96.1538461538461,4,1,0,90,0,0
209309,-95.2380952380952,4,1,0,100,0,1
211235,-95.2380952380952,4,1,0,100,0,0
211373,-99.009900990099,4,1,0,100,0,0
211511,-100,4,1,0,100,0,1
213437,-100,4,1,0,100,0,0
213575,-96.1538461538461,4,1,0,100,0,0
213712,-95.2380952380952,4,1,0,100,0,1
215639,-95.2380952380952,4,1,0,100,0,0
215777,-99.009900990099,4,1,0,100,0,0
215914,-100,4,1,0,100,0,1
217841,-100,4,1,0,100,0,0
217979,-92.5925925925926,4,1,0,100,0,0
218116,-90.9090909090909,4,1,0,100,0,1
220043,-90.9090909090909,4,1,0,100,0,0
220180,-94.3396226415094,4,1,0,100,0,0
220318,-95.2380952380952,4,1,0,100,0,1
222245,-95.2380952380952,4,1,0,100,0,0
222382,-92.5925925925926,4,1,0,100,0,0
222520,-90.9090909090909,4,1,0,100,0,1
224446,-90.9090909090909,4,1,0,100,0,0
224584,-98.0392156862745,4,1,0,100,0,0
224722,-100,4,1,0,100,0,1
226648,-95.2380952380952,4,1,0,100,0,0
226786,-92.5925925925926,4,1,0,100,0,0
226923,-86.9565217391304,4,1,0,100,0,1
227059,-88.6110855777185,4,1,0,100,0,1
227128,-89.4622059301193,4,1,0,100,0,1
227266,-91.2144580593273,4,1,0,100,0,1
227334,-92.103377442316,4,1,0,100,0,1
227472,-93.9616940396705,4,1,0,100,0,1
227541,-94.9192595510043,4,1,0,100,0,1
227678,-96.8795537912668,4,1,0,100,0,1
227747,-97.897836904641,4,1,0,100,0,1
227885,-100,4,1,0,100,0,1
228022,-90.9090909090909,4,1,0,100,0,1
228091,-91.8051521356126,4,1,0,100,0,1
228160,-92.7190535731461,4,1,0,100,0,1
228229,-93.6513333657162,4,1,0,100,0,1
228298,-94.6025515210991,4,1,0,100,0,1
228366,-95.5590800951626,4,1,0,100,0,1
228435,-96.5496519605388,4,1,0,100,0,1
228504,-97.5609756097561,4,1,0,100,0,1
228573,-98.5937100485809,4,1,0,100,0,1
228642,-99.6485424850114,4,1,0,100,0,1
228710,-100.710405348934,4,1,0,100,0,1
228779,-101.811268944395,4,1,0,100,0,1
228848,-102.936465563267,4,1,0,100,0,1
228986,-105.263157894737,4,1,0,100,0,1
229123,-86.9565217391304,4,1,0,100,0,1
229261,-88.6110855777185,4,1,0,100,0,1
229330,-89.4622059301193,4,1,0,100,0,1
229468,-91.2144580593273,4,1,0,100,0,1
229536,-92.103377442316,4,1,0,100,0,1
229674,-93.9616940396705,4,1,0,100,0,1
229743,-94.9192595510043,4,1,0,100,0,1
229880,-96.8795537912668,4,1,0,100,0,1
229949,-97.897836904641,4,1,0,100,0,1
230087,-100,4,1,0,100,0,1
230224,-90.9090909090909,4,1,0,100,0,1
230293,-91.8051521356126,4,1,0,100,0,1
230362,-92.7190535731461,4,1,0,100,0,1
230431,-93.6513333657162,4,1,0,100,0,1
230500,-94.6025515210991,4,1,0,100,0,1
230568,-95.5590800951626,4,1,0,100,0,1
230637,-96.5496519605388,4,1,0,100,0,1
230706,-97.5609756097561,4,1,0,100,0,1
230775,-98.5937100485809,4,1,0,100,0,1
230844,-99.6485424850114,4,1,0,100,0,1
230912,-100.710405348934,4,1,0,100,0,1
230981,-101.811268944395,4,1,0,100,0,1
231050,-102.936465563267,4,1,0,100,0,1
231188,-105.263157894737,4,1,0,100,0,1
231325,-86.9565217391304,4,1,0,100,0,1
231463,-88.6110855777185,4,1,0,100,0,1
231532,-89.4622059301193,4,1,0,100,0,1
231670,-91.2144580593273,4,1,0,100,0,1
231738,-92.103377442316,4,1,0,100,0,1
231876,-93.9616940396705,4,1,0,100,0,1
231945,-94.9192595510043,4,1,0,100,0,1
232082,-96.8795537912668,4,1,0,100,0,1
232151,-97.897836904641,4,1,0,100,0,1
232289,-100,4,1,0,100,0,1
232426,-90.9090909090909,4,1,0,100,0,1
232495,-91.8051521356126,4,1,0,100,0,1
232564,-92.7190535731461,4,1,0,100,0,1
232633,-93.6513333657162,4,1,0,100,0,1
232702,-94.6025515210991,4,1,0,100,0,1
232770,-95.5590800951626,4,1,0,100,0,1
232839,-96.5496519605388,4,1,0,100,0,1
232908,-97.5609756097561,4,1,0,100,0,1
232977,-98.5937100485809,4,1,0,100,0,1
233046,-99.6485424850114,4,1,0,100,0,1
233114,-100.710405348934,4,1,0,100,0,1
233183,-101.811268944395,4,1,0,100,0,1
233252,-102.936465563267,4,1,0,100,0,1
233390,-105.263157894737,4,1,0,100,0,1
233527,-86.9565217391304,4,1,0,100,0,1
233665,-88.6110855777185,4,1,0,100,0,1
233734,-89.4622059301193,4,1,0,100,0,1
233872,-91.2144580593273,4,1,0,100,0,1
233940,-92.103377442316,4,1,0,100,0,1
234078,-93.9616940396705,4,1,0,100,0,1
234147,-94.9192595510043,4,1,0,100,0,1
234284,-96.8795537912668,4,1,0,100,0,1
234353,-97.897836904641,4,1,0,100,0,1
234491,-100,4,1,0,100,0,1
234628,-90.9090909090909,4,1,0,100,0,1
234697,-91.8051521356126,4,1,0,100,0,1
234766,-92.7190535731461,4,1,0,100,0,1
234835,-93.6513333657162,4,1,0,100,0,1
234904,-94.6025515210991,4,1,0,100,0,1
234972,-95.5590800951626,4,1,0,100,0,1
235041,-96.5496519605388,4,1,0,100,0,1
235110,-97.5609756097561,4,1,0,100,0,1
235179,-98.5937100485809,4,1,0,100,0,1
235248,-99.6485424850114,4,1,0,100,0,1
235316,-100.710405348934,4,1,0,100,0,1
235385,-101.811268944395,4,1,0,100,0,1
235454,-102.936465563267,4,1,0,100,0,1
235592,-105.263157894737,4,1,0,100,0,1
235729,-86.9565217391304,4,1,0,100,0,1
235867,-88.6110855777185,4,1,0,100,0,1
235936,-89.4622059301193,4,1,0,100,0,1
236074,-91.2144580593273,4,1,0,100,0,1
236142,-92.103377442316,4,1,0,100,0,1
236280,-93.9616940396705,4,1,0,100,0,1
236349,-94.9192595510043,4,1,0,100,0,1
236486,-96.8795537912668,4,1,0,100,0,1
236555,-97.897836904641,4,1,0,100,0,1
236693,-100,4,1,0,100,0,1
236830,-90.9090909090909,4,1,0,100,0,1
236899,-91.8051521356126,4,1,0,100,0,1
236968,-92.7190535731461,4,1,0,100,0,1
237037,-93.6513333657162,4,1,0,100,0,1
237106,-94.6025515210991,4,1,0,100,0,1
237174,-95.5590800951626,4,1,0,100,0,1
237243,-96.5496519605388,4,1,0,100,0,1
237312,-97.5609756097561,4,1,0,100,0,1
237381,-98.5937100485809,4,1,0,100,0,1
237450,-99.6485424850114,4,1,0,100,0,1
237518,-100.710405348934,4,1,0,100,0,1
237587,-101.811268944395,4,1,0,100,0,1
237656,-102.936465563267,4,1,0,100,0,1
237794,-105.263157894737,4,1,0,100,0,1
237931,-86.9565217391304,4,1,0,100,0,1
238069,-88.6110855777185,4,1,0,100,0,1
238138,-89.4622059301193,4,1,0,100,0,1
238276,-91.2144580593273,4,1,0,100,0,1
238344,-92.103377442316,4,1,0,100,0,1
238482,-93.9616940396705,4,1,0,100,0,1
238551,-94.9192595510043,4,1,0,100,0,1
238688,-96.8795537912668,4,1,0,100,0,1
238757,-97.897836904641,4,1,0,100,0,1
238895,-100,4,1,0,100,0,1
239032,-90.9090909090909,4,1,0,100,0,1
239101,-91.8051521356126,4,1,0,100,0,1
239170,-92.7190535731461,4,1,0,100,0,1
239239,-93.6513333657162,4,1,0,100,0,1
239308,-94.6025515210991,4,1,0,100,0,1
239376,-95.5590800951626,4,1,0,100,0,1
239445,-96.5496519605388,4,1,0,100,0,1
239514,-97.5609756097561,4,1,0,100,0,1
239583,-98.5937100485809,4,1,0,100,0,1
239652,-99.6485424850114,4,1,0,100,0,1
239720,-100.710405348934,4,1,0,100,0,1
239789,-101.811268944395,4,1,0,100,0,1
239858,-102.936465563267,4,1,0,100,0,1
239996,-105.263157894737,4,1,0,100,0,1
240132,-86.9565217391304,4,1,0,100,0,1
240270,-88.6110855777185,4,1,0,100,0,1
240339,-89.4622059301193,4,1,0,100,0,1
240477,-91.2144580593273,4,1,0,100,0,1
240545,-92.103377442316,4,1,0,100,0,1
240683,-93.9616940396705,4,1,0,100,0,1
240752,-94.9192595510043,4,1,0,100,0,1
240889,-96.8795537912668,4,1,0,100,0,1
240958,-97.897836904641,4,1,0,100,0,1
241096,-100,4,1,0,100,0,1
241233,-90.9090909090909,4,1,0,100,0,1
241302,-91.8051521356126,4,1,0,100,0,1
241371,-92.7190535731461,4,1,0,100,0,1
241440,-93.6513333657162,4,1,0,100,0,1
241509,-94.6025515210991,4,1,0,100,0,1
241577,-95.5590800951626,4,1,0,100,0,1
241646,-96.5496519605388,4,1,0,100,0,1
241715,-97.5609756097561,4,1,0,100,0,1
241784,-98.5937100485809,4,1,0,100,0,1
241853,-99.6485424850114,4,1,0,100,0,1
241921,-100.710405348934,4,1,0,100,0,1
241990,-101.811268944395,4,1,0,100,0,1
242059,-102.936465563267,4,1,0,100,0,1
242197,-105.263157894737,4,1,0,100,0,1
242334,-86.9565217391304,4,1,0,100,0,1
242472,-88.6110855777185,4,1,0,100,0,1
242541,-89.4622059301193,4,1,0,100,0,1
242679,-91.2144580593273,4,1,0,100,0,1
242747,-92.103377442316,4,1,0,100,0,1
242885,-93.9616940396705,4,1,0,100,0,1
242954,-94.9192595510043,4,1,0,100,0,1
243091,-96.8795537912668,4,1,0,100,0,1
243160,-97.897836904641,4,1,0,100,0,1
243298,-100,4,1,0,100,0,1
243435,-90.9090909090909,4,1,0,100,0,1
243504,-91.8051521356126,4,1,0,100,0,1
243573,-92.7190535731461,4,1,0,100,0,1
243642,-93.6513333657162,4,1,0,100,0,1
243711,-94.6025515210991,4,1,0,100,0,1
243779,-95.5590800951626,4,1,0,100,0,1
243848,-96.5496519605388,4,1,0,100,0,1
243917,-97.5609756097561,4,1,0,100,0,1
243986,-98.5937100485809,4,1,0,100,0,1
244055,-99.6485424850114,4,1,0,100,0,1
244123,-100.710405348934,4,1,0,100,0,1
244192,-101.811268944395,4,1,0,100,0,1
244261,-102.936465563267,4,1,0,100,0,1
244332,-104.166666666667,4,1,0,100,0,1
244401,-105.263157894737,4,1,0,100,0,1
244469,-106.382978723404,4,1,0,100,0,1
244536,-100,4,1,0,100,0,1
248045,-92.5925925925926,4,1,0,100,0,1
248183,-94.3396226415094,4,1,0,100,0,1
248321,-96.1538461538461,4,1,0,100,0,1
248460,-25,4,1,0,100,0,1
248942,-117.647058823529,4,1,0,100,0,1
250043,-142.857142857143,4,1,0,100,0,1
251144,-181.818181818182,4,1,0,100,0,1
251969,-250,4,1,0,60,0,0
253116,-106.382978723404,4,1,0,60,0,0
253208,-104.166666666667,4,1,0,60,0,0
253300,-102.040816326531,4,1,0,60,0,0
253346,275.229357798165,4,1,0,60,1,8
253483,-97.0873786407767,4,1,0,60,0,0
253529,-94.3396226415094,4,1,0,60,0,0
253621,275.229357798165,4,1,0,100,1,1
253621,-90.9090909090909,4,1,0,100,0,1
253758,-100,4,1,0,100,0,1
254033,-97.0873786407767,4,1,0,100,0,0
254217,-94.3396226415094,4,1,0,100,0,0
254400,-91.743119266055,4,1,0,100,0,0
254584,275.229357798165,4,1,0,100,1,1
254584,-83.3333333333333,4,1,0,100,0,1
254859,-86.9565217391304,4,1,0,100,0,1
257473,-90.9090909090909,4,1,0,100,0,1
257542,-91.743119266055,4,1,0,100,0,1
257611,-92.5925925925926,4,1,0,100,0,1
257749,-94.3396226415094,4,1,0,100,0,1
257886,-90.9090909090909,4,1,0,80,0,0
258230,-92.5925925925926,4,1,0,80,0,0
258506,-94.3396226415094,4,1,0,80,0,0
258781,-96.1538461538461,4,1,0,80,0,0
258987,-100,4,1,0,100,0,1
258988,-25,4,1,0,100,0,1
260088,-125,4,1,0,100,0,1
261189,-166.666666666667,4,1,0,60,0,0
262290,-102.040816326531,4,1,0,100,0,0
262428,-105.263157894737,4,1,0,100,0,0
262703,-98.0392156862745,4,1,0,100,0,0
262840,-100,4,1,0,100,0,0
263116,-99.009900990099,4,1,0,100,0,0
263184,-98.0392156862745,4,1,0,100,0,0
263253,-97.0873786407767,4,1,0,100,0,0
263322,-96.1538461538461,4,1,0,100,0,0
263391,-95.2380952380952,4,1,0,100,0,1
265317,-93.4579439252336,4,1,0,100,0,1
265386,-91.743119266055,4,1,0,100,0,1
265455,-90.0900900900901,4,1,0,100,0,1
265524,-88.4955752212389,4,1,0,100,0,1
265593,-86.9565217391304,4,1,0,100,0,1
265868,-85.4700854700855,4,1,0,100,0,1
265960,-84.0336134453781,4,1,0,100,0,1
266051,-82.6446280991736,4,1,0,100,0,1
266143,-81.3008130081301,4,1,0,100,0,1
266418,-80,4,1,0,100,0,1
266510,-78.7401574803149,4,1,0,100,0,1
266602,-77.5193798449612,4,1,0,100,0,1
266694,-76.3358778625954,4,1,0,100,0,0
267244,-83.3333333333333,4,1,0,60,0,0
267611,-90.0900900900901,4,1,0,60,0,0
267703,-88.4955752212389,4,1,0,60,0,0
267795,-86.9565217391304,4,1,0,100,0,1
267932,-90.9090909090909,4,1,0,100,0,1
284377,-90.0303525566192,4,1,0,100,0,1
284446,-89.1684395523078,4,1,0,100,0,1
284515,-88.3228732420175,4,1,0,100,0,1
284584,-87.4931929569795,4,1,0,100,0,1
284652,-86.6906474820144,4,1,0,100,0,1
284721,-85.8912104067359,4,1,0,100,0,1
284790,-85.1063829787234,4,1,0,100,0,1
284859,-84.3357683390928,4,1,0,100,0,1
284905,-83.8297317274664,4,1,0,100,0,1
284950,-83.3405377366647,4,1,0,100,0,1
284996,-82.8463389480921,4,1,0,100,0,1
285065,-82.1159333872822,4,1,0,100,0,1
285134,-81.3982943510935,4,1,0,100,0,1
285203,-80.6930900263676,4,1,0,100,0,1
285272,-80,4,1,0,100,0,1
285409,-90.9090909090909,4,1,0,60,0,0
286235,-93.4579439252336,4,1,0,60,0,0
286923,-96.1538461538461,4,1,0,60,0,0
287405,-99.009900990099,4,1,0,60,0,0
287611,-86.9565217391304,4,1,0,100,0,0
287978,-90.9090909090909,4,1,0,100,0,0
291739,-94.3396226415094,4,1,0,80,0,0
292015,-90.9090909090909,4,1,0,80,0,1
292932,-97.0873786407767,4,1,0,80,0,1
293024,-94.3396226415094,4,1,0,80,0,1
293116,-90.9090909090909,4,1,0,80,0,1
293666,-100,4,1,0,80,0,1
293758,-102.040816326531,4,1,0,80,0,1
293850,-104.166666666667,4,1,0,80,0,1
294033,-108.695652173913,4,1,0,80,0,1
294217,-90.9090909090909,4,1,0,80,0,1
294584,-97.0873786407767,4,1,0,80,0,1
294675,-94.3396226415094,4,1,0,80,0,1
294767,-90.9090909090909,4,1,0,80,0,1
295134,-97.0873786407767,4,1,0,80,0,1
295226,-94.3396226415094,4,1,0,80,0,1
295317,-90.9090909090909,4,1,0,80,0,1
295501,-97.0873786407767,4,1,0,80,0,1
295593,-98.0392156862745,4,1,0,80,0,1
295684,-99.009900990099,4,1,0,80,0,1
295868,-100,4,1,0,80,0,1
295960,-102.040816326531,4,1,0,80,0,1
296051,-104.166666666667,4,1,0,80,0,1
296235,-108.695652173913,4,1,0,80,0,1
296418,-100,4,1,0,80,0,1
296969,-90.9090909090909,4,1,0,80,0,1
297336,-100,4,1,0,80,0,1
297519,-90.9090909090909,4,1,0,80,0,1
297886,-98.0392156862745,4,1,0,80,0,1
298070,-100,4,1,0,80,0,1
298161,-102.040816326531,4,1,0,80,0,1
298253,-104.166666666667,4,1,0,80,0,1
298437,-108.695652173913,4,1,0,80,0,1
298620,-90.9090909090909,4,1,0,80,0,1
298987,-100,4,1,0,80,0,1
299079,-97.0873786407767,4,1,0,80,0,1
299171,-93.4579439252336,4,1,0,80,0,1
299538,-102.040816326531,4,1,0,80,0,1
299629,-99.009900990099,4,1,0,80,0,1
299721,-96.1538461538461,4,1,0,80,0,1
299905,-100,4,1,0,80,0,1
300272,-102.040816326531,4,1,0,80,0,1
300340,-103.092783505155,4,1,0,80,0,1
300409,-104.166666666667,4,1,0,80,0,1
300547,-106.382978723404,4,1,0,80,0,1
300684,-108.695652173913,4,1,0,80,0,1
300822,-105.263157894737,4,1,0,60,0,0
304469,-103.092783505155,4,1,0,60,0,0
304538,-101.010101010101,4,1,0,60,0,0
304675,-99.009900990099,4,1,0,60,0,0
304950,-95.2380952380952,4,1,0,60,0,0
305226,-90.9090909090909,4,1,0,80,0,0
305593,-97.0873786407767,4,1,0,80,0,0
305684,-94.3396226415094,4,1,0,80,0,0
305776,-90.9090909090909,4,1,0,80,0,0
306143,-100,4,1,0,80,0,0
306327,-90.9090909090909,4,1,0,80,0,0
306694,-94.3396226415094,4,1,0,80,0,0
306785,-96.1538461538461,4,1,0,80,0,0
306877,-98.0392156862745,4,1,0,80,0,0
307152,-100,4,1,0,80,0,0
307428,-90.9090909090909,4,1,0,80,0,0
307978,-94.3396226415094,4,1,0,80,0,0
308070,-96.1538461538461,4,1,0,80,0,0
308161,-98.0392156862745,4,1,0,80,0,0
308253,-100,4,1,0,80,0,0
308528,-90.9090909090909,4,1,0,80,0,0
309079,-95.2380952380952,4,1,0,80,0,0
309629,-90.9090909090909,4,1,0,60,0,0

[HitObjects]
307,271,2336,5,12,0:0:0:0:
212,324,2703,1,0,0:0:0:0:
306,267,2887,1,4,0:0:0:0:
154,268,3254,1,8,0:0:0:0:
305,268,3437,1,12,0:0:0:0:
170,210,3988,1,8,0:0:0:0:
296,152,4079,1,0,0:0:0:0:
288,167,4171,1,8,0:0:0:0:
383,288,4355,1,8,0:0:0:0:
276,246,4538,1,4,0:0:0:0:
312,219,4905,1,0,0:0:0:0:
312,219,4997,1,0,0:0:0:0:
207,312,5089,1,12,0:0:0:0:
185,204,5456,1,8,0:0:0:0:
276,226,5547,1,8,0:0:0:0:
162,272,5639,1,4,0:0:0:0:
216,186,5823,1,0,0:0:0:0:
222,239,5914,1,0,0:0:0:0:
196,237,6006,1,0,0:0:0:0:
195,229,6098,1,0,0:0:0:0:
184,214,6190,1,8,0:0:0:0:
287,121,6281,1,0,0:0:0:0:
380,189,6373,1,8,0:0:0:0:
292,189,6557,1,8,0:0:0:0:
282,271,6740,1,4,0:0:0:0:
333,217,7015,1,8,0:0:0:0:
387,222,7107,1,0,0:0:0:0:
321,207,7199,1,0,0:0:0:0:
241,215,7290,1,12,0:0:0:0:
257,342,7657,1,8,0:0:0:0:
241,215,7841,1,12,0:0:0:0:
387,199,8208,1,8,0:0:0:0:
250,225,8391,1,0,0:0:0:0:
239,228,8483,1,8,0:0:0:0:
231,236,8575,1,0,0:0:0:0:
225,242,8758,1,0,0:0:0:0:
237,225,8942,1,4,0:0:0:0:
275,227,9309,1,0,0:0:0:0:
281,256,9401,1,0,0:0:0:0:
338,228,9492,1,12,0:0:0:0:
276,272,9859,1,8,0:0:0:0:
279,281,9951,1,8,0:0:0:0:
335,232,10043,1,4,0:0:0:0:
271,191,10318,1,0,0:0:0:0:
271,191,10387,1,0,0:0:0:0:
271,191,10456,1,0,0:0:0:0:
256,197,10593,1,8,0:0:0:0:
260,194,10662,1,8,0:0:0:0:
256,197,10731,1,8,0:0:0:0:
260,194,10868,1,8,0:0:0:0:
260,194,11006,1,8,0:0:0:0:
321,251,11144,1,4,0:0:0:0:
302,174,11511,1,8,0:0:0:0:
167,305,11694,1,0,0:0:0:0:
169,304,12061,1,8,0:0:0:0:
307,270,12245,1,4,0:0:0:0:
234,283,12795,1,8,0:0:0:0:
237,306,13162,1,8,0:0:0:0:
306,275,13346,1,4,0:0:0:0:
176,280,13621,1,8,0:0:0:0:
176,280,13896,1,8,0:0:0:0:
181,278,14171,1,0,0:0:0:0:
347,211,14446,1,12,0:0:0:0:
221,264,14722,1,0,0:0:0:0:
211,249,14997,1,8,0:0:0:0:
390,68,15134,1,0,0:0:0:0:
304,220,15272,1,0,0:0:0:0:
303,230,15341,1,0,0:0:0:0:
307,233,15410,1,0,0:0:0:0:
322,287,15547,1,12,0:0:0:0:
471,178,15731,1,0,0:0:0:0:
241,242,15823,1,0,0:0:0:0:
406,278,15914,1,8,0:0:0:0:
266,166,16006,1,8,0:0:0:0:
317,277,16098,1,4,0:0:0:0:
336,200,16373,1,0,0:0:0:0:
351,181,16465,1,0,0:0:0:0:
317,277,16648,1,12,0:0:0:0:
317,277,16832,1,8,0:0:0:0:
241,237,17015,1,4,0:0:0:0:
305,168,17199,1,8,0:0:0:0:
210,243,17382,1,4,0:0:0:0:
209,243,17749,1,4,0:0:0:0:
339,260,17933,1,0,0:0:0:0:
359,185,18024,1,0,0:0:0:0:
339,260,18116,1,0,0:0:0:0:
339,260,18208,1,0,0:0:0:0:
233,182,18300,1,8,0:0:0:0:
233,182,18368,1,8,0:0:0:0:
206,275,18437,1,8,0:0:0:0:
246,272,18506,1,8,0:0:0:0:
236,278,18575,1,0,0:0:0:0:
236,278,18644,1,0,0:0:0:0:
235,278,18712,1,0,0:0:0:0:
236,278,18781,1,0,0:0:0:0:
230,275,18850,1,0,0:0:0:0:
228,285,19125,1,0,0:0:0:0:
262,226,19401,1,8,0:0:0:0:
262,226,19492,1,0,0:0:0:0:
262,226,19584,1,8,0:0:0:0:
262,226,19676,1,0,0:0:0:0:
262,226,19768,1,8,0:0:0:0:
250,208,19951,1,0,0:0:0:0:
223,200,20272,1,8,0:0:0:0:
358,173,20318,1,8,0:0:0:0:
183,176,20501,1,0,0:0:0:0:
262,226,20570,1,8,0:0:0:0:
262,226,20616,1,8,0:0:0:0:
262,226,20868,1,8,0:0:0:0:
262,226,20914,1,8,0:0:0:0:
262,226,21052,1,0,0:0:0:0:
262,226,21465,1,8,0:0:0:0:
262,226,21499,1,8,0:0:0:0:
262,226,21602,1,4,0:0:0:0:
227,256,21878,1,8,0:0:0:0:
305,241,22153,1,0,0:0:0:0:
236,288,22428,1,0,0:0:0:0:
335,194,22566,1,8,0:0:0:0:
229,297,22703,1,0,0:0:0:0:
249,228,22841,1,8,0:0:0:0:
229,296,22979,1,0,0:0:0:0:
241,249,23116,1,8,0:0:0:0:
241,249,23254,1,8,0:0:0:0:
207,266,23529,1,8,0:0:0:0:
253,213,23667,1,0,0:0:0:0:
335,184,23804,1,8,0:0:0:0:
253,215,23942,1,8,0:0:0:0:
212,258,24079,1,0,0:0:0:0:
199,252,24355,1,12,0:0:0:0:
268,281,24630,1,0,0:0:0:0:
403,286,24768,1,0,0:0:0:0:
268,280,24905,1,8,0:0:0:0:
295,249,25043,1,8,0:0:0:0:
239,220,25318,1,8,0:0:0:0:
246,253,25456,1,0,0:0:0:0:
251,243,25593,1,8,0:0:0:0:
251,250,25731,1,0,0:0:0:0:
231,256,26006,1,8,0:0:0:0:
299,237,26281,1,8,0:0:0:0:
180,236,26557,1,8,0:0:0:0:
384,258,26694,1,8,0:0:0:0:
153,235,26832,1,0,0:0:0:0:
225,236,27107,1,8,0:0:0:0:
214,260,27245,1,0,0:0:0:0:
221,265,27520,1,0,0:0:0:0:
256,237,27657,1,8,0:0:0:0:
247,243,27795,1,8,0:0:0:0:
264,228,27933,1,0,0:0:0:0:
258,231,28070,1,0,0:0:0:0:
318,303,28208,1,8,0:0:0:0:
252,231,28483,1,8,0:0:0:0:
221,265,28758,1,4,0:0:0:0:
213,303,29034,1,0,0:0:0:0:
356,278,29171,1,0,0:0:0:0:
217,314,29309,1,8,0:0:0:0:
234,312,29446,1,8,0:0:0:0:
362,171,29722,1,8,0:0:0:0:
256,261,29859,1,0,0:0:0:0:
339,168,29997,1,8,0:0:0:0:
324,185,30134,1,0,0:0:0:0:
256,212,30410,1,8,0:0:0:0:
252,216,30685,1,8,0:0:0:0:
247,217,30960,1,8,0:0:0:0:
323,278,31098,1,8,0:0:0:0:
277,241,31235,1,0,0:0:0:0:
251,221,31511,1,8,0:0:0:0:
253,175,31648,1,0,0:0:0:0:
209,237,31923,1,0,0:0:0:0:
224,243,32061,1,8,0:0:0:0:
296,248,32199,1,8,0:0:0:0:
296,248,32233,1,8,0:0:0:0:
250,281,32336,1,0,0:0:0:0:
278,248,32474,1,0,0:0:0:0:
262,192,32612,1,8,0:0:0:0:
296,248,32646,1,8,0:0:0:0:
316,203,32749,1,8,0:0:0:0:
296,248,32784,1,8,0:0:0:0:
268,170,32887,1,0,0:0:0:0:
252,173,32956,1,0,0:0:0:0:
267,175,33024,1,0,0:0:0:0:
255,174,33093,1,0,0:0:0:0:
252,173,33162,1,8,0:0:0:0:
371,159,33231,1,8,0:0:0:0:
219,261,33300,1,8,0:0:0:0:
299,251,33437,1,0,0:0:0:0:
235,239,33575,1,8,0:0:0:0:
305,256,33644,1,0,0:0:0:0:
306,260,33712,1,0,0:0:0:0:
232,239,33850,1,8,0:0:0:0:
311,269,33919,1,0,0:0:0:0:
311,283,33988,1,8,0:0:0:0:
231,237,34263,1,8,0:0:0:0:
323,206,34332,1,8,0:0:0:0:
224,237,34401,1,8,0:0:0:0:
322,201,34538,1,0,0:0:0:0:
224,236,34676,1,8,0:0:0:0:
271,334,34745,1,0,0:0:0:0:
305,274,34813,1,0,0:0:0:0:
222,235,34951,1,8,0:0:0:0:
284,293,35020,1,0,0:0:0:0:
299,229,35089,1,8,0:0:0:0:
226,228,35364,1,8,0:0:0:0:
331,143,35433,1,8,0:0:0:0:
226,228,35501,1,8,0:0:0:0:
270,297,35639,1,0,0:0:0:0:
226,229,35777,1,8,0:0:0:0:
390,275,35846,1,0,0:0:0:0:
337,318,35914,1,0,0:0:0:0:
327,306,36052,1,8,0:0:0:0:
236,315,36121,1,0,0:0:0:0:
234,322,36190,1,8,0:0:0:0:
296,185,36465,1,8,0:0:0:0:
229,212,36602,1,0,0:0:0:0:
220,210,36740,1,8,0:0:0:0:
218,168,37015,1,8,0:0:0:0:
413,276,37153,1,0,0:0:0:0:
388,272,37222,1,0,0:0:0:0:
305,248,37290,1,8,0:0:0:0:
320,304,37497,1,0,0:0:0:0:
216,166,37566,1,8,0:0:0:0:
422,245,37634,1,0,0:0:0:0:
206,152,37703,1,8,0:0:0:0:
279,283,37841,1,8,0:0:0:0:
273,325,37979,1,8,0:0:0:0:
230,289,38047,1,0,0:0:0:0:
247,275,38116,1,0,0:0:0:0:
263,268,38254,1,8,0:0:0:0:
277,233,38323,1,0,0:0:0:0:
274,237,38391,1,8,0:0:0:0:
250,281,38529,1,0,0:0:0:0:
197,232,38667,1,8,0:0:0:0:
191,248,38735,1,8,0:0:0:0:
199,223,38804,1,8,0:0:0:0:
231,196,38942,1,0,0:0:0:0:
209,209,39079,1,8,0:0:0:0:
199,206,39148,1,0,0:0:0:0:
222,195,39217,1,0,0:0:0:0:
231,221,39355,1,8,0:0:0:0:
231,221,39423,1,0,0:0:0:0:
228,230,39492,1,8,0:0:0:0:
288,331,39699,1,0,0:0:0:0:
298,333,39768,1,8,0:0:0:0:
296,333,39836,1,0,0:0:0:0:
300,329,39905,1,8,0:0:0:0:
231,300,40043,1,8,0:0:0:0:
243,282,40180,1,8,0:0:0:0:
239,286,40249,1,0,0:0:0:0:
232,286,40318,1,0,0:0:0:0:
226,285,40456,1,8,0:0:0:0:
223,284,40524,1,0,0:0:0:0:
226,285,40593,1,8,0:0:0:0:
230,282,40731,1,0,0:0:0:0:
256,280,40868,1,8,0:0:0:0:
266,270,41006,1,0,0:0:0:0:
252,283,41144,1,8,0:0:0:0:
256,279,41419,1,8,0:0:0:0:
235,283,41488,1,8,0:0:0:0:
247,299,41557,1,0,0:0:0:0:
208,215,41625,1,0,0:0:0:0:
203,257,41694,1,8,0:0:0:0:
428,257,41832,1,8,0:0:0:0:
272,280,41901,1,0,0:0:0:0:
261,290,41969,1,8,0:0:0:0:
249,271,42038,1,8,0:0:0:0:
379,274,42107,1,8,0:0:0:0:
326,311,42245,1,0,0:0:0:0:
207,178,42313,1,0,0:0:0:0:
196,172,42382,1,8,0:0:0:0:
306,269,42451,1,8,0:0:0:0:
327,267,42520,1,0,0:0:0:0:
300,270,42657,1,8,0:0:0:0:
285,261,42726,1,0,0:0:0:0:
273,248,42795,1,8,0:0:0:0:
271,252,42933,1,0,0:0:0:0:
270,259,43001,1,0,0:0:0:0:
271,252,43070,1,8,0:0:0:0:
240,253,43139,1,8,0:0:0:0:
242,261,43208,1,8,0:0:0:0:
316,112,43346,1,0,0:0:0:0:
214,243,43483,1,8,0:0:0:0:
211,232,43621,1,0,0:0:0:0:
366,265,43690,1,0,0:0:0:0:
215,218,43758,1,8,0:0:0:0:
332,251,43827,1,0,0:0:0:0:
312,289,43896,1,8,0:0:0:0:
201,281,44034,1,0,0:0:0:0:
235,276,44102,1,0,0:0:0:0:
228,279,44171,1,8,0:0:0:0:
185,271,44240,1,8,0:0:0:0:
174,272,44309,1,8,0:0:0:0:
279,219,44446,1,0,0:0:0:0:
279,219,44584,1,8,0:0:0:0:
295,207,44653,1,0,0:0:0:0:
276,214,44722,1,0,0:0:0:0:
299,187,44859,1,8,0:0:0:0:
281,147,44928,1,0,0:0:0:0:
271,146,44997,1,8,0:0:0:0:
286,151,45134,1,0,0:0:0:0:
241,227,45272,1,8,0:0:0:0:
354,225,45341,1,8,0:0:0:0:
326,279,45410,1,8,0:0:0:0:
338,232,45479,1,8,0:0:0:0:
487,315,45547,1,0,0:0:0:0:
274,222,45685,1,8,0:0:0:0:
320,299,45754,1,8,0:0:0:0:
266,224,45823,1,0,0:0:0:0:
279,197,45891,1,0,0:0:0:0:
261,228,45960,1,0,0:0:0:0:
261,228,46098,1,8,0:0:0:0:
446,163,46167,1,8,0:0:0:0:
259,214,46235,1,0,0:0:0:0:
258,219,46304,1,0,0:0:0:0:
259,194,46373,1,8,0:0:0:0:
269,209,46442,1,8,0:0:0:0:
257,205,46511,1,8,0:0:0:0:
256,204,46648,1,0,0:0:0:0:
256,204,46786,1,8,0:0:0:0:
234,212,46855,1,0,0:0:0:0:
225,214,46923,1,0,0:0:0:0:
315,152,47061,1,8,0:0:0:0:
302,168,47130,1,0,0:0:0:0:
232,195,47199,1,8,0:0:0:0:
343,210,47336,1,0,0:0:0:0:
267,251,47474,1,0,0:0:0:0:
343,210,47543,1,0,0:0:0:0:
255,245,47612,1,0,0:0:0:0:
364,256,47680,1,0,0:0:0:0:
275,157,47749,1,8,0:0:0:0:
280,222,47887,1,8,0:0:0:0:
289,230,47956,1,8,0:0:0:0:
268,232,48024,1,0,0:0:0:0:
274,236,48162,1,0,0:0:0:0:
256,212,48300,1,8,0:0:0:0:
281,214,48368,1,8,0:0:0:0:
280,213,48437,1,8,0:0:0:0:
280,213,48506,1,8,0:0:0:0:
281,214,48575,1,0,0:0:0:0:
333,180,48644,1,0,0:0:0:0:
314,79,48712,1,8,0:0:0:0:
224,114,48850,1,8,0:0:0:0:
246,172,48988,1,8,0:0:0:0:
256,216,49057,1,0,0:0:0:0:
250,209,49125,1,0,0:0:0:0:
236,215,49263,1,8,0:0:0:0:
243,206,49332,1,8,0:0:0:0:
244,217,49401,1,0,0:0:0:0:
211,262,49538,1,0,0:0:0:0:
190,269,49676,1,8,0:0:0:0:
202,272,49745,1,0,0:0:0:0:
312,299,49813,1,0,0:0:0:0:
236,228,49882,1,0,0:0:0:0:
239,246,49951,1,8,0:0:0:0:
235,223,50089,1,0,0:0:0:0:
214,187,50157,1,0,0:0:0:0:
213,280,50226,1,8,0:0:0:0:
326,192,50364,1,8,0:0:0:0:
207,278,50433,1,0,0:0:0:0:
263,185,50501,1,8,0:0:0:0:
126,267,50639,1,0,0:0:0:0:
147,250,50708,1,0,0:0:0:0:
94,198,50777,1,8,0:0:0:0:
247,288,50846,1,8,0:0:0:0:
250,263,50914,1,8,0:0:0:0:
211,301,51052,1,0,0:0:0:0:
201,299,51190,1,8,0:0:0:0:
196,302,51258,1,8,0:0:0:0:
180,298,51327,1,0,0:0:0:0:
201,300,51465,1,8,0:0:0:0:
201,293,51534,1,8,0:0:0:0:
198,296,51602,1,8,0:0:0:0:
260,169,51740,1,0,0:0:0:0:
207,293,51809,1,0,0:0:0:0:
207,293,51878,1,8,0:0:0:0:
365,280,51946,1,8,0:0:0:0:
250,302,52015,1,8,0:0:0:0:
198,250,52153,1,0,0:0:0:0:
230,285,52290,1,8,0:0:0:0:
230,285,52359,1,8,0:0:0:0:
257,247,52428,1,0,0:0:0:0:
250,279,52566,1,0,0:0:0:0:
250,279,52634,1,0,0:0:0:0:
252,268,52703,1,8,0:0:0:0:
288,262,52841,1,8,0:0:0:0:
254,252,52910,1,0,0:0:0:0:
235,265,52979,1,8,0:0:0:0:
206,263,53047,1,8,0:0:0:0:
206,263,53116,1,8,0:0:0:0:
241,251,53254,1,0,0:0:0:0:
241,251,53391,1,8,0:0:0:0:
216,250,53460,1,0,0:0:0:0:
209,247,53529,1,0,0:0:0:0:
211,256,53667,1,8,0:0:0:0:
221,245,53735,1,0,0:0:0:0:
218,256,53804,1,8,0:0:0:0:
216,241,53873,1,8,0:0:0:0:
216,267,53942,1,0,0:0:0:0:
303,111,54079,1,8,0:0:0:0:
346,151,54148,1,0,0:0:0:0:
427,301,54217,1,0,0:0:0:0:
342,158,54286,1,0,0:0:0:0:
278,273,54355,1,8,0:0:0:0:
266,239,54492,1,8,0:0:0:0:
250,204,54561,1,8,0:0:0:0:
235,204,54630,1,8,0:0:0:0:
279,227,54699,1,8,0:0:0:0:
265,221,54768,1,0,0:0:0:0:
243,208,54836,1,0,0:0:0:0:
268,232,54905,1,8,0:0:0:0:
286,234,55043,1,0,0:0:0:0:
272,253,55112,1,0,0:0:0:0:
277,262,55180,1,8,0:0:0:0:
269,265,55249,1,8,0:0:0:0:
268,257,55318,1,8,0:0:0:0:
265,244,55456,1,0,0:0:0:0:
261,258,55593,1,8,0:0:0:0:
259,263,55662,1,0,0:0:0:0:
267,250,55731,1,0,0:0:0:0:
308,172,55868,1,8,0:0:0:0:
267,250,55937,1,0,0:0:0:0:
259,257,56006,1,8,0:0:0:0:
294,238,56144,1,0,0:0:0:0:
201,165,56281,1,0,0:0:0:0:
230,147,56350,1,0,0:0:0:0:
226,142,56419,1,8,0:0:0:0:
311,309,56488,1,0,0:0:0:0:
189,196,56557,1,8,0:0:0:0:
194,186,56694,1,8,0:0:0:0:
240,265,56763,1,8,0:0:0:0:
205,175,56832,1,0,0:0:0:0:
206,181,56969,1,8,0:0:0:0:
211,200,57038,1,0,0:0:0:0:
212,193,57107,1,8,0:0:0:0:
278,233,57176,1,0,0:0:0:0:
285,219,57245,1,0,0:0:0:0:
202,268,57382,1,8,0:0:0:0:
184,255,57451,1,0,0:0:0:0:
184,256,57520,1,8,0:0:0:0:
291,203,57589,1,8,0:0:0:0:
280,226,57657,1,8,0:0:0:0:
209,205,57795,1,8,0:0:0:0:
191,193,57864,1,0,0:0:0:0:
191,193,57933,1,0,0:0:0:0:
191,193,58070,1,8,0:0:0:0:
188,187,58139,1,0,0:0:0:0:
191,178,58208,1,8,0:0:0:0:
345,149,58346,1,8,0:0:0:0:
336,173,58414,1,8,0:0:0:0:
340,259,58483,1,0,0:0:0:0:
236,222,58552,1,0,0:0:0:0:
243,198,58621,1,0,0:0:0:0:
230,220,58690,1,0,0:0:0:0:
243,198,58758,1,8,0:0:0:0:
248,257,58896,1,8,0:0:0:0:
320,218,58965,1,0,0:0:0:0:
228,215,59034,1,8,0:0:0:0:
211,215,59102,1,8,0:0:0:0:
232,212,59171,1,0,0:0:0:0:
226,223,59309,1,8,0:0:0:0:
301,298,59446,1,0,0:0:0:0:
308,315,59584,1,12,0:0:0:0:
276,232,59859,1,0,0:0:0:0:
346,228,59997,1,8,0:0:0:0:
363,108,60066,1,8,0:0:0:0:
301,162,60134,1,0,0:0:0:0:
261,178,60272,1,8,0:0:0:0:
337,145,60341,1,0,0:0:0:0:
346,147,60410,1,8,0:0:0:0:
252,202,60547,1,0,0:0:0:0:
276,188,60616,1,0,0:0:0:0:
289,190,60685,1,8,0:0:0:0:
297,187,60754,1,8,0:0:0:0:
287,164,60823,1,8,0:0:0:0:
231,160,60960,1,0,0:0:0:0:
470,177,61029,1,0,0:0:0:0:
231,160,61098,1,8,0:0:0:0:
188,137,61167,1,8,0:0:0:0:
152,181,61235,1,0,0:0:0:0:
262,227,61373,1,0,0:0:0:0:
278,212,61442,1,0,0:0:0:0:
268,212,61511,1,8,0:0:0:0:
243,258,61648,1,0,0:0:0:0:
225,256,61786,1,8,0:0:0:0:
224,259,61855,1,8,0:0:0:0:
217,249,61923,1,8,0:0:0:0:
210,279,62061,1,0,0:0:0:0:
215,276,62199,1,8,0:0:0:0:
210,279,62268,1,0,0:0:0:0:
211,286,62336,1,0,0:0:0:0:
201,259,62474,1,8,0:0:0:0:
214,264,62543,1,0,0:0:0:0:
214,263,62612,1,8,0:0:0:0:
207,228,62680,1,8,0:0:0:0:
213,235,62749,1,0,0:0:0:0:
211,246,62887,1,8,0:0:0:0:
208,248,62956,1,8,0:0:0:0:
205,282,63024,1,8,0:0:0:0:
231,244,63162,1,0,0:0:0:0:
222,228,63300,1,8,0:0:0:0:
207,222,63368,1,8,0:0:0:0:
300,190,63437,1,8,0:0:0:0:
302,211,63506,1,8,0:0:0:0:
294,207,63575,1,0,0:0:0:0:
151,191,63644,1,0,0:0:0:0:
210,168,63712,1,8,0:0:0:0:
256,219,63850,1,0,0:0:0:0:
127,185,63919,1,0,0:0:0:0:
160,190,63988,1,8,0:0:0:0:
274,268,64057,1,8,0:0:0:0:
262,262,64125,1,8,0:0:0:0:
265,246,64263,1,0,0:0:0:0:
293,222,64401,1,8,0:0:0:0:
255,235,64469,1,0,0:0:0:0:
250,231,64538,1,0,0:0:0:0:
246,219,64676,1,8,0:0:0:0:
218,213,64745,1,0,0:0:0:0:
225,235,64813,1,8,0:0:0:0:
151,257,64951,1,8,0:0:0:0:
296,154,65020,1,8,0:0:0:0:
243,176,65089,1,0,0:0:0:0:
341,186,65157,1,0,0:0:0:0:
266,275,65226,1,0,0:0:0:0:
325,156,65295,1,0,0:0:0:0:
278,180,65364,1,8,0:0:0:0:
305,182,65501,1,8,0:0:0:0:
213,179,65570,1,8,0:0:0:0:
255,198,65639,1,0,0:0:0:0:
219,225,65777,1,8,0:0:0:0:
236,211,65846,1,0,0:0:0:0:
219,211,65914,1,8,0:0:0:0:
395,202,66052,1,8,0:0:0:0:
403,186,66190,1,0,0:0:0:0:
363,177,66258,1,0,0:0:0:0:
218,238,66327,1,8,0:0:0:0:
347,192,66396,1,0,0:0:0:0:
305,180,66465,1,8,0:0:0:0:
216,243,66602,1,0,0:0:0:0:
226,248,66671,1,0,0:0:0:0:
217,244,66740,1,0,0:0:0:0:
233,223,66878,1,0,0:0:0:0:
203,232,66946,1,0,0:0:0:0:
211,249,67015,1,8,0:0:0:0:
295,118,67153,1,0,0:0:0:0:
213,254,67290,1,8,0:0:0:0:
256,180,67359,1,0,0:0:0:0:
212,232,67428,1,0,0:0:0:0:
242,243,67497,1,0,0:0:0:0:
261,217,67566,1,8,0:0:0:0:
265,225,67703,1,8,0:0:0:0:
261,179,67772,1,8,0:0:0:0:
387,202,67841,1,0,0:0:0:0:
270,200,67910,1,0,0:0:0:0:
235,242,67979,1,8,0:0:0:0:
281,253,68116,1,8,0:0:0:0:
198,242,68254,1,0,0:0:0:0:
186,268,68323,1,0,0:0:0:0:
209,257,68391,1,8,0:0:0:0:
216,244,68460,1,8,0:0:0:0:
202,252,68529,1,8,0:0:0:0:
215,253,68598,1,8,0:0:0:0:
212,249,68667,1,0,0:0:0:0:
215,233,68804,1,8,0:0:0:0:
220,247,68873,1,8,0:0:0:0:
191,252,68942,1,0,0:0:0:0:
289,182,69079,1,8,0:0:0:0:
299,209,69148,1,0,0:0:0:0:
295,196,69217,1,8,0:0:0:0:
305,112,69355,1,0,0:0:0:0:
216,282,69423,1,8,0:0:0:0:
267,242,69492,1,8,0:0:0:0:
229,257,69561,1,8,0:0:0:0:
221,257,69630,1,8,0:0:0:0:
199,262,69768,1,0,0:0:0:0:
199,262,69905,1,8,0:0:0:0:
204,241,69974,1,0,0:0:0:0:
189,255,70180,1,8,0:0:0:0:
220,218,70249,1,0,0:0:0:0:
209,207,70318,1,8,0:0:0:0:
211,222,70456,1,0,0:0:0:0:
234,209,70524,1,0,0:0:0:0:
204,217,70593,1,8,0:0:0:0:
260,216,70662,1,8,0:0:0:0:
262,208,70731,1,8,0:0:0:0:
183,290,70868,1,0,0:0:0:0:
268,318,71006,1,8,0:0:0:0:
254,310,71075,1,0,0:0:0:0:
258,305,71144,1,0,0:0:0:0:
251,301,71281,1,8,0:0:0:0:
248,298,71350,1,0,0:0:0:0:
251,301,71419,1,8,0:0:0:0:
225,279,71557,1,0,0:0:0:0:
182,298,71694,1,8,0:0:0:0:
258,236,71763,1,0,0:0:0:0:
250,237,71832,1,8,0:0:0:0:
237,251,71901,1,8,0:0:0:0:
231,251,71969,1,0,0:0:0:0:
150,246,72107,1,8,0:0:0:0:
147,236,72176,1,8,0:0:0:0:
224,255,72245,1,8,0:0:0:0:
159,224,72313,1,8,0:0:0:0:
187,260,72382,1,0,0:0:0:0:
166,248,72520,1,8,0:0:0:0:
187,257,72657,1,0,0:0:0:0:
182,244,72726,1,0,0:0:0:0:
210,240,72795,1,8,0:0:0:0:
278,226,72933,1,8,0:0:0:0:
321,116,73001,1,8,0:0:0:0:
186,123,73070,1,0,0:0:0:0:
278,128,73208,1,0,0:0:0:0:
312,109,73277,1,0,0:0:0:0:
233,293,73346,1,0,0:0:0:0:
376,201,73414,1,0,0:0:0:0:
301,291,73483,1,0,0:0:0:0:
197,216,73552,1,0,0:0:0:0:
229,195,73621,1,8,0:0:0:0:
186,253,73758,1,0,0:0:0:0:
288,192,73827,1,0,0:0:0:0:
158,239,73896,1,8,0:0:0:0:
220,236,73965,1,8,0:0:0:0:
175,232,74034,1,8,0:0:0:0:
213,234,74171,1,0,0:0:0:0:
124,212,74309,1,8,0:0:0:0:
247,244,74378,1,0,0:0:0:0:
224,217,74446,1,0,0:0:0:0:
240,246,74584,1,8,0:0:0:0:
255,237,74653,1,0,0:0:0:0:
240,246,74722,1,8,0:0:0:0:
367,162,74790,1,8,0:0:0:0:
206,287,74859,1,0,0:0:0:0:
218,307,74997,1,0,0:0:0:0:
234,312,75066,1,0,0:0:0:0:
241,303,75134,1,0,0:0:0:0:
382,186,75203,1,0,0:0:0:0:
245,312,75272,1,8,0:0:0:0:
258,273,75410,1,8,0:0:0:0:
295,290,75479,1,8,0:0:0:0:
269,275,75547,1,0,0:0:0:0:
271,294,75685,1,8,0:0:0:0:
322,288,75754,1,0,0:0:0:0:
290,281,75823,1,8,0:0:0:0:
201,268,75960,1,0,0:0:0:0:
196,285,76098,1,0,0:0:0:0:
192,244,76167,1,0,0:0:0:0:
307,269,76235,1,8,0:0:0:0:
306,298,76304,1,0,0:0:0:0:
234,248,76373,1,8,0:0:0:0:
338,257,76442,1,8,0:0:0:0:
322,264,76511,1,0,0:0:0:0:
261,296,76648,1,8,0:0:0:0:
349,192,76717,1,0,0:0:0:0:
258,312,76786,1,0,0:0:0:0:
254,311,76855,1,0,0:0:0:0:
235,317,76923,1,8,0:0:0:0:
230,315,76992,1,0,0:0:0:0:
236,321,77061,1,8,0:0:0:0:
274,295,77130,1,8,0:0:0:0:
232,344,77199,1,0,0:0:0:0:
260,256,77474,1,12,0:0:0:0:
210,268,77749,1,8,0:0:0:0:
229,235,78300,1,0,0:0:0:0:
200,245,78850,1,8,0:0:0:0:
202,244,79401,1,0,0:0:0:0:
242,259,79951,1,8,0:0:0:0:
221,259,80501,1,8,0:0:0:0:
325,251,81052,1,8,0:0:0:0:
316,254,81602,1,0,0:0:0:0:
291,270,82153,1,8,0:0:0:0:
267,254,82703,1,0,0:0:0:0:
237,250,83254,1,8,0:0:0:0:
280,273,83804,1,4,0:0:0:0:
396,278,84079,1,8,0:0:0:0:
386,288,84114,1,8,0:0:0:0:
130,207,84355,1,0,0:0:0:0:
185,253,84389,1,0,0:0:0:0:
304,212,84630,1,0,0:0:0:0:
308,200,84722,1,8,0:0:0:0:
306,201,84813,1,8,0:0:0:0:
299,209,84905,1,4,0:0:0:0:
378,166,85180,1,8,0:0:0:0:
369,161,85215,1,8,0:0:0:0:
369,179,85456,1,0,0:0:0:0:
374,169,85490,1,0,0:0:0:0:
316,209,85731,1,8,0:0:0:0:
316,209,85823,1,8,0:0:0:0:
263,177,85914,1,8,0:0:0:0:
251,183,86006,1,4,0:0:0:0:
257,222,86281,1,0,0:0:0:0:
257,222,86316,1,0,0:0:0:0:
252,212,86419,1,8,0:0:0:0:
250,216,86557,1,8,0:0:0:0:
250,216,86591,1,8,0:0:0:0:
250,216,86832,1,0,0:0:0:0:
250,216,86866,1,0,0:0:0:0:
250,216,86969,1,8,0:0:0:0:
321,273,87107,1,4,0:0:0:0:
257,290,87382,1,0,0:0:0:0:
271,290,87417,1,0,0:0:0:0:
268,290,87520,1,8,0:0:0:0:
246,289,87657,1,4,0:0:0:0:
203,266,87933,1,0,0:0:0:0:
227,251,87967,1,0,0:0:0:0:
222,253,88024,1,8,0:0:0:0:
224,253,88116,1,8,0:0:0:0:
224,253,88208,1,4,0:0:0:0:
255,121,88483,1,8,0:0:0:0:
364,178,88518,1,8,0:0:0:0:
389,294,88758,1,0,0:0:0:0:
359,271,88793,1,0,0:0:0:0:
266,211,89034,1,8,0:0:0:0:
261,248,89068,1,8,0:0:0:0:
233,201,89309,1,8,0:0:0:0:
376,162,89401,1,0,0:0:0:0:
376,162,89492,1,0,0:0:0:0:
276,145,89584,1,8,0:0:0:0:
276,145,89630,1,8,0:0:0:0:
351,195,89859,1,0,0:0:0:0:
351,195,89928,1,0,0:0:0:0:
351,195,89997,1,0,0:0:0:0:
351,195,90066,1,0,0:0:0:0:
351,195,90134,1,0,0:0:0:0:
283,182,90203,1,0,0:0:0:0:
287,214,90272,1,0,0:0:0:0:
287,214,90341,1,0,0:0:0:0:
281,212,90410,1,12,0:0:0:0:
256,192,90731,8,4,91373,0:0:0:0:
256,192,91557,8,4,91923,0:0:0:0:
256,192,92107,8,4,92474,0:0:0:0:
256,192,92657,8,4,93024,0:0:0:0:
256,192,93208,8,4,93575,0:0:0:0:
256,192,93758,8,4,94125,0:0:0:0:
256,192,94263,8,4,94538,0:0:0:0:
492,249,94814,6,0,B|709:293|709:293|362:200|362:200|382:63|382:63|200:327|200:327|368:117|368:117|435:31|435:31|98:329|98:329|721:247|560:81|560:81|515:-72|198:69|438:363|438:363|789:266|789:266|150:145|183:321|309:121|309:121|249:301|249:301|367:318|463:321|535:307,1,4480
430,251,98116,1,8,0:0:0:0:
288,270,98185,1,8,0:0:0:0:
224,243,98254,1,4,0:0:0:0:
239,179,98391,1,8,0:0:0:0:
251,208,98460,1,8,0:0:0:0:
287,241,98529,1,8,0:0:0:0:
310,198,98667,1,4,0:0:0:0:
380,202,98850,1,12,0:0:0:0:
380,202,99034,1,12,0:0:0:0:
338,237,99217,1,4,0:0:0:0:
359,234,99630,1,12,0:0:0:0:
266,301,100043,1,0,0:0:0:0:
248,187,100180,1,8,0:0:0:0:
450,152,100318,1,4,0:0:0:0:
350,250,100731,1,12,0:0:0:0:
353,230,101144,1,0,0:0:0:0:
367,223,101281,1,8,0:0:0:0:
363,215,101419,1,4,0:0:0:0:
361,251,101832,1,12,0:0:0:0:
302,244,102107,1,4,0:0:0:0:
292,253,102382,1,8,0:0:0:0:
263,215,102520,1,12,0:0:0:0:
342,244,102864,1,12,0:0:0:0:
309,206,103139,1,4,0:0:0:0:
365,234,103414,1,4,0:0:0:0:
245,142,103622,2,0,B|16:227|16:227|69:311|-52:94|176:232|357:349|357:349|-64:157|-64:157|497:258|497:258|-34:306|-34:306|386:260|386:260|336:141|-13:305|-13:305|433:118|430:67|440:70|448:77|448:77|509:302|509:302|364:187|243:310|418:367|71:251|151:53|151:53|296:80,1,4480
297,282,106373,1,0,0:0:0:0:
280,260,106923,1,12,0:0:0:0:
271,295,107199,1,8,0:0:0:0:
345,225,107336,1,4,0:0:0:0:
302,271,107474,1,8,0:0:0:0:
200,328,107657,1,8,0:0:0:0:
254,271,107841,1,8,0:0:0:0:
290,289,108024,1,4,0:0:0:0:
340,301,108300,1,8,0:0:0:0:
409,145,108437,1,0,0:0:0:0:
382,270,108575,1,8,0:0:0:0:
292,264,108712,1,8,0:0:0:0:
171,216,108850,1,0,0:0:0:0:
240,205,108988,1,8,0:0:0:0:
248,214,109125,1,0,0:0:0:0:
237,226,109263,1,8,0:0:0:0:
265,256,109401,1,8,0:0:0:0:
271,245,109538,1,0,0:0:0:0:
239,268,109813,1,8,0:0:0:0:
252,204,109951,1,0,0:0:0:0:
245,268,110089,1,8,0:0:0:0:
396,232,110226,1,4,0:0:0:0:
331,240,110410,1,0,0:0:0:0:
331,240,110593,1,8,0:0:0:0:
322,248,110777,1,0,0:0:0:0:
331,260,110868,1,8,0:0:0:0:
328,255,110960,1,8,0:0:0:0:
326,248,111144,1,8,0:0:0:0:
376,266,111281,1,8,0:0:0:0:
326,248,111327,1,0,0:0:0:0:
265,234,111465,1,0,0:0:0:0:
337,150,111602,1,8,0:0:0:0:
266,223,111740,1,0,0:0:0:0:
313,161,111809,1,0,0:0:0:0:
334,142,111878,1,8,0:0:0:0:
321,157,112015,1,8,0:0:0:0:
321,157,112153,1,8,0:0:0:0:
213,223,112290,1,8,0:0:0:0:
236,207,112359,1,8,0:0:0:0:
338,232,112428,1,0,0:0:0:0:
237,313,112795,1,0,0:0:0:0:
237,313,112979,1,8,0:0:0:0:
233,182,113346,1,8,0:0:0:0:
223,158,113529,1,8,0:0:0:0:
203,178,113896,1,0,0:0:0:0:
330,187,114079,1,0,0:0:0:0:
182,225,114446,1,8,0:0:0:0:
317,236,114630,1,4,0:0:0:0:
317,251,114768,1,8,0:0:0:0:
338,239,114836,1,8,0:0:0:0:
327,180,114905,1,8,0:0:0:0:
248,210,115043,1,0,0:0:0:0:
266,202,115112,1,8,0:0:0:0:
262,200,115180,1,8,0:0:0:0:
279,204,115249,1,8,0:0:0:0:
276,203,115318,1,8,0:0:0:0:
268,208,115387,1,8,0:0:0:0:
264,215,115456,1,0,0:0:0:0:
263,214,115593,1,8,0:0:0:0:
271,211,115662,1,8,0:0:0:0:
272,210,115731,1,0,0:0:0:0:
271,211,115868,1,0,0:0:0:0:
272,210,115937,1,8,0:0:0:0:
271,211,116006,1,8,0:0:0:0:
271,211,116075,1,0,0:0:0:0:
272,210,116144,1,8,0:0:0:0:
271,211,116212,1,8,0:0:0:0:
273,216,116281,1,0,0:0:0:0:
278,187,116465,1,0,0:0:0:0:
278,187,116648,1,8,0:0:0:0:
278,187,116740,1,8,0:0:0:0:
259,231,116832,1,0,0:0:0:0:
280,177,116923,1,0,0:0:0:0:
280,177,117015,1,8,0:0:0:0:
275,179,117199,1,0,0:0:0:0:
342,253,117933,1,8,0:0:0:0:
270,283,118208,1,0,0:0:0:0:
271,247,118300,1,8,0:0:0:0:
271,247,118483,1,8,0:0:0:0:
271,247,118667,1,8,0:0:0:0:
275,251,118758,1,0,0:0:0:0:
264,248,118850,1,8,0:0:0:0:
250,255,118942,1,8,0:0:0:0:
249,255,119034,1,0,0:0:0:0:
259,253,119125,1,0,0:0:0:0:
268,239,119217,1,8,0:0:0:0:
398,120,119263,1,8,0:0:0:0:
329,224,119309,1,8,0:0:0:0:
256,243,119401,1,0,0:0:0:0:
256,243,119515,1,8,0:0:0:0:
260,247,119905,1,0,0:0:0:0:
261,237,120089,1,8,0:0:0:0:
337,194,120272,1,0,0:0:0:0:
262,237,120410,1,8,0:0:0:0:
346,203,120479,1,0,0:0:0:0:
346,203,120547,1,8,0:0:0:0:
346,203,120616,1,0,0:0:0:0:
353,218,120685,1,8,0:0:0:0:
353,219,120754,1,0,0:0:0:0:
353,219,120823,1,8,0:0:0:0:
353,218,120891,1,8,0:0:0:0:
350,236,120960,1,0,0:0:0:0:
350,236,121029,1,0,0:0:0:0:
350,236,121098,1,0,0:0:0:0:
361,220,121167,1,0,0:0:0:0:
350,236,121235,1,12,0:0:0:0:
308,129,121373,1,0,0:0:0:0:
253,243,121511,1,8,0:0:0:0:
266,204,121648,1,0,0:0:0:0:
307,169,121717,1,0,0:0:0:0:
256,244,121786,1,8,0:0:0:0:
256,244,121923,1,8,0:0:0:0:
310,170,121992,1,8,0:0:0:0:
301,183,122061,1,0,0:0:0:0:
272,188,122130,1,0,0:0:0:0:
253,240,122199,1,8,0:0:0:0:
339,130,122336,1,0,0:0:0:0:
272,124,122405,1,0,0:0:0:0:
256,238,122474,1,8,0:0:0:0:
477,261,122612,1,8,0:0:0:0:
345,155,122749,1,4,0:0:0:0:
245,222,122887,1,8,0:0:0:0:
214,221,122956,1,8,0:0:0:0:
368,230,123024,1,8,0:0:0:0:
300,212,123162,1,0,0:0:0:0:
285,248,123231,1,0,0:0:0:0:
278,232,123300,1,8,0:0:0:0:
285,222,123368,1,8,0:0:0:0:
278,216,123437,1,4,0:0:0:0:
324,212,123621,1,0,0:0:0:0:
333,211,123804,1,8,0:0:0:0:
298,252,123988,1,0,0:0:0:0:
246,107,124079,1,0,0:0:0:0:
334,153,124171,1,8,0:0:0:0:
329,156,124263,1,8,0:0:0:0:
256,176,124355,1,0,0:0:0:0:
334,249,124538,1,8,0:0:0:0:
352,219,124630,1,0,0:0:0:0:
359,229,124722,1,8,0:0:0:0:
457,146,124813,1,0,0:0:0:0:
352,219,124905,1,8,0:0:0:0:
262,168,125089,1,0,0:0:0:0:
273,165,125180,1,0,0:0:0:0:
225,227,125272,1,8,0:0:0:0:
271,293,125456,1,0,0:0:0:0:
286,275,125639,1,8,0:0:0:0:
251,184,125708,1,8,0:0:0:0:
286,175,125777,1,0,0:0:0:0:
250,172,125846,1,0,0:0:0:0:
295,201,125914,1,8,0:0:0:0:
361,197,126052,1,0,0:0:0:0:
312,161,126121,1,0,0:0:0:0:
354,192,126190,1,8,0:0:0:0:
370,205,126327,1,8,0:0:0:0:
240,212,126396,1,0,0:0:0:0:
196,253,126602,1,8,0:0:0:0:
196,253,126740,1,0,0:0:0:0:
248,210,126809,1,0,0:0:0:0:
211,238,126878,1,8,0:0:0:0:
261,185,127015,1,8,0:0:0:0:
325,222,127153,1,4,0:0:0:0:
341,222,127290,1,8,0:0:0:0:
333,217,127359,1,8,0:0:0:0:
208,207,127428,1,8,0:0:0:0:
281,205,127566,1,0,0:0:0:0:
266,211,127634,1,0,0:0:0:0:
253,212,127703,1,8,0:0:0:0:
282,194,127772,1,8,0:0:0:0:
285,196,127841,1,4,0:0:0:0:
301,188,128024,1,0,0:0:0:0:
314,156,128116,1,0,0:0:0:0:
318,256,128208,1,8,0:0:0:0:
412,220,128300,1,8,0:0:0:0:
277,202,128391,1,0,0:0:0:0:
314,251,128575,1,8,0:0:0:0:
453,198,128667,1,8,0:0:0:0:
283,196,128758,1,0,0:0:0:0:
280,187,128942,1,8,0:0:0:0:
405,190,129034,1,0,0:0:0:0:
319,242,129125,1,8,0:0:0:0:
408,206,129217,1,0,0:0:0:0:
319,242,129309,1,8,0:0:0:0:
248,202,129492,1,0,0:0:0:0:
404,233,129584,1,0,0:0:0:0:
323,223,129676,1,8,0:0:0:0:
248,200,129859,1,0,0:0:0:0:
323,223,130043,1,8,0:0:0:0:
355,196,130410,1,0,0:0:0:0:
331,115,130593,1,8,0:0:0:0:
386,261,130777,1,0,0:0:0:0:
349,203,130960,1,8,0:0:0:0:
386,261,131144,1,0,0:0:0:0:
386,261,131511,1,0,0:0:0:0:
390,254,131878,1,0,0:0:0:0:
390,253,132245,1,0,0:0:0:0:
390,253,132612,1,0,0:0:0:0:
390,253,132979,1,0,0:0:0:0:
390,253,133346,1,8,0:0:0:0:
403,232,133621,1,0,0:0:0:0:
286,148,133896,1,0,0:0:0:0:
234,154,133965,1,0,0:0:0:0:
227,152,134034,1,8,0:0:0:0:
234,154,134102,1,8,0:0:0:0:
242,146,134171,1,0,0:0:0:0:
206,144,134240,1,8,0:0:0:0:
205,127,134309,1,8,0:0:0:0:
211,126,134378,1,8,0:0:0:0:
353,235,134446,1,8,0:0:0:0:
353,235,134630,1,0,0:0:0:0:
353,235,134813,1,8,0:0:0:0:
353,235,134997,1,8,0:0:0:0:
353,235,135180,1,0,0:0:0:0:
353,235,135364,1,8,0:0:0:0:
353,235,135547,1,8,0:0:0:0:
411,176,135914,1,8,0:0:0:0:
262,226,136098,1,4,0:0:0:0:
227,256,136373,1,8,0:0:0:0:
305,241,136648,1,0,0:0:0:0:
236,288,136923,1,0,0:0:0:0:
246,127,137061,1,8,0:0:0:0:
229,297,137199,1,0,0:0:0:0:
249,228,137336,1,8,0:0:0:0:
229,296,137474,1,0,0:0:0:0:
241,249,137612,1,8,0:0:0:0:
241,249,137749,1,8,0:0:0:0:
207,266,138024,1,8,0:0:0:0:
253,213,138162,1,0,0:0:0:0:
335,184,138300,1,8,0:0:0:0:
253,215,138437,1,8,0:0:0:0:
212,258,138575,1,0,0:0:0:0:
199,252,138850,1,12,0:0:0:0:
268,281,139125,1,0,0:0:0:0:
262,173,139263,1,8,0:0:0:0:
262,137,139401,1,0,0:0:0:0:
236,145,139538,1,8,0:0:0:0:
368,208,139813,1,0,0:0:0:0:
368,208,139951,1,8,0:0:0:0:
251,243,140089,1,8,0:0:0:0:
251,250,140226,1,0,0:0:0:0:
259,173,140364,1,8,0:0:0:0:
231,256,140501,1,8,0:0:0:0:
257,182,140593,1,8,0:0:0:0:
315,183,140685,1,8,0:0:0:0:
299,237,140777,1,0,0:0:0:0:
375,143,140914,1,0,0:0:0:0:
180,236,141052,1,8,0:0:0:0:
236,162,141144,1,8,0:0:0:0:
226,158,141235,1,8,0:0:0:0:
153,235,141327,1,0,0:0:0:0:
356,140,141465,1,0,0:0:0:0:
225,236,141602,1,8,0:0:0:0:
214,260,141740,1,0,0:0:0:0:
285,225,141878,1,8,0:0:0:0:
221,265,141969,1,0,0:0:0:0:
221,265,142061,1,0,0:0:0:0:
256,237,142153,1,8,0:0:0:0:
247,243,142290,1,8,0:0:0:0:
264,228,142428,1,0,0:0:0:0:
318,303,142703,1,8,0:0:0:0:
252,231,142979,1,8,0:0:0:0:
221,265,143254,1,4,0:0:0:0:
213,303,143529,1,0,0:0:0:0:
217,314,143667,1,8,0:0:0:0:
234,312,143804,1,0,0:0:0:0:
329,284,143942,1,8,0:0:0:0:
225,204,144079,1,0,0:0:0:0:
282,275,144171,1,8,0:0:0:0:
406,153,144263,1,0,0:0:0:0:
433,164,144355,1,8,0:0:0:0:
339,168,144492,1,8,0:0:0:0:
324,185,144630,1,0,0:0:0:0:
386,276,144768,1,0,0:0:0:0:
256,212,144905,1,8,0:0:0:0:
252,216,145180,1,8,0:0:0:0:
247,217,145456,1,8,0:0:0:0:
277,241,145731,1,0,0:0:0:0:
251,221,146006,1,8,0:0:0:0:
253,175,146144,1,0,0:0:0:0:
209,237,146419,1,0,0:0:0:0:
224,243,146557,1,8,0:0:0:0:
355,141,146694,1,8,0:0:0:0:
355,141,146729,1,8,0:0:0:0:
250,281,146832,1,0,0:0:0:0:
262,192,147107,1,8,0:0:0:0:
355,179,147245,1,8,0:0:0:0:
355,141,147279,1,8,0:0:0:0:
268,170,147382,1,0,0:0:0:0:
252,173,147657,1,12,0:0:0:0:
380,248,147841,1,8,0:0:0:0:
310,308,147933,1,0,0:0:0:0:
364,252,148024,1,8,0:0:0:0:
281,167,148116,1,0,0:0:0:0:
364,252,148208,1,8,0:0:0:0:
317,299,148346,1,8,0:0:0:0:
264,212,148483,1,0,0:0:0:0:
264,212,148621,1,0,0:0:0:0:
236,215,148758,1,8,0:0:0:0:
254,199,148896,1,8,0:0:0:0:
251,174,149034,1,0,0:0:0:0:
251,174,149125,1,8,0:0:0:0:
254,174,149309,1,8,0:0:0:0:
251,174,149401,1,0,0:0:0:0:
270,147,149584,1,8,0:0:0:0:
281,167,149859,1,8,0:0:0:0:
277,168,150134,1,0,0:0:0:0:
277,168,150410,1,8,0:0:0:0:
354,308,150685,1,0,0:0:0:0:
277,168,150823,1,8,0:0:0:0:
372,226,150960,1,8,0:0:0:0:
372,226,151098,1,8,0:0:0:0:
271,183,151235,1,0,0:0:0:0:
276,177,151373,1,0,0:0:0:0:
282,168,151511,1,8,0:0:0:0:
284,174,151786,1,8,0:0:0:0:
304,160,152061,1,4,0:0:0:0:
253,224,152199,1,0,0:0:0:0:
68,182,152268,1,0,0:0:0:0:
242,175,152336,1,8,0:0:0:0:
227,185,152405,1,8,0:0:0:0:
216,140,152474,1,0,0:0:0:0:
256,259,152612,1,8,0:0:0:0:
380,248,152749,1,0,0:0:0:0:
263,260,152887,1,0,0:0:0:0:
244,267,153024,1,8,0:0:0:0:
196,280,153162,1,8,0:0:0:0:
315,267,153300,1,8,0:0:0:0:
331,258,153437,1,0,0:0:0:0:
380,151,153575,1,0,0:0:0:0:
316,354,153644,1,0,0:0:0:0:
289,266,153712,1,8,0:0:0:0:
155,249,153781,1,8,0:0:0:0:
152,240,153850,1,0,0:0:0:0:
285,269,153988,1,8,0:0:0:0:
332,135,154125,1,0,0:0:0:0:
308,263,154263,1,8,0:0:0:0:
189,230,154332,1,0,0:0:0:0:
183,231,154401,1,0,0:0:0:0:
305,263,154538,1,8,0:0:0:0:
212,227,154676,1,0,0:0:0:0:
305,263,154813,1,8,0:0:0:0:
188,220,154882,1,8,0:0:0:0:
298,190,154951,1,8,0:0:0:0:
304,261,155089,1,0,0:0:0:0:
224,286,155157,1,0,0:0:0:0:
274,266,155226,1,0,0:0:0:0:
245,289,155364,1,4,0:0:0:0:
221,317,155914,5,12,0:0:0:0:
241,264,156465,5,4,0:0:0:0:
276,283,156740,1,0,0:0:0:0:
273,283,157015,1,8,0:0:0:0:
269,283,157290,1,0,0:0:0:0:
269,283,157428,1,0,0:0:0:0:
269,283,157566,1,8,0:0:0:0:
269,283,157703,1,8,0:0:0:0:
269,283,157841,1,0,0:0:0:0:
191,171,157979,1,8,0:0:0:0:
274,281,158116,1,0,0:0:0:0:
274,283,158391,1,8,0:0:0:0:
275,284,158667,1,0,0:0:0:0:
217,197,158942,1,0,0:0:0:0:
217,285,159079,1,0,0:0:0:0:
218,197,159217,1,8,0:0:0:0:
209,223,159492,1,8,0:0:0:0:
209,223,159630,1,0,0:0:0:0:
256,187,159768,1,8,0:0:0:0:
256,187,159905,1,8,0:0:0:0:
256,187,160043,1,0,0:0:0:0:
239,222,160180,1,0,0:0:0:0:
246,201,160318,1,8,0:0:0:0:
245,212,160593,1,8,0:0:0:0:
269,203,160868,1,4,0:0:0:0:
290,308,161144,1,0,0:0:0:0:
207,254,161419,1,8,0:0:0:0:
215,239,161694,1,8,0:0:0:0:
215,239,161832,1,0,0:0:0:0:
306,167,161969,1,8,0:0:0:0:
306,167,162107,1,8,0:0:0:0:
218,239,162245,1,0,0:0:0:0:
388,288,162382,1,8,0:0:0:0:
277,247,162520,1,8,0:0:0:0:
281,227,162795,1,0,0:0:0:0:
281,227,163070,1,8,0:0:0:0:
307,174,163208,1,0,0:0:0:0:
207,220,163346,1,0,0:0:0:0:
210,225,163621,1,8,0:0:0:0:
284,160,163896,1,0,0:0:0:0:
246,228,164034,1,0,0:0:0:0:
246,233,164171,1,8,0:0:0:0:
232,234,164309,1,8,0:0:0:0:
251,224,164446,1,0,0:0:0:0:
297,216,164722,1,0,0:0:0:0:
294,225,164859,1,8,0:0:0:0:
244,190,164997,1,8,0:0:0:0:
247,188,165272,1,12,0:0:0:0:
244,213,165547,1,0,0:0:0:0:
274,170,165685,1,0,0:0:0:0:
243,213,165823,1,8,0:0:0:0:
226,192,166098,1,0,0:0:0:0:
226,192,166235,1,8,0:0:0:0:
226,192,166373,1,8,0:0:0:0:
224,181,166511,1,8,0:0:0:0:
228,177,166648,1,0,0:0:0:0:
222,176,166786,1,8,0:0:0:0:
220,182,166923,1,0,0:0:0:0:
234,183,167199,1,8,0:0:0:0:
235,172,167474,1,0,0:0:0:0:
235,170,167749,1,0,0:0:0:0:
230,174,168024,1,8,0:0:0:0:
219,167,168300,1,0,0:0:0:0:
229,167,168437,1,0,0:0:0:0:
229,167,168575,1,8,0:0:0:0:
243,181,168712,1,8,0:0:0:0:
233,163,168850,1,0,0:0:0:0:
216,197,168988,1,8,0:0:0:0:
238,147,169125,1,8,0:0:0:0:
224,180,169401,1,8,0:0:0:0:
226,181,169676,1,4,0:0:0:0:
224,176,169951,1,0,0:0:0:0:
231,177,170226,1,8,0:0:0:0:
262,160,170501,1,8,0:0:0:0:
222,185,170639,1,0,0:0:0:0:
314,205,170777,1,8,0:0:0:0:
285,201,170914,1,0,0:0:0:0:
250,179,171052,1,0,0:0:0:0:
255,173,171190,1,8,0:0:0:0:
268,178,171327,1,8,0:0:0:0:
186,189,171465,1,0,0:0:0:0:
263,192,171602,1,8,0:0:0:0:
261,191,171878,1,0,0:0:0:0:
251,195,172015,1,8,0:0:0:0:
246,192,172153,1,8,0:0:0:0:
292,224,172428,1,0,0:0:0:0:
290,174,172703,1,8,0:0:0:0:
282,185,172979,1,0,0:0:0:0:
276,181,173116,1,0,0:0:0:0:
298,200,173254,1,0,0:0:0:0:
292,189,173391,1,8,0:0:0:0:
280,176,173529,1,0,0:0:0:0:
238,170,173804,1,8,0:0:0:0:
241,176,174079,1,4,0:0:0:0:
222,184,174355,1,8,0:0:0:0:
385,135,174492,1,0,0:0:0:0:
276,243,174630,1,0,0:0:0:0:
281,239,174768,1,8,0:0:0:0:
301,221,174905,1,8,0:0:0:0:
268,224,175043,1,0,0:0:0:0:
290,227,175180,1,8,0:0:0:0:
361,129,175318,1,0,0:0:0:0:
262,212,175456,1,0,0:0:0:0:
286,224,175593,1,8,0:0:0:0:
286,224,175731,1,8,0:0:0:0:
256,205,175868,1,0,0:0:0:0:
253,251,176006,1,8,0:0:0:0:
316,226,176281,1,12,0:0:0:0:
313,212,176557,1,0,0:0:0:0:
205,273,176694,1,0,0:0:0:0:
223,258,176832,1,8,0:0:0:0:
231,248,176969,1,0,0:0:0:0:
240,253,177107,1,8,0:0:0:0:
240,253,177245,1,8,0:0:0:0:
230,239,177382,1,0,0:0:0:0:
246,243,177520,1,0,0:0:0:0:
246,243,177657,1,8,0:0:0:0:
246,243,177795,1,0,0:0:0:0:
249,237,177933,1,8,0:0:0:0:
249,237,178070,1,8,0:0:0:0:
236,248,178208,1,0,0:0:0:0:
230,241,178483,1,12,0:0:0:0:
238,218,178758,1,0,0:0:0:0:
385,295,178896,1,0,0:0:0:0:
255,222,179034,1,8,0:0:0:0:
247,211,179171,1,0,0:0:0:0:
218,223,179309,1,8,0:0:0:0:
208,216,179446,1,8,0:0:0:0:
206,225,179584,1,0,0:0:0:0:
226,220,179722,1,0,0:0:0:0:
190,210,179859,1,8,0:0:0:0:
208,223,179997,1,0,0:0:0:0:
216,222,180134,1,8,0:0:0:0:
240,213,180272,1,8,0:0:0:0:
240,213,180410,1,0,0:0:0:0:
226,211,180685,1,8,0:0:0:0:
319,192,180823,1,0,0:0:0:0:
306,239,180960,1,8,0:0:0:0:
221,225,181098,1,0,0:0:0:0:
330,158,181235,1,8,0:0:0:0:
322,161,181373,1,0,0:0:0:0:
227,211,181511,1,8,0:0:0:0:
310,184,181648,1,8,0:0:0:0:
255,216,181786,1,0,0:0:0:0:
251,208,181923,1,0,0:0:0:0:
251,208,182061,1,8,0:0:0:0:
251,208,182199,1,8,0:0:0:0:
258,208,182336,1,0,0:0:0:0:
256,212,182474,1,0,0:0:0:0:
256,212,182612,1,8,0:0:0:0:
331,193,182887,1,12,0:0:0:0:
236,168,183162,1,0,0:0:0:0:
209,236,183300,1,0,0:0:0:0:
209,236,183437,1,8,0:0:0:0:
249,203,183712,1,8,0:0:0:0:
241,203,183850,1,0,0:0:0:0:
241,203,183988,1,8,0:0:0:0:
249,200,184125,1,8,0:0:0:0:
253,230,184263,1,0,0:0:0:0:
253,212,184401,1,8,0:0:0:0:
238,218,184538,1,0,0:0:0:0:
236,219,184813,1,8,0:0:0:0:
233,201,184951,1,8,0:0:0:0:
236,214,185089,1,0,0:0:0:0:
222,187,185364,1,0,0:0:0:0:
221,193,185639,1,8,0:0:0:0:
225,193,185914,1,0,0:0:0:0:
225,193,186052,1,0,0:0:0:0:
231,200,186190,1,8,0:0:0:0:
222,198,186327,1,8,0:0:0:0:
234,197,186465,1,0,0:0:0:0:
233,198,186740,1,8,0:0:0:0:
243,247,186878,1,0,0:0:0:0:
256,245,187015,1,8,0:0:0:0:
251,238,187290,1,0,0:0:0:0:
243,246,187428,1,8,0:0:0:0:
326,254,187703,1,0,0:0:0:0:
289,278,187841,1,0,0:0:0:0:
289,278,187979,1,0,0:0:0:0:
366,210,188116,1,0,0:0:0:0:
267,240,188254,1,8,0:0:0:0:
243,267,188529,1,8,0:0:0:0:
328,168,188667,1,0,0:0:0:0:
303,269,188942,1,8,0:0:0:0:
319,254,189217,1,8,0:0:0:0:
348,277,189492,1,4,0:0:0:0:
322,253,190043,5,12,0:0:0:0:
271,199,190593,5,0,0:0:0:0:
241,236,190731,1,8,0:0:0:0:
254,243,190868,1,0,0:0:0:0:
249,244,191006,1,0,0:0:0:0:
249,244,191144,1,8,0:0:0:0:
283,227,191557,1,8,0:0:0:0:
282,234,191694,1,0,0:0:0:0:
227,247,191763,1,0,0:0:0:0:
237,232,191832,1,8,0:0:0:0:
226,236,191901,1,0,0:0:0:0:
239,242,191969,1,8,0:0:0:0:
236,240,192038,1,8,0:0:0:0:
245,243,192107,1,0,0:0:0:0:
239,242,192176,1,8,0:0:0:0:
253,232,192245,1,0,0:0:0:0:
250,232,192313,1,0,0:0:0:0:
263,234,192382,1,0,0:0:0:0:
261,234,192451,1,0,0:0:0:0:
266,231,192520,1,8,0:0:0:0:
263,234,192589,1,0,0:0:0:0:
261,234,192657,1,8,0:0:0:0:
273,210,192726,1,0,0:0:0:0:
295,224,192795,1,8,0:0:0:0:
293,223,192864,1,8,0:0:0:0:
306,239,192933,1,0,0:0:0:0:
239,246,193001,1,0,0:0:0:0:
262,250,193070,1,8,0:0:0:0:
298,249,193139,1,8,0:0:0:0:
261,248,193208,1,8,0:0:0:0:
258,244,193277,1,8,0:0:0:0:
291,256,193346,1,0,0:0:0:0:
288,248,193414,1,8,0:0:0:0:
282,246,193483,1,8,0:0:0:0:
349,164,193552,1,0,0:0:0:0:
338,180,193621,1,8,0:0:0:0:
293,242,193758,1,8,0:0:0:0:
276,228,193896,1,0,0:0:0:0:
270,224,193965,1,0,0:0:0:0:
271,224,194034,1,0,0:0:0:0:
276,228,194102,1,0,0:0:0:0:
301,230,194171,1,8,0:0:0:0:
243,258,194240,1,8,0:0:0:0:
175,258,194309,1,0,0:0:0:0:
212,244,194378,1,8,0:0:0:0:
212,250,194446,1,0,0:0:0:0:
205,288,194515,1,0,0:0:0:0:
239,292,194584,1,8,0:0:0:0:
239,292,194653,1,0,0:0:0:0:
244,309,194722,1,0,0:0:0:0:
260,317,194790,1,8,0:0:0:0:
233,314,194859,1,0,0:0:0:0:
231,311,194928,1,0,0:0:0:0:
331,167,194997,1,8,0:0:0:0:
271,280,195066,1,8,0:0:0:0:
227,282,195134,1,0,0:0:0:0:
226,280,195203,1,8,0:0:0:0:
247,291,195272,1,0,0:0:0:0:
244,276,195341,1,8,0:0:0:0:
243,277,195410,1,0,0:0:0:0:
242,277,195479,1,0,0:0:0:0:
256,263,195547,1,8,0:0:0:0:
251,263,195616,1,8,0:0:0:0:
251,263,195685,1,8,0:0:0:0:
253,270,195754,1,8,0:0:0:0:
251,263,195823,1,0,0:0:0:0:
265,244,195960,1,8,0:0:0:0:
220,261,196098,1,0,0:0:0:0:
215,258,196167,1,0,0:0:0:0:
189,286,196235,1,8,0:0:0:0:
189,286,196304,1,8,0:0:0:0:
199,280,196373,1,0,0:0:0:0:
199,278,196442,1,8,0:0:0:0:
201,260,196511,1,0,0:0:0:0:
225,270,196579,1,0,0:0:0:0:
220,270,196648,1,8,0:0:0:0:
226,279,196717,1,8,0:0:0:0:
194,304,196786,1,0,0:0:0:0:
182,306,196855,1,0,0:0:0:0:
291,225,196923,1,8,0:0:0:0:
211,308,196992,1,8,0:0:0:0:
283,232,197061,1,8,0:0:0:0:
232,268,197130,1,0,0:0:0:0:
283,278,197199,1,8,0:0:0:0:
241,287,197268,1,0,0:0:0:0:
242,289,197336,1,0,0:0:0:0:
241,287,197405,1,0,0:0:0:0:
251,282,197474,1,8,0:0:0:0:
264,279,197543,1,8,0:0:0:0:
263,279,197612,1,0,0:0:0:0:
263,277,197680,1,0,0:0:0:0:
264,279,197749,1,8,0:0:0:0:
263,279,197818,1,8,0:0:0:0:
258,288,197887,1,0,0:0:0:0:
236,254,197956,1,0,0:0:0:0:
257,221,198024,1,0,0:0:0:0:
273,272,198162,1,8,0:0:0:0:
204,301,198300,1,0,0:0:0:0:
204,301,198368,1,0,0:0:0:0:
231,299,198437,1,8,0:0:0:0:
229,313,198506,1,0,0:0:0:0:
228,312,198575,1,0,0:0:0:0:
246,323,198644,1,8,0:0:0:0:
324,255,198712,1,0,0:0:0:0:
248,293,198781,1,8,0:0:0:0:
248,293,198850,1,8,0:0:0:0:
247,303,198919,1,0,0:0:0:0:
251,304,198988,1,8,0:0:0:0:
253,312,199057,1,8,0:0:0:0:
253,312,199125,1,0,0:0:0:0:
256,305,199194,1,0,0:0:0:0:
266,303,199263,1,8,0:0:0:0:
231,229,199332,1,0,0:0:0:0:
218,268,199401,1,0,0:0:0:0:
204,271,199469,1,8,0:0:0:0:
287,202,199538,1,0,0:0:0:0:
281,202,199607,1,0,0:0:0:0:
243,266,199676,1,8,0:0:0:0:
243,266,199745,1,8,0:0:0:0:
310,144,199813,1,8,0:0:0:0:
435,156,199882,1,8,0:0:0:0:
286,274,199951,1,0,0:0:0:0:
265,269,200020,1,0,0:0:0:0:
233,278,200089,1,8,0:0:0:0:
260,249,200157,1,8,0:0:0:0:
287,219,200226,1,0,0:0:0:0:
269,247,200364,1,8,0:0:0:0:
261,164,200501,1,8,0:0:0:0:
256,165,200547,1,8,0:0:0:0:
258,178,200593,1,8,0:0:0:0:
432,217,200639,1,0,0:0:0:0:
343,225,200708,1,0,0:0:0:0:
231,236,200777,1,8,0:0:0:0:
259,231,200823,1,0,0:0:0:0:
231,236,200868,1,0,0:0:0:0:
231,236,200914,1,8,0:0:0:0:
327,239,200983,1,8,0:0:0:0:
259,231,201052,1,0,0:0:0:0:
248,246,201098,1,0,0:0:0:0:
253,232,201144,1,0,0:0:0:0:
253,232,201190,1,8,0:0:0:0:
311,228,201258,1,0,0:0:0:0:
248,246,201327,1,8,0:0:0:0:
244,240,201373,1,0,0:0:0:0:
248,247,201419,1,0,0:0:0:0:
244,239,201465,1,8,0:0:0:0:
306,234,201534,1,0,0:0:0:0:
250,243,201602,1,8,0:0:0:0:
245,241,201648,1,8,0:0:0:0:
244,239,201694,1,8,0:0:0:0:
250,243,201740,1,0,0:0:0:0:
306,239,201809,1,0,0:0:0:0:
245,241,201878,1,8,0:0:0:0:
249,242,201923,1,0,0:0:0:0:
245,238,201969,1,0,0:0:0:0:
245,241,202015,1,8,0:0:0:0:
313,226,202084,1,8,0:0:0:0:
247,251,202153,1,0,0:0:0:0:
262,242,202199,1,0,0:0:0:0:
246,250,202245,1,0,0:0:0:0:
247,251,202290,1,8,0:0:0:0:
312,222,202359,1,8,0:0:0:0:
312,222,202428,1,0,0:0:0:0:
356,152,202566,1,8,0:0:0:0:
296,222,202703,1,0,0:0:0:0:
286,233,202772,1,0,0:0:0:0:
187,263,202841,1,8,0:0:0:0:
239,257,202910,1,8,0:0:0:0:
187,263,202979,1,0,0:0:0:0:
214,262,203047,1,0,0:0:0:0:
233,248,203116,1,8,0:0:0:0:
231,246,203185,1,0,0:0:0:0:
257,240,203254,1,8,0:0:0:0:
207,253,203323,1,0,0:0:0:0:
207,253,203391,1,8,0:0:0:0:
221,240,203460,1,8,0:0:0:0:
207,253,203529,1,0,0:0:0:0:
211,249,203598,1,0,0:0:0:0:
223,250,203667,1,0,0:0:0:0:
220,259,203735,1,0,0:0:0:0:
217,259,203804,1,8,0:0:0:0:
217,259,203873,1,8,0:0:0:0:
244,260,203942,1,0,0:0:0:0:
241,253,204011,1,0,0:0:0:0:
245,220,204079,1,8,0:0:0:0:
244,260,204148,1,0,0:0:0:0:
232,253,204217,1,8,0:0:0:0:
232,253,204286,1,0,0:0:0:0:
236,255,204355,1,8,0:0:0:0:
232,253,204423,1,8,0:0:0:0:
238,258,204492,1,8,0:0:0:0:
236,255,204561,1,8,0:0:0:0:
233,258,204630,1,0,0:0:0:0:
339,169,204768,1,8,0:0:0:0:
268,226,204905,1,8,0:0:0:0:
246,219,204951,1,8,0:0:0:0:
245,207,204997,1,8,0:0:0:0:
255,208,205043,1,0,0:0:0:0:
306,296,205112,1,0,0:0:0:0:
248,198,205180,1,8,0:0:0:0:
215,114,205226,1,0,0:0:0:0:
187,113,205272,1,0,0:0:0:0:
261,206,205318,1,8,0:0:0:0:
298,292,205387,1,0,0:0:0:0:
271,204,205456,1,8,0:0:0:0:
261,206,205501,1,8,0:0:0:0:
248,192,205547,1,8,0:0:0:0:
240,187,205593,1,8,0:0:0:0:
214,157,205639,1,8,0:0:0:0:
250,122,205685,1,8,0:0:0:0:
234,189,205731,1,0,0:0:0:0:
301,268,205800,1,8,0:0:0:0:
275,125,205868,1,0,0:0:0:0:
275,228,205937,1,0,0:0:0:0:
274,176,206006,1,8,0:0:0:0:
278,183,206052,1,8,0:0:0:0:
274,184,206098,1,8,0:0:0:0:
259,183,206144,1,0,0:0:0:0:
272,230,206212,1,0,0:0:0:0:
259,170,206281,1,8,0:0:0:0:
255,171,206327,1,0,0:0:0:0:
256,145,206373,1,0,0:0:0:0:
241,140,206419,1,8,0:0:0:0:
281,233,206488,1,0,0:0:0:0:
245,145,206557,1,8,0:0:0:0:
245,142,206602,1,0,0:0:0:0:
250,147,206648,1,0,0:0:0:0:
269,152,206694,1,8,0:0:0:0:
272,166,206740,1,8,0:0:0:0:
271,160,206786,1,8,0:0:0:0:
414,272,206832,1,0,0:0:0:0:
278,148,206969,1,8,0:0:0:0:
204,290,207107,1,0,0:0:0:0:
206,282,207153,1,0,0:0:0:0:
206,282,207199,1,0,0:0:0:0:
216,277,207245,1,8,0:0:0:0:
254,108,207313,1,8,0:0:0:0:
218,264,207382,1,0,0:0:0:0:
218,264,207451,1,0,0:0:0:0:
200,292,207520,1,8,0:0:0:0:
218,264,207589,1,0,0:0:0:0:
212,272,207657,1,8,0:0:0:0:
212,285,207703,1,8,0:0:0:0:
212,285,207749,1,8,0:0:0:0:
223,251,207795,1,0,0:0:0:0:
218,264,207864,1,0,0:0:0:0:
222,244,207933,1,8,0:0:0:0:
218,264,208001,1,8,0:0:0:0:
228,253,208070,1,0,0:0:0:0:
218,264,208139,1,8,0:0:0:0:
203,255,208208,1,0,0:0:0:0:
205,256,208254,1,0,0:0:0:0:
212,285,208300,1,0,0:0:0:0:
206,250,208346,1,8,0:0:0:0:
218,264,208414,1,8,0:0:0:0:
186,215,208483,1,0,0:0:0:0:
218,264,208552,1,0,0:0:0:0:
225,243,208621,1,8,0:0:0:0:
218,264,208690,1,0,0:0:0:0:
181,239,208758,1,8,0:0:0:0:
181,239,208804,1,8,0:0:0:0:
212,285,208850,1,8,0:0:0:0:
184,232,208896,1,0,0:0:0:0:
218,264,208965,1,0,0:0:0:0:
184,258,209171,1,8,0:0:0:0:
315,279,209309,1,8,0:0:0:0:
312,160,209378,1,8,0:0:0:0:
340,262,209446,1,0,0:0:0:0:
386,159,209515,1,0,0:0:0:0:
409,132,209584,1,0,0:0:0:0:
373,157,209653,1,0,0:0:0:0:
306,264,209722,1,8,0:0:0:0:
281,194,209790,1,8,0:0:0:0:
322,265,209859,1,0,0:0:0:0:
94,149,209928,1,0,0:0:0:0:
269,218,209997,1,8,0:0:0:0:
192,135,210066,1,0,0:0:0:0:
247,142,210134,1,8,0:0:0:0:
256,136,210203,1,0,0:0:0:0:
300,268,210272,1,8,0:0:0:0:
282,162,210341,1,8,0:0:0:0:
257,229,210410,1,0,0:0:0:0:
257,229,210479,1,0,0:0:0:0:
277,141,210547,1,0,0:0:0:0:
261,126,210616,1,0,0:0:0:0:
299,269,210685,1,8,0:0:0:0:
261,148,210754,1,8,0:0:0:0:
310,203,210823,1,0,0:0:0:0:
255,201,210891,1,0,0:0:0:0:
234,262,210960,1,8,0:0:0:0:
234,262,211029,1,0,0:0:0:0:
234,262,211098,1,8,0:0:0:0:
234,262,211167,1,8,0:0:0:0:
343,308,211235,1,0,0:0:0:0:
152,189,211373,1,8,0:0:0:0:
257,235,211511,1,8,0:0:0:0:
289,227,211579,1,0,0:0:0:0:
441,97,211648,1,0,0:0:0:0:
344,138,211717,1,0,0:0:0:0:
396,130,211786,1,0,0:0:0:0:
366,130,211855,1,0,0:0:0:0:
238,238,211923,1,8,0:0:0:0:
282,235,211992,1,8,0:0:0:0:
338,160,212061,1,0,0:0:0:0:
335,167,212130,1,0,0:0:0:0:
228,211,212199,1,8,0:0:0:0:
222,223,212268,1,0,0:0:0:0:
237,123,212336,1,8,0:0:0:0:
239,132,212405,1,0,0:0:0:0:
225,234,212474,1,8,0:0:0:0:
369,198,212543,1,8,0:0:0:0:
240,140,212612,1,0,0:0:0:0:
255,161,212680,1,0,0:0:0:0:
253,153,212749,1,0,0:0:0:0:
230,195,212818,1,0,0:0:0:0:
231,185,212887,1,8,0:0:0:0:
362,190,212956,1,0,0:0:0:0:
286,150,213024,1,0,0:0:0:0:
312,166,213093,1,0,0:0:0:0:
352,252,213162,1,8,0:0:0:0:
321,152,213231,1,0,0:0:0:0:
329,236,213300,1,8,0:0:0:0:
319,159,213368,1,8,0:0:0:0:
474,173,213437,1,0,0:0:0:0:
276,184,213575,1,8,0:0:0:0:
244,195,213712,1,8,0:0:0:0:
239,164,213781,1,8,0:0:0:0:
236,169,213850,1,0,0:0:0:0:
229,160,213919,1,0,0:0:0:0:
228,151,213988,1,0,0:0:0:0:
232,151,214057,1,0,0:0:0:0:
216,184,214125,1,8,0:0:0:0:
216,184,214194,1,8,0:0:0:0:
213,193,214263,1,0,0:0:0:0:
215,208,214332,1,0,0:0:0:0:
222,196,214401,1,8,0:0:0:0:
226,201,214469,1,0,0:0:0:0:
232,174,214538,1,8,0:0:0:0:
237,163,214607,1,0,0:0:0:0:
176,261,214676,1,8,0:0:0:0:
282,175,214745,1,8,0:0:0:0:
261,193,214813,1,0,0:0:0:0:
261,193,214882,1,0,0:0:0:0:
255,209,214951,1,0,0:0:0:0:
254,205,215020,1,0,0:0:0:0:
172,252,215089,1,8,0:0:0:0:
255,219,215157,1,8,0:0:0:0:
249,219,215226,1,8,0:0:0:0:
246,215,215295,1,8,0:0:0:0:
255,219,215364,1,0,0:0:0:0:
260,220,215433,1,0,0:0:0:0:
254,222,215501,1,8,0:0:0:0:
287,251,215570,1,8,0:0:0:0:
317,280,215639,1,0,0:0:0:0:
295,223,215777,1,8,0:0:0:0:
263,250,215914,1,8,0:0:0:0:
378,145,215983,1,8,0:0:0:0:
226,212,216052,1,0,0:0:0:0:
263,250,216121,1,8,0:0:0:0:
428,207,216190,1,8,0:0:0:0:
226,212,216258,1,0,0:0:0:0:
258,268,216327,1,8,0:0:0:0:
335,205,216396,1,8,0:0:0:0:
243,210,216465,1,0,0:0:0:0:
350,194,216534,1,0,0:0:0:0:
340,176,216602,1,0,0:0:0:0:
326,181,216671,1,0,0:0:0:0:
238,132,216740,1,8,0:0:0:0:
240,142,216809,1,0,0:0:0:0:
278,143,216878,1,8,0:0:0:0:
278,143,216946,1,8,0:0:0:0:
273,155,217015,1,0,0:0:0:0:
273,147,217084,1,0,0:0:0:0:
278,143,217153,1,0,0:0:0:0:
367,121,217222,1,0,0:0:0:0:
224,244,217290,1,8,0:0:0:0:
355,117,217359,1,8,0:0:0:0:
358,134,217428,1,0,0:0:0:0:
355,148,217497,1,8,0:0:0:0:
358,143,217566,1,0,0:0:0:0:
269,184,217634,1,0,0:0:0:0:
339,294,217703,1,8,0:0:0:0:
302,273,217772,1,8,0:0:0:0:
267,249,217841,1,0,0:0:0:0:
421,326,217979,1,8,0:0:0:0:
311,287,218116,1,8,0:0:0:0:
274,235,218162,1,8,0:0:0:0:
397,122,218208,1,8,0:0:0:0:
274,235,218300,1,0,0:0:0:0:
274,235,218391,1,0,0:0:0:0:
274,235,218483,1,8,0:0:0:0:
274,235,218529,1,8,0:0:0:0:
274,235,218575,1,0,0:0:0:0:
274,235,218667,1,0,0:0:0:0:
274,235,218758,1,0,0:0:0:0:
274,235,218850,1,0,0:0:0:0:
274,235,218942,1,0,0:0:0:0:
280,297,219034,1,8,0:0:0:0:
274,235,219079,1,8,0:0:0:0:
274,235,219125,1,0,0:0:0:0:
244,297,219217,1,0,0:0:0:0:
203,291,219309,1,0,0:0:0:0:
203,291,219401,1,0,0:0:0:0:
203,291,219492,1,8,0:0:0:0:
274,235,219538,1,8,0:0:0:0:
203,291,219584,1,8,0:0:0:0:
203,291,219676,1,0,0:0:0:0:
226,282,219768,1,0,0:0:0:0:
225,282,219859,1,0,0:0:0:0:
226,282,219951,1,0,0:0:0:0:
281,286,220043,1,0,0:0:0:0:
271,319,220180,1,8,0:0:0:0:
379,203,220318,1,8,0:0:0:0:
263,115,220364,1,0,0:0:0:0:
266,151,220410,1,0,0:0:0:0:
260,163,220456,1,8,0:0:0:0:
256,162,220524,1,8,0:0:0:0:
229,142,220593,1,0,0:0:0:0:
217,174,220662,1,0,0:0:0:0:
228,234,220731,1,8,0:0:0:0:
251,195,220777,1,8,0:0:0:0:
171,212,220823,1,8,0:0:0:0:
228,211,220868,1,0,0:0:0:0:
171,212,220937,1,0,0:0:0:0:
181,215,221006,1,8,0:0:0:0:
181,215,221075,1,8,0:0:0:0:
181,215,221144,1,0,0:0:0:0:
181,215,221212,1,0,0:0:0:0:
181,215,221281,1,8,0:0:0:0:
181,215,221327,1,0,0:0:0:0:
181,215,221373,1,0,0:0:0:0:
365,206,221419,1,8,0:0:0:0:
284,303,221488,1,8,0:0:0:0:
351,268,221557,1,0,0:0:0:0:
296,253,221625,1,0,0:0:0:0:
358,253,221694,1,8,0:0:0:0:
288,227,221763,1,8,0:0:0:0:
276,227,221832,1,0,0:0:0:0:
375,133,221878,1,0,0:0:0:0:
181,215,221923,1,0,0:0:0:0:
380,129,221969,1,8,0:0:0:0:
372,128,222038,1,8,0:0:0:0:
371,120,222107,1,8,0:0:0:0:
372,117,222176,1,8,0:0:0:0:
337,186,222245,1,0,0:0:0:0:
201,265,222382,1,8,0:0:0:0:
375,261,222520,1,8,0:0:0:0:
314,213,222566,1,0,0:0:0:0:
280,228,222612,1,0,0:0:0:0:
230,234,222657,1,8,0:0:0:0:
216,228,222703,1,0,0:0:0:0:
214,230,222749,1,0,0:0:0:0:
235,238,222795,1,8,0:0:0:0:
435,253,222864,1,0,0:0:0:0:
290,270,222933,1,8,0:0:0:0:
361,168,222979,1,8,0:0:0:0:
282,141,223024,1,8,0:0:0:0:
229,133,223070,1,0,0:0:0:0:
231,113,223116,1,0,0:0:0:0:
226,119,223162,1,0,0:0:0:0:
311,187,223208,1,8,0:0:0:0:
388,235,223277,1,8,0:0:0:0:
229,133,223346,1,0,0:0:0:0:
292,79,223391,1,0,0:0:0:0:
278,82,223437,1,0,0:0:0:0:
298,300,223483,1,8,0:0:0:0:
238,47,223529,1,8,0:0:0:0:
232,48,223575,1,8,0:0:0:0:
309,282,223621,1,0,0:0:0:0:
371,237,223690,1,0,0:0:0:0:
219,254,223758,1,8,0:0:0:0:
213,256,223804,1,0,0:0:0:0:
219,254,223850,1,0,0:0:0:0:
219,254,223896,1,8,0:0:0:0:
252,80,223942,1,8,0:0:0:0:
215,34,223988,1,8,0:0:0:0:
177,39,224034,1,0,0:0:0:0:
373,236,224102,1,0,0:0:0:0:
373,236,224171,1,8,0:0:0:0:
241,75,224217,1,0,0:0:0:0:
191,95,224263,1,0,0:0:0:0:
246,50,224309,1,8,0:0:0:0:
246,50,224355,1,0,0:0:0:0:
246,50,224401,1,0,0:0:0:0:
346,184,224446,1,8,0:0:0:0:
189,232,224584,1,8,0:0:0:0:
490,329,224722,1,0,0:0:0:0:
331,263,224768,1,0,0:0:0:0:
331,263,224813,1,0,0:0:0:0:
258,209,224859,1,8,0:0:0:0:
254,195,224928,1,8,0:0:0:0:
271,263,224997,1,0,0:0:0:0:
271,263,225043,1,8,0:0:0:0:
271,263,225089,1,8,0:0:0:0:
336,171,225134,1,0,0:0:0:0:
244,129,225203,1,0,0:0:0:0:
271,263,225272,1,8,0:0:0:0:
266,258,225318,1,8,0:0:0:0:
266,258,225364,1,8,0:0:0:0:
266,258,225410,1,0,0:0:0:0:
306,302,225479,1,0,0:0:0:0:
266,258,225547,1,8,0:0:0:0:
266,258,225593,1,0,0:0:0:0:
266,258,225639,1,0,0:0:0:0:
266,258,225685,1,8,0:0:0:0:
301,300,225754,1,8,0:0:0:0:
266,258,225823,1,0,0:0:0:0:
266,258,225868,1,0,0:0:0:0:
266,258,225914,1,0,0:0:0:0:
266,258,225960,1,8,0:0:0:0:
299,302,226029,1,8,0:0:0:0:
266,258,226098,1,0,0:0:0:0:
266,258,226144,1,8,0:0:0:0:
266,258,226190,1,8,0:0:0:0:
266,258,226235,1,0,0:0:0:0:
299,302,226304,1,0,0:0:0:0:
266,258,226373,1,8,0:0:0:0:
266,258,226419,1,8,0:0:0:0:
266,258,226465,1,8,0:0:0:0:
266,258,226511,1,0,0:0:0:0:
299,302,226579,1,0,0:0:0:0:
274,244,226786,1,8,0:0:0:0:
274,244,226923,1,4,0:0:0:0:
194,226,227061,1,8,0:0:0:0:
194,226,227130,1,0,0:0:0:0:
220,232,227268,1,8,0:0:0:0:
204,226,227336,1,0,0:0:0:0:
171,230,227474,1,8,0:0:0:0:
171,230,227543,1,0,0:0:0:0:
186,221,227680,1,8,0:0:0:0:
212,202,227749,1,0,0:0:0:0:
186,221,227887,1,8,0:0:0:0:
216,222,228024,1,0,0:0:0:0:
216,222,228093,1,8,0:0:0:0:
221,214,228162,1,8,0:0:0:0:
206,233,228231,1,0,0:0:0:0:
207,226,228300,1,8,0:0:0:0:
236,223,228368,1,8,0:0:0:0:
259,198,228437,1,0,0:0:0:0:
259,198,228506,1,8,0:0:0:0:
236,223,228575,1,8,0:0:0:0:
259,198,228644,1,0,0:0:0:0:
259,198,228712,1,8,0:0:0:0:
236,223,228781,1,8,0:0:0:0:
259,198,228850,1,0,0:0:0:0:
236,223,228988,1,8,0:0:0:0:
250,232,229125,1,8,0:0:0:0:
254,242,229263,1,0,0:0:0:0:
207,247,229332,1,8,0:0:0:0:
204,255,229469,1,0,0:0:0:0:
202,233,229538,1,8,0:0:0:0:
204,255,229676,1,0,0:0:0:0:
190,222,229745,1,8,0:0:0:0:
215,249,229882,1,0,0:0:0:0:
187,216,229951,1,8,0:0:0:0:
165,254,230089,1,0,0:0:0:0:
193,248,230226,1,8,0:0:0:0:
197,253,230295,1,0,0:0:0:0:
197,253,230364,1,0,0:0:0:0:
191,291,230433,1,8,0:0:0:0:
190,285,230501,1,0,0:0:0:0:
193,282,230570,1,0,0:0:0:0:
225,278,230639,1,8,0:0:0:0:
218,278,230708,1,0,0:0:0:0:
217,278,230777,1,0,0:0:0:0:
231,285,230846,1,8,0:0:0:0:
226,284,230914,1,0,0:0:0:0:
225,283,230983,1,0,0:0:0:0:
224,281,231052,1,8,0:0:0:0:
236,194,231190,1,8,0:0:0:0:
279,234,231327,1,0,0:0:0:0:
182,260,231465,1,8,0:0:0:0:
295,232,231534,1,0,0:0:0:0:
251,269,231671,1,8,0:0:0:0:
251,269,231740,1,0,0:0:0:0:
262,265,231878,1,8,0:0:0:0:
241,262,231946,1,0,0:0:0:0:
243,255,232084,1,8,0:0:0:0:
235,252,232153,1,0,0:0:0:0:
258,241,232290,1,8,0:0:0:0:
219,248,232428,1,0,0:0:0:0:
293,236,232497,1,8,0:0:0:0:
297,231,232566,1,8,0:0:0:0:
219,248,232634,1,0,0:0:0:0:
299,230,232703,1,8,0:0:0:0:
301,227,232772,1,8,0:0:0:0:
256,220,232841,1,0,0:0:0:0:
299,230,232910,1,8,0:0:0:0:
302,221,232979,1,8,0:0:0:0:
219,248,233047,1,0,0:0:0:0:
280,201,233116,1,8,0:0:0:0:
302,221,233185,1,8,0:0:0:0:
229,241,233254,1,0,0:0:0:0:
277,322,233391,1,8,0:0:0:0:
306,227,233529,1,8,0:0:0:0:
361,254,233667,1,0,0:0:0:0:
301,121,233735,1,8,0:0:0:0:
186,245,233873,1,0,0:0:0:0:
262,202,233942,1,8,0:0:0:0:
192,255,234079,1,0,0:0:0:0:
188,262,234148,1,8,0:0:0:0:
222,287,234286,1,0,0:0:0:0:
232,310,234355,1,8,0:0:0:0:
222,278,234492,1,0,0:0:0:0:
236,292,234630,1,8,0:0:0:0:
276,259,234699,1,0,0:0:0:0:
275,251,234768,1,0,0:0:0:0:
271,249,234836,1,8,0:0:0:0:
251,236,234905,1,0,0:0:0:0:
344,243,234974,1,0,0:0:0:0:
338,203,235043,1,8,0:0:0:0:
328,217,235112,1,0,0:0:0:0:
326,221,235180,1,0,0:0:0:0:
314,208,235249,1,8,0:0:0:0:
315,213,235318,1,0,0:0:0:0:
315,218,235387,1,0,0:0:0:0:
314,215,235456,1,8,0:0:0:0:
313,210,235593,1,8,0:0:0:0:
276,235,235731,1,0,0:0:0:0:
272,203,235868,1,8,0:0:0:0:
260,205,235937,1,0,0:0:0:0:
259,217,236075,1,8,0:0:0:0:
259,219,236144,1,0,0:0:0:0:
258,227,236281,1,8,0:0:0:0:
256,230,236350,1,0,0:0:0:0:
263,227,236488,1,8,0:0:0:0:
264,226,236557,1,0,0:0:0:0:
264,221,236694,1,8,0:0:0:0:
231,248,236832,1,0,0:0:0:0:
226,252,236901,1,8,0:0:0:0:
223,245,236969,1,8,0:0:0:0:
211,257,237038,1,0,0:0:0:0:
211,281,237107,1,8,0:0:0:0:
206,273,237176,1,8,0:0:0:0:
187,282,237245,1,0,0:0:0:0:
189,273,237313,1,8,0:0:0:0:
185,275,237382,1,8,0:0:0:0:
192,266,237451,1,0,0:0:0:0:
192,261,237520,1,8,0:0:0:0:
193,263,237589,1,8,0:0:0:0:
192,266,237657,1,0,0:0:0:0:
193,257,237795,1,8,0:0:0:0:
216,243,237933,1,8,0:0:0:0:
215,237,238070,1,0,0:0:0:0:
231,237,238139,1,8,0:0:0:0:
236,248,238277,1,0,0:0:0:0:
244,268,238346,1,8,0:0:0:0:
240,253,238483,1,0,0:0:0:0:
242,253,238552,1,8,0:0:0:0:
243,257,238690,1,0,0:0:0:0:
251,261,238758,1,8,0:0:0:0:
247,261,238896,1,0,0:0:0:0:
222,251,239034,1,8,0:0:0:0:
222,251,239102,1,0,0:0:0:0:
222,251,239171,1,0,0:0:0:0:
222,251,239240,1,8,0:0:0:0:
223,255,239309,1,0,0:0:0:0:
226,239,239378,1,0,0:0:0:0:
232,223,239446,1,8,0:0:0:0:
234,235,239515,1,0,0:0:0:0:
226,239,239584,1,0,0:0:0:0:
223,244,239653,1,8,0:0:0:0:
231,249,239722,1,0,0:0:0:0:
229,247,239790,1,0,0:0:0:0:
223,244,239859,1,8,0:0:0:0:
314,208,239997,1,8,0:0:0:0:
272,227,240134,1,0,0:0:0:0:
272,227,240272,1,8,0:0:0:0:
264,199,240341,1,0,0:0:0:0:
215,193,240479,1,8,0:0:0:0:
330,191,240547,1,0,0:0:0:0:
313,203,240685,1,8,0:0:0:0:
301,219,240754,1,0,0:0:0:0:
302,208,240891,1,8,0:0:0:0:
300,207,240960,1,0,0:0:0:0:
296,202,241098,1,8,0:0:0:0:
274,156,241235,1,0,0:0:0:0:
237,139,241304,1,8,0:0:0:0:
237,139,241373,1,8,0:0:0:0:
262,100,241442,1,0,0:0:0:0:
270,132,241511,1,8,0:0:0:0:
262,100,241579,1,8,0:0:0:0:
281,76,241648,1,0,0:0:0:0:
271,140,241717,1,8,0:0:0:0:
191,114,241786,1,8,0:0:0:0:
320,176,241855,1,0,0:0:0:0:
109,197,241923,1,8,0:0:0:0:
110,180,241992,1,8,0:0:0:0:
350,154,242061,1,0,0:0:0:0:
303,162,242199,1,8,0:0:0:0:
250,124,242336,1,8,0:0:0:0:
240,175,242474,1,0,0:0:0:0:
241,153,242543,1,8,0:0:0:0:
163,199,242680,1,0,0:0:0:0:
163,188,242749,1,8,0:0:0:0:
126,151,242887,1,0,0:0:0:0:
133,142,242956,1,8,0:0:0:0:
151,136,243093,1,0,0:0:0:0:
160,135,243162,1,8,0:0:0:0:
155,117,243300,1,0,0:0:0:0:
231,288,243437,1,8,0:0:0:0:
231,288,243506,1,0,0:0:0:0:
231,298,243575,1,0,0:0:0:0:
221,297,243644,1,8,0:0:0:0:
224,299,243712,1,0,0:0:0:0:
223,308,243781,1,0,0:0:0:0:
241,313,243850,1,8,0:0:0:0:
254,310,243919,1,0,0:0:0:0:
291,263,243988,1,8,0:0:0:0:
336,253,244057,1,8,0:0:0:0:
303,229,244125,1,0,0:0:0:0:
303,229,244194,1,0,0:0:0:0:
304,241,244263,1,8,0:0:0:0:
235,324,244332,1,8,0:0:0:0:
303,229,244401,1,0,0:0:0:0:
303,229,244469,1,0,0:0:0:0:
367,259,244538,1,8,0:0:0:0:
365,254,244607,1,8,0:0:0:0:
328,258,244676,1,8,0:0:0:0:
346,258,244745,1,8,0:0:0:0:
414,262,244813,1,0,0:0:0:0:
416,236,244882,1,8,0:0:0:0:
310,271,244951,1,8,0:0:0:0:
262,254,245020,1,0,0:0:0:0:
336,172,245157,1,0,0:0:0:0:
330,196,245295,1,8,0:0:0:0:
330,196,245364,1,8,0:0:0:0:
330,196,245433,1,0,0:0:0:0:
330,196,245501,1,0,0:0:0:0:
330,196,245570,1,0,0:0:0:0:
324,200,245708,1,0,0:0:0:0:
212,282,245846,1,0,0:0:0:0:
318,217,245914,1,0,0:0:0:0:
314,227,245983,1,0,0:0:0:0:
312,223,246052,1,0,0:0:0:0:
312,223,246121,1,0,0:0:0:0:
314,227,246190,1,8,0:0:0:0:
315,216,246258,1,8,0:0:0:0:
315,216,246327,1,0,0:0:0:0:
315,216,246396,1,0,0:0:0:0:
310,217,246465,1,0,0:0:0:0:
362,154,246557,1,8,0:0:0:0:
368,148,246648,1,8,0:0:0:0:
346,148,246740,1,0,0:0:0:0:
317,266,246832,1,0,0:0:0:0:
317,266,246923,1,8,0:0:0:0:
311,266,247015,1,0,0:0:0:0:
311,266,247107,1,8,0:0:0:0:
311,251,247199,1,0,0:0:0:0:
315,258,247290,1,8,0:0:0:0:
313,243,247382,1,8,0:0:0:0:
313,243,247474,1,8,0:0:0:0:
313,243,247566,1,0,0:0:0:0:
313,243,247634,1,0,0:0:0:0:
313,243,247703,1,0,0:0:0:0:
313,243,247772,1,0,0:0:0:0:
303,287,247841,1,8,0:0:0:0:
303,287,247910,1,8,0:0:0:0:
354,189,248047,1,4,0:0:0:0:
339,202,248185,1,4,0:0:0:0:
332,215,248323,1,4,0:0:0:0:
399,165,248460,2,0,B|473:88|473:88|373:79|131:313|131:313|2:45|2:45|6:314|6:314|75:87|75:87|35:335|35:335|-36:164|-36:164|142:354|142:354|7:109|7:109|111:298|111:298|273:79|261:332|261:332|18:137|18:137|246:349|246:349|29:357|-60:81|-60:81|-31:305|-31:305|69:30|36:305|36:305|151:264|319:232|319:232|77:371|115:148|-41:71|-41:71|56:352|56:352|607:76|607:76|181:235|181:235|100:77|100:77|53:241|53:241|93:108|93:108|309:161,1,7140
418,327,253116,1,8,0:0:0:0:
418,327,253208,1,8,0:0:0:0:
418,327,253300,1,0,0:0:0:0:
418,327,253391,1,0,0:0:0:0:
277,202,253483,1,8,0:0:0:0:
356,240,253552,1,8,0:0:0:0:
346,242,253621,1,4,0:0:0:0:
284,227,253758,1,8,0:0:0:0:
262,184,253827,1,8,0:0:0:0:
261,178,253896,1,8,0:0:0:0:
183,216,254033,1,4,0:0:0:0:
188,241,254217,1,4,0:0:0:0:
188,241,254400,1,12,0:0:0:0:
259,202,254584,1,4,0:0:0:0:
260,121,254859,1,0,0:0:0:0:
253,271,254996,1,8,0:0:0:0:
242,106,255272,1,0,0:0:0:0:
218,87,255340,1,0,0:0:0:0:
111,101,255409,1,0,0:0:0:0:
253,300,255547,1,8,0:0:0:0:
253,300,255684,1,0,0:0:0:0:
214,241,255960,1,0,0:0:0:0:
241,296,256097,1,8,0:0:0:0:
252,278,256372,1,0,0:0:0:0:
460,190,256441,1,0,0:0:0:0:
250,259,256510,1,0,0:0:0:0:
260,259,256648,1,8,0:0:0:0:
252,255,256785,1,0,0:0:0:0:
364,270,257061,1,0,0:0:0:0:
271,242,257198,1,8,0:0:0:0:
271,242,257473,1,8,0:0:0:0:
384,133,257542,1,8,0:0:0:0:
456,159,257611,1,0,0:0:0:0:
260,246,257749,1,8,0:0:0:0:
192,184,257886,1,4,0:0:0:0:
211,177,258230,1,12,0:0:0:0:
217,175,258506,1,4,0:0:0:0:
232,161,258781,1,12,0:0:0:0:
233,234,258988,2,4,B|472:233|472:233|274:88|274:88|166:300|166:300|-65:27|-65:27|-34:345|-34:345|-65:32|-65:32|-14:348|-14:348|-52:30|-52:30|0:338|0:338|-38:39|-38:39|31:346|31:346|-4:102|-4:102|140:300|140:300|41:178|41:178|71:280|71:280|289:314|289:314|370:297|370:297|473:100|473:100|482:94,1,4480
284,290,261739,1,0,0:0:0:0:
277,287,262290,1,12,0:0:0:0:
185,206,262428,1,0,0:0:0:0:
164,167,262496,1,0,0:0:0:0:
168,134,262565,1,8,0:0:0:0:
232,182,262703,1,4,0:0:0:0:
346,194,262840,1,8,0:0:0:0:
371,289,262909,1,8,0:0:0:0:
294,240,262978,1,8,0:0:0:0:
360,159,263116,1,8,0:0:0:0:
351,160,263184,1,8,0:0:0:0:
350,163,263253,1,0,0:0:0:0:
329,176,263322,1,0,0:0:0:0:
271,202,263391,1,8,0:0:0:0:
197,217,263528,1,0,0:0:0:0:
278,280,263597,1,0,0:0:0:0:
277,258,263666,1,8,0:0:0:0:
288,106,263804,1,0,0:0:0:0:
330,121,263872,1,0,0:0:0:0:
329,112,263941,1,8,0:0:0:0:
252,228,264010,1,0,0:0:0:0:
238,204,264079,1,8,0:0:0:0:
250,214,264148,1,8,0:0:0:0:
254,195,264217,1,0,0:0:0:0:
251,204,264285,1,0,0:0:0:0:
263,202,264354,1,8,0:0:0:0:
265,232,264423,1,8,0:0:0:0:
310,308,264492,1,0,0:0:0:0:
415,205,264561,1,0,0:0:0:0:
372,262,264629,1,8,0:0:0:0:
192,186,264698,1,0,0:0:0:0:
196,203,264767,1,8,0:0:0:0:
225,223,264905,1,12,0:0:0:0:
269,251,265042,1,0,0:0:0:0:
276,199,265111,1,0,0:0:0:0:
255,272,265180,1,8,0:0:0:0:
280,269,265317,1,0,0:0:0:0:
280,245,265386,1,8,0:0:0:0:
275,260,265455,1,0,0:0:0:0:
279,261,265524,1,0,0:0:0:0:
261,294,265593,1,8,0:0:0:0:
215,173,265684,1,0,0:0:0:0:
205,167,265776,1,0,0:0:0:0:
215,155,265868,1,8,0:0:0:0:
209,156,265960,1,8,0:0:0:0:
301,272,266051,1,0,0:0:0:0:
290,261,266143,1,8,0:0:0:0:
188,206,266235,1,0,0:0:0:0:
180,187,266327,1,0,0:0:0:0:
175,166,266418,1,8,0:0:0:0:
192,180,266510,1,8,0:0:0:0:
173,160,266602,1,8,0:0:0:0:
418,277,266694,1,0,0:0:0:0:
422,273,267244,1,8,0:0:0:0:
289,41,267637,1,8,0:0:0:0:
321,199,267716,1,8,0:0:0:0:
419,276,267795,1,4,0:0:0:0:
177,190,267932,1,8,0:0:0:0:
177,190,268001,1,0,0:0:0:0:
204,212,268070,1,0,0:0:0:0:
199,224,268139,1,8,0:0:0:0:
253,245,268207,1,0,0:0:0:0:
265,314,268276,1,0,0:0:0:0:
265,314,268345,1,8,0:0:0:0:
276,323,268414,1,0,0:0:0:0:
277,321,268483,1,0,0:0:0:0:
272,321,268551,1,8,0:0:0:0:
271,339,268620,1,0,0:0:0:0:
261,327,268689,1,0,0:0:0:0:
275,328,268758,1,8,0:0:0:0:
305,209,268827,1,8,0:0:0:0:
261,327,268895,1,0,0:0:0:0:
231,341,268964,1,0,0:0:0:0:
231,341,269033,1,0,0:0:0:0:
224,241,269102,1,8,0:0:0:0:
235,180,269171,1,8,0:0:0:0:
235,180,269239,1,8,0:0:0:0:
187,244,269308,1,0,0:0:0:0:
187,244,269377,1,0,0:0:0:0:
362,195,269446,1,8,0:0:0:0:
271,257,269538,1,8,0:0:0:0:
271,257,269629,1,8,0:0:0:0:
271,257,269721,1,0,0:0:0:0:
271,257,269790,1,0,0:0:0:0:
286,240,269859,1,0,0:0:0:0:
251,257,269996,1,8,0:0:0:0:
253,226,270065,1,8,0:0:0:0:
227,224,270134,1,0,0:0:0:0:
251,231,270203,1,8,0:0:0:0:
245,232,270272,1,8,0:0:0:0:
245,232,270340,1,0,0:0:0:0:
245,232,270409,1,8,0:0:0:0:
254,230,270478,1,8,0:0:0:0:
252,230,270547,1,0,0:0:0:0:
245,232,270616,1,8,0:0:0:0:
246,232,270684,1,8,0:0:0:0:
246,232,270753,1,0,0:0:0:0:
250,234,270822,1,8,0:0:0:0:
261,204,270891,1,0,0:0:0:0:
257,214,270960,1,8,0:0:0:0:
365,161,271028,1,8,0:0:0:0:
314,129,271097,1,0,0:0:0:0:
257,214,271166,1,0,0:0:0:0:
258,215,271235,1,0,0:0:0:0:
220,243,271304,1,8,0:0:0:0:
361,166,271372,1,8,0:0:0:0:
232,117,271441,1,8,0:0:0:0:
226,113,271510,1,0,0:0:0:0:
325,253,271579,1,0,0:0:0:0:
215,123,271648,1,8,0:0:0:0:
288,264,271694,1,8,0:0:0:0:
214,142,271739,1,8,0:0:0:0:
284,258,271785,1,0,0:0:0:0:
222,182,271854,1,0,0:0:0:0:
398,135,271923,1,8,0:0:0:0:
376,293,271992,1,8,0:0:0:0:
298,191,272061,1,8,0:0:0:0:
369,267,272198,1,0,0:0:0:0:
285,239,272267,1,0,0:0:0:0:
218,226,272336,1,8,0:0:0:0:
264,192,272405,1,0,0:0:0:0:
254,188,272473,1,0,0:0:0:0:
265,210,272542,1,8,0:0:0:0:
251,241,272611,1,0,0:0:0:0:
252,256,272680,1,0,0:0:0:0:
262,244,272749,1,8,0:0:0:0:
276,231,272817,1,0,0:0:0:0:
275,234,272886,1,0,0:0:0:0:
272,224,272955,1,8,0:0:0:0:
276,231,273024,1,0,0:0:0:0:
203,225,273093,1,0,0:0:0:0:
210,204,273161,1,8,0:0:0:0:
300,227,273230,1,8,0:0:0:0:
300,227,273299,1,0,0:0:0:0:
293,229,273368,1,0,0:0:0:0:
293,228,273437,1,0,0:0:0:0:
282,210,273506,1,8,0:0:0:0:
275,237,273574,1,8,0:0:0:0:
271,262,273643,1,8,0:0:0:0:
255,288,273712,1,0,0:0:0:0:
261,284,273781,1,0,0:0:0:0:
325,119,273850,1,8,0:0:0:0:
273,158,273941,1,8,0:0:0:0:
284,176,274033,1,8,0:0:0:0:
263,168,274125,1,0,0:0:0:0:
267,233,274194,1,0,0:0:0:0:
291,227,274262,1,8,0:0:0:0:
345,141,274400,1,8,0:0:0:0:
356,242,274469,1,8,0:0:0:0:
237,176,274538,1,0,0:0:0:0:
216,182,274606,1,8,0:0:0:0:
225,188,274675,1,8,0:0:0:0:
225,189,274744,1,0,0:0:0:0:
247,113,274813,1,8,0:0:0:0:
239,126,274882,1,8,0:0:0:0:
231,134,274950,1,0,0:0:0:0:
258,141,275019,1,8,0:0:0:0:
266,140,275088,1,8,0:0:0:0:
263,138,275157,1,0,0:0:0:0:
259,147,275226,1,8,0:0:0:0:
247,159,275295,1,0,0:0:0:0:
258,167,275363,1,8,0:0:0:0:
261,159,275432,1,8,0:0:0:0:
240,196,275501,1,0,0:0:0:0:
266,180,275570,1,0,0:0:0:0:
227,162,275639,1,0,0:0:0:0:
227,162,275707,1,8,0:0:0:0:
245,212,275776,1,8,0:0:0:0:
247,225,275845,1,8,0:0:0:0:
240,285,275914,1,0,0:0:0:0:
234,278,275983,1,0,0:0:0:0:
316,241,276051,1,8,0:0:0:0:
304,239,276097,1,8,0:0:0:0:
304,238,276143,1,8,0:0:0:0:
306,216,276189,1,0,0:0:0:0:
252,259,276258,1,0,0:0:0:0:
252,259,276327,1,8,0:0:0:0:
243,265,276395,1,8,0:0:0:0:
383,283,276464,1,0,0:0:0:0:
226,249,276602,1,0,0:0:0:0:
200,258,276671,1,0,0:0:0:0:
200,258,276739,1,8,0:0:0:0:
221,245,276808,1,0,0:0:0:0:
231,242,276877,1,0,0:0:0:0:
227,248,276946,1,8,0:0:0:0:
224,255,277015,1,0,0:0:0:0:
223,263,277084,1,0,0:0:0:0:
224,265,277152,1,8,0:0:0:0:
224,265,277221,1,0,0:0:0:0:
223,272,277290,1,0,0:0:0:0:
222,269,277359,1,8,0:0:0:0:
230,270,277428,1,0,0:0:0:0:
230,268,277496,1,0,0:0:0:0:
228,263,277565,1,8,0:0:0:0:
396,221,277634,1,8,0:0:0:0:
225,275,277703,1,0,0:0:0:0:
307,254,277772,1,0,0:0:0:0:
314,249,277840,1,0,0:0:0:0:
286,264,277909,1,8,0:0:0:0:
261,242,277978,1,8,0:0:0:0:
182,212,278047,1,8,0:0:0:0:
182,212,278116,1,0,0:0:0:0:
182,212,278184,1,0,0:0:0:0:
182,212,278253,1,8,0:0:0:0:
344,182,278345,1,8,0:0:0:0:
324,186,278437,1,8,0:0:0:0:
323,186,278528,1,0,0:0:0:0:
242,200,278597,1,8,0:0:0:0:
234,197,278666,1,0,0:0:0:0:
252,288,278804,1,8,0:0:0:0:
239,320,278872,1,8,0:0:0:0:
222,278,278941,1,0,0:0:0:0:
226,272,279010,1,8,0:0:0:0:
125,240,279079,1,8,0:0:0:0:
118,231,279148,1,0,0:0:0:0:
152,216,279217,1,8,0:0:0:0:
327,282,279285,1,8,0:0:0:0:
153,232,279354,1,0,0:0:0:0:
183,234,279423,1,8,0:0:0:0:
240,282,279492,1,8,0:0:0:0:
240,282,279561,1,0,0:0:0:0:
240,282,279629,1,8,0:0:0:0:
240,282,279698,1,0,0:0:0:0:
241,157,279767,1,8,0:0:0:0:
240,163,279836,1,8,0:0:0:0:
278,224,279905,1,0,0:0:0:0:
278,224,279973,1,0,0:0:0:0:
204,191,280042,1,0,0:0:0:0:
217,201,280111,1,8,0:0:0:0:
223,205,280180,1,8,0:0:0:0:
241,225,280249,1,8,0:0:0:0:
250,227,280317,1,0,0:0:0:0:
235,227,280386,1,0,0:0:0:0:
285,256,280455,1,8,0:0:0:0:
276,263,280501,1,8,0:0:0:0:
278,254,280547,1,8,0:0:0:0:
278,241,280593,1,0,0:0:0:0:
296,262,280661,1,0,0:0:0:0:
253,275,280730,1,8,0:0:0:0:
258,198,280799,1,0,0:0:0:0:
252,201,280868,1,8,0:0:0:0:
230,222,281006,1,0,0:0:0:0:
230,222,281074,1,0,0:0:0:0:
185,203,281143,1,8,0:0:0:0:
426,254,281212,1,0,0:0:0:0:
411,280,281281,1,0,0:0:0:0:
405,267,281350,1,8,0:0:0:0:
338,268,281418,1,0,0:0:0:0:
244,184,281487,1,0,0:0:0:0:
331,266,281556,1,8,0:0:0:0:
319,191,281625,1,0,0:0:0:0:
319,191,281694,1,0,0:0:0:0:
331,266,281762,1,8,0:0:0:0:
218,258,281831,1,0,0:0:0:0:
314,288,281900,1,0,0:0:0:0:
227,239,281969,1,8,0:0:0:0:
233,206,282038,1,8,0:0:0:0:
227,209,282106,1,0,0:0:0:0:
241,211,282175,1,0,0:0:0:0:
236,222,282244,1,0,0:0:0:0:
236,222,282313,1,8,0:0:0:0:
234,222,282382,1,8,0:0:0:0:
236,222,282450,1,8,0:0:0:0:
236,222,282519,1,0,0:0:0:0:
234,222,282588,1,0,0:0:0:0:
236,227,282657,1,8,0:0:0:0:
307,188,282749,1,8,0:0:0:0:
307,188,282840,1,8,0:0:0:0:
307,188,282932,1,0,0:0:0:0:
373,242,283001,1,8,0:0:0:0:
289,287,283070,1,0,0:0:0:0:
373,242,283207,1,8,0:0:0:0:
240,294,283276,1,8,0:0:0:0:
240,294,283345,1,8,0:0:0:0:
233,297,283414,1,0,0:0:0:0:
231,296,283483,1,0,0:0:0:0:
231,294,283551,1,0,0:0:0:0:
238,298,283620,1,8,0:0:0:0:
231,296,283689,1,8,0:0:0:0:
231,294,283758,1,8,0:0:0:0:
227,314,283827,1,0,0:0:0:0:
227,314,283895,1,0,0:0:0:0:
227,314,283964,1,0,0:0:0:0:
227,314,284033,1,8,0:0:0:0:
227,314,284102,1,0,0:0:0:0:
227,314,284171,1,8,0:0:0:0:
206,272,284239,1,8,0:0:0:0:
206,272,284308,1,0,0:0:0:0:
206,272,284377,1,0,0:0:0:0:
242,206,284446,1,0,0:0:0:0:
274,242,284515,1,8,0:0:0:0:
260,253,284584,1,8,0:0:0:0:
268,203,284652,1,8,0:0:0:0:
305,199,284721,1,0,0:0:0:0:
267,277,284790,1,0,0:0:0:0:
339,123,284859,1,8,0:0:0:0:
505,212,284905,1,8,0:0:0:0:
347,139,284950,1,8,0:0:0:0:
458,147,284996,1,0,0:0:0:0:
444,159,285065,1,0,0:0:0:0:
304,241,285134,1,8,0:0:0:0:
304,241,285203,1,8,0:0:0:0:
304,241,285272,1,8,0:0:0:0:
321,223,285512,1,0,0:0:0:0:
314,225,285730,1,8,0:0:0:0:
251,171,285960,1,8,0:0:0:0:
222,253,286281,1,0,0:0:0:0:
236,228,286418,1,8,0:0:0:0:
222,253,286556,1,0,0:0:0:0:
241,239,286694,1,8,0:0:0:0:
236,234,286946,1,0,0:0:0:0:
229,236,287428,1,8,0:0:0:0:
229,236,287611,1,4,0:0:0:0:
202,182,287978,1,8,0:0:0:0:
286,126,288070,1,8,0:0:0:0:
318,231,288161,1,8,0:0:0:0:
340,249,288528,1,0,0:0:0:0:
249,244,288712,1,8,0:0:0:0:
350,237,288987,1,8,0:0:0:0:
266,145,289056,1,8,0:0:0:0:
229,103,289125,1,0,0:0:0:0:
359,232,289194,1,0,0:0:0:0:
286,214,289262,1,8,0:0:0:0:
390,192,289331,1,8,0:0:0:0:
367,203,289400,1,8,0:0:0:0:
378,195,289469,1,8,0:0:0:0:
466,214,289538,1,8,0:0:0:0:
198,162,289606,1,0,0:0:0:0:
198,162,289675,1,0,0:0:0:0:
198,162,289744,1,0,0:0:0:0:
333,277,289813,1,8,0:0:0:0:
297,180,289950,1,8,0:0:0:0:
297,180,290019,1,8,0:0:0:0:
286,87,290088,1,0,0:0:0:0:
252,120,290157,1,0,0:0:0:0:
258,117,290226,1,8,0:0:0:0:
267,277,290363,1,0,0:0:0:0:
232,146,290432,1,0,0:0:0:0:
366,206,290501,1,0,0:0:0:0:
266,277,290730,1,8,0:0:0:0:
383,151,290822,1,0,0:0:0:0:
416,236,290914,1,8,0:0:0:0:
211,167,290983,1,8,0:0:0:0:
230,182,291051,1,8,0:0:0:0:
234,165,291120,1,8,0:0:0:0:
231,158,291189,1,0,0:0:0:0:
239,172,291258,1,0,0:0:0:0:
239,172,291327,1,0,0:0:0:0:
239,172,291395,1,0,0:0:0:0:
239,172,291464,1,8,0:0:0:0:
241,174,291739,1,8,0:0:0:0:
237,172,292015,1,4,0:0:0:0:
328,241,292565,1,12,0:0:0:0:
294,127,292932,1,8,0:0:0:0:
294,127,293024,1,8,0:0:0:0:
330,240,293116,1,4,0:0:0:0:
267,178,293666,1,8,0:0:0:0:
207,173,293758,1,0,0:0:0:0:
267,178,293850,1,8,0:0:0:0:
267,178,294033,1,8,0:0:0:0:
325,240,294217,1,4,0:0:0:0:
385,251,294584,1,0,0:0:0:0:
389,245,294675,1,0,0:0:0:0:
321,240,294767,1,12,0:0:0:0:
299,313,295134,1,8,0:0:0:0:
299,313,295226,1,8,0:0:0:0:
336,200,295317,1,4,0:0:0:0:
335,138,295501,1,0,0:0:0:0:
337,127,295593,1,0,0:0:0:0:
313,297,295684,1,0,0:0:0:0:
227,216,295868,1,8,0:0:0:0:
225,191,295960,1,0,0:0:0:0:
221,216,296051,1,8,0:0:0:0:
221,216,296235,1,8,0:0:0:0:
327,199,296418,1,4,0:0:0:0:
313,147,296785,1,8,0:0:0:0:
316,214,296969,1,12,0:0:0:0:
296,167,297336,1,8,0:0:0:0:
309,211,297519,1,4,0:0:0:0:
368,187,297886,1,8,0:0:0:0:
372,127,298070,1,0,0:0:0:0:
250,270,298161,1,8,0:0:0:0:
250,270,298253,1,0,0:0:0:0:
250,270,298437,1,0,0:0:0:0:
323,216,298620,1,4,0:0:0:0:
226,184,298987,1,0,0:0:0:0:
238,166,299079,1,0,0:0:0:0:
314,216,299171,1,12,0:0:0:0:
239,272,299538,1,8,0:0:0:0:
239,272,299629,1,8,0:0:0:0:
329,204,299721,1,4,0:0:0:0:
330,348,299905,1,0,0:0:0:0:
333,338,299996,1,8,0:0:0:0:
226,289,300088,1,0,0:0:0:0:
226,289,300180,1,0,0:0:0:0:
246,271,300272,1,8,0:0:0:0:
232,303,300340,1,8,0:0:0:0:
231,303,300409,1,8,0:0:0:0:
231,303,300547,1,0,0:0:0:0:
231,303,300684,1,0,0:0:0:0:
375,193,300822,1,12,0:0:0:0:
320,216,301372,1,8,0:0:0:0:
220,266,301923,1,4,0:0:0:0:
250,210,302473,1,0,0:0:0:0:
249,218,302749,1,8,0:0:0:0:
249,249,303024,1,4,0:0:0:0:
282,218,303299,1,0,0:0:0:0:
260,243,303574,1,8,0:0:0:0:
276,231,303850,1,8,0:0:0:0:
246,249,304125,1,4,0:0:0:0:
236,152,304492,1,0,0:0:0:0:
227,151,304584,1,0,0:0:0:0:
259,220,304675,1,0,0:0:0:0:
333,203,304950,1,8,0:0:0:0:
244,250,305226,1,12,0:0:0:0:
344,294,305593,1,8,0:0:0:0:
359,260,305684,1,8,0:0:0:0:
235,253,305776,1,4,0:0:0:0:
231,303,306143,1,0,0:0:0:0:
269,243,306327,1,12,0:0:0:0:
341,194,306694,1,8,0:0:0:0:
341,194,306785,1,8,0:0:0:0:
341,194,306877,1,8,0:0:0:0:
282,307,307152,1,0,0:0:0:0:
263,245,307428,1,4,0:0:0:0:
341,194,307978,1,0,0:0:0:0:
341,194,308070,1,8,0:0:0:0:
341,194,308161,1,8,0:0:0:0:
341,194,308253,1,0,0:0:0:0:
237,257,308528,1,4,0:0:0:0:
241,263,309079,1,4,0:0:0:0:
237,257,309629,1,12,0:0:0:0:
242,257,309950,1,4,0:0:0:0:
426,142,310088,1,8,0:0:0:0:
241,257,310249,1,4,0:0:0:0:
241,257,310547,1,12,0:0:0:0:
336,206,310730,1,0,0:0:0:0:
281,216,311212,1,8,0:0:0:0:
281,216,311281,1,8,0:0:0:0:
281,216,311350,1,0,0:0:0:0:
